  0
SECTION
  2
HEADER
  9
$ACADVER
  1
AC1015
  9
$ACADMAINTVER
 70
     6
  9
$DWGCODEPAGE
  3
ANSI_1252
  9
$INSBASE
 10
0.0
 20
0.0
 30
0.0
  9
$EXTMIN
 10
0.0
 20
0.0
 30
0.0
  9
$EXTMAX
 10
297.0
 20
210.0
 30
0.0
  9
$LIMMIN
 10
0.0
 20
0.0
  9
$LIMMAX
 10
297.0
 20
210.0
  9
$ORTHOMODE
 70
     0
  9
$REGENMODE
 70
     1
  9
$FILLMODE
 70
     1
  9
$QTEXTMODE
 70
     0
  9
$MIRRTEXT
 70
     1
  9
$LTSCALE
 40
1.0
  9
$ATTMODE
 70
     1
  9
$TEXTSIZE
 40
2.0
  9
$TRACEWID
 40
1.0
  9
$TEXTSTYLE
  7
Standard
  9
$CLAYER
  8
0
  9
$CELTYPE
  6
ByLayer
  9
$CECOLOR
 62
   256
  9
$CELTSCALE
 40
1.0
  9
$DISPSILH
 70
     0
  9
$DIMSCALE
 40
1.0
  9
$DIMASZ
 40
3.0
  9
$DIMEXO
 40
0.0
  9
$DIMDLI
 40
3.75
  9
$DIMRND
 40
0.0
  9
$DIMDLE
 40
0.0
  9
$DIMEXE
 40
1.0
  9
$DIMTP
 40
0.0
  9
$DIMTM
 40
0.0
  9
$DIMTXT
 40
2.0
  9
$DIMCEN
 40
2.5
  9
$DIMTSZ
 40
0.0
  9
$DIMTOL
 70
     0
  9
$DIMLIM
 70
     0
  9
$DIMTIH
 70
     1
  9
$DIMTOH
 70
     1
  9
$DIMSE1
 70
     0
  9
$DIMSE2
 70
     0
  9
$DIMTAD
 70
     1
  9
$DIMZIN
 70
     0
  9
$DIMBLK
  1

  9
$DIMASO
 70
     1
  9
$DIMSHO
 70
     1
  9
$DIMPOST
  1

  9
$DIMAPOST
  1

  9
$DIMALT
 70
     0
  9
$DIMALTD
 70
     3
  9
$DIMALTF
 40
0.0393700787
  9
$DIMLFAC
 40
1.0
  9
$DIMTOFL
 70
     1
  9
$DIMTVP
 40
0.0
  9
$DIMTIX
 70
     0
  9
$DIMSOXD
 70
     0
  9
$DIMSAH
 70
     0
  9
$DIMBLK1
  1

  9
$DIMBLK2
  1

  9
$DIMSTYLE
  2
ISO-25
  9
$DIMCLRD
 70
     0
  9
$DIMCLRE
 70
     0
  9
$DIMCLRT
 70
     0
  9
$DIMTFAC
 40
1.0
  9
$DIMGAP
 40
1.524
  9
$DIMJUST
 70
     0
  9
$DIMSD1
 70
     0
  9
$DIMSD2
 70
     0
  9
$DIMTOLJ
 70
     0
  9
$DIMTZIN
 70
     0
  9
$DIMALTZ
 70
     0
  9
$DIMALTTZ
 70
     0
  9
$DIMUPT
 70
     0
  9
$DIMDEC
 70
     2
  9
$DIMTDEC
 70
     3
  9
$DIMALTU
 70
     2
  9
$DIMALTTD
 70
     3
  9
$DIMTXSTY
  7
Standard
  9
$DIMAUNIT
 70
     0
  9
$DIMADEC
 70
     2
  9
$DIMALTRND
 40
0.0
  9
$DIMAZIN
 70
     0
  9
$DIMDSEP
 70
    44
  9
$DIMATFIT
 70
     3
  9
$DIMFRAC
 70
     0
  9
$DIMLDRBLK
  1

  9
$DIMLUNIT
 70
     2
  9
$DIMLWD
 70
    -2
  9
$DIMLWE
 70
    -2
  9
$DIMTMOVE
 70
     0
  9
$LUNITS
 70
     2
  9
$LUPREC
 70
     2
  9
$SKETCHINC
 40
1.0
  9
$FILLETRAD
 40
10.0
  9
$AUNITS
 70
     0
  9
$AUPREC
 70
     2
  9
$MENU
  1
.
  9
$ELEVATION
 40
0.0
  9
$PELEVATION
 40
0.0
  9
$THICKNESS
 40
0.0
  9
$LIMCHECK
 70
     0
  9
$CHAMFERA
 40
0.0
  9
$CHAMFERB
 40
0.0
  9
$CHAMFERC
 40
0.0
  9
$CHAMFERD
 40
0.0
  9
$SKPOLY
 70
     0
  9
$TDCREATE
 40
2457668.436650023
  9
$TDUCREATE
 40
2457668.35331669
  9
$TDUPDATE
 40
2457668.436651505
  9
$TDUUPDATE
 40
2457668.353318171
  9
$TDINDWG
 40
0.0000000116
  9
$TDUSRTIMER
 40
0.0000000116
  9
$USRTIMER
 70
     1
  9
$ANGBASE
 50
0.0
  9
$ANGDIR
 70
     0
  9
$PDMODE
 70
     0
  9
$PDSIZE
 40
-1.0
  9
$PLINEWID
 40
0.0
  9
$SPLFRAME
 70
     0
  9
$SPLINETYPE
 70
     6
  9
$SPLINESEGS
 70
     8
  9
$HANDSEED
  5
2C8
  9
$SURFTAB1
 70
     6
  9
$SURFTAB2
 70
     6
  9
$SURFTYPE
 70
     6
  9
$SURFU
 70
     6
  9
$SURFV
 70
     6
  9
$UCSBASE
  2

  9
$UCSNAME
  2

  9
$UCSORG
 10
0.0
 20
0.0
 30
0.0
  9
$UCSXDIR
 10
1.0
 20
0.0
 30
0.0
  9
$UCSYDIR
 10
0.0
 20
1.0
 30
0.0
  9
$UCSORTHOREF
  2

  9
$UCSORTHOVIEW
 70
     0
  9
$UCSORGTOP
 10
0.0
 20
0.0
 30
0.0
  9
$UCSORGBOTTOM
 10
0.0
 20
0.0
 30
0.0
  9
$UCSORGLEFT
 10
0.0
 20
0.0
 30
0.0
  9
$UCSORGRIGHT
 10
0.0
 20
0.0
 30
0.0
  9
$UCSORGFRONT
 10
0.0
 20
0.0
 30
0.0
  9
$UCSORGBACK
 10
0.0
 20
0.0
 30
0.0
  9
$PUCSBASE
  2

  9
$PUCSNAME
  2

  9
$PUCSORG
 10
0.0
 20
0.0
 30
0.0
  9
$PUCSXDIR
 10
1.0
 20
0.0
 30
0.0
  9
$PUCSYDIR
 10
0.0
 20
1.0
 30
0.0
  9
$PUCSORTHOREF
  2

  9
$PUCSORTHOVIEW
 70
     0
  9
$PUCSORGTOP
 10
0.0
 20
0.0
 30
0.0
  9
$PUCSORGBOTTOM
 10
0.0
 20
0.0
 30
0.0
  9
$PUCSORGLEFT
 10
0.0
 20
0.0
 30
0.0
  9
$PUCSORGRIGHT
 10
0.0
 20
0.0
 30
0.0
  9
$PUCSORGFRONT
 10
0.0
 20
0.0
 30
0.0
  9
$PUCSORGBACK
 10
0.0
 20
0.0
 30
0.0
  9
$USERI1
 70
     0
  9
$USERI2
 70
     0
  9
$USERI3
 70
     0
  9
$USERI4
 70
     0
  9
$USERI5
 70
     0
  9
$USERR1
 40
0.0
  9
$USERR2
 40
0.0
  9
$USERR3
 40
0.0
  9
$USERR4
 40
0.0
  9
$USERR5
 40
0.0
  9
$WORLDVIEW
 70
     1
  9
$SHADEDGE
 70
     3
  9
$SHADEDIF
 70
    70
  9
$TILEMODE
 70
     1
  9
$MAXACTVP
 70
    64
  9
$PINSBASE
 10
0.0
 20
0.0
 30
0.0
  9
$PLIMCHECK
 70
     0
  9
$PEXTMIN
 10
1.0000000000E+20
 20
1.0000000000E+20
 30
1.0000000000E+20
  9
$PEXTMAX
 10
-1.0000000000E+20
 20
-1.0000000000E+20
 30
-1.0000000000E+20
  9
$PLIMMIN
 10
0.0
 20
0.0
  9
$PLIMMAX
 10
420.0
 20
297.0
  9
$UNITMODE
 70
     0
  9
$VISRETAIN
 70
     1
  9
$PLINEGEN
 70
     0
  9
$PSLTSCALE
 70
     1
  9
$TREEDEPTH
 70
  3020
  9
$CMLSTYLE
  2
Standard
  9
$CMLJUST
 70
     0
  9
$CMLSCALE
 40
20.0
  9
$PROXYGRAPHICS
 70
     1
  9
$MEASUREMENT
 70
     1
  9
$CELWEIGHT
370
    -1
  9
$ENDCAPS
280
     0
  9
$JOINSTYLE
280
     0
  9
$LWDISPLAY
290
     1
  9
$INSUNITS
 70
     4
  9
$HYPERLINKBASE
  1

  9
$STYLESHEET
  1

  9
$XEDIT
290
     1
  9
$CEPSNTYPE
380
     0
  9
$PSTYLEMODE
290
     1
  9
$FINGERPRINTGUID
  2
{783C60C1-1DA9-4451-A408-365A49C792DE}
  9
$VERSIONGUID
  2
{FAEB1C32-E019-11D5-929B-00C0DF256EC4}
  9
$EXTNAMES
290
     1
  9
$PSVPSCALE
 40
0.0
  9
$OLESTARTUP
290
     0
  0
ENDSEC
  0
SECTION
  2
CLASSES
  0
CLASS
  1
ACDBDICTIONARYWDFLT
  2
AcDbDictionaryWithDefault
  3
ObjectDBX Classes
 90
        0
280
     0
281
     0
  0
CLASS
  1
VISUALSTYLE
  2
AcDbVisualStyle
  3
ObjectDBX Classes
 90
     4095
280
     0
281
     0
  0
CLASS
  1
MATERIAL
  2
AcDbMaterial
  3
ObjectDBX Classes
 90
     1153
280
     0
281
     0
  0
CLASS
  1
SCALE
  2
AcDbScale
  3
ObjectDBX Classes
 90
     1153
280
     0
281
     0
  0
CLASS
  1
TABLESTYLE
  2
AcDbTableStyle
  3
ObjectDBX Classes
 90
     4095
280
     0
281
     0
  0
CLASS
  1
MLEADERSTYLE
  2
AcDbMLeaderStyle
  3
ACDB_MLEADERSTYLE_CLASS
 90
     4095
280
     0
281
     0
  0
CLASS
  1
SUN
  2
AcDbSun
  3
SCENEOE
 90
     1153
280
     0
281
     0
  0
CLASS
  1
ACDBPLACEHOLDER
  2
AcDbPlaceHolder
  3
ObjectDBX Classes
 90
        0
280
     0
281
     0
  0
CLASS
  1
LAYOUT
  2
AcDbLayout
  3
ObjectDBX Classes
 90
        0
280
     0
281
     0
  0
ENDSEC
  0
SECTION
  2
TABLES
  0
TABLE
  2
VPORT
  5
8
330
0
100
AcDbSymbolTable
 70
     1
  0
VPORT
  5
29
330
8
100
AcDbSymbolTableRecord
100
AcDbViewportTableRecord
  2
*Active
 70
     0
 10
0.0
 20
0.0
 11
1.0
 21
1.0
 12
148.5
 22
105.0
 13
0.0
 23
0.0
 14
10.0
 24
10.0
 15
10.0
 25
10.0
 16
0.0
 26
0.0
 36
1.0
 17
0.0
 27
0.0
 37
0.0
 40
210.0
 41
1.4142857143
 42
50.0
 43
0.0
 44
0.0
 50
0.0
 51
0.0
 71
     0
 72
  2000
 73
     1
 74
     3
 75
     0
 76
     0
 77
     0
 78
     0
281
     0
 65
     1
110
0.0
120
0.0
130
0.0
111
1.0
121
0.0
131
0.0
112
0.0
122
1.0
132
0.0
 79
     0
146
0.0
  0
ENDTAB
  0
TABLE
  2
LTYPE
  5
5
330
0
100
AcDbSymbolTable
 70
     6
  0
LTYPE
  5
14
330
5
100
AcDbSymbolTableRecord
100
AcDbLinetypeTableRecord
  2
ByBlock
 70
     0
  3

 72
    65
 73
     0
 40
0.0
  0
LTYPE
  5
15
330
5
100
AcDbSymbolTableRecord
100
AcDbLinetypeTableRecord
  2
ByLayer
 70
     0
  3

 72
    65
 73
     0
 40
0.0
  0
LTYPE
  5
16
330
5
100
AcDbSymbolTableRecord
100
AcDbLinetypeTableRecord
  2
Continuous
 70
     0
  3
Solid line
 72
    65
 73
     0
 40
0.0
  0
LTYPE
  5
6E
330
5
100
AcDbSymbolTableRecord
100
AcDbLinetypeTableRecord
  2
HIDDEN
 70
     0
  3
Hidden __ __ __ __ __ __ __ __ __ __ __ __ __ __
 72
    65
 73
     2
 40
1.905
 49
1.27
 74
     0
 49
-0.635
 74
     0
  0
LTYPE
  5
6F
330
5
100
AcDbSymbolTableRecord
100
AcDbLinetypeTableRecord
  2
PHANTOM
 70
     0
  3
Phantom ______  __  __  ______  __  __  ______
 72
    65
 73
     6
 40
12.7
 49
6.35
 74
     0
 49
-1.27
 74
     0
 49
1.27
 74
     0
 49
-1.27
 74
     0
 49
1.27
 74
     0
 49
-1.27
 74
     0
  0
LTYPE
  5
70
330
5
100
AcDbSymbolTableRecord
100
AcDbLinetypeTableRecord
  2
CENTER
 70
     0
  3
Center ____ _ ____ _ ____ _ ____ _ ____ _ ____
 72
    65
 73
     4
 40
10.16
 49
6.35
 74
     0
 49
-1.27
 74
     0
 49
1.27
 74
     0
 49
-1.27
 74
     0
  0
LTYPE
  5
71
330
5
100
AcDbSymbolTableRecord
100
AcDbLinetypeTableRecord
  2
CENTERX2
 70
     0
  3
Center (2x) ________  __  ________  __  _____
 72
    65
 73
     4
 40
20.32
 49
12.7
 74
     0
 49
-2.54
 74
     0
 49
2.54
 74
     0
 49
-2.54
 74
     0
  0
LTYPE
  5
72
330
5
100
AcDbSymbolTableRecord
100
AcDbLinetypeTableRecord
  2
DOT2
 70
     0
  3
Dot (.5x) ........................................
 72
    65
 73
     2
 40
0.635
 49
0.0
 74
     0
 49
-0.635
 74
     0
  0
ENDTAB
  0
TABLE
  2
LAYER
  5
2
330
0
100
AcDbSymbolTable
 70
     5
  0
LAYER
  5
10
330
2
100
AcDbSymbolTableRecord
100
AcDbLayerTableRecord
  2
0
 70
     0
 62
     7
  6
Continuous
370
    -3
390
F
  0
LAYER
  5
73
330
2
100
AcDbSymbolTableRecord
100
AcDbLayerTableRecord
  2
FORMAT
 70
     0
 62
     7
  6
Continuous
370
    -3
390
F
  0
LAYER
  5
74
330
2
100
AcDbSymbolTableRecord
100
AcDbLayerTableRecord
  2
VERMASSUNG
 70
     0
 62
     7
  6
Continuous
370
    -3
390
F
  0
LAYER
  5
75
330
2
100
AcDbSymbolTableRecord
100
AcDbLayerTableRecord
  2
KOPF_DÜNN
 70
     0
 62
     7
  6
Continuous
370
    -3
390
F
  0
LAYER
  5
76
330
2
100
AcDbSymbolTableRecord
100
AcDbLayerTableRecord
  2
KOPF_DICK
 70
     0
 62
     7
  6
Continuous
370
    15
390
F
  0
ENDTAB
  0
TABLE
  2
STYLE
  5
3
330
0
100
AcDbSymbolTable
 70
     2
  0
STYLE
  5
11
330
3
100
AcDbSymbolTableRecord
100
AcDbTextStyleTableRecord
  2
Standard
 70
     0
 40
0.0
 41
1.0
 50
0.0
 71
     0
 42
2.0
  3
txt
  4

  0
STYLE
  5
77
330
3
100
AcDbSymbolTableRecord
100
AcDbTextStyleTableRecord
  2
SLDTEXTSTYLE0
 70
     0
 40
0.0
 41
0.7
 50
0.0
 71
     0
 42
2.0
  3
TXT
  4

  0
ENDTAB
  0
TABLE
  2
VIEW
  5
6
330
0
100
AcDbSymbolTable
 70
     0
  0
ENDTAB
  0
TABLE
  2
UCS
  5
7
330
0
100
AcDbSymbolTable
 70
     0
  0
ENDTAB
  0
TABLE
  2
APPID
  5
9
330
0
100
AcDbSymbolTable
 70
     1
  0
APPID
  5
12
330
9
100
AcDbSymbolTableRecord
100
AcDbRegAppTableRecord
  2
ACAD
 70
     0
  0
ENDTAB
  0
TABLE
  2
DIMSTYLE
  5
A
330
0
100
AcDbSymbolTable
 70
     2
100
AcDbDimStyleTable
  0
DIMSTYLE
105
27
330
A
100
AcDbSymbolTableRecord
100
AcDbDimStyleTableRecord
  2
ISO-25
 70
     0
 41
2.5
 42
0.625
 43
3.75
 44
1.25
 73
     0
 74
     0
 77
     1
 78
     8
140
2.5
141
2.5
143
0.0393700787
147
0.625
171
     3
172
     1
178
     0
271
     2
272
     2
274
     3
278
    44
283
     0
284
     8
340
11
  0
DIMSTYLE
105
1CB
102
{ACAD_REACTORS
330
1CA
330
1D7
330
1E2
330
1EE
330
1F8
330
204
102
}
330
A
100
AcDbSymbolTableRecord
100
AcDbDimStyleTableRecord
  2
SLDDIMSTYLE0
 70
     0
 41
3.0
 44
0.0
 45
0.000000001
 73
     0
 74
     0
 77
     1
 78
    12
 79
     3
140
2.0
147
0.5
173
     1
178
     0
271
     2
272
     3
276
     2
284
    12
340
77
  0
ENDTAB
  0
TABLE
  2
BLOCK_RECORD
  5
1
330
0
100
AcDbSymbolTable
 70
     7
  0
BLOCK_RECORD
  5
1F
330
1
100
AcDbSymbolTableRecord
100
AcDbBlockTableRecord
  2
*Model_Space
340
22
  0
BLOCK_RECORD
  5
1B
330
1
100
AcDbSymbolTableRecord
100
AcDbBlockTableRecord
  2
*Paper_Space
340
1E
  0
BLOCK_RECORD
  5
23
330
1
100
AcDbSymbolTableRecord
100
AcDbBlockTableRecord
  2
*Paper_Space0
340
26
  0
BLOCK_RECORD
  5
1CC
330
1
100
AcDbSymbolTableRecord
100
AcDbBlockTableRecord
  2
_D
340
0
  0
BLOCK_RECORD
  5
1D8
330
1
100
AcDbSymbolTableRecord
100
AcDbBlockTableRecord
  2
_D_1
340
0
  0
BLOCK_RECORD
  5
1E3
330
1
100
AcDbSymbolTableRecord
100
AcDbBlockTableRecord
  2
_D_2
340
0
  0
BLOCK_RECORD
  5
1EF
330
1
100
AcDbSymbolTableRecord
100
AcDbBlockTableRecord
  2
_D_3
340
0
  0
BLOCK_RECORD
  5
1F9
330
1
100
AcDbSymbolTableRecord
100
AcDbBlockTableRecord
  2
_D_4
340
0
  0
BLOCK_RECORD
  5
205
330
1
100
AcDbSymbolTableRecord
100
AcDbBlockTableRecord
  2
_D_5
340
0
  0
ENDTAB
  0
ENDSEC
  0
SECTION
  2
BLOCKS
  0
BLOCK
  5
20
330
1F
100
AcDbEntity
  8
0
100
AcDbBlockBegin
  2
*Model_Space
 70
     0
 10
0.0
 20
0.0
 30
0.0
  3
*Model_Space
  1

  0
ENDBLK
  5
21
330
1F
100
AcDbEntity
  8
0
100
AcDbBlockEnd
  0
BLOCK
  5
1C
330
1B
100
AcDbEntity
 67
     1
  8
0
100
AcDbBlockBegin
  2
*Paper_Space
 70
     0
 10
0.0
 20
0.0
 30
0.0
  3
*Paper_Space
  1

  0
ENDBLK
  5
1D
330
1B
100
AcDbEntity
 67
     1
  8
0
100
AcDbBlockEnd
  0
BLOCK
  5
24
330
23
100
AcDbEntity
  8
0
100
AcDbBlockBegin
  2
*Paper_Space0
 70
     0
 10
0.0
 20
0.0
 30
0.0
  3
*Paper_Space0
  1

  0
ENDBLK
  5
25
330
23
100
AcDbEntity
  8
0
100
AcDbBlockEnd
  0
BLOCK
  5
1CD
330
1CC
100
AcDbEntity
  8
0
100
AcDbBlockBegin
  2
_D
 70
     0
 10
0.0
 20
0.0
 30
0.0
  3
_D
  1

  0
SOLID
  5
1CF
330
1CC
100
AcDbEntity
  8
VERMASSUNG
100
AcDbTrace
 10
56.2080189208
 20
56.8810936504
 30
0.0
 11
56.6580189208
 21
59.8810936504
 31
0.0
 12
55.7580189208
 22
59.8810936504
 32
0.0
 13
55.7580189208
 23
59.8810936504
 33
0.0
  0
SOLID
  5
1D0
330
1CC
100
AcDbEntity
  8
VERMASSUNG
100
AcDbTrace
 10
56.2080189208
 20
154.3310936504
 30
0.0
 11
55.7580189208
 21
151.3310936504
 31
0.0
 12
56.6580189208
 22
151.3310936504
 32
0.0
 13
56.6580189208
 23
151.3310936504
 33
0.0
  0
LINE
  5
1D1
330
1CC
100
AcDbEntity
  8
VERMASSUNG
100
AcDbLine
 10
182.8907006886
 20
56.8810936504
 30
0.0
 11
55.2080189208
 21
56.8810936504
 31
0.0
  0
LINE
  5
1D2
330
1CC
100
AcDbEntity
  8
VERMASSUNG
100
AcDbLine
 10
182.8907006886
 20
154.3310936504
 30
0.0
 11
55.2080189208
 21
154.3310936504
 31
0.0
  0
LINE
  5
1D3
330
1CC
100
AcDbEntity
  8
VERMASSUNG
100
AcDbLine
 10
56.2080189208
 20
56.8810936504
 30
0.0
 11
56.2080189208
 21
154.3310936504
 31
0.0
  0
MTEXT
  5
1D4
330
1CC
100
AcDbEntity
  8
VERMASSUNG
100
AcDbMText
 10
53.4298836646
 20
96.101658017
 30
0.0
 40
2.0
 41
0.0
 71
     1
 72
     1
  1
ISO 50
  7
SLDTEXTSTYLE0
 11
3.391901413832837E-15
 21
1.0
 31
0.0
 73
     1
 44
1.0
  0
MTEXT
  5
1D5
330
1CC
100
AcDbEntity
  8
VERMASSUNG
100
AcDbMText
 10
53.6298836159
 20
105.1016576296
 30
0.0
 40
2.0
 41
0.0
 71
     1
 72
     1
  1
%%c
  7
SLDTEXTSTYLE0
 11
3.391901413832837E-15
 21
1.0
 31
0.0
 73
     1
 44
1.0
  0
MTEXT
  5
1D6
330
1CC
100
AcDbEntity
  8
VERMASSUNG
100
AcDbMText
 10
53.6298833248
 20
108.7110009625
 30
0.0
 40
2.0
 41
0.0
 71
     1
 72
     1
  1
97.45
  7
SLDTEXTSTYLE0
 11
3.391901413832837E-15
 21
1.0
 31
0.0
 73
     1
 44
1.0
  0
ENDBLK
  5
1CE
330
1CC
100
AcDbEntity
  8
0
100
AcDbBlockEnd
  0
BLOCK
  5
1D9
330
1D8
100
AcDbEntity
  8
0
100
AcDbBlockBegin
  2
_D_1
 70
     0
 10
0.0
 20
0.0
 30
0.0
  3
_D_1
  1

  0
SOLID
  5
1DB
330
1D8
100
AcDbEntity
  8
VERMASSUNG
100
AcDbTrace
 10
241.3787549977
 20
123.6060936504
 30
0.0
 11
240.9287549977
 21
120.6060936504
 31
0.0
 12
241.8287549977
 22
120.6060936504
 32
0.0
 13
241.8287549977
 23
120.6060936504
 33
0.0
  0
SOLID
  5
1DC
330
1D8
100
AcDbEntity
  8
VERMASSUNG
100
AcDbTrace
 10
241.3787549977
 20
87.6060936504
 30
0.0
 11
241.8287549977
 21
90.6060936504
 31
0.0
 12
240.9287549977
 22
90.6060936504
 32
0.0
 13
240.9287549977
 23
90.6060936504
 33
0.0
  0
LINE
  5
1DD
330
1D8
100
AcDbEntity
  8
VERMASSUNG
100
AcDbLine
 10
216.8407006885
 20
123.6060936504
 30
0.0
 11
242.3787549977
 21
123.6060936504
 31
0.0
  0
LINE
  5
1DE
330
1D8
100
AcDbEntity
  8
VERMASSUNG
100
AcDbLine
 10
216.8407006885
 20
87.6060936504
 30
0.0
 11
242.3787549977
 21
87.6060936504
 31
0.0
  0
LINE
  5
1DF
330
1D8
100
AcDbEntity
  8
VERMASSUNG
100
AcDbLine
 10
241.3787549977
 20
123.6060936504
 30
0.0
 11
241.3787549977
 21
87.6060936504
 31
0.0
  0
MTEXT
  5
1E0
330
1D8
100
AcDbEntity
  8
VERMASSUNG
100
AcDbMText
 10
238.80061946
 20
102.4019175433
 30
0.0
 40
2.0
 41
0.0
 71
     1
 72
     1
  1
%%c
  7
SLDTEXTSTYLE0
 11
-7.044195017643634E-15
 21
1.0
 31
0.0
 73
     1
 44
1.0
  0
MTEXT
  5
1E1
330
1D8
100
AcDbEntity
  8
VERMASSUNG
100
AcDbMText
 10
238.8006194017
 20
106.0108897369
 30
0.0
 40
2.0
 41
0.0
 71
     1
 72
     1
  1
36
  7
SLDTEXTSTYLE0
 11
-7.044195017643634E-15
 21
1.0
 31
0.0
 73
     1
 44
1.0
  0
ENDBLK
  5
1DA
330
1D8
100
AcDbEntity
  8
0
100
AcDbBlockEnd
  0
BLOCK
  5
1E4
330
1E3
100
AcDbEntity
  8
0
100
AcDbBlockBegin
  2
_D_2
 70
     0
 10
0.0
 20
0.0
 30
0.0
  3
_D_2
  1

  0
ARC
  5
1E6
330
1E3
100
AcDbEntity
  8
VERMASSUNG
100
AcDbCircle
 10
207.4771224188
 20
162.7243166696
 30
0.0
 40
4.247059938537386
100
AcDbArc
 50
153.4349488229
 51
206.5650511771
  0
ARC
  5
1E7
330
1E3
100
AcDbEntity
  8
VERMASSUNG
100
AcDbCircle
 10
209.4542789584
 20
162.7243166696
 30
0.0
 40
4.247059938537335
100
AcDbArc
 50
333.4349488229
 51
26.5650511771
  0
SOLID
  5
1E8
330
1E3
100
AcDbEntity
  8
VERMASSUNG
100
AcDbTrace
 10
183.4907006886
 20
160.8249737242
 30
0.0
 11
186.4907006886
 21
160.3749737242
 31
0.0
 12
186.4907006886
 22
161.2749737242
 32
0.0
 13
186.4907006886
 23
161.2749737242
 33
0.0
  0
SOLID
  5
1E9
330
1E3
100
AcDbEntity
  8
VERMASSUNG
100
AcDbTrace
 10
233.4407006886
 20
160.8249737242
 30
0.0
 11
230.4407006886
 21
161.2749737242
 31
0.0
 12
230.4407006886
 22
160.3749737242
 32
0.0
 13
230.4407006886
 23
160.3749737242
 33
0.0
  0
LINE
  5
1EA
330
1E3
100
AcDbEntity
  8
VERMASSUNG
100
AcDbLine
 10
183.4907006886
 20
151.9010806036
 30
0.0
 11
183.4907006886
 21
161.8249737242
 31
0.0
  0
LINE
  5
1EB
330
1E3
100
AcDbEntity
  8
VERMASSUNG
100
AcDbLine
 10
233.4407006886
 20
137.0060936504
 30
0.0
 11
233.4407006886
 21
161.8249737242
 31
0.0
  0
LINE
  5
1EC
330
1E3
100
AcDbEntity
  8
VERMASSUNG
100
AcDbLine
 10
183.4907006886
 20
160.8249737242
 30
0.0
 11
233.4407006886
 21
160.8249737242
 31
0.0
  0
MTEXT
  5
1ED
330
1E3
100
AcDbEntity
  8
VERMASSUNG
100
AcDbMText
 10
205.2659365279
 20
163.4031093202
 30
0.0
 40
2.0
 41
0.0
 71
     1
 72
     1
  1
49.95
  7
SLDTEXTSTYLE0
 73
     1
 44
1.0
  0
ENDBLK
  5
1E5
330
1E3
100
AcDbEntity
  8
0
100
AcDbBlockEnd
  0
BLOCK
  5
1F0
330
1EF
100
AcDbEntity
  8
0
100
AcDbBlockBegin
  2
_D_3
 70
     0
 10
0.0
 20
0.0
 30
0.0
  3
_D_3
  1

  0
SOLID
  5
1F2
330
1EF
100
AcDbEntity
  8
VERMASSUNG
100
AcDbTrace
 10
164.4407006886
 20
166.8249737242
 30
0.0
 11
167.4407006886
 21
166.3749737242
 31
0.0
 12
167.4407006886
 22
167.2749737242
 32
0.0
 13
167.4407006886
 23
167.2749737242
 33
0.0
  0
SOLID
  5
1F3
330
1EF
100
AcDbEntity
  8
VERMASSUNG
100
AcDbTrace
 10
233.4407006886
 20
166.8249737242
 30
0.0
 11
230.4407006886
 21
167.2749737242
 31
0.0
 12
230.4407006886
 22
166.3749737242
 32
0.0
 13
230.4407006886
 23
166.3749737242
 33
0.0
  0
LINE
  5
1F4
330
1EF
100
AcDbEntity
  8
VERMASSUNG
100
AcDbLine
 10
164.4407006886
 20
140.5310936504
 30
0.0
 11
164.4407006886
 21
167.8249737242
 31
0.0
  0
LINE
  5
1F5
330
1EF
100
AcDbEntity
  8
VERMASSUNG
100
AcDbLine
 10
233.4407006886
 20
137.0060936504
 30
0.0
 11
233.4407006886
 21
167.8249737242
 31
0.0
  0
LINE
  5
1F6
330
1EF
100
AcDbEntity
  8
VERMASSUNG
100
AcDbLine
 10
164.4407006886
 20
166.8249737242
 30
0.0
 11
233.4407006886
 21
166.8249737242
 31
0.0
  0
MTEXT
  5
1F7
330
1EF
100
AcDbEntity
  8
VERMASSUNG
100
AcDbMText
 10
197.5410106783
 20
169.4031093202
 30
0.0
 40
2.0
 41
0.0
 71
     1
 72
     1
  1
69
  7
SLDTEXTSTYLE0
 73
     1
 44
1.0
  0
ENDBLK
  5
1F1
330
1EF
100
AcDbEntity
  8
0
100
AcDbBlockEnd
  0
BLOCK
  5
1FA
330
1F9
100
AcDbEntity
  8
0
100
AcDbBlockBegin
  2
_D_4
 70
     0
 10
0.0
 20
0.0
 30
0.0
  3
_D_4
  1

  0
ARC
  5
1FC
330
1F9
100
AcDbEntity
  8
VERMASSUNG
100
AcDbCircle
 10
147.4521347772
 20
174.7243166696
 30
0.0
 40
4.247059938537208
100
AcDbArc
 50
153.4349488229
 51
206.5650511771
  0
ARC
  5
1FD
330
1F9
100
AcDbEntity
  8
VERMASSUNG
100
AcDbCircle
 10
148.8292666
 20
174.7243166696
 30
0.0
 40
4.24705993853726
100
AcDbArc
 50
333.4349488229
 51
26.5650511771
  0
SOLID
  5
1FE
330
1F9
100
AcDbEntity
  8
VERMASSUNG
100
AcDbTrace
 10
62.8407006886
 20
172.8249737242
 30
0.0
 11
65.8407006886
 21
172.3749737242
 31
0.0
 12
65.8407006886
 22
173.2749737242
 32
0.0
 13
65.8407006886
 23
173.2749737242
 33
0.0
  0
SOLID
  5
1FF
330
1F9
100
AcDbEntity
  8
VERMASSUNG
100
AcDbTrace
 10
233.4407006886
 20
172.8249737242
 30
0.0
 11
230.4407006886
 21
173.2749737242
 31
0.0
 12
230.4407006886
 22
172.3749737242
 32
0.0
 13
230.4407006886
 23
172.3749737242
 33
0.0
  0
LINE
  5
200
330
1F9
100
AcDbEntity
  8
VERMASSUNG
100
AcDbLine
 10
62.8407006886
 20
123.9849381778
 30
0.0
 11
62.8407006886
 21
173.8249737242
 31
0.0
  0
LINE
  5
201
330
1F9
100
AcDbEntity
  8
VERMASSUNG
100
AcDbLine
 10
233.4407006886
 20
137.0060936504
 30
0.0
 11
233.4407006886
 21
173.8249737242
 31
0.0
  0
LINE
  5
202
330
1F9
100
AcDbEntity
  8
VERMASSUNG
100
AcDbLine
 10
62.8407006886
 20
172.8249737242
 30
0.0
 11
233.4407006886
 21
172.8249737242
 31
0.0
  0
MTEXT
  5
203
330
1F9
100
AcDbEntity
  8
VERMASSUNG
100
AcDbMText
 10
145.2409488863
 20
175.4031093202
 30
0.0
 40
2.0
 41
0.0
 71
     1
 72
     1
  1
170.6
  7
SLDTEXTSTYLE0
 73
     1
 44
1.0
  0
ENDBLK
  5
1FB
330
1F9
100
AcDbEntity
  8
0
100
AcDbBlockEnd
  0
BLOCK
  5
206
330
205
100
AcDbEntity
  8
0
100
AcDbBlockBegin
  2
_D_5
 70
     0
 10
0.0
 20
0.0
 30
0.0
  3
_D_5
  1

  0
SOLID
  5
208
330
205
100
AcDbEntity
  8
VERMASSUNG
100
AcDbTrace
 10
247.3787549977
 20
137.6060936504
 30
0.0
 11
246.9287549977
 21
134.6060936504
 31
0.0
 12
247.8287549977
 22
134.6060936504
 32
0.0
 13
247.8287549977
 23
134.6060936504
 33
0.0
  0
SOLID
  5
209
330
205
100
AcDbEntity
  8
VERMASSUNG
100
AcDbTrace
 10
247.3787549977
 20
73.6060936504
 30
0.0
 11
247.8287549977
 21
76.6060936504
 31
0.0
 12
246.9287549977
 22
76.6060936504
 32
0.0
 13
246.9287549977
 23
76.6060936504
 33
0.0
  0
LINE
  5
20A
330
205
100
AcDbEntity
  8
VERMASSUNG
100
AcDbLine
 10
232.8407006886
 20
137.6060936504
 30
0.0
 11
248.3787549977
 21
137.6060936504
 31
0.0
  0
LINE
  5
20B
330
205
100
AcDbEntity
  8
VERMASSUNG
100
AcDbLine
 10
232.8407006886
 20
73.6060936504
 30
0.0
 11
248.3787549977
 21
73.6060936504
 31
0.0
  0
LINE
  5
20C
330
205
100
AcDbEntity
  8
VERMASSUNG
100
AcDbLine
 10
247.3787549977
 20
137.6060936504
 30
0.0
 11
247.3787549977
 21
73.6060936504
 31
0.0
  0
MTEXT
  5
20D
330
205
100
AcDbEntity
  8
VERMASSUNG
100
AcDbMText
 10
244.6006197415
 20
99.4010941328
 30
0.0
 40
2.0
 41
0.0
 71
     1
 72
     1
  1
ST6
  7
SLDTEXTSTYLE0
 11
-7.044195017643634E-15
 21
1.0
 31
0.0
 73
     1
 44
1.0
  0
MTEXT
  5
20E
330
205
100
AcDbEntity
  8
VERMASSUNG
100
AcDbMText
 10
244.8006196928
 20
105.201094059
 30
0.0
 40
2.0
 41
0.0
 71
     1
 72
     1
  1
%%c
  7
SLDTEXTSTYLE0
 11
-7.044195017643634E-15
 21
1.0
 31
0.0
 73
     1
 44
1.0
  0
MTEXT
  5
20F
330
205
100
AcDbEntity
  8
VERMASSUNG
100
AcDbMText
 10
244.6006197415
 20
108.8110936076
 30
0.0
 40
2.0
 41
0.0
 71
     1
 72
     1
  1
64
  7
SLDTEXTSTYLE0
 11
-7.044195017643634E-15
 21
1.0
 31
0.0
 73
     1
 44
1.0
  0
ENDBLK
  5
207
330
205
100
AcDbEntity
  8
0
100
AcDbBlockEnd
  0
ENDSEC
  0
SECTION
  2
ENTITIES
  0
MTEXT
  5
78
330
1F
100
AcDbEntity
  8
KOPF_DÜNN
100
AcDbMText
 10
13.8892156294
 20
23.8442973028
 30
0.0
 40
3.0
 41
0.0
 71
     1
 72
     1
  1
124.450.064.069
  7
SLDTEXTSTYLE0
 73
     1
 44
1.0
  0
MTEXT
  5
79
330
1F
100
AcDbEntity
  8
VERMASSUNG
100
AcDbMText
 10
13.9329988022
 20
28.8834360957
 30
0.0
 40
3.0
 41
0.0
 71
     1
 72
     1
  1
Aufnahme_Master shank ST6
  7
SLDTEXTSTYLE0
 73
     1
 44
1.0
  0
MTEXT
  5
7A
330
1F
100
AcDbEntity
  8
VERMASSUNG
100
AcDbMText
 10
98.8601118557
 20
13.8365368761
 30
0.0
 40
2.0
 41
0.0
 71
     1
 72
     1
  1
Datum: 14.05.2008
  7
SLDTEXTSTYLE0
 73
     1
 44
1.0
  0
MTEXT
  5
7B
330
1F
100
AcDbEntity
  8
VERMASSUNG
100
AcDbMText
 10
13.933048693
 20
18.0482802738
 30
0.0
 40
2.0
 41
0.0
 71
     1
 72
     1
  1
DIN 69871 B ISO 50
  7
SLDTEXTSTYLE0
 73
     1
 44
1.0
  0
MTEXT
  5
7C
330
1F
100
AcDbEntity
  8
VERMASSUNG
100
AcDbMText
 10
13.9808475933
 20
13.9090974274
 30
0.0
 40
2.0
 41
0.0
 71
     1
 72
     1
  1
Gewicht: 3477g
  7
SLDTEXTSTYLE0
 73
     1
 44
1.0
  0
ARC
  5
7D
330
1F
100
AcDbEntity
  8
0
  6
Continuous
 62
     7
370
    15
100
AcDbCircle
 10
187.4907006886
 20
69.6060936504
 30
0.0
 40
4.000000000000024
100
AcDbArc
 50
90.0
 51
169.9305913409
  0
ARC
  5
7E
330
1F
100
AcDbEntity
  8
0
  6
Continuous
 62
     7
370
    15
100
AcDbCircle
 10
187.4907006886
 20
141.6060936504
 30
0.0
 40
4.000000000000028
100
AcDbArc
 50
180.0
 51
270.0
  0
ARC
  5
7F
330
1F
100
AcDbEntity
  8
0
  6
Continuous
 62
     7
370
    15
100
AcDbCircle
 10
167.0407006886
 20
70.0810936504
 30
0.0
 40
0.6000000000000227
100
AcDbArc
 50
0.0
 51
90.0
  0
ARC
  5
80
330
1F
100
AcDbEntity
  8
0
  6
Continuous
 62
     7
370
    15
100
AcDbCircle
 10
167.0407006886
 20
141.1310936504
 30
0.0
 40
0.6000000000000227
100
AcDbArc
 50
270.0
 51
0.0
  0
LINE
  5
81
330
1F
100
AcDbEntity
  8
0
  6
Continuous
 62
     7
370
    15
100
AcDbLine
 10
164.4407006886
 20
70.681094771
 30
0.0
 11
167.0407006957
 21
70.681094771
 31
0.0
  0
LINE
  5
82
330
1F
100
AcDbEntity
  8
0
  6
Continuous
 62
     7
370
    15
100
AcDbLine
 10
167.0407006957
 20
140.5310925298
 30
0.0
 11
164.4407006886
 21
140.5310925298
 31
0.0
  0
LINE
  5
83
330
1F
100
AcDbEntity
  8
0
  6
Continuous
 62
     7
370
    15
100
AcDbLine
 10
164.4407006886
 20
140.5310925298
 30
0.0
 11
64.5520853784
 21
125.9640041941
 31
0.0
  0
LINE
  5
84
330
1F
100
AcDbEntity
  8
0
  6
Continuous
 62
     7
370
    15
100
AcDbLine
 10
64.5520853784
 20
85.2481831067
 30
0.0
 11
164.4407006886
 21
70.681094771
 31
0.0
  0
LINE
  5
85
330
1F
100
AcDbEntity
  8
0
  6
Continuous
 62
     7
370
    15
100
AcDbLine
 10
232.8407037046
 20
137.6060951703
 30
0.0
 11
187.4907015797
 21
137.6060951703
 31
0.0
  0
LINE
  5
86
330
1F
100
AcDbEntity
  8
0
  6
Continuous
 62
     7
370
    15
100
AcDbLine
 10
187.4907015797
 20
73.6060921305
 30
0.0
 11
232.8407037046
 21
73.6060921305
 31
0.0
  0
LINE
  5
87
330
1F
100
AcDbEntity
  8
0
  6
Continuous
 62
     7
370
    15
100
AcDbLine
 10
232.8407037046
 20
73.6060921305
 30
0.0
 11
233.4406989601
 21
74.2060948365
 31
0.0
  0
LINE
  5
88
330
1F
100
AcDbEntity
  8
0
  6
Continuous
 62
     7
370
    15
100
AcDbLine
 10
233.4406989601
 20
137.0060924643
 30
0.0
 11
232.8407037046
 21
137.6060951703
 31
0.0
  0
ARC
  5
89
330
1F
100
AcDbEntity
  8
0
  6
Continuous
 62
     7
370
    15
100
AcDbCircle
 10
64.8407006886
 20
87.227249123
 30
0.0
 40
1.999999999999992
100
AcDbArc
 50
180.0
 51
261.7028550302
  0
ARC
  5
8A
330
1F
100
AcDbEntity
  8
0
  6
Continuous
 62
     7
370
    15
100
AcDbCircle
 10
64.8407006886
 20
123.9849381778
 30
0.0
 40
1.999999999999986
100
AcDbArc
 50
98.2971449698
 51
180.0
  0
ARC
  5
8B
330
1F
100
AcDbEntity
  8
0
  6
Continuous
 62
     7
370
    15
100
AcDbCircle
 10
178.6407006886
 20
91.1403516884
 30
0.0
 40
2.000000000000011
100
AcDbArc
 50
270.6569931201
 51
339.926737941
  0
ARC
  5
8C
330
1F
100
AcDbEntity
  8
0
  6
Continuous
 62
     7
370
    15
100
AcDbCircle
 10
178.6407006886
 20
91.1403516884
 30
0.0
 40
2.000000000000004
100
AcDbArc
 50
192.2156859338
 51
270.6569931201
  0
SPLINE
  5
8D
330
1F
100
AcDbEntity
  8
0
  6
Continuous
 62
     7
370
    15
100
AcDbSpline
210
0.0
220
0.0
230
1.0
 70
    24
 71
     3
 72
    11
 73
     7
 74
     0
 42
0.000000001
 43
0.00000001
 40
0.0
 40
0.0
 40
0.0
 40
0.0
 40
0.1336650683645117
 40
0.4825473427024172
 40
0.8156355415652451
 40
1.0
 40
1.0
 40
1.0
 40
1.0
 10
219.1227505888803
 20
102.6060936243247
 30
0.0
 10
218.9776286694774
 20
102.6060936243247
 30
0.0
 10
218.4537206848967
 20
102.6060936243247
 30
0.0
 10
217.474997839666
 20
102.6060936243247
 30
0.0
 10
216.4238597688286
 20
102.6060936243247
 30
0.0
 10
215.8596686035635
 20
102.6060936243247
 30
0.0
 10
215.6586515691144
 20
102.6060936243247
 30
0.0
  0
SPLINE
  5
8E
330
1F
100
AcDbEntity
  8
0
  6
Continuous
 62
     7
370
    15
100
AcDbSpline
210
0.0
220
0.0
230
1.0
 70
     8
 71
     3
 72
    10
 73
     6
 74
     0
 42
0.000000001
 43
0.00000001
 40
0.0
 40
0.0
 40
0.0
 40
0.0
 40
0.4391280921121686
 40
0.7513761656029474
 40
1.0
 40
1.0
 40
1.0
 40
1.0
 10
220.8548019614083
 20
105.6060936504017
 30
0.0
 10
220.606837904525
 20
105.1766085141872
 30
0.0
 10
220.1825555923363
 20
104.4417320609862
 30
0.0
 10
219.5658004644238
 20
103.3734763128642
 30
0.0
 10
219.258826361899
 20
102.8417830992762
 30
0.0
 10
219.1227505888803
 20
102.6060936243247
 30
0.0
  0
SPLINE
  5
8F
330
1F
100
AcDbEntity
  8
0
  6
Continuous
 62
     7
370
    15
100
AcDbSpline
210
0.0
220
0.0
230
1.0
 70
     8
 71
     3
 72
    10
 73
     6
 74
     0
 42
0.000000001
 43
0.00000001
 40
0.0
 40
0.0
 40
0.0
 40
0.0
 40
0.4391281197593838
 40
0.7513761521252575
 40
1.0
 40
1.0
 40
1.0
 40
1.0
 10
219.1227505888803
 20
108.6060936764787
 30
0.0
 10
219.3707146255414
 20
108.1766084890342
 30
0.0
 10
219.7949968688057
 20
107.4417320076245
 30
0.0
 10
220.4117521440109
 20
106.3734763626352
 30
0.0
 10
220.7187261964898
 20
105.8417831495325
 30
0.0
 10
220.8548019614083
 20
105.6060936504017
 30
0.0
  0
SPLINE
  5
90
330
1F
100
AcDbEntity
  8
0
  6
Continuous
 62
     7
370
    15
100
AcDbSpline
210
0.0
220
0.0
230
1.0
 70
    24
 71
     3
 72
    11
 73
     7
 74
     0
 42
0.000000001
 43
0.00000001
 40
0.0
 40
0.0
 40
0.0
 40
0.0
 40
0.1843644584347549
 40
0.5174526572975828
 40
0.8663349316354882
 40
1.0
 40
1.0
 40
1.0
 40
1.0
 10
215.6586515691144
 20
108.6060936764787
 30
0.0
 10
215.8596686035635
 20
108.6060936764787
 30
0.0
 10
216.4238597688285
 20
108.6060936764787
 30
0.0
 10
217.474997839666
 20
108.6060936764787
 30
0.0
 10
218.4537206848967
 20
108.6060936764787
 30
0.0
 10
218.9776286694774
 20
108.6060936764787
 30
0.0
 10
219.1227505888803
 20
108.6060936764787
 30
0.0
  0
CIRCLE
  5
91
330
1F
100
AcDbEntity
  8
0
  6
Continuous
 62
     7
370
    15
100
AcDbCircle
 10
217.3907006886
 20
105.6060936504
 30
0.0
 40
3.5
  0
SPLINE
  5
92
330
1F
100
AcDbEntity
  8
0
  6
Continuous
 62
     7
370
    15
100
AcDbSpline
210
0.0
220
0.0
230
1.0
 70
     8
 71
     3
 72
    10
 73
     6
 74
     0
 42
0.000000001
 43
0.00000001
 40
0.0
 40
0.0
 40
0.0
 40
0.0
 40
0.4391275887153922
 40
0.7513761702796584
 40
0.9999999999999999
 40
0.9999999999999999
 40
0.9999999999999999
 40
0.9999999999999999
 10
213.9266001965863
 20
105.6060936504017
 30
0.0
 10
214.1745622018588
 20
106.0355792502814
 30
0.0
 10
214.5988414926261
 20
106.7704573438485
 30
0.0
 10
215.2156021823122
 20
107.8387100564004
 30
0.0
 10
215.5225760325989
 20
108.3704040650586
 30
0.0
 10
215.6586515691144
 20
108.6060936764787
 30
0.0
  0
SPLINE
  5
93
330
1F
100
AcDbEntity
  8
0
  6
Continuous
 62
     7
370
    15
100
AcDbSpline
210
0.0
220
0.0
230
1.0
 70
     8
 71
     3
 72
    10
 73
     6
 74
     0
 42
0.000000001
 43
0.00000001
 40
0.0
 40
0.0
 40
0.0
 40
0.0
 40
0.4391281197593838
 40
0.7513761521252575
 40
1.0
 40
1.0
 40
1.0
 40
1.0
 10
215.6586515691144
 20
102.6060936243247
 30
0.0
 10
215.4106875324532
 20
103.0355788117692
 30
0.0
 10
214.986405289189
 20
103.770455293179
 30
0.0
 10
214.3696500139837
 20
104.8387109381682
 30
0.0
 10
214.0626759615048
 20
105.3704041512709
 30
0.0
 10
213.9266001965863
 20
105.6060936504017
 30
0.0
  0
CIRCLE
  5
94
330
1F
100
AcDbEntity
  8
0
  6
Continuous
 62
     7
370
    15
100
AcDbCircle
 10
217.3907006886
 20
105.6060936504
 30
0.0
 40
5.5
  0
CIRCLE
  5
95
330
1F
100
AcDbEntity
  8
0
  6
Continuous
 62
     7
370
    15
100
AcDbCircle
 10
217.3907006886
 20
105.6060936504
 30
0.0
 40
6.0
  0
ARC
  5
96
330
1F
100
AcDbEntity
  8
0
  6
Continuous
 62
     7
370
    15
100
AcDbCircle
 10
217.3907006886
 20
105.6060936504
 30
0.0
 40
3.0
100
AcDbArc
 50
330.0
 51
30.0
  0
ARC
  5
97
330
1F
100
AcDbEntity
  8
0
  6
Continuous
 62
     7
370
    15
100
AcDbCircle
 10
217.3907006886
 20
105.6060936504
 30
0.0
 40
3.0
100
AcDbArc
 50
210.0
 51
270.0
  0
ARC
  5
98
330
1F
100
AcDbEntity
  8
0
  6
Continuous
 62
     7
370
    15
100
AcDbCircle
 10
217.3907006886
 20
105.6060936504
 30
0.0
 40
3.0
100
AcDbArc
 50
90.0
 51
150.0
  0
ARC
  5
99
330
1F
100
AcDbEntity
  8
0
  6
Continuous
 62
     7
370
    15
100
AcDbCircle
 10
217.3907006886
 20
105.6060936504
 30
0.0
 40
3.0
100
AcDbArc
 50
270.0
 51
330.0
  0
ARC
  5
9A
330
1F
100
AcDbEntity
  8
0
  6
Continuous
 62
     7
370
    15
100
AcDbCircle
 10
217.3907006886
 20
105.6060936504
 30
0.0
 40
2.999999999999976
100
AcDbArc
 50
150.0
 51
210.0
  0
ARC
  5
9B
330
1F
100
AcDbEntity
  8
0
  6
Continuous
 62
     7
370
    15
100
AcDbCircle
 10
217.3907006886
 20
105.6060936504
 30
0.0
 40
3.0
100
AcDbArc
 50
30.0
 51
90.0
  0
SPLINE
  5
9C
330
1F
100
AcDbEntity
  8
0
  6
Continuous
 62
     7
370
    15
100
AcDbSpline
210
0.0
220
0.0
230
1.0
 70
     8
 71
     3
 72
     8
 73
     4
 74
     0
 42
0.000000001
 43
0.00000001
 40
0.0
 40
0.0
 40
0.0
 40
0.0
 40
1.0
 40
1.0
 40
1.0
 40
1.0
 10
173.6307006885869
 20
60.98635424157195
 30
0.0
 10
173.3409722425623
 20
60.46413423140843
 30
0.0
 10
173.0509470923446
 20
59.94208084914847
 30
0.0
 10
172.7606528580828
 20
59.42017858342539
 30
0.0
  0
SPLINE
  5
9D
330
1F
100
AcDbEntity
  8
0
  6
Continuous
 62
     7
370
    15
100
AcDbSpline
210
0.0
220
0.0
230
1.0
 70
     8
 71
     3
 72
     8
 73
     4
 74
     0
 42
0.000000001
 43
0.00000001
 40
0.0
 40
0.0
 40
0.0
 40
0.0
 40
0.0011862984959113
 40
0.0011862984959113
 40
0.0011862984959113
 40
0.0011862984959113
 10
172.307539181125
 20
58.87683430905573
 30
0.0
 10
172.4595639429959
 20
59.05774615867373
 30
0.0
 10
172.6106213882117
 20
59.23885848911458
 30
0.0
 10
172.7606528580828
 20
59.42017858342539
 30
0.0
  0
LINE
  5
9E
330
1F
100
AcDbEntity
  8
0
  6
Continuous
 62
     7
370
    15
100
AcDbLine
 10
172.3075396355
 20
58.8768344575
 30
0.0
 11
172.3075396355
 21
135.456094166
 31
0.0
  0
SPLINE
  5
9F
330
1F
100
AcDbEntity
  8
0
  6
Continuous
 62
     7
370
    15
100
AcDbSpline
210
0.0
220
0.0
230
1.0
 70
    24
 71
     3
 72
     8
 73
     4
 74
     0
 42
0.000000001
 43
0.00000001
 40
0.0
 40
0.0
 40
0.0
 40
0.0
 40
1.0
 40
1.0
 40
1.0
 40
1.0
 10
173.6307006885869
 20
135.4560936504017
 30
0.0
 10
173.1955005838833
 20
135.4560936504017
 30
0.0
 10
172.7541409011444
 20
135.4560936504017
 30
0.0
 10
172.307539181125
 20
135.4560936504017
 30
0.0
  0
LINE
  5
A0
330
1F
100
AcDbEntity
  8
0
  6
Continuous
 62
     7
370
    15
100
AcDbLine
 10
173.6307003509
 20
60.9863545948
 30
0.0
 11
173.6307003509
 21
135.456094166
 31
0.0
  0
SPLINE
  5
A1
330
1F
100
AcDbEntity
  8
0
  6
Continuous
 62
     7
370
    15
100
AcDbSpline
210
0.0
220
0.0
230
1.0
 70
     8
 71
     3
 72
    10
 73
     6
 74
     0
 42
0.000000001
 43
0.00000001
 40
0.0
 40
0.0
 40
0.0
 40
0.0
 40
0.5
 40
0.5
 40
1.0
 40
1.0
 40
1.0
 40
1.0
 10
167.8563607197409
 20
58.9726393832095
 30
0.0
 10
167.9050112883206
 20
58.94468239194209
 30
0.0
 10
167.96239650028
 20
58.9207401069153
 30
0.0
 10
168.0931096084461
 20
58.88662164381955
 30
0.0
 10
168.1658491421847
 20
58.87683430905572
 30
0.0
 10
168.2407006885869
 20
58.87683430905572
 30
0.0
  0
SPLINE
  5
A2
330
1F
100
AcDbEntity
  8
0
  6
Continuous
 62
     7
370
    15
100
AcDbSpline
210
0.0
220
0.0
230
1.0
 70
     8
 71
     3
 72
    10
 73
     6
 74
     0
 42
0.000000001
 43
0.00000001
 40
0.0
 40
0.0
 40
0.0
 40
0.0
 40
0.5
 40
0.5
 40
1.0
 40
1.0
 40
1.0
 40
1.0
 10
167.8563607197409
 20
58.97263938320949
 30
0.0
 10
167.7981727131587
 20
59.04022311338831
 30
0.0
 10
167.7457302466324
 20
59.12069934803007
 30
0.0
 10
167.6673779394538
 20
59.3037349710128
 30
0.0
 10
167.6407006885869
 20
59.40961067380843
 30
0.0
 10
167.6407006885869
 20
59.51712398302904
 30
0.0
  0
LINE
  5
A3
330
1F
100
AcDbEntity
  8
0
  6
Continuous
 62
     7
370
    15
100
AcDbLine
 10
167.6407006077
 20
59.5171224528
 30
0.0
 11
167.6407006077
 21
135.456094166
 31
0.0
  0
SPLINE
  5
A4
330
1F
100
AcDbEntity
  8
0
  6
Continuous
 62
     7
370
    15
100
AcDbSpline
210
0.0
220
0.0
230
1.0
 70
    24
 71
     3
 72
    12
 73
     8
 74
     0
 42
0.000000001
 43
0.00000001
 40
0.0
 40
0.0
 40
0.0
 40
0.0
 40
0.2499999999999998
 40
0.2499999999999998
 40
0.4999999999999997
 40
0.4999999999999997
 40
1.0
 40
1.0
 40
1.0
 40
1.0
 10
168.2407006885869
 20
135.4560936504017
 30
0.0
 10
168.1502910538238
 20
135.4560936504017
 30
0.0
 10
168.0620661286969
 20
135.4560936504017
 30
0.0
 10
167.9083921871887
 20
135.4560936504017
 30
0.0
 10
167.8427889674273
 20
135.4560936504017
 30
0.0
 10
167.6889016271028
 20
135.4560936504017
 30
0.0
 10
167.6407006885869
 20
135.4560936504017
 30
0.0
 10
167.6407006885869
 20
135.4560936504017
 30
0.0
  0
LINE
  5
A5
330
1F
100
AcDbEntity
  8
0
  6
Continuous
 62
     7
370
    15
100
AcDbLine
 10
177.4507005673
 20
91.8088318982
 30
0.0
 11
177.4507005673
 21
135.456094166
 31
0.0
  0
SPLINE
  5
A6
330
1F
100
AcDbEntity
  8
0
  6
Continuous
 62
     7
370
    15
100
AcDbSpline
210
0.0
220
0.0
230
1.0
 70
    24
 71
     3
 72
     8
 73
     4
 74
     0
 42
0.000000001
 43
0.00000001
 40
0.0
 40
0.0
 40
0.0
 40
0.0
 40
1.0
 40
1.0
 40
1.0
 40
1.0
 10
178.7738621960488
 20
135.4560936504017
 30
0.0
 10
178.3272604760294
 20
135.4560936504017
 30
0.0
 10
177.8859007932905
 20
135.4560936504017
 30
0.0
 10
177.4507006885869
 20
135.4560936504017
 30
0.0
  0
LINE
  5
A7
330
1F
100
AcDbEntity
  8
0
  6
Continuous
 62
     7
370
    15
100
AcDbLine
 10
178.773862214
 20
91.3089463689
 30
0.0
 11
178.773862214
 21
135.456094166
 31
0.0
  0
SPLINE
  5
A8
330
1F
100
AcDbEntity
  8
0
  6
Continuous
 62
     7
370
    15
100
AcDbSpline
210
0.0
220
0.0
230
1.0
 70
     8
 71
     3
 72
    10
 73
     6
 74
     0
 42
0.000000001
 43
0.00000001
 40
0.0
 40
0.0
 40
0.0
 40
0.0
 40
0.5
 40
0.5
 40
1.0
 40
1.0
 40
1.0
 40
1.0
 10
178.7738621960488
 20
91.30894658527062
 30
0.0
 10
178.5511351691754
 20
91.45243508556439
 30
0.0
 10
178.3294492819503
 20
91.56715583129727
 30
0.0
 10
177.8882284440983
 20
91.73691626065514
 30
0.0
 10
177.6686697966995
 20
91.79233625504251
 30
0.0
 10
177.4507006885872
 20
91.80883158441216
 30
0.0
  0
SPLINE
  5
A9
330
1F
100
AcDbEntity
  8
0
  6
Continuous
 62
     7
370
    15
100
AcDbSpline
210
0.0
220
0.0
230
1.0
 70
     8
 71
     3
 72
    12
 73
     8
 74
     0
 42
0.000000001
 43
0.00000001
 40
0.0
 40
0.0
 40
0.0
 40
0.0
 40
0.2499999999999992
 40
0.2499999999999992
 40
0.4999999999999983
 40
0.4999999999999983
 40
1.0
 40
1.0
 40
1.0
 40
1.0
 10
182.8907006885869
 20
58.87683430905573
 30
0.0
 10
182.9866734417618
 20
58.87683430905574
 30
0.0
 10
183.0791014059162
 20
58.89310763316431
 30
0.0
 10
183.2355315060257
 20
58.94648135516071
 30
0.0
 10
183.2990099307986
 20
58.98260961269504
 30
0.0
 10
183.4472890916257
 20
59.10331080897436
 30
0.0
 10
183.4907006885869
 20
59.19716039533952
 30
0.0
 10
183.4907006885869
 20
59.29146467028673
 30
0.0
  0
SPLINE
  5
AA
330
1F
100
AcDbEntity
  8
0
  6
Continuous
 62
     7
370
    15
100
AcDbSpline
210
0.0
220
0.0
230
1.0
 70
    24
 71
     3
 72
    14
 73
    10
 74
     0
 42
0.000000001
 43
0.00000001
 40
0.0
 40
0.0
 40
0.0
 40
0.0
 40
0.25
 40
0.25
 40
0.5
 40
0.5
 40
0.75
 40
0.75
 40
1.0
 40
1.0
 40
1.0
 40
1.0
 10
183.4907006885869
 20
135.4560936504017
 30
0.0
 10
183.4907006885869
 20
135.4560936504017
 30
0.0
 10
183.4786309624274
 20
135.4560936504017
 30
0.0
 10
183.428866879335
 20
135.4560936504017
 30
0.0
 10
183.3913154522137
 20
135.4560936504017
 30
0.0
 10
183.2887157205115
 20
135.4560936504017
 30
0.0
 10
183.22357109979
 20
135.4560936504017
 30
0.0
 10
183.068969236012
 20
135.4560936504017
 30
0.0
 10
182.9800445229343
 20
135.4560936504017
 30
0.0
 10
182.8907006885875
 20
135.4560936504017
 30
0.0
  0
LINE
  5
AB
330
1F
100
AcDbEntity
  8
0
  6
Continuous
 62
     7
370
    15
100
AcDbLine
 10
183.490700924
 20
59.291462993
 30
0.0
 11
183.490700924
 21
135.456094166
 31
0.0
  0
LINE
  5
AC
330
1F
100
AcDbEntity
  8
0
  6
Continuous
 62
     7
370
    15
100
AcDbLine
 10
168.2407007527
 20
58.8768344575
 30
0.0
 11
172.3075396355
 21
58.8768344575
 31
0.0
  0
LINE
  5
AD
330
1F
100
AcDbEntity
  8
0
  6
Continuous
 62
     7
370
    15
100
AcDbLine
 10
172.3075396355
 20
135.456094166
 30
0.0
 11
168.2407007527
 21
135.456094166
 31
0.0
  0
LINE
  5
AE
330
1F
100
AcDbEntity
  8
0
  6
Continuous
 62
     7
370
    15
100
AcDbLine
 10
182.8907000806
 20
135.456094166
 30
0.0
 11
178.773862214
 21
135.456094166
 31
0.0
  0
LINE
  5
AF
330
1F
100
AcDbEntity
  8
0
  6
Continuous
 62
     7
370
    15
100
AcDbLine
 10
178.773862214
 20
58.8768344575
 30
0.0
 11
182.8907000806
 21
58.8768344575
 31
0.0
  0
LINE
  5
B0
330
1F
100
AcDbEntity
  8
0
  6
Continuous
 62
     7
370
    15
100
AcDbLine
 10
178.773862214
 20
58.8768344575
 30
0.0
 11
178.773862214
 21
86.6171527856
 31
0.0
  0
SPLINE
  5
B1
330
1F
100
AcDbEntity
  8
0
  6
Continuous
 62
     7
370
    15
100
AcDbSpline
210
0.0
220
0.0
230
1.0
 70
     8
 71
     3
 72
    34
 73
    30
 74
     0
 42
0.000000001
 43
0.00000001
 40
0.0
 40
0.0
 40
0.0
 40
0.0
 40
0.0624999999999989
 40
0.0624999999999989
 40
0.1249999999999978
 40
0.1249999999999978
 40
0.1874999999999968
 40
0.1874999999999968
 40
0.2499999999999962
 40
0.2499999999999962
 40
0.3124999999999957
 40
0.3124999999999957
 40
0.3749999999999952
 40
0.3749999999999952
 40
0.499999999999995
 40
0.499999999999995
 40
0.6249999999999948
 40
0.6249999999999948
 40
0.6874999999999954
 40
0.6874999999999954
 40
0.749999999999996
 40
0.749999999999996
 40
0.8124999999999966
 40
0.8124999999999966
 40
0.8749999999999977
 40
0.8749999999999977
 40
0.9374999999999989
 40
0.9374999999999989
 40
1.0
 40
1.0
 40
1.0
 40
1.0
 10
178.7738621960488
 20
86.61715326240055
 30
0.0
 10
178.9332540238367
 20
86.62499335832332
 30
0.0
 10
179.0892565072802
 20
86.64665200641376
 30
0.0
 10
179.3947660233575
 20
86.71650023390656
 30
0.0
 10
179.5456603583697
 20
86.76532593623482
 30
0.0
 10
179.8335597030605
 20
86.88824988964213
 30
0.0
 10
179.9695061060202
 20
86.96155739777645
 30
0.0
 10
180.2256887216122
 20
87.13156802154778
 30
0.0
 10
180.3468710093714
 20
87.22944181374923
 30
0.0
 10
180.5640170812441
 20
87.4420259891812
 30
0.0
 10
180.6609789542045
 20
87.55707192771081
 30
0.0
 10
180.83154139003
 20
87.80493304783093
 30
0.0
 10
180.9047814432419
 20
87.93796654489654
 30
0.0
 10
181.0796618999908
 20
88.34747456102667
 30
0.0
 10
181.1406998609667
 20
88.64543521080174
 30
0.0
 10
181.1407015161898
 20
89.23687676667618
 30
0.0
 10
181.0796669066035
 20
89.53705031665277
 30
0.0
 10
180.9047771392016
 20
89.95228159692054
 30
0.0
 10
180.8315334337772
 20
90.08763671516736
 30
0.0
 10
180.6609727180405
 20
90.340536046554
 30
0.0
 10
180.5640090024471
 20
90.45830132416177
 30
0.0
 10
180.3468486738599
 20
90.67643161953042
 30
0.0
 10
180.225667415173
 20
90.77713494467737
 30
0.0
 10
179.9694971882344
 20
90.95237863751062
 30
0.0
 10
179.8335538385716
 20
91.0281236066012
 30
0.0
 10
179.5456511353885
 20
91.15529198190347
 30
0.0
 10
179.3947609394718
 20
91.20589325423094
 30
0.0
 10
179.0892554357661
 20
91.27832235397878
 30
0.0
 10
178.9332540375026
 20
91.30080812537578
 30
0.0
 10
178.7738621960488
 20
91.30894658527062
 30
0.0
  0
SPLINE
  5
B2
330
1F
100
AcDbEntity
  8
0
  6
Continuous
 62
     7
370
    15
100
AcDbSpline
210
0.0
220
0.0
230
1.0
 70
     8
 71
     3
 72
    14
 73
    10
 74
     0
 42
0.000000001
 43
0.00000001
 40
0.0
 40
0.0
 40
0.0
 40
0.0
 40
0.25
 40
0.25
 40
0.5
 40
0.5
 40
0.75
 40
0.75
 40
1.0
 40
1.0
 40
1.0
 40
1.0
 10
177.4507006885869
 20
91.85444580642466
 30
0.0
 10
177.4507006885869
 20
91.8963494979467
 30
0.0
 10
177.4212302249409
 20
91.92422529551618
 30
0.0
 10
177.3144032553821
 20
91.93779681420038
 30
0.0
 10
177.2381498605262
 20
91.92313936054633
 30
0.0
 10
177.0704458590253
 20
91.85125410613213
 30
0.0
 10
176.9802822840828
 20
91.79486327699148
 30
0.0
 10
176.8073585167865
 20
91.65275141173288
 30
0.0
 10
176.7254722613019
 20
91.56828601409664
 30
0.0
 10
176.6507006885844
 20
91.4747679365251
 30
0.0
  0
SPLINE
  5
B3
330
1F
100
AcDbEntity
  8
0
  6
Continuous
 62
     7
370
    15
100
AcDbSpline
210
0.0
220
0.0
230
1.0
 70
     8
 71
     3
 72
    10
 73
     6
 74
     0
 42
0.000000001
 43
0.00000001
 40
0.0
 40
0.0
 40
0.0
 40
0.0
 40
0.5
 40
0.5
 40
1.0
 40
1.0
 40
1.0
 40
1.0
 10
177.4507006885872
 20
87.67679038578063
 30
0.0
 10
177.6675915211079
 20
87.43975144633208
 30
0.0
 10
177.8867441577668
 20
87.2375812113386
 30
0.0
 10
178.3282286580357
 20
86.8868291398199
 30
0.0
 10
178.5514311233091
 20
86.73815304742305
 30
0.0
 10
178.7738621960488
 20
86.61715326240055
 30
0.0
  0
LINE
  5
B4
330
1F
100
AcDbEntity
  8
0
  6
Continuous
 62
     7
370
    15
100
AcDbLine
 10
177.4507005673
 20
87.722405439
 30
0.0
 11
177.4507005673
 21
87.6767911219
 31
0.0
  0
SPLINE
  5
B5
330
1F
100
AcDbEntity
  8
0
  6
Continuous
 62
     7
370
    15
100
AcDbSpline
210
0.0
220
0.0
230
1.0
 70
     8
 71
     3
 72
    16
 73
    12
 74
     0
 42
0.000000001
 43
0.00000001
 40
0.0
 40
0.0
 40
0.0
 40
0.0
 40
0.2499999999999974
 40
0.2499999999999974
 40
0.4999999999999949
 40
0.4999999999999949
 40
0.6249999999999948
 40
0.6249999999999948
 40
0.7499999999999948
 40
0.7499999999999948
 40
1.0
 40
1.0
 40
1.0
 40
1.0
 10
176.6507006885869
 20
88.63080409346763
 30
0.0
 10
176.7255536699567
 20
88.53942484030773
 30
0.0
 10
176.806713299637
 20
88.45103922938958
 30
0.0
 10
176.9799362282117
 20
88.27535906882423
 30
0.0
 10
177.0704395581769
 20
88.18999625190017
 30
0.0
 10
177.196768630108
 20
88.06857464049173
 30
0.0
 10
177.2362656335166
 20
88.03009922878776
 30
0.0
 10
177.3083802038158
 20
87.9560385538841
 30
0.0
 10
177.3412723817458
 20
87.92004378862288
 30
0.0
 10
177.4209450513792
 20
87.82133770138907
 30
0.0
 10
177.4507006885869
 20
87.76470524096398
 30
0.0
 10
177.4507006885869
 20
87.72240460779328
 30
0.0
  0
SPLINE
  5
B6
330
1F
100
AcDbEntity
  8
0
  6
Continuous
 62
     7
370
    15
100
AcDbSpline
210
0.0
220
0.0
230
1.0
 70
     8
 71
     3
 72
    16
 73
    12
 74
     0
 42
0.000000001
 43
0.00000001
 40
0.0
 40
0.0
 40
0.0
 40
0.0
 40
0.2500000000000001
 40
0.2500000000000001
 40
0.5000000000000002
 40
0.5000000000000002
 40
0.7500000000000003
 40
0.7500000000000003
 40
0.8750000000000001
 40
0.8750000000000001
 40
1.0
 40
1.0
 40
1.0
 40
1.0
 10
176.6507006885869
 20
91.47476793652127
 30
0.0
 10
176.4852865821067
 20
91.26788170049593
 30
0.0
 10
176.3590892511312
 20
91.04201300268716
 30
0.0
 10
176.1846829528003
 20
90.55314375707428
 30
0.0
 10
176.1408529137034
 20
90.30137670372969
 30
0.0
 10
176.1405492407334
 20
89.78959737914735
 30
0.0
 10
176.1844061007937
 20
89.53854267006464
 30
0.0
 10
176.3143278600609
 20
89.17769410192254
 30
0.0
 10
176.3684426714689
 20
89.06042133357398
 30
0.0
 10
176.4951196616124
 20
88.83793238223514
 30
0.0
 10
176.5679933819731
 20
88.73177177399188
 30
0.0
 10
176.6507006885869
 20
88.63080409346763
 30
0.0
  0
SPLINE
  5
B7
330
1F
100
AcDbEntity
  8
0
  6
Continuous
 62
     7
370
    15
100
AcDbSpline
210
0.0
220
0.0
230
1.0
 70
     8
 71
     3
 72
    14
 73
    10
 74
     0
 42
0.000000001
 43
0.00000001
 40
0.0
 40
0.0
 40
0.0
 40
0.0
 40
0.25
 40
0.25
 40
0.5
 40
0.5
 40
0.75
 40
0.75
 40
1.0
 40
1.0
 40
1.0
 40
1.0
 10
174.4307006885869
 20
61.95832738453194
 30
0.0
 10
174.3242556806776
 20
61.95832738453193
 30
0.0
 10
174.2173569294042
 20
61.93575783509883
 30
0.0
 10
174.0211386739617
 20
61.84931474385688
 30
0.0
 10
173.9314803604972
 20
61.78501082618975
 30
0.0
 10
173.7860266476161
 20
61.6300413121468
 30
0.0
 10
173.7279908648899
 20
61.53727582590307
 30
0.0
 10
173.6507057105053
 20
61.33880894425969
 30
0.0
 10
173.6307006885869
 20
61.23178452246591
 30
0.0
 10
173.6307006885869
 20
61.12500216199508
 30
0.0
  0
SPLINE
  5
B8
330
1F
100
AcDbEntity
  8
0
  6
Continuous
 62
     7
370
    15
100
AcDbSpline
210
0.0
220
0.0
230
1.0
 70
    24
 71
     3
 72
    14
 73
    10
 74
     0
 42
0.000000001
 43
0.00000001
 40
0.0
 40
0.0
 40
0.0
 40
0.0
 40
0.25
 40
0.25
 40
0.5
 40
0.5
 40
0.75
 40
0.75
 40
1.0
 40
1.0
 40
1.0
 40
1.0
 10
174.4307006885869
 20
135.4560936504017
 30
0.0
 10
174.3077193890406
 20
135.4560936504017
 30
0.0
 10
174.1875295006386
 20
135.4560936504017
 30
0.0
 10
173.9825056709594
 20
135.4560936504017
 30
0.0
 10
173.8959111821573
 20
135.4560936504017
 30
0.0
 10
173.7608032953949
 20
135.4560936504017
 30
0.0
 10
173.7122802103668
 20
135.4560936504017
 30
0.0
 10
173.64659770164
 20
135.4560936504017
 30
0.0
 10
173.6307006885869
 20
135.4560936504017
 30
0.0
 10
173.6307006885869
 20
135.4560936504017
 30
0.0
  0
SPLINE
  5
B9
330
1F
100
AcDbEntity
  8
0
  6
Continuous
 62
     7
370
    15
100
AcDbSpline
210
0.0
220
0.0
230
1.0
 70
    24
 71
     3
 72
    14
 73
    10
 74
     0
 42
0.000000001
 43
0.00000001
 40
0.0
 40
0.0
 40
0.0
 40
0.0
 40
0.25
 40
0.25
 40
0.5
 40
0.5
 40
0.75
 40
0.75
 40
1.0
 40
1.0
 40
1.0
 40
1.0
 10
177.4507006885869
 20
135.4560936504017
 30
0.0
 10
177.4507006885869
 20
135.4560936504017
 30
0.0
 10
177.4344196538111
 20
135.4560936504017
 30
0.0
 10
177.3697565912865
 20
135.4560936504017
 30
0.0
 10
177.3202767949978
 20
135.4560936504017
 30
0.0
 10
177.1863070378591
 20
135.4560936504017
 30
0.0
 10
177.1001923112596
 20
135.4560936504017
 30
0.0
 10
176.8947361955466
 20
135.4560936504017
 30
0.0
 10
176.7733156583537
 20
135.4560936504017
 30
0.0
 10
176.6507006885869
 20
135.4560936504017
 30
0.0
  0
LINE
  5
BA
330
1F
100
AcDbEntity
  8
0
  6
Continuous
 62
     7
370
    15
100
AcDbLine
 10
176.650700995
 20
61.9583275371
 30
0.0
 11
174.4307008546
 21
61.9583275371
 31
0.0
  0
LINE
  5
BB
330
1F
100
AcDbEntity
  8
0
  6
Continuous
 62
     7
370
    15
100
AcDbLine
 10
176.650700995
 20
135.456094166
 30
0.0
 11
174.4307008546
 21
135.456094166
 31
0.0
  0
SPLINE
  5
BC
330
1F
100
AcDbEntity
  8
0
  6
Continuous
 62
     7
370
    15
100
AcDbSpline
210
0.0
220
0.0
230
1.0
 70
     8
 71
     3
 72
     8
 73
     4
 74
     0
 42
0.000000001
 43
0.00000001
 40
0.0000000000000004
 40
0.0000000000000004
 40
0.0000000000000004
 40
0.0000000000000004
 40
0.0011862984959128
 40
0.0011862984959128
 40
0.0011862984959128
 40
0.0011862984959128
 10
178.320748519087
 20
59.42017858342539
 30
0.0
 10
178.4707799889584
 20
59.23885848911434
 30
0.0
 10
178.6218374341778
 20
59.05774615867396
 30
0.0
 10
178.7738621960488
 20
58.87683430905573
 30
0.0
  0
SPLINE
  5
BD
330
1F
100
AcDbEntity
  8
0
  6
Continuous
 62
     7
370
    15
100
AcDbSpline
210
0.0
220
0.0
230
1.0
 70
     8
 71
     3
 72
     8
 73
     4
 74
     0
 42
0.000000001
 43
0.00000001
 40
0.0
 40
0.0
 40
0.0
 40
0.0
 40
1.0
 40
1.0
 40
1.0
 40
1.0
 10
178.32074851909
 20
59.42017858342706
 30
0.0
 10
178.0304542848286
 20
59.94208084914959
 30
0.0
 10
177.7404291346112
 20
60.46413423140898
 30
0.0
 10
177.4507006885869
 20
60.98635424157195
 30
0.0
  0
LINE
  5
BE
330
1F
100
AcDbEntity
  8
0
  6
Continuous
 62
     7
370
    15
100
AcDbLine
 10
177.4507005673
 20
60.9863545948
 30
0.0
 11
177.4507005673
 21
87.6767911219
 31
0.0
  0
SPLINE
  5
BF
330
1F
100
AcDbEntity
  8
0
  6
Continuous
 62
     7
370
    15
100
AcDbSpline
210
0.0
220
0.0
230
1.0
 70
     8
 71
     3
 72
    14
 73
    10
 74
     0
 42
0.000000001
 43
0.00000001
 40
0.0
 40
0.0
 40
0.0
 40
0.0
 40
0.25
 40
0.25
 40
0.5
 40
0.5
 40
0.75
 40
0.75
 40
1.0
 40
1.0
 40
1.0
 40
1.0
 10
177.4507006885869
 20
61.1250021619951
 30
0.0
 10
177.4507006885869
 20
61.2320661483359
 30
0.0
 10
177.4307168623469
 20
61.33880547471041
 30
0.0
 10
177.3532817799134
 20
61.5375553769012
 30
0.0
 10
177.295342857754
 20
61.63010959339373
 30
0.0
 10
177.1497050519932
 20
61.78520653679931
 30
0.0
 10
177.0609160556579
 20
61.84894669371217
 30
0.0
 10
176.8643676954534
 20
61.93569525079977
 30
0.0
 10
176.758228465754
 20
61.95832738453193
 30
0.0
 10
176.6507006885869
 20
61.95832738453193
 30
0.0
  0
LINE
  5
C0
330
1F
100
AcDbEntity
  8
0
  6
Continuous
 62
     7
370
    15
100
AcDbLine
 10
164.4407006886
 20
70.681094771
 30
0.0
 11
164.4407006886
 21
140.5310925298
 31
0.0
  0
SPLINE
  5
C1
330
1F
100
AcDbEntity
  8
0
  6
Continuous
 62
     7
370
    15
100
AcDbSpline
210
0.0
220
0.0
230
1.0
 70
    11
 71
     3
 72
    94
 73
    90
 74
     0
 42
0.000000001
 43
0.00000001
 40
0.0
 40
0.0
 40
0.0
 40
0.0
 40
0.0312499999999997
 40
0.0312499999999997
 40
0.0624999999999995
 40
0.0624999999999995
 40
0.0937499999999992
 40
0.0937499999999992
 40
0.1093749999999991
 40
0.1093749999999991
 40
0.124999999999999
 40
0.124999999999999
 40
0.1562499999999992
 40
0.1562499999999992
 40
0.1718749999999995
 40
0.1718749999999995
 40
0.1874999999999999
 40
0.1874999999999999
 40
0.2187500000000005
 40
0.2187500000000005
 40
0.2343750000000007
 40
0.2343750000000007
 40
0.2500000000000008
 40
0.2500000000000008
 40
0.2812500000000013
 40
0.2812500000000013
 40
0.3125000000000019
 40
0.3125000000000019
 40
0.3281250000000022
 40
0.3281250000000022
 40
0.3437500000000026
 40
0.3437500000000026
 40
0.3750000000000032
 40
0.3750000000000032
 40
0.3906250000000035
 40
0.3906250000000035
 40
0.4062500000000038
 40
0.4062500000000038
 40
0.4218750000000041
 40
0.4218750000000041
 40
0.4375000000000044
 40
0.4375000000000044
 40
0.4687500000000051
 40
0.4687500000000051
 40
0.4843750000000053
 40
0.4843750000000053
 40
0.5000000000000057
 40
0.5000000000000057
 40
0.5312500000000059
 40
0.5312500000000059
 40
0.562500000000006
 40
0.562500000000006
 40
0.5781250000000059
 40
0.5781250000000059
 40
0.5937500000000058
 40
0.5937500000000058
 40
0.6250000000000054
 40
0.6250000000000054
 40
0.656250000000005
 40
0.656250000000005
 40
0.6875000000000047
 40
0.6875000000000047
 40
0.7187500000000043
 40
0.7187500000000043
 40
0.7500000000000039
 40
0.7500000000000039
 40
0.7812500000000036
 40
0.7812500000000036
 40
0.8125000000000033
 40
0.8125000000000033
 40
0.8281250000000031
 40
0.8281250000000031
 40
0.8437500000000029
 40
0.8437500000000029
 40
0.8593750000000026
 40
0.8593750000000026
 40
0.8750000000000023
 40
0.8750000000000023
 40
0.9062500000000019
 40
0.9062500000000019
 40
0.9218750000000017
 40
0.9218750000000017
 40
0.9375000000000013
 40
0.9375000000000013
 40
0.9531250000000009
 40
0.9531250000000009
 40
0.9687500000000006
 40
0.9687500000000006
 40
1.0
 40
1.0
 40
1.0
 40
1.0
 10
212.5014466364382
 20
110.4486006354424
 30
0.0
 10
212.8516914842344
 20
110.7390408672224
 30
0.0
 10
213.2250376976799
 20
110.9922931206894
 30
0.0
 10
214.0150106789064
 20
111.4299032707791
 30
0.0
 10
214.4347988954291
 20
111.6147131047784
 30
0.0
 10
215.2895911681584
 20
111.9045474144015
 30
0.0
 10
215.7272127468947
 20
112.0115653337475
 30
0.0
 10
216.3989326115082
 20
112.1157738200153
 30
0.0
 10
216.6265155024891
 20
112.141104598931
 30
0.0
 10
217.0802388205059
 20
112.1718680525063
 30
0.0
 10
217.3064178524741
 20
112.1774313249494
 30
0.0
 10
217.9829577815486
 20
112.1654047855941
 30
0.0
 10
218.4313378712711
 20
112.1193449378231
 30
0.0
 10
219.0998420217664
 20
111.9916496482724
 30
0.0
 10
219.3227581260919
 20
111.9389569720618
 30
0.0
 10
219.7587666504186
 20
111.8155448415957
 30
0.0
 10
219.9727795326651
 20
111.7447198099724
 30
0.0
 10
220.6030035733778
 20
111.5051487487976
 30
0.0
 10
221.007516064142
 20
111.3095823970412
 30
0.0
 10
221.5895089394282
 20
110.9588644163158
 30
0.0
 10
221.7793573443016
 20
110.8321363195735
 30
0.0
 10
222.1422185032552
 20
110.5644545468208
 30
0.0
 10
222.3163305661431
 20
110.4228866799734
 30
0.0
 10
222.8166400233413
 20
109.9747977831341
 30
0.0
 10
223.1210820500219
 20
109.6451839124378
 30
0.0
 10
223.6656456581913
 20
108.9169395115408
 30
0.0
 10
223.8974311186718
 20
108.5286337422455
 30
0.0
 10
224.1786126964877
 20
107.917246623145
 30
0.0
 10
224.2614855396969
 20
107.7081831060536
 30
0.0
 10
224.404462158571
 20
107.2789711939348
 30
0.0
 10
224.464840847461
 20
107.0571822297249
 30
0.0
 10
224.6060272648595
 20
106.3896804974013
 30
0.0
 10
224.6485701413998
 20
105.9407820415009
 30
0.0
 10
224.6349956347991
 20
105.261577746153
 30
0.0
 10
224.6172366694235
 20
105.032709111626
 30
0.0
 10
224.5556632867722
 20
104.5807329099514
 30
0.0
 10
224.5121608908912
 20
104.3583708702438
 30
0.0
 10
224.4007781786609
 20
103.9205870800942
 30
0.0
 10
224.3328947096719
 20
103.7051662408299
 30
0.0
 10
224.1729902699017
 20
103.2811788658285
 30
0.0
 10
224.080310799311
 20
103.0714443549593
 30
0.0
 10
223.7714222706813
 20
102.4640221978931
 30
0.0
 10
223.524973483242
 20
102.086620099855
 30
0.0
 10
223.0985101602934
 20
101.5587693161821
 30
0.0
 10
222.9459843739658
 20
101.3884977501657
 30
0.0
 10
222.627312009954
 20
101.0663977600108
 30
0.0
 10
222.4609561240642
 20
100.9141173652084
 30
0.0
 10
221.9417521454887
 20
100.4822906172354
 30
0.0
 10
221.5671351429402
 20
100.2265355588503
 30
0.0
 10
220.7723490872663
 20
99.78492429441667
 30
0.0
 10
220.3598065882471
 20
99.60285605575358
 30
0.0
 10
219.7194246325632
 20
99.38438609921835
 30
0.0
 10
219.502342979214
 20
99.32073739214187
 30
0.0
 10
219.0608327323675
 20
99.21198982412454
 30
0.0
 10
218.8361852515962
 20
99.16697233419409
 30
0.0
 10
218.1639495000284
 20
99.06217812482952
 30
0.0
 10
217.7138652025125
 20
99.03122549633338
 30
0.0
 10
216.809897681851
 20
99.04588228617834
 30
0.0
 10
216.3519247763773
 20
99.09267284191557
 30
0.0
 10
215.4630876861335
 20
99.26208462109254
 30
0.0
 10
215.0298430946239
 20
99.38400783160874
 30
0.0
 10
214.1859278984921
 20
99.70355540594312
 30
0.0
 10
213.7723151040573
 20
99.90361818940444
 30
0.0
 10
213.0010767698036
 20
100.3682444678276
 30
0.0
 10
212.63973548885
 20
100.6335134549568
 30
0.0
 10
211.9679416692711
 20
101.2339051104252
 30
0.0
 10
211.6567016987671
 20
101.5717877875835
 30
0.0
 10
211.1188095401079
 20
102.2912174250165
 30
0.0
 10
210.887807895896
 20
102.6758512303574
 30
0.0
 10
210.6031749069051
 20
103.2937837541151
 30
0.0
 10
210.5185486899554
 20
103.5075994854987
 30
0.0
 10
210.3755497027204
 20
103.9379061383278
 30
0.0
 10
210.316480641492
 20
104.1556604662251
 30
0.0
 10
210.2231468528
 20
104.5963708140346
 30
0.0
 10
210.1888806111284
 20
104.8193265042831
 30
0.0
 10
210.1458859377746
 20
105.2706002815408
 30
0.0
 10
210.1372423214205
 20
105.5005593505744
 30
0.0
 10
210.151427709536
 20
106.1847492047201
 30
0.0
 10
210.2129765985043
 20
106.6325933037677
 30
0.0
 10
210.3808115644549
 20
107.2923810108998
 30
0.0
 10
210.4500051927801
 20
107.5115929566965
 30
0.0
 10
210.6109942805915
 20
107.9372437910126
 30
0.0
 10
210.7027091501209
 20
108.1441112356269
 30
0.0
 10
210.9075351876515
 20
108.5465241521421
 30
0.0
 10
211.0206497438924
 20
108.7420677650397
 30
0.0
 10
211.2679603846827
 20
109.1220462442342
 30
0.0
 10
211.4027878778547
 20
109.3071395766217
 30
0.0
 10
211.831422040708
 20
109.8364050989313
 30
0.0
 10
212.1512017886419
 20
110.1581604036624
 30
0.0
 10
212.5014466364382
 20
110.4486006354424
 30
0.0
  0
LINE
  5
C2
330
1F
100
AcDbEntity
  8
0
  6
Continuous
 62
     7
370
    15
100
AcDbLine
 10
232.8407037046
 20
105.6060936504
 30
0.0
 11
232.8407037046
 21
73.6060921305
 31
0.0
  0
LINE
  5
C3
330
1F
100
AcDbEntity
  8
0
  6
Continuous
 62
     7
370
    15
100
AcDbLine
 10
232.8407037046
 20
137.6060951703
 30
0.0
 11
232.8407037046
 21
105.6060936504
 31
0.0
  0
LINE
  5
C4
330
1F
100
AcDbEntity
  8
0
  6
Continuous
 62
     7
370
    15
100
AcDbLine
 10
233.4406989601
 20
105.6060936504
 30
0.0
 11
233.4406989601
 21
74.2060948365
 31
0.0
  0
LINE
  5
C5
330
1F
100
AcDbEntity
  8
0
  6
Continuous
 62
     7
370
    15
100
AcDbLine
 10
233.4406989601
 20
137.0060924643
 30
0.0
 11
233.4406989601
 21
105.6060936504
 31
0.0
  0
LINE
  5
C6
330
1F
100
AcDbEntity
  8
0
  6
Continuous
 62
     7
370
    15
100
AcDbLine
 10
176.650700995
 20
149.2538597637
 30
0.0
 11
174.4307008546
 21
149.2538597637
 31
0.0
  0
LINE
  5
C7
330
1F
100
AcDbEntity
  8
0
  6
Continuous
 62
     7
370
    15
100
AcDbLine
 10
174.4307008546
 20
139.9459760838
 30
0.0
 11
176.650700995
 21
139.9459760838
 31
0.0
  0
SPLINE
  5
C8
330
1F
100
AcDbEntity
  8
0
  6
Continuous
 62
     7
370
    15
100
AcDbSpline
210
0.0
220
0.0
230
1.0
 70
     8
 71
     3
 72
    12
 73
     8
 74
     0
 42
0.000000001
 43
0.00000001
 40
0.0
 40
0.0
 40
0.0
 40
0.0
 40
0.499999999999993
 40
0.499999999999993
 40
0.7499999999999964
 40
0.7499999999999964
 40
1.0
 40
1.0
 40
1.0
 40
1.0
 10
183.4907006885869
 20
151.9010806036322
 30
0.0
 10
183.4907006885869
 20
152.0212732102974
 30
0.0
 10
183.4367322583178
 20
152.1391805108124
 30
0.0
 10
183.275645617385
 20
152.2785600552957
 30
0.0
 10
183.2108831979118
 20
152.3167253528597
 30
0.0
 10
183.0588291963474
 20
152.3713776151931
 30
0.0
 10
182.9760994231982
 20
152.3859383051772
 30
0.0
 10
182.8907006885869
 20
152.3859383051773
 30
0.0
  0
SPLINE
  5
C9
330
1F
100
AcDbEntity
  8
0
  6
Continuous
 62
     7
370
    15
100
AcDbSpline
210
0.0
220
0.0
230
1.0
 70
     8
 71
     3
 72
    12
 73
     8
 74
     0
 42
0.000000001
 43
0.00000001
 40
0.0
 40
0.0
 40
0.0
 40
0.0
 40
0.2500000000000054
 40
0.2500000000000054
 40
0.5000000000000108
 40
0.5000000000000108
 40
1.0
 40
1.0
 40
1.0
 40
1.0
 10
182.8907006885874
 20
144.1171716020769
 30
0.0
 10
182.9802377467585
 20
144.1171716020768
 30
0.0
 10
183.0701369255471
 20
144.0903443032458
 30
0.0
 10
183.2235617845464
 20
143.9986373379863
 30
0.0
 10
183.2886108419241
 20
143.9343823963875
 30
0.0
 10
183.4419300731884
 20
143.7149702503259
 30
0.0
 10
183.4907006885869
 20
143.533154940529
 30
0.0
 10
183.4907006885869
 20
143.3551747650461
 30
0.0
  0
LINE
  5
CA
330
1F
100
AcDbEntity
  8
0
  6
Continuous
 62
     7
370
    15
100
AcDbLine
 10
183.490700924
 20
143.3551755005
 30
0.0
 11
183.490700924
 21
151.9010808521
 31
0.0
  0
SPLINE
  5
CB
330
1F
100
AcDbEntity
  8
0
  6
Continuous
 62
     7
370
    15
100
AcDbSpline
210
0.0
220
0.0
230
1.0
 70
     8
 71
     3
 72
    12
 73
     8
 74
     0
 42
0.000000001
 43
0.00000001
 40
0.0
 40
0.0
 40
0.0
 40
0.0
 40
0.2500000000000007
 40
0.2500000000000007
 40
0.5000000000000014
 40
0.5000000000000014
 40
1.0
 40
1.0
 40
1.0
 40
1.0
 10
174.4307006885869
 20
149.2538599162715
 30
0.0
 10
174.3243557087109
 20
149.2538599162715
 30
0.0
 10
174.2170793613084
 20
149.276575154131
 30
0.0
 10
174.0217035719122
 20
149.3626003210134
 30
0.0
 10
173.9331498358353
 20
149.4255790479418
 30
0.0
 10
173.711891911704
 20
149.6607705583788
 30
0.0
 10
173.6307006885869
 20
149.8739467728641
 30
0.0
 10
173.6307006885869
 20
150.0871851388082
 30
0.0
  0
SPLINE
  5
CC
330
1F
100
AcDbEntity
  8
0
  6
Continuous
 62
     7
370
    15
100
AcDbSpline
210
0.0
220
0.0
230
1.0
 70
     8
 71
     3
 72
    12
 73
     8
 74
     0
 42
0.000000001
 43
0.00000001
 40
0.0
 40
0.0
 40
0.0
 40
0.0
 40
0.499999999999994
 40
0.499999999999994
 40
0.749999999999997
 40
0.749999999999997
 40
1.0
 40
1.0
 40
1.0
 40
1.0
 10
173.6307006885869
 20
140.9991367521187
 30
0.0
 10
173.6307006885869
 20
140.756713656138
 30
0.0
 10
173.6936218300287
 20
140.5109431355366
 30
0.0
 10
173.8956507270312
 20
140.2059969561198
 30
0.0
 10
173.9819444516784
 20
140.1154040895213
 30
0.0
 10
174.1874182462451
 20
139.9849705265845
 30
0.0
 10
174.3073688068448
 20
139.9459757119348
 30
0.0
 10
174.4307006885869
 20
139.9459757119348
 30
0.0
  0
SPLINE
  5
CD
330
1F
100
AcDbEntity
  8
0
  6
Continuous
 62
     7
370
    15
100
AcDbSpline
210
0.0
220
0.0
230
1.0
 70
     8
 71
     3
 72
     8
 73
     4
 74
     0
 42
0.000000001
 43
0.00000001
 40
0.0
 40
0.0
 40
0.0
 40
0.0
 40
0.0012352705496723
 40
0.0012352705496723
 40
0.0012352705496723
 40
0.0012352705496723
 10
172.8640296664195
 20
151.6061268950708
 30
0.0
 10
172.6789944156176
 20
151.8662284707991
 30
0.0
 10
172.4934876064468
 20
152.126162549426
 30
0.0
 10
172.307539181125
 20
152.3859383051773
 30
0.0
  0
SPLINE
  5
CE
330
1F
100
AcDbEntity
  8
0
  6
Continuous
 62
     7
370
    15
100
AcDbSpline
210
0.0
220
0.0
230
1.0
 70
     8
 71
     3
 72
     8
 73
     4
 74
     0
 42
0.000000001
 43
0.00000001
 40
0.0
 40
0.0
 40
0.0
 40
0.0
 40
1.0
 40
1.0
 40
1.0
 40
1.0
 10
173.6307006885869
 20
150.2258330592315
 30
0.0
 10
173.3753693752816
 20
150.6860540794971
 30
0.0
 10
173.1198059771753
 20
151.1461485398055
 30
0.0
 10
172.8640296664195
 20
151.6061268950708
 30
0.0
  0
SPLINE
  5
CF
330
1F
100
AcDbEntity
  8
0
  6
Continuous
 62
     7
370
    15
100
AcDbSpline
210
0.0
220
0.0
230
1.0
 70
     8
 71
     3
 72
     8
 73
     4
 74
     0
 42
0.000000001
 43
0.00000001
 40
0.0
 40
0.0
 40
0.0
 40
0.0
 40
1.0
 40
1.0
 40
1.0
 40
1.0
 10
172.307539181125
 20
144.1171716020769
 30
0.0
 10
172.7543879090527
 20
143.1379357038206
 30
0.0
 10
173.1957542669485
 20
142.1567337110937
 30
0.0
 10
173.6307006885869
 20
141.1732293927113
 30
0.0
  0
LINE
  5
D0
330
1F
100
AcDbEntity
  8
0
  6
Continuous
 62
     7
370
    15
100
AcDbLine
 10
172.3075396355
 20
144.1171724551
 30
0.0
 11
172.3075396355
 21
152.3859385603
 31
0.0
  0
LINE
  5
D1
330
1F
100
AcDbEntity
  8
0
  6
Continuous
 62
     7
370
    15
100
AcDbLine
 10
173.6307003509
 20
141.1732282692
 30
0.0
 11
173.6307003509
 21
150.225832706
 31
0.0
  0
SPLINE
  5
D2
330
1F
100
AcDbEntity
  8
0
  6
Continuous
 62
     7
370
    15
100
AcDbSpline
210
0.0
220
0.0
230
1.0
 70
     8
 71
     3
 72
    14
 73
    10
 74
     0
 42
0.000000001
 43
0.00000001
 40
0.0
 40
0.0
 40
0.0
 40
0.0
 40
0.25
 40
0.25
 40
0.5
 40
0.5
 40
0.75
 40
0.75
 40
1.0
 40
1.0
 40
1.0
 40
1.0
 10
177.4507006885869
 20
150.0871851388083
 30
0.0
 10
177.4507006885869
 20
149.9798427666609
 30
0.0
 10
177.4307044965227
 20
149.8732137598131
 30
0.0
 10
177.353006412178
 20
149.6740619806619
 30
0.0
 10
177.2950132672845
 20
149.5815790823464
 30
0.0
 10
177.1489667744616
 20
149.4263432472372
 30
0.0
 10
177.059629035294
 20
149.3626093056248
 30
0.0
 10
176.8648740232335
 20
149.2767790392297
 30
0.0
 10
176.7573437520246
 20
149.2538599162712
 30
0.0
 10
176.6507006885848
 20
149.2538599162715
 30
0.0
  0
SPLINE
  5
D3
330
1F
100
AcDbEntity
  8
0
  6
Continuous
 62
     7
370
    15
100
AcDbSpline
210
0.0
220
0.0
230
1.0
 70
     8
 71
     3
 72
    14
 73
    10
 74
     0
 42
0.000000001
 43
0.00000001
 40
0.0
 40
0.0
 40
0.0
 40
0.0
 40
0.25
 40
0.25
 40
0.5
 40
0.5
 40
0.75
 40
0.75
 40
1.0
 40
1.0
 40
1.0
 40
1.0
 10
176.6507006885869
 20
139.9459757119348
 30
0.0
 10
176.7720272185726
 20
139.9459757119348
 30
0.0
 10
176.8937319271349
 20
139.984757227368
 30
0.0
 10
177.100171806021
 20
140.1159118490618
 30
0.0
 10
177.1861223444771
 20
140.206563933649
 30
0.0
 10
177.3200341042253
 20
140.4086809685903
 30
0.0
 10
177.3695985410445
 20
140.5224159121294
 30
0.0
 10
177.4344525690124
 20
140.7553755291959
 30
0.0
 10
177.4507006885869
 20
140.8780737955251
 30
0.0
 10
177.4507006885869
 20
140.9991367521187
 30
0.0
  0
SPLINE
  5
D4
330
1F
100
AcDbEntity
  8
0
  6
Continuous
 62
     7
370
    15
100
AcDbSpline
210
0.0
220
0.0
230
1.0
 70
     8
 71
     3
 72
     8
 73
     4
 74
     0
 42
0.000000001
 43
0.00000001
 40
0.0
 40
0.0
 40
0.0
 40
0.0
 40
1.0
 40
1.0
 40
1.0
 40
1.0
 10
178.2173717107533
 20
151.6061268950691
 30
0.0
 10
177.9615953999979
 20
151.1461485398043
 30
0.0
 10
177.7060320018919
 20
150.6860540794965
 30
0.0
 10
177.4507006885869
 20
150.2258330592315
 30
0.0
  0
SPLINE
  5
D5
330
1F
100
AcDbEntity
  8
0
  6
Continuous
 62
     7
370
    15
100
AcDbSpline
210
0.0
220
0.0
230
1.0
 70
     8
 71
     3
 72
     8
 73
     4
 74
     0
 42
0.000000001
 43
0.00000001
 40
0.0
 40
0.0
 40
0.0
 40
0.0
 40
0.0012352705496738
 40
0.0012352705496738
 40
0.0012352705496738
 40
0.0012352705496738
 10
178.7738621960488
 20
152.3859383051773
 30
0.0
 10
178.5879137707267
 20
152.1261625494256
 30
0.0
 10
178.4024069615556
 20
151.8662284707983
 30
0.0
 10
178.2173717107534
 20
151.6061268950697
 30
0.0
  0
LINE
  5
D6
330
1F
100
AcDbEntity
  8
0
  6
Continuous
 62
     7
370
    15
100
AcDbLine
 10
178.773862214
 20
144.1171724551
 30
0.0
 11
178.773862214
 21
152.3859385603
 31
0.0
  0
SPLINE
  5
D7
330
1F
100
AcDbEntity
  8
0
  6
Continuous
 62
     7
370
    15
100
AcDbSpline
210
0.0
220
0.0
230
1.0
 70
     8
 71
     3
 72
     8
 73
     4
 74
     0
 42
0.000000001
 43
0.00000001
 40
0.0
 40
0.0
 40
0.0
 40
0.0
 40
1.0
 40
1.0
 40
1.0
 40
1.0
 10
177.4507006885869
 20
141.1732293927113
 30
0.0
 10
177.8856471102253
 20
142.1567337110938
 30
0.0
 10
178.3270134681211
 20
143.1379357038206
 30
0.0
 10
178.7738621960488
 20
144.1171716020769
 30
0.0
  0
LINE
  5
D8
330
1F
100
AcDbEntity
  8
0
  6
Continuous
 62
     7
370
    15
100
AcDbLine
 10
177.4507005673
 20
141.1732282692
 30
0.0
 11
177.4507005673
 21
150.225832706
 31
0.0
  0
SPLINE
  5
D9
330
1F
100
AcDbEntity
  8
0
  6
Continuous
 62
     7
370
    15
100
AcDbSpline
210
0.0
220
0.0
230
1.0
 70
     8
 71
     3
 72
    14
 73
    10
 74
     0
 42
0.000000001
 43
0.00000001
 40
0.0
 40
0.0
 40
0.0
 40
0.0
 40
0.25
 40
0.25
 40
0.5
 40
0.5
 40
0.75
 40
0.75
 40
1.0
 40
1.0
 40
1.0
 40
1.0
 10
167.6407006885869
 20
143.355174765062
 30
0.0
 10
167.6407006885884
 20
143.4448984434038
 30
0.0
 10
167.6529141420353
 20
143.5337470189417
 30
0.0
 10
167.7024919974455
 20
143.7048251402452
 30
0.0
 10
167.7403556870858
 20
143.7877167355014
 30
0.0
 10
167.842619740442
 20
143.9342108527842
 30
0.0
 10
167.9088449257323
 20
143.9994855782969
 30
0.0
 10
168.0625322498549
 20
144.0908510994144
 30
0.0
 10
168.1510526270189
 20
144.1171716020769
 30
0.0
 10
168.2407006885869
 20
144.1171716020769
 30
0.0
  0
LINE
  5
DA
330
1F
100
AcDbEntity
  8
0
  6
Continuous
 62
     7
370
    15
100
AcDbLine
 10
168.2407007527
 20
144.1171724551
 30
0.0
 11
172.3075396355
 21
144.1171724551
 31
0.0
  0
LINE
  5
DB
330
1F
100
AcDbEntity
  8
0
  6
Continuous
 62
     7
370
    15
100
AcDbLine
 10
177.4507005673
 20
140.9991380029
 30
0.0
 11
177.4507005673
 21
141.1732282692
 31
0.0
  0
LINE
  5
DC
330
1F
100
AcDbEntity
  8
0
  6
Continuous
 62
     7
370
    15
100
AcDbLine
 10
178.773862214
 20
144.1171724551
 30
0.0
 11
182.8907000806
 21
144.1171724551
 31
0.0
  0
LINE
  5
DD
330
1F
100
AcDbEntity
  8
0
  6
Continuous
 62
     7
370
    15
100
AcDbLine
 10
173.6307003509
 20
141.1732282692
 30
0.0
 11
173.6307003509
 21
140.9991380029
 31
0.0
  0
LINE
  5
DE
330
1F
100
AcDbEntity
  8
0
  6
Continuous
 62
     7
370
    15
100
AcDbLine
 10
167.6407006077
 20
143.3551755005
 30
0.0
 11
167.6407006077
 21
135.456094166
 31
0.0
  0
LINE
  5
DF
330
1F
100
AcDbEntity
  8
0
  6
Continuous
 62
     7
370
    15
100
AcDbLine
 10
183.490700924
 20
143.3551755005
 30
0.0
 11
183.490700924
 21
135.456094166
 31
0.0
  0
LINE
  5
E0
330
1F
100
AcDbEntity
  8
0
  6
Continuous
 62
     7
370
    15
100
AcDbLine
 10
172.3075396355
 20
152.3859385603
 30
0.0
 11
168.2407007527
 21
152.3859385603
 31
0.0
  0
SPLINE
  5
E1
330
1F
100
AcDbEntity
  8
0
  6
Continuous
 62
     7
370
    15
100
AcDbSpline
210
0.0
220
0.0
230
1.0
 70
     8
 71
     3
 72
    10
 73
     6
 74
     0
 42
0.000000001
 43
0.00000001
 40
0.0
 40
0.0
 40
0.0
 40
0.0
 40
0.5
 40
0.5
 40
1.0
 40
1.0
 40
1.0
 40
1.0
 10
167.9305696075332
 20
152.3162579761245
 30
0.0
 10
167.8541165176144
 20
152.2459952049039
 30
0.0
 10
167.7852547953453
 20
152.1589002898621
 30
0.0
 10
167.6787425642724
 20
151.9497311616099
 30
0.0
 10
167.6407006885869
 20
151.8244136123703
 30
0.0
 10
167.6407006885869
 20
151.6950633177744
 30
0.0
  0
SPLINE
  5
E2
330
1F
100
AcDbEntity
  8
0
  6
Continuous
 62
     7
370
    15
100
AcDbSpline
210
0.0
220
0.0
230
1.0
 70
     8
 71
     3
 72
     8
 73
     4
 74
     0
 42
0.000000001
 43
0.00000001
 40
0.0
 40
0.0
 40
0.0
 40
0.0
 40
1.0
 40
1.0
 40
1.0
 40
1.0
 10
168.2407006885869
 20
152.3859383051773
 30
0.0
 10
168.1296225032494
 20
152.3859383051773
 30
0.0
 10
168.0219584993472
 20
152.3607891296227
 30
0.0
 10
167.9305696075332
 20
152.3162579761245
 30
0.0
  0
LINE
  5
E3
330
1F
100
AcDbEntity
  8
0
  6
Continuous
 62
     7
370
    15
100
AcDbLine
 10
167.6407006077
 20
143.3551755005
 30
0.0
 11
167.6407006077
 21
151.695064848
 31
0.0
  0
LINE
  5
E4
330
1F
100
AcDbEntity
  8
0
  6
Continuous
 62
     7
370
    15
100
AcDbLine
 10
182.8907000806
 20
152.3859385603
 30
0.0
 11
178.773862214
 21
152.3859385603
 31
0.0
  0
LINE
  5
E5
330
1F
100
AcDbEntity
  8
0
  6
Continuous
 62
     7
370
    15
100
AcDbLine
 10
62.8407019164
 20
87.2272491657
 30
0.0
 11
62.8407019164
 21
123.9849381351
 31
0.0
  0
ARC
  5
E6
330
1F
100
AcDbEntity
  8
0
  6
Continuous
 62
     7
370
    15
100
AcDbCircle
 10
178.6530868201
 20
90.4987588696
 30
0.0
 40
2.515818864916533
100
AcDbArc
 50
182.9932796691
 51
340.1052799775
  0
ARC
  5
E7
330
1F
100
AcDbEntity
  8
0
  6
Continuous
 62
     7
370
    15
100
AcDbCircle
 10
178.6693188204
 20
90.3893961805
 30
0.0
 40
2.340765564296732
100
AcDbArc
 50
160.1121927475
 51
347.1118894833
  0
LWPOLYLINE
  5
E8
330
1F
100
AcDbEntity
  8
0
  6
Continuous
 62
     7
370
    15
100
AcDbPolyline
 90
       13
 70
   128
 43
0.0
 10
180.6405520972
 20
90.3424356335
 10
180.5282923367
 20
89.6983124518
 10
180.1883614596
 20
89.1291160339
 10
179.6617609423
 20
88.7034960293
 10
179.0120051216
 20
88.4727906638
 10
178.317463861
 20
88.4648259931
 10
177.6619096261
 20
88.6805631422
 10
177.1244126346
 20
89.0939809584
 10
176.7698022511
 20
89.6552145683
 10
176.6408494648
 20
90.2965707906
 10
176.7531082939
 20
90.940693041
 10
177.093039171
 20
91.5098913216
 10
177.4459666546
 20
91.8267104977
  0
CIRCLE
  5
E9
330
1F
100
AcDbEntity
  8
0
  6
HIDDEN
 62
     7
370
     0
100
AcDbCircle
 10
217.3907006886
 20
105.6060936504
 30
0.0
 40
4.080384757729348
  0
CIRCLE
  5
EA
330
1F
100
AcDbEntity
  8
0
  6
HIDDEN
 62
     7
370
     0
100
AcDbCircle
 10
217.3907006886
 20
105.6060936504
 30
0.0
 40
3.780384757729337
  0
LWPOLYLINE
  5
EB
330
1F
100
AcDbEntity
  8
0
  6
HIDDEN
 62
     7
370
     0
100
AcDbPolyline
 90
       22
 70
   128
 43
0.0
 10
178.640700781
 20
89.7487770968
 10
179.3775883477
 20
89.8531466925
 10
180.0490011435
 20
90.1569823005
 10
180.5952786442
 20
90.6332858109
 10
180.9678859051
 20
91.2397369944
 10
181.1337097522
 20
91.922449527
 10
181.0780203875
 20
92.6207617127
 10
180.8057649966
 20
93.272624185
 10
180.3411318894
 20
93.8201170617
 10
179.725410321
 20
94.214592708
 10
179.0133061793
 20
94.4210007989
 10
178.2680953827
 20
94.4210007989
 10
177.555991241
 20
94.214592708
 10
176.9402687412
 20
93.8201170617
 10
176.4756374966
 20
93.272624185
 10
176.2033811744
 20
92.6207617127
 10
176.1476908784
 20
91.922449527
 10
176.3135165881
 20
91.2397369944
 10
176.6861219864
 20
90.6332858109
 10
177.2324004184
 20
90.1569823005
 10
177.9038132142
 20
89.8531466925
 10
178.640700781
 20
89.7487770968
  0
LWPOLYLINE
  5
EC
330
1F
100
AcDbEntity
  8
0
  6
HIDDEN
 62
     7
370
     0
100
AcDbPolyline
 90
       24
 70
   128
 43
0.0
 10
167.912431664
 20
91.7012334072
 10
168.1062247578
 20
90.9075705537
 10
168.4079439353
 20
90.1727700808
 10
168.7952120762
 20
89.5513292604
 10
169.2393067267
 20
89.0893355214
 10
169.7072921295
 20
88.8210550153
 10
170.1644592892
 20
88.7663845175
 10
170.576902942
 20
88.9293790066
 10
170.9140333321
 20
89.2979480528
 10
171.1508472424
 20
89.8447573387
 10
171.2697813261
 20
90.5292542853
 10
171.2620150272
 20
91.3006715679
 10
171.1281239029
 20
92.1017961779
 10
170.8780386459
 20
92.8732125291
 10
170.5303060796
 20
93.5577094757
 10
170.1107168544
 20
94.1045196929
 10
169.6503892515
 20
94.4730887392
 10
169.1834636938
 20
94.6360822969
 10
168.7445704799
 20
94.5814117991
 10
168.3662602652
 20
94.313131293
 10
168.0765898407
 20
93.8511384853
 10
167.8970434211
 20
93.2296976649
 10
167.8409370568
 20
92.4948962607
 10
167.912431664
 20
91.7012334072
  0
LWPOLYLINE
  5
ED
330
1F
100
AcDbEntity
  8
0
  6
HIDDEN
 62
     7
370
     0
100
AcDbPolyline
 90
       20
 70
   128
 43
0.0
 10
168.6754635509
 20
91.7654955962
 10
168.8497521888
 20
91.0968758368
 10
169.1302400056
 20
90.5007120424
 10
169.486531892
 20
90.0416063347
 10
169.8800184738
 20
89.7693108969
 10
170.2680586811
 20
89.7133328223
 10
170.6086028341
 20
89.8797396773
 10
170.8647477414
 20
90.2504964002
 10
171.0087353338
 20
90.7854266667
 10
171.024963164
 20
91.4265630969
 10
170.9116724294
 20
92.1044271641
 10
170.6811402898
 20
92.7455635943
 10
170.3583476108
 20
93.2804938608
 10
169.9782748681
 20
93.6512505838
 10
169.5821084056
 20
93.8176565074
 10
169.2127789345
 20
93.7616793641
 10
168.910309111
 20
93.4893839263
 10
168.7074763674
 20
93.03027915
 10
168.626260848
 20
92.4341144242
 10
168.6754635509
 20
91.7654955962
  0
ELLIPSE
  5
EE
330
1F
100
AcDbEntity
  8
0
  6
HIDDEN
 62
     7
370
     0
100
AcDbEllipse
 10
178.6407006886
 20
93.8755835391
 30
0.0
 11
1.760776919379111
 21
2.232245799914451
 31
0.0
210
0.0
220
0.0
230
1.0
 40
0.5126701559
 41
1.100887047646272
 42
4.02962702760828
  0
ARC
  5
EF
330
1F
100
AcDbEntity
  8
0
  6
HIDDEN
 62
     7
370
     0
100
AcDbCircle
 10
177.94410122
 20
95.0531234202
 30
0.0
 40
0.794594954225782
100
AcDbArc
 50
53.4208190544
 51
99.1663888759
  0
ELLIPSE
  5
F0
330
1F
100
AcDbEntity
  8
0
  6
HIDDEN
 62
     7
370
     0
100
AcDbEllipse
 10
178.6407006886
 20
93.8755835391
 30
0.0
 11
1.760776919379112
 21
-1.388886188042946
 31
0.0
210
0.0
220
0.0
230
1.0
 40
0.8239737799
 41
2.549926265248534
 42
4.885930273856117
  0
ARC
  5
F1
330
1F
100
AcDbEntity
  8
0
  6
HIDDEN
 62
     7
370
     0
100
AcDbCircle
 10
178.8867534505
 20
93.036105975
 30
0.0
 40
1.353195702694764
100
AcDbArc
 50
217.8001040701
 51
249.7155767561
  0
LWPOLYLINE
  5
F2
330
1F
100
AcDbEntity
  8
0
  6
HIDDEN
 62
     7
370
     0
100
AcDbPolyline
 90
       20
 70
   128
 43
0.0
 10
178.640700781
 20
90.1744473928
 10
179.3225695353
 20
90.2813697436
 10
179.9305471566
 20
90.5905483493
 10
180.3987509545
 20
91.0684798115
 10
180.6764415439
 20
91.6633723506
 10
180.7335278925
 20
92.3107607492
 10
180.5638241556
 20
92.9404894092
 10
180.1857202288
 20
93.4843184628
 10
179.6401905801
 20
93.8833156803
 10
178.9863490473
 20
94.0942425483
 10
178.2950525146
 20
94.0942425483
 10
177.6412109818
 20
93.8833156803
 10
177.0956804018
 20
93.4843184628
 10
176.7175764751
 20
92.9404894092
 10
176.5478736695
 20
92.3107607492
 10
176.604960018
 20
91.6633723506
 10
176.8826515388
 20
91.0684798115
 10
177.3508544054
 20
90.5905483493
 10
177.9588320266
 20
90.2813697436
 10
178.640700781
 20
90.1744473928
  0
SPLINE
  5
F3
330
1F
100
AcDbEntity
  8
0
  6
HIDDEN
 62
     7
370
     0
100
AcDbSpline
210
0.0
220
0.0
230
1.0
 70
    11
 71
     3
 72
    62
 73
    58
 74
     0
 42
0.000000001
 43
0.00000001
 40
0.0
 40
0.0
 40
0.0
 40
0.0
 40
0.0312500000000001
 40
0.0312500000000001
 40
0.0625000000000001
 40
0.0625000000000001
 40
0.0937500000000002
 40
0.0937500000000002
 40
0.1250000000000002
 40
0.1250000000000002
 40
0.1875000000000002
 40
0.1875000000000002
 40
0.21875
 40
0.21875
 40
0.2499999999999998
 40
0.2499999999999998
 40
0.2812499999999996
 40
0.2812499999999996
 40
0.3124999999999994
 40
0.3124999999999994
 40
0.374999999999999
 40
0.374999999999999
 40
0.4062499999999989
 40
0.4062499999999989
 40
0.4374999999999987
 40
0.4374999999999987
 40
0.4687499999999984
 40
0.4687499999999984
 40
0.4999999999999982
 40
0.4999999999999982
 40
0.5624999999999982
 40
0.5624999999999982
 40
0.5937499999999984
 40
0.5937499999999984
 40
0.6249999999999986
 40
0.6249999999999986
 40
0.6562499999999986
 40
0.6562499999999986
 40
0.6874999999999984
 40
0.6874999999999984
 40
0.7187499999999984
 40
0.7187499999999984
 40
0.7499999999999983
 40
0.7499999999999983
 40
0.7812499999999983
 40
0.7812499999999983
 40
0.8124999999999983
 40
0.8124999999999983
 40
0.8749999999999984
 40
0.8749999999999984
 40
0.9062499999999988
 40
0.9062499999999988
 40
0.9374999999999992
 40
0.9374999999999992
 40
0.9687499999999996
 40
0.9687499999999996
 40
1.0
 40
1.0
 40
1.0
 40
1.0
 10
178.6407006885869
 20
100.992529719969
 30
0.0
 10
178.5013060046695
 20
100.992529719969
 30
0.0
 10
178.3643688227057
 20
101.0041503385316
 30
0.0
 10
178.0951671348424
 20
101.0497329156121
 30
0.0
 10
177.9614741760777
 20
101.0842854198416
 30
0.0
 10
177.7074903977587
 20
101.1744936442187
 30
0.0
 10
177.5871265863725
 20
101.2298048118286
 30
0.0
 10
177.3593327101867
 20
101.3613193986372
 30
0.0
 10
177.2519834652514
 20
101.4378986059914
 30
0.0
 10
176.9628546094578
 20
101.6909710197634
 30
0.0
 10
176.8065872368132
 20
101.89778805641
 30
0.0
 10
176.6491467880141
 20
102.2404990556345
 30
0.0
 10
176.608474788731
 20
102.3619348867095
 30
0.0
 10
176.5542753280135
 20
102.6121531027533
 30
0.0
 10
176.5407878796838
 20
102.739356029765
 30
0.0
 10
176.5406143321326
 20
102.9980209076579
 30
0.0
 10
176.5543978639629
 20
103.1306842515459
 30
0.0
 10
176.6082596753261
 20
103.3889890675885
 30
0.0
 10
176.6481047264291
 20
103.5157771828396
 30
0.0
 10
176.8068267940743
 20
103.8885066535953
 30
0.0
 10
176.9614349741894
 20
104.1176849666185
 30
0.0
 10
177.2530026054193
 20
104.4104921310898
 30
0.0
 10
177.3583485008227
 20
104.4979473472347
 30
0.0
 10
177.5852385008327
 20
104.6524165581964
 30
0.0
 10
177.708205370833
 20
104.7198653294898
 30
0.0
 10
177.961523359302
 20
104.8277772566108
 30
0.0
 10
178.0924297529625
 20
104.8689558101715
 30
0.0
 10
178.3629829282449
 20
104.9248944949352
 30
0.0
 10
178.5023943299929
 20
104.9391774755338
 30
0.0
 10
178.9146029120035
 20
104.939360628577
 30
0.0
 10
179.1920870919032
 20
104.8819924566772
 30
0.0
 10
179.5716067401551
 20
104.7206528799639
 30
0.0
 10
179.6944756179301
 20
104.6534476112753
 30
0.0
 10
179.9222423580075
 20
104.4986155246216
 30
0.0
 10
180.0275819123946
 20
104.4111730212745
 30
0.0
 10
180.2214031453083
 20
104.2168051174438
 30
0.0
 10
180.3095747192279
 20
104.1096738121928
 30
0.0
 10
180.4614056356548
 20
103.8852104561808
 30
0.0
 10
180.5262045255271
 20
103.7668502228163
 30
0.0
 10
180.6326409978822
 20
103.5177224614031
 30
0.0
 10
180.6727753128628
 20
103.3901943308072
 30
0.0
 10
180.7266840672237
 20
103.1327610531751
 30
0.0
 10
180.7406363993277
 20
103.0009959954231
 30
0.0
 10
180.7407645285087
 20
102.7406946782675
 30
0.0
 10
180.7272597084308
 20
102.613440436938
 30
0.0
 10
180.6736200882426
 20
102.3644764614498
 30
0.0
 10
180.6328635995911
 20
102.2420468189552
 30
0.0
 10
180.4751955071417
 20
101.8981773818395
 30
0.0
 10
180.3189954214006
 20
101.6915136780623
 30
0.0
 10
180.0301455989299
 20
101.4384609377199
 30
0.0
 10
179.9235125969062
 20
101.3622435098189
 30
0.0
 10
179.6949699955856
 20
101.2301165520206
 30
0.0
 10
179.5746333022732
 20
101.1748373994003
 30
0.0
 10
179.3218193126632
 20
101.0848711386756
 30
0.0
 10
179.187929380733
 20
101.0500804013761
 30
0.0
 10
178.9174063818251
 20
101.0041536409898
 30
0.0
 10
178.7800953725043
 20
100.992529719969
 30
0.0
 10
178.6407006885869
 20
100.992529719969
 30
0.0
  0
SPLINE
  5
F4
330
1F
100
AcDbEntity
  8
0
  6
HIDDEN
 62
     7
370
     0
100
AcDbSpline
210
0.0
220
0.0
230
1.0
 70
     8
 71
     3
 72
     8
 73
     4
 74
     0
 42
0.000000001
 43
0.00000001
 40
0.0
 40
0.0
 40
0.0
 40
0.0
 40
1.0
 40
1.0
 40
1.0
 40
1.0
 10
177.8175205124275
 20
95.8375716149231
 30
0.0
 10
178.0289479024287
 20
95.83006210514061
 30
0.0
 10
178.2314164489615
 20
95.77593857550598
 30
0.0
 10
178.4176270480988
 20
95.6912102882808
 30
0.0
  0
SPLINE
  5
F5
330
1F
100
AcDbEntity
  8
0
  6
HIDDEN
 62
     7
370
     0
100
AcDbSpline
210
0.0
220
0.0
230
1.0
 70
     8
 71
     3
 72
     8
 73
     4
 74
     0
 42
0.000000001
 43
0.00000001
 40
0.0
 40
0.0
 40
0.0
 40
0.0
 40
1.0
 40
1.0
 40
1.0
 40
1.0
 10
178.4176270480988
 20
91.76683152034657
 30
0.0
 10
178.2311026988144
 20
91.88915193624702
 30
0.0
 10
178.0285478002888
 20
92.03023709691175
 30
0.0
 10
177.8175205124275
 20
92.20672073269658
 30
0.0
  0
SPLINE
  5
F6
330
1F
100
AcDbEntity
  8
0
  6
HIDDEN
 62
     7
370
     0
100
AcDbSpline
210
0.0
220
0.0
230
1.0
 70
     8
 71
     3
 72
    18
 73
    14
 74
     0
 42
0.000000001
 43
0.00000001
 40
0.0
 40
0.0
 40
0.0
 40
0.0
 40
0.2500000000000037
 40
0.2500000000000037
 40
0.5000000000000073
 40
0.5000000000000073
 40
0.6250000000000054
 40
0.6250000000000054
 40
0.7500000000000037
 40
0.7500000000000037
 40
0.8750000000000018
 40
0.8750000000000018
 40
1.0
 40
1.0
 40
1.0
 40
1.0
 10
233.4407006885869
 20
122.6037948945076
 30
0.0
 10
233.4407006885869
 20
122.5084752294898
 30
0.0
 10
233.4354426254239
 20
122.4114458433221
 30
0.0
 10
233.4079376355569
 20
122.2118617027971
 30
0.0
 10
233.3854541420833
 20
122.106857533094
 30
0.0
 10
233.3271557899625
 20
121.9548487845096
 30
0.0
 10
233.3028289962547
 20
121.9037968843358
 30
0.0
 10
233.2439856370711
 20
121.8112459932581
 30
0.0
 10
233.208862916618
 20
121.7694240166255
 30
0.0
 10
233.1338842446257
 20
121.7049517600231
 30
0.0
 10
233.0938974269718
 20
121.6817938742694
 30
0.0
 10
233.015289582425
 20
121.6518070284737
 30
0.0
 10
232.9774402394225
 20
121.6447690719885
 30
0.0
 10
232.9406611085725
 20
121.642509765013
 30
0.0
  0
SPLINE
  5
F7
330
1F
100
AcDbEntity
  8
0
  6
HIDDEN
 62
     7
370
     0
100
AcDbSpline
210
0.0
220
0.0
230
1.0
 70
     8
 71
     3
 72
    10
 73
     6
 74
     0
 42
0.000000001
 43
0.00000001
 40
0.0
 40
0.0
 40
0.0
 40
0.0
 40
0.5
 40
0.5
 40
1.0
 40
1.0
 40
1.0
 40
1.0
 10
232.9406611085726
 20
121.6425097650133
 30
0.0
 10
232.8758396508397
 20
121.5816421606388
 30
0.0
 10
232.8009962545375
 20
121.5266703290185
 30
0.0
 10
232.6323855986862
 20
121.4468453207602
 30
0.0
 10
232.5380950466505
 20
121.4225385467331
 30
0.0
 10
232.4407006885869
 20
121.4225385467331
 30
0.0
  0
SPLINE
  5
F8
330
1F
100
AcDbEntity
  8
0
  6
HIDDEN
 62
     7
370
     0
100
AcDbSpline
210
0.0
220
0.0
230
1.0
 70
     8
 71
     3
 72
    10
 73
     6
 74
     0
 42
0.000000001
 43
0.00000001
 40
0.0
 40
0.0
 40
0.0
 40
0.0
 40
0.5
 40
0.5
 40
1.0
 40
1.0
 40
1.0
 40
1.0
 10
232.9406508822821
 20
89.56968713819025
 30
0.0
 10
232.8758301961154
 20
89.63055240827217
 30
0.0
 10
232.8009879134579
 20
89.68552195052217
 30
0.0
 10
232.6323806397371
 20
89.76534329783107
 30
0.0
 10
232.5380924858322
 20
89.78964875407036
 30
0.0
 10
232.4407006885869
 20
89.78964875407036
 30
0.0
  0
SPLINE
  5
F9
330
1F
100
AcDbEntity
  8
0
  6
HIDDEN
 62
     7
370
     0
100
AcDbSpline
210
0.0
220
0.0
230
1.0
 70
     8
 71
     3
 72
    18
 73
    14
 74
     0
 42
0.000000001
 43
0.00000001
 40
0.0
 40
0.0
 40
0.0
 40
0.0
 40
0.125
 40
0.125
 40
0.25
 40
0.25
 40
0.375
 40
0.375
 40
0.5
 40
0.5
 40
0.75
 40
0.75
 40
1.0
 40
1.0
 40
1.0
 40
1.0
 10
232.940650882282
 20
89.56968713819018
 30
0.0
 10
232.9771377623779
 20
89.56745310190406
 30
0.0
 10
233.0153934544057
 20
89.56030961145275
 30
0.0
 10
233.0929404913943
 20
89.53084773072136
 30
0.0
 10
233.1328879066016
 20
89.50787464964056
 30
0.0
 10
233.2072328168369
 20
89.44444971378238
 30
0.0
 10
233.2423760618384
 20
89.4030597154599
 30
0.0
 10
233.3013590224097
 20
89.31115244021981
 30
0.0
 10
233.3257766449176
 20
89.26047591548212
 30
0.0
 10
233.3848529599775
 20
89.1078248991226
 30
0.0
 10
233.4073418285646
 20
89.00360569756226
 30
0.0
 10
233.4353460900349
 20
88.80246445679616
 30
0.0
 10
233.440700688587
 20
88.70397019808951
 30
0.0
 10
233.440700688587
 20
88.60839240629582
 30
0.0
  0
LINE
  5
FA
330
1F
100
AcDbEntity
  8
0
  6
HIDDEN
 62
     7
370
     0
100
AcDbLine
 10
192.9407007035
 20
105.6060936504
 30
0.0
 11
192.9407007035
 21
88.1060935759
 31
0.0
  0
LINE
  5
FB
330
1F
100
AcDbEntity
  8
0
  6
HIDDEN
 62
     7
370
     0
100
AcDbLine
 10
192.9407007035
 20
123.1060937249
 30
0.0
 11
192.9407007035
 21
105.6060936504
 31
0.0
  0
LINE
  5
FC
330
1F
100
AcDbEntity
  8
0
  6
HIDDEN
 62
     7
370
     0
100
AcDbLine
 10
197.8067251828
 20
105.6060936504
 30
0.0
 11
197.8067251828
 21
87.6060944253
 31
0.0
  0
LINE
  5
FD
330
1F
100
AcDbEntity
  8
0
  6
HIDDEN
 62
     7
370
     0
100
AcDbLine
 10
197.8067251828
 20
123.6060928755
 30
0.0
 11
197.8067251828
 21
105.6060936504
 31
0.0
  0
LINE
  5
FE
330
1F
100
AcDbEntity
  8
0
  6
HIDDEN
 62
     7
370
     0
100
AcDbLine
 10
216.840701082
 20
121.4225381815
 30
0.0
 11
232.4407043841
 21
121.4225381815
 31
0.0
  0
LINE
  5
FF
330
1F
100
AcDbEntity
  8
0
  6
HIDDEN
 62
     7
370
     0
100
AcDbLine
 10
216.840701082
 20
89.7896491193
 30
0.0
 11
232.4407043841
 21
89.7896491193
 31
0.0
  0
LINE
  5
100
330
1F
100
AcDbEntity
  8
0
  6
HIDDEN
 62
     7
370
     0
100
AcDbLine
 10
167.8122735091
 20
70.3060921484
 30
0.0
 11
167.6407006077
 21
70.3060921484
 31
0.0
  0
ELLIPSE
  5
101
330
1F
100
AcDbEntity
  8
0
  6
HIDDEN
 62
     7
370
     0
100
AcDbEllipse
 10
167.8122735638
 20
68.3060936504
 30
0.0
 11
0.0
 21
2.0
 31
0.0
210
0.0
220
0.0
230
1.0
 40
0.4142135624
 41
4.712388980384695
 42
6.283185307179586
  0
LINE
  5
102
330
1F
100
AcDbEntity
  8
0
  6
HIDDEN
 62
     7
370
     0
100
AcDbLine
 10
167.6407006077
 20
143.1060951405
 30
0.0
 11
167.8122735091
 21
143.1060951405
 31
0.0
  0
ELLIPSE
  5
103
330
1F
100
AcDbEntity
  8
0
  6
HIDDEN
 62
     7
370
     0
100
AcDbEllipse
 10
167.8122735638
 20
145.1060936504
 30
0.0
 11
0.0
 21
2.0
 31
0.0
210
0.0
220
0.0
230
1.0
 40
0.4142135624
 41
3.141592653589793
 42
4.712388980384695
  0
LINE
  5
104
330
1F
100
AcDbEntity
  8
0
  6
HIDDEN
 62
     7
370
     0
100
AcDbLine
 10
168.6407005388
 20
59.4201792234
 30
0.0
 11
167.8563606899
 21
58.9726377481
 31
0.0
  0
LINE
  5
105
330
1F
100
AcDbEntity
  8
0
  6
HIDDEN
 62
     7
370
     0
100
AcDbLine
 10
167.9305696368
 20
152.3162570053
 30
0.0
 11
168.6407005388
 21
151.6061272674
 31
0.0
  0
LINE
  5
106
330
1F
100
AcDbEntity
  8
0
  6
HIDDEN
 62
     7
370
     0
100
AcDbLine
 10
167.8122735091
 20
143.1060951405
 30
0.0
 11
183.490700924
 21
143.1060951405
 31
0.0
  0
LINE
  5
107
330
1F
100
AcDbEntity
  8
0
  6
HIDDEN
 62
     7
370
     0
100
AcDbLine
 10
183.490700924
 20
70.3060921484
 30
0.0
 11
167.8122735091
 21
70.3060921484
 31
0.0
  0
LINE
  5
108
330
1F
100
AcDbEntity
  8
0
  6
HIDDEN
 62
     7
370
     0
100
AcDbLine
 10
172.7606532138
 20
59.4201792234
 30
0.0
 11
168.6407005388
 21
59.4201792234
 31
0.0
  0
LINE
  5
109
330
1F
100
AcDbEntity
  8
0
  6
HIDDEN
 62
     7
370
     0
100
AcDbLine
 10
183.490700924
 20
59.4201792234
 30
0.0
 11
178.3207486358
 21
59.4201792234
 31
0.0
  0
LINE
  5
10A
330
1F
100
AcDbEntity
  8
0
  6
HIDDEN
 62
     7
370
     0
100
AcDbLine
 10
168.6407005388
 20
59.4201792234
 30
0.0
 11
168.6407005388
 21
68.3060918205
 31
0.0
  0
LINE
  5
10B
330
1F
100
AcDbEntity
  8
0
  6
HIDDEN
 62
     7
370
     0
100
AcDbLine
 10
168.6407005388
 20
151.6061272674
 30
0.0
 11
172.8640300196
 21
151.6061272674
 31
0.0
  0
LINE
  5
10C
330
1F
100
AcDbEntity
  8
0
  6
HIDDEN
 62
     7
370
     0
100
AcDbLine
 10
178.21737183
 20
151.6061272674
 30
0.0
 11
183.490700924
 21
151.6061272674
 31
0.0
  0
LINE
  5
10D
330
1F
100
AcDbEntity
  8
0
  6
HIDDEN
 62
     7
370
     0
100
AcDbLine
 10
168.6407005388
 20
151.6061272674
 30
0.0
 11
168.6407005388
 21
145.1060954683
 31
0.0
  0
LINE
  5
10E
330
1F
100
AcDbEntity
  8
0
  6
HIDDEN
 62
     7
370
     0
100
AcDbLine
 10
72.8406998303
 20
93.1060934641
 30
0.0
 11
72.8406998303
 21
118.1060938367
 31
0.0
  0
LINE
  5
10F
330
1F
100
AcDbEntity
  8
0
  6
HIDDEN
 62
     7
370
     0
100
AcDbLine
 10
76.1253031876
 20
95.106093792
 30
0.0
 11
76.1253031876
 21
116.1060935088
 31
0.0
  0
LINE
  5
110
330
1F
100
AcDbEntity
  8
0
  6
HIDDEN
 62
     7
370
     0
100
AcDbLine
 10
124.8407009032
 20
95.106093792
 30
0.0
 11
124.8407009032
 21
116.1060935088
 31
0.0
  0
LINE
  5
111
330
1F
100
AcDbEntity
  8
0
  6
HIDDEN
 62
     7
370
     0
100
AcDbLine
 10
126.3428534355
 20
97.6060932704
 30
0.0
 11
126.3428534355
 21
113.6060940304
 31
0.0
  0
LINE
  5
112
330
1F
100
AcDbEntity
  8
0
  6
HIDDEN
 62
     7
370
     0
100
AcDbLine
 10
232.9406979468
 20
128.506093865
 30
0.0
 11
232.9375463512
 21
129.2522918635
 31
0.0
  0
SPLINE
  5
113
330
1F
100
AcDbEntity
  8
0
  6
HIDDEN
 62
     7
370
     0
100
AcDbSpline
210
0.0
220
0.0
230
1.0
 70
     8
 71
     3
 72
    11
 73
     7
 74
     0
 42
0.000000001
 43
0.00000001
 40
0.0
 40
0.0
 40
0.0
 40
0.0
 40
0.2582298357950223
 40
0.5833599402299869
 40
0.908848731565682
 40
1.0
 40
1.0
 40
1.0
 40
1.0
 10
232.8694256927831
 20
131.0571875625263
 30
0.0
 10
232.865346500559
 20
131.0348624409325
 30
0.0
 10
232.8561313092752
 20
130.9844283709943
 30
0.0
 10
232.8784135704841
 20
130.2165251154013
 30
0.0
 10
232.9665294360976
 20
129.2786748612502
 30
0.0
 10
232.9497668797423
 20
128.6447762998035
 30
0.0
 10
232.946099617706
 20
128.5060938649784
 30
0.0
  0
SPLINE
  5
114
330
1F
100
AcDbEntity
  8
0
  6
HIDDEN
 62
     7
370
     0
100
AcDbSpline
210
0.0
220
0.0
230
1.0
 70
     8
 71
     3
 72
    14
 73
    10
 74
     0
 42
0.000000001
 43
0.00000001
 40
0.0
 40
0.0
 40
0.0
 40
0.0
 40
0.25
 40
0.25
 40
0.5
 40
0.5
 40
0.75
 40
0.75
 40
1.0
 40
1.0
 40
1.0
 40
1.0
 10
232.9460974185702
 20
128.5060936504017
 30
0.0
 10
232.9182794778511
 20
127.9343108561934
 30
0.0
 10
232.935378921165
 20
127.3623359077046
 30
0.0
 10
232.9480750028137
 20
126.2184196632856
 30
0.0
 10
232.9469715547659
 20
125.6464212097502
 30
0.0
 10
232.9422241262806
 20
124.5024491611065
 30
0.0
 10
232.9394712977709
 20
123.9304637260166
 30
0.0
 10
232.9393123175606
 20
122.7864873561976
 30
0.0
 10
232.940459476571
 20
122.2144985814632
 30
0.0
 10
232.9406611085725
 20
121.6425097650132
 30
0.0
  0
SPLINE
  5
115
330
1F
100
AcDbEntity
  8
0
  6
HIDDEN
 62
     7
370
     0
100
AcDbSpline
210
0.0
220
0.0
230
1.0
 70
     8
 71
     3
 72
    14
 73
    10
 74
     0
 42
0.000000001
 43
0.00000001
 40
0.0
 40
0.0
 40
0.0
 40
0.0
 40
0.25
 40
0.25
 40
0.5
 40
0.5
 40
0.75
 40
0.75
 40
1.0
 40
1.0
 40
1.0
 40
1.0
 10
232.9460864445533
 20
82.70609365040168
 30
0.0
 10
232.9183278208159
 20
83.27780142759113
 30
0.0
 10
232.9353360677557
 20
83.84979522146492
 30
0.0
 10
232.9481323352715
 20
84.99371682098027
 30
0.0
 10
232.9469208708024
 20
85.56572912578822
 30
0.0
 10
232.9421350792049
 20
86.70971224657642
 30
0.0
 10
232.9395386352346
 20
87.28170348528982
 30
0.0
 10
232.9392609548545
 20
88.42569477671535
 30
0.0
 10
232.9404019779225
 20
88.9976909954763
 30
0.0
 10
232.9406508822821
 20
89.56968713819018
 30
0.0
  0
LINE
  5
116
330
1F
100
AcDbEntity
  8
0
  6
HIDDEN
 62
     7
370
     0
100
AcDbLine
 10
232.9406979468
 20
82.7060934358
 30
0.0
 11
232.9373079326
 21
82.0185948365
 31
0.0
  0
SPLINE
  5
117
330
1F
100
AcDbEntity
  8
0
  6
HIDDEN
 62
     7
370
     0
100
AcDbSpline
210
0.0
220
0.0
230
1.0
 70
     8
 71
     3
 72
    11
 73
     7
 74
     0
 42
0.000000001
 43
0.00000001
 40
0.0
 40
0.0
 40
0.0
 40
0.0
 40
0.2794384530545888
 40
0.6044690575654502
 40
0.9299363827173215
 40
1.0
 40
1.0
 40
1.0
 40
1.0
 10
232.8686731841428
 20
80.14246786171306
 30
0.0
 10
232.8650046804902
 20
80.176329210506
 30
0.0
 10
232.8570691336056
 20
80.24957660136798
 30
0.0
 10
232.8815004693179
 20
81.06151716182094
 30
0.0
 10
232.9685572107552
 20
81.99526544998193
 30
0.0
 10
232.9494664232269
 20
82.59912659329106
 30
0.0
 10
232.9460847165448
 20
82.706093435825
 30
0.0
  0
LINE
  5
118
330
1F
100
AcDbEntity
  8
0
  6
HIDDEN
 62
     7
370
     0
100
AcDbLine
 10
216.840701082
 20
128.506093865
 30
0.0
 11
216.840701082
 21
121.4225381815
 31
0.0
  0
LINE
  5
119
330
1F
100
AcDbEntity
  8
0
  6
HIDDEN
 62
     7
370
     0
100
AcDbLine
 10
216.840701082
 20
82.7060934358
 30
0.0
 11
216.840701082
 21
89.7896491193
 31
0.0
  0
SPLINE
  5
11A
330
1F
100
AcDbEntity
  8
0
  6
HIDDEN
 62
     7
370
     0
100
AcDbSpline
210
0.0
220
0.0
230
1.0
 70
    11
 71
     3
 72
    62
 73
    58
 74
     0
 42
0.000000001
 43
0.00000001
 40
0.0
 40
0.0
 40
0.0
 40
0.0
 40
0.0312499999999998
 40
0.0312499999999998
 40
0.0624999999999997
 40
0.0624999999999997
 40
0.0937499999999995
 40
0.0937499999999995
 40
0.1249999999999993
 40
0.1249999999999993
 40
0.1874999999999995
 40
0.1874999999999995
 40
0.2187499999999994
 40
0.2187499999999994
 40
0.2499999999999994
 40
0.2499999999999994
 40
0.2812499999999994
 40
0.2812499999999994
 40
0.3124999999999994
 40
0.3124999999999994
 40
0.3749999999999993
 40
0.3749999999999993
 40
0.4062499999999993
 40
0.4062499999999993
 40
0.4374999999999994
 40
0.4374999999999994
 40
0.4687499999999994
 40
0.4687499999999994
 40
0.4999999999999994
 40
0.4999999999999994
 40
0.5624999999999991
 40
0.5624999999999991
 40
0.5937499999999991
 40
0.5937499999999991
 40
0.6249999999999992
 40
0.6249999999999992
 40
0.6562499999999992
 40
0.6562499999999992
 40
0.6874999999999993
 40
0.6874999999999993
 40
0.7187499999999993
 40
0.7187499999999993
 40
0.7499999999999994
 40
0.7499999999999994
 40
0.7812499999999994
 40
0.7812499999999994
 40
0.8124999999999996
 40
0.8124999999999996
 40
0.8749999999999994
 40
0.8749999999999994
 40
0.9062499999999996
 40
0.9062499999999996
 40
0.9374999999999998
 40
0.9374999999999998
 40
0.9687499999999999
 40
0.9687499999999999
 40
1.0
 40
1.0
 40
1.0
 40
1.0
 10
178.6407006885869
 20
106.2729485735336
 30
0.0
 10
178.7800953725043
 20
106.2729485735336
 30
0.0
 10
178.9170325544681
 20
106.2871513098093
 30
0.0
 10
179.1862342423315
 20
106.3425226765866
 30
0.0
 10
179.3199272010962
 20
106.3844013505255
 30
0.0
 10
179.5739109794151
 20
106.4926562802552
 30
0.0
 10
179.6942747908013
 20
106.5586207177962
 30
0.0
 10
179.9220686669871
 20
106.7134361854579
 30
0.0
 10
180.0294179119223
 20
106.8026926794163
 30
0.0
 10
180.318546767716
 20
107.0931286732885
 30
0.0
 10
180.4748141403606
 20
107.3247590679531
 30
0.0
 10
180.6322545891597
 20
107.6937073582403
 30
0.0
 10
180.6729265884428
 20
107.822241497078
 30
0.0
 10
180.7271260491602
 20
108.082015939992
 30
0.0
 10
180.74061349749
 20
108.2116626668951
 30
0.0
 10
180.7407870450412
 20
108.4703587070803
 30
0.0
 10
180.7270035132109
 20
108.6005255834739
 30
0.0
 10
180.6731417018477
 20
108.8493335063167
 30
0.0
 10
180.6332966507447
 20
108.9691617889658
 30
0.0
 10
180.4745745830996
 20
109.315432498977
 30
0.0
 10
180.3199664029844
 20
109.5200227152333
 30
0.0
 10
180.0283987717545
 20
109.7751561864748
 30
0.0
 10
179.9230528763511
 20
109.8501788514684
 30
0.0
 10
179.6961628763412
 20
109.9814117285097
 30
0.0
 10
179.5731960063409
 20
110.0379729506984
 30
0.0
 10
179.3198780178718
 20
110.1278939180611
 30
0.0
 10
179.1889716242113
 20
110.1618699041954
 30
0.0
 10
178.9184184489289
 20
110.2079214399649
 30
0.0
 10
178.779007047181
 20
110.219607365905
 30
0.0
 10
178.3667984651703
 20
110.2197575170309
 30
0.0
 10
178.0893142852706
 20
110.1730650321812
 30
0.0
 10
177.7097946370187
 20
110.0386318719278
 30
0.0
 10
177.5869257592438
 20
109.9822822345314
 30
0.0
 10
177.3591590191663
 20
109.8507519063645
 30
0.0
 10
177.2538194647792
 20
109.775740488522
 30
0.0
 10
177.0599982318656
 20
109.6063985683063
 30
0.0
 10
176.971826657946
 20
109.5118452181853
 30
0.0
 10
176.819995741519
 20
109.3102788761528
 30
0.0
 10
176.7551968516467
 20
109.2023869079391
 30
0.0
 10
176.6487603792916
 20
108.9709936505995
 30
0.0
 10
176.608626064311
 20
108.850474911486
 30
0.0
 10
176.5547173099501
 20
108.6025453264016
 30
0.0
 10
176.5407649778461
 20
108.4733067448186
 30
0.0
 10
176.5406368486652
 20
108.2130284346101
 30
0.0
 10
176.554141668743
 20
108.0833277338425
 30
0.0
 10
176.6077812889312
 20
107.8249044671227
 30
0.0
 10
176.6485377775827
 20
107.6953588890788
 30
0.0
 10
176.8062058700321
 20
107.3252074291407
 30
0.0
 10
176.9624059557732
 20
107.0937395823278
 30
0.0
 10
177.2512557782439
 20
106.8033439380901
 30
0.0
 10
177.3578887802675
 20
106.7145185129862
 30
0.0
 10
177.5864313815883
 20
106.5589931502645
 30
0.0
 10
177.7067680749006
 20
106.4930658399849
 30
0.0
 10
177.9595820645106
 20
106.3851071812723
 30
0.0
 10
178.0934719964408
 20
106.342944195193
 30
0.0
 10
178.3639949953487
 20
106.2871559061837
 30
0.0
 10
178.5013060046695
 20
106.2729485735336
 30
0.0
 10
178.6407006885869
 20
106.2729485735336
 30
0.0
  0
LINE
  5
11B
330
1F
100
AcDbEntity
  8
0
  6
HIDDEN
 62
     7
370
     0
100
AcDbLine
 10
216.840701082
 20
80.1060941272
 30
0.0
 11
216.840701082
 21
82.7060934358
 31
0.0
  0
LINE
  5
11C
330
1F
100
AcDbEntity
  8
0
  6
HIDDEN
 62
     7
370
     0
100
AcDbLine
 10
216.840701082
 20
131.1060931736
 30
0.0
 11
216.840701082
 21
128.506093865
 31
0.0
  0
SPLINE
  5
11D
330
1F
100
AcDbEntity
  8
0
  6
HIDDEN
 62
     7
370
     0
100
AcDbSpline
210
0.0
220
0.0
230
1.0
 70
     8
 71
     3
 72
     8
 73
     4
 74
     0
 42
0.000000001
 43
0.00000001
 40
0.0
 40
0.0
 40
0.0
 40
0.0
 40
1.0
 40
1.0
 40
1.0
 40
1.0
 10
177.8175205124274
 20
115.3746156858804
 30
0.0
 10
178.0289479024287
 20
115.3821251956629
 30
0.0
 10
178.2314164489614
 20
115.4362487252975
 30
0.0
 10
178.4176270480988
 20
115.5209770125226
 30
0.0
  0
ELLIPSE
  5
11E
330
1F
100
AcDbEntity
  8
0
  6
HIDDEN
 62
     7
370
     0
100
AcDbEllipse
 10
178.6407006886
 20
117.3366037617
 30
0.0
 11
-1.760776919379083
 21
2.232245799914452
 31
0.0
210
0.0
220
0.0
230
1.0
 40
0.5126701559
 41
5.395150933160649
 42
8.323890913123108
  0
SPLINE
  5
11F
330
1F
100
AcDbEntity
  8
0
  6
HIDDEN
 62
     7
370
     0
100
AcDbSpline
210
0.0
220
0.0
230
1.0
 70
     8
 71
     3
 72
     8
 73
     4
 74
     0
 42
0.000000001
 43
0.00000001
 40
0.0
 40
0.0
 40
0.0
 40
0.0
 40
1.0
 40
1.0
 40
1.0
 40
1.0
 10
178.4176270480997
 20
119.4453557804574
 30
0.0
 10
178.2311026988148
 20
119.3230353645567
 30
0.0
 10
178.0285478002886
 20
119.1819502038915
 30
0.0
 10
177.8175205124267
 20
119.0054665681061
 30
0.0
  0
ELLIPSE
  5
120
330
1F
100
AcDbEntity
  8
0
  6
HIDDEN
 62
     7
370
     0
100
AcDbEllipse
 10
178.6407006886
 20
117.3366037617
 30
0.0
 11
1.760776919379083
 21
1.388886188042932
 31
0.0
210
0.0
220
0.0
230
1.0
 40
0.8239737799
 41
1.397255033323998
 42
3.733259041931066
  0
LWPOLYLINE
  5
121
330
1F
100
AcDbEntity
  8
0
  6
HIDDEN
 62
     7
370
     0
100
AcDbPolyline
 90
       20
 70
   128
 43
0.0
 10
178.640700781
 20
117.0910304614
 10
179.3225695353
 20
117.1979528123
 10
179.9305471566
 20
117.5071314179
 10
180.3987509545
 20
117.9850628802
 10
180.6764415439
 20
118.5799554192
 10
180.7335278925
 20
119.2273438179
 10
180.5638241556
 20
119.8570724779
 10
180.1857202288
 20
120.4009015315
 10
179.6401905801
 20
120.7998987489
 10
178.9863490473
 20
121.010825617
 10
178.2950525146
 20
121.010825617
 10
177.6412109818
 20
120.7998987489
 10
177.0956804018
 20
120.4009015315
 10
176.7175764751
 20
119.8570724779
 10
176.5478736695
 20
119.2273438179
 10
176.604960018
 20
118.5799554192
 10
176.8826515388
 20
117.9850628802
 10
177.3508544054
 20
117.5071314179
 10
177.9588320266
 20
117.1979528123
 10
178.640700781
 20
117.0910304614
  0
LINE
  5
122
330
1F
100
AcDbEntity
  8
0
  6
HIDDEN
 62
     7
370
     0
100
AcDbLine
 10
173.6307003509
 20
140.9991380029
 30
0.0
 11
173.6307003509
 21
135.456094166
 31
0.0
  0
LINE
  5
123
330
1F
100
AcDbEntity
  8
0
  6
HIDDEN
 62
     7
370
     0
100
AcDbLine
 10
177.4507005673
 20
140.9991380029
 30
0.0
 11
177.4507005673
 21
135.456094166
 31
0.0
  0
SPLINE
  5
124
330
1F
100
AcDbEntity
  8
0
  6
HIDDEN
 62
     7
370
     0
100
AcDbSpline
210
0.0
220
0.0
230
1.0
 70
     8
 71
     3
 72
    16
 73
    12
 74
     0
 42
0.000000001
 43
0.00000001
 40
0.0
 40
0.0
 40
0.0
 40
0.0
 40
0.2500000000000051
 40
0.2500000000000051
 40
0.5000000000000102
 40
0.5000000000000102
 40
0.6250000000000115
 40
0.6250000000000115
 40
0.7500000000000129
 40
0.7500000000000129
 40
1.0
 40
1.0
 40
1.0
 40
1.0
 10
176.6507006885869
 20
122.5813832073358
 30
0.0
 10
176.7255536699567
 20
122.6727624604957
 30
0.0
 10
176.806713299637
 20
122.7611480714138
 30
0.0
 10
176.9799362282117
 20
122.9368282319792
 30
0.0
 10
177.0704395581769
 20
123.0221910489033
 30
0.0
 10
177.196768630108
 20
123.1436126603117
 30
0.0
 10
177.2362656335166
 20
123.1820880720157
 30
0.0
 10
177.3083802038158
 20
123.2561487469193
 30
0.0
 10
177.3412723817458
 20
123.2921435121805
 30
0.0
 10
177.4209450513792
 20
123.3908495994144
 30
0.0
 10
177.4507006885869
 20
123.4474820598394
 30
0.0
 10
177.4507006885869
 20
123.4897826930101
 30
0.0
  0
SPLINE
  5
125
330
1F
100
AcDbEntity
  8
0
  6
HIDDEN
 62
     7
370
     0
100
AcDbSpline
210
0.0
220
0.0
230
1.0
 70
     8
 71
     3
 72
    14
 73
    10
 74
     0
 42
0.000000001
 43
0.00000001
 40
0.0
 40
0.0
 40
0.0
 40
0.0
 40
0.25
 40
0.25
 40
0.5
 40
0.5
 40
0.75
 40
0.75
 40
1.0
 40
1.0
 40
1.0
 40
1.0
 10
177.4507006885869
 20
119.3577414943788
 30
0.0
 10
177.4507006885869
 20
119.3158378028567
 30
0.0
 10
177.4212302249409
 20
119.2879620052873
 30
0.0
 10
177.3144032553821
 20
119.2743904866031
 30
0.0
 10
177.2381498605262
 20
119.2890479402571
 30
0.0
 10
177.0704458590253
 20
119.3609331946713
 30
0.0
 10
176.9802822840828
 20
119.417324023812
 30
0.0
 10
176.8073585167865
 20
119.5594358890706
 30
0.0
 10
176.7254722613019
 20
119.6439012867068
 30
0.0
 10
176.6507006885844
 20
119.7374193642784
 30
0.0
  0
LINE
  5
126
330
1F
100
AcDbEntity
  8
0
  6
HIDDEN
 62
     7
370
     0
100
AcDbLine
 10
177.4507005673
 20
91.8088318982
 30
0.0
 11
177.4507005673
 21
87.6767911219
 31
0.0
  0
LINE
  5
127
330
1F
100
AcDbEntity
  8
0
  6
HIDDEN
 62
     7
370
     0
100
AcDbLine
 10
172.3075396355
 20
144.1171724551
 30
0.0
 11
172.3075396355
 21
135.456094166
 31
0.0
  0
LINE
  5
128
330
1F
100
AcDbEntity
  8
0
  6
HIDDEN
 62
     7
370
     0
100
AcDbLine
 10
178.773862214
 20
91.3089463689
 30
0.0
 11
178.773862214
 21
86.6171527856
 31
0.0
  0
LINE
  5
129
330
1F
100
AcDbEntity
  8
0
  6
HIDDEN
 62
     7
370
     0
100
AcDbLine
 10
178.773862214
 20
144.1171724551
 30
0.0
 11
178.773862214
 21
135.456094166
 31
0.0
  0
ARC
  5
12A
330
1F
100
AcDbEntity
  8
0
  6
HIDDEN
 62
     7
370
     0
100
AcDbCircle
 10
178.8867534505
 20
118.1760813258
 30
0.0
 40
1.353195702694776
100
AcDbArc
 50
110.2844232439
 51
142.1998959299
  0
ARC
  5
12B
330
1F
100
AcDbEntity
  8
0
  6
HIDDEN
 62
     7
370
     0
100
AcDbCircle
 10
177.94410122
 20
116.1590638806
 30
0.0
 40
0.7945949542257933
100
AcDbArc
 50
260.8336111241
 51
306.5791809456
  0
LWPOLYLINE
  5
12C
330
1F
100
AcDbEntity
  8
0
  6
HIDDEN
 62
     7
370
     0
100
AcDbPolyline
 90
       20
 70
   128
 43
0.0
 10
168.6754635509
 20
118.3190454
 10
168.8497521888
 20
117.8206900337
 10
169.1302400056
 20
117.4985371732
 10
169.486531892
 20
117.3874983766
 10
169.8800184738
 20
117.4996035376
 10
170.2680586811
 20
117.8227072784
 10
170.6086028341
 20
118.3217937329
 10
170.8647477414
 20
118.9427809992
 10
171.0087353338
 20
119.6183754333
 10
171.024963164
 20
120.2753648364
 10
170.9116724294
 20
120.8425542542
 10
170.6811402898
 20
121.258480122
 10
170.3583476108
 20
121.478071084
 10
169.9782748681
 20
121.4775309169
 10
169.5821084056
 20
121.2569173628
 10
169.2127789345
 20
120.8401384034
 10
168.910309111
 20
120.2723575958
 10
168.7074763674
 20
119.6151027658
 10
168.626260848
 20
118.9395977386
 10
168.6754635509
 20
118.3190454
  0
LWPOLYLINE
  5
12D
330
1F
100
AcDbEntity
  8
0
  6
HIDDEN
 62
     7
370
     0
100
AcDbPolyline
 90
       24
 70
   128
 43
0.0
 10
167.912431664
 20
117.9000294038
 10
168.1062247578
 20
117.2956848719
 10
168.4079439353
 20
116.8556368181
 10
168.7952120762
 20
116.6125215792
 10
169.2393067267
 20
116.5843695604
 10
169.7072921295
 20
116.7732697182
 10
170.1644592892
 20
117.1652103045
 10
170.576902942
 20
117.7311247417
 10
170.9140333321
 20
118.429040184
 10
171.1508472424
 20
119.2071965166
 10
171.2697813261
 20
120.0078815424
 10
171.2620150272
 20
120.7717113399
 10
171.1281239029
 20
121.4420363509
 10
170.8780386459
 20
121.9691425764
 10
170.5303060796
 20
122.3139349573
 10
170.1107168544
 20
122.4508431011
 10
169.6503892515
 20
122.369713729
 10
169.1834636938
 20
122.0765631848
 10
168.7445704799
 20
121.5931341254
 10
168.3662602652
 20
120.9552778133
 10
168.0765898407
 20
120.2103026413
 10
167.8970434211
 20
119.4134602525
 10
167.8409370568
 20
118.6238486522
 10
167.912431664
 20
117.9000294038
  0
LWPOLYLINE
  5
12E
330
1F
100
AcDbEntity
  8
0
  6
HIDDEN
 62
     7
370
     0
100
AcDbPolyline
 90
       22
 70
   128
 43
0.0
 10
178.640700781
 20
116.7649474197
 10
179.3775883477
 20
116.8693170154
 10
180.0490011435
 20
117.1731526234
 10
180.5952786442
 20
117.6494570651
 10
180.9678859051
 20
118.2559082487
 10
181.1337097522
 20
118.9386207812
 10
181.0780203875
 20
119.6369320356
 10
180.8057649966
 20
120.2887954392
 10
180.3411318894
 20
120.8362873846
 10
179.725410321
 20
121.2307639622
 10
179.0133061793
 20
121.4371711218
 10
178.2680953827
 20
121.4371711218
 10
177.555991241
 20
121.2307639622
 10
176.9402687412
 20
120.8362873846
 10
176.4756374966
 20
120.2887954392
 10
176.2033811744
 20
119.6369320356
 10
176.1476908784
 20
118.9386207812
 10
176.3135165881
 20
118.2559082487
 10
176.6861219864
 20
117.6494570651
 10
177.2324004184
 20
117.1731526234
 10
177.9038132142
 20
116.8693170154
 10
178.640700781
 20
116.7649474197
  0
SPLINE
  5
12F
330
1F
100
AcDbEntity
  8
0
  6
HIDDEN
 62
     7
370
     0
100
AcDbSpline
210
0.0
220
0.0
230
1.0
 70
     8
 71
     3
 72
    34
 73
    30
 74
     0
 42
0.000000001
 43
0.00000001
 40
0.0
 40
0.0
 40
0.0
 40
0.0
 40
0.062499999999999
 40
0.062499999999999
 40
0.124999999999998
 40
0.124999999999998
 40
0.1874999999999971
 40
0.1874999999999971
 40
0.2499999999999966
 40
0.2499999999999966
 40
0.3124999999999962
 40
0.3124999999999962
 40
0.3749999999999957
 40
0.3749999999999957
 40
0.4999999999999958
 40
0.4999999999999958
 40
0.6249999999999958
 40
0.6249999999999958
 40
0.6874999999999964
 40
0.6874999999999964
 40
0.7499999999999971
 40
0.7499999999999971
 40
0.8124999999999979
 40
0.8124999999999979
 40
0.8749999999999986
 40
0.8749999999999986
 40
0.9374999999999992
 40
0.9374999999999992
 40
1.0
 40
1.0
 40
1.0
 40
1.0
 10
178.7738621960488
 20
124.5950340384029
 30
0.0
 10
178.9332540238367
 20
124.5871939424801
 30
0.0
 10
179.0892565072803
 20
124.5655352943897
 30
0.0
 10
179.3947660233575
 20
124.4956870668969
 30
0.0
 10
179.5456603583697
 20
124.4468613645686
 30
0.0
 10
179.8335597030605
 20
124.3239374111613
 30
0.0
 10
179.9695061060202
 20
124.250629903027
 30
0.0
 10
180.2256887216123
 20
124.0806192792556
 30
0.0
 10
180.3468710093714
 20
123.9827454870542
 30
0.0
 10
180.5640170812441
 20
123.7701613116222
 30
0.0
 10
180.6609789542045
 20
123.6551153730926
 30
0.0
 10
180.83154139003
 20
123.4072542529725
 30
0.0
 10
180.9047814432419
 20
123.2742207559069
 30
0.0
 10
181.0796618999908
 20
122.8647127397767
 30
0.0
 10
181.1406998609667
 20
122.5667520900017
 30
0.0
 10
181.1407015161898
 20
121.9753105341273
 30
0.0
 10
181.0796669066035
 20
121.6751369841507
 30
0.0
 10
180.9047771392016
 20
121.2599057038829
 30
0.0
 10
180.8315334337772
 20
121.1245505856361
 30
0.0
 10
180.6609727180405
 20
120.8716512542494
 30
0.0
 10
180.5640090024471
 20
120.7538859766417
 30
0.0
 10
180.3468486738599
 20
120.535755681273
 30
0.0
 10
180.2256674151731
 20
120.4350523561261
 30
0.0
 10
179.9694971882344
 20
120.2598086632928
 30
0.0
 10
179.8335538385716
 20
120.1840636942022
 30
0.0
 10
179.5456511353885
 20
120.0568953189
 30
0.0
 10
179.3947609394718
 20
120.0062940465725
 30
0.0
 10
179.0892554357661
 20
119.9338649468246
 30
0.0
 10
178.9332540375026
 20
119.9113791754277
 30
0.0
 10
178.7738621960488
 20
119.9032407155328
 30
0.0
  0
SPLINE
  5
130
330
1F
100
AcDbEntity
  8
0
  6
HIDDEN
 62
     7
370
     0
100
AcDbSpline
210
0.0
220
0.0
230
1.0
 70
     8
 71
     3
 72
    10
 73
     6
 74
     0
 42
0.000000001
 43
0.00000001
 40
0.0
 40
0.0
 40
0.0
 40
0.0
 40
0.5
 40
0.5
 40
1.0
 40
1.0
 40
1.0
 40
1.0
 10
178.7738621960488
 20
119.9032407155328
 30
0.0
 10
178.5511351691754
 20
119.7597522152391
 30
0.0
 10
178.3294492819503
 20
119.6450314695062
 30
0.0
 10
177.8882284440983
 20
119.4752710401483
 30
0.0
 10
177.6686697966995
 20
119.419851045761
 30
0.0
 10
177.4507006885872
 20
119.4033557163913
 30
0.0
  0
SPLINE
  5
131
330
1F
100
AcDbEntity
  8
0
  6
HIDDEN
 62
     7
370
     0
100
AcDbSpline
210
0.0
220
0.0
230
1.0
 70
     8
 71
     3
 72
    10
 73
     6
 74
     0
 42
0.000000001
 43
0.00000001
 40
0.0
 40
0.0
 40
0.0
 40
0.0
 40
0.5
 40
0.5
 40
1.0
 40
1.0
 40
1.0
 40
1.0
 10
177.4507006885872
 20
123.5353969150228
 30
0.0
 10
177.667591521108
 20
123.7724358544714
 30
0.0
 10
177.8867441577668
 20
123.9746060894648
 30
0.0
 10
178.3282286580357
 20
124.3253581609835
 30
0.0
 10
178.5514311233091
 20
124.4740342533804
 30
0.0
 10
178.7738621960488
 20
124.5950340384029
 30
0.0
  0
LINE
  5
132
330
1F
100
AcDbEntity
  8
0
  6
HIDDEN
 62
     7
370
     0
100
AcDbLine
 10
176.650700995
 20
119.7374189475
 30
0.0
 11
176.5752256822
 21
119.874372726
 31
0.0
  0
SPLINE
  5
133
330
1F
100
AcDbEntity
  8
0
  6
HIDDEN
 62
     7
370
     0
100
AcDbSpline
210
0.0
220
0.0
230
1.0
 70
     8
 71
     3
 72
    11
 73
     7
 74
     0
 42
0.000000001
 43
0.00000001
 40
0.0
 40
0.0
 40
0.0
 40
0.0
 40
0.1518122390325707
 40
0.4486820272254239
 40
0.7452766450903852
 40
1.0
 40
1.0
 40
1.0
 40
1.0
 10
176.4608527507646
 20
120.0819105111967
 30
0.0
 10
176.3879688331319
 20
120.1997498535294
 30
0.0
 10
176.172559956193
 20
120.5480247708987
 30
0.0
 10
176.1041673174945
 20
121.2287441587775
 30
0.0
 10
176.2393432100284
 20
121.9807249606223
 30
0.0
 10
176.5207046393762
 20
122.3915643117039
 30
0.0
 10
176.6507009949548
 20
122.5813828610789
 30
0.0
  0
LWPOLYLINE
  5
134
330
1F
100
AcDbEntity
  8
0
  6
HIDDEN
 62
     7
370
     0
100
AcDbPolyline
 90
       19
 70
   128
 43
0.0
 10
176.6604631182
 20
118.9888656341
 10
176.7881511685
 20
118.3537986332
 10
177.1392839935
 20
117.7980691397
 10
177.6715096992
 20
117.388706302
 10
178.3206340831
 20
117.1750851178
 10
179.0083636504
 20
117.1829715573
 10
179.6517473619
 20
117.4114147403
 10
180.1731827643
 20
117.8328596258
 10
180.5097795066
 20
118.3964755588
 10
180.6209384438
 20
119.0342806482
 10
180.4932503935
 20
119.6693476492
 10
180.1421175685
 20
120.2250771427
 10
179.6098918628
 20
120.6344399803
 10
178.9607674789
 20
120.8480611646
 10
178.2730379116
 20
120.840174725
 10
177.6296542
 20
120.611731542
 10
177.1082178663
 20
120.1902866566
 10
176.7716211241
 20
119.6266707235
 10
176.6604631182
 20
118.9888656341
  0
LWPOLYLINE
  5
135
330
1F
100
AcDbEntity
  8
0
  6
HIDDEN
 62
     7
370
     0
100
AcDbPolyline
 90
       22
 70
   128
 43
0.0
 10
176.1408866357
 20
119.0855136343
 10
176.2609378409
 20
118.3943903276
 10
176.5924421113
 20
117.767223736
 10
177.1059426453
 20
117.2597395458
 10
177.7558130186
 20
116.9170314648
 10
178.484309369
 20
116.7695490845
 10
179.2267019834
 20
116.830397045
 10
179.9170262154
 20
117.0941690185
 10
180.4939432975
 20
117.5374282726
 10
180.9061913725
 20
118.1207891756
 10
181.1171396609
 20
118.7924161755
 10
181.1080462273
 20
119.4926338472
 10
180.8797194596
 20
120.1592233234
 10
180.4524454262
 20
120.7329571449
 10
179.8641894918
 20
121.162854714
 10
179.1672212046
 20
121.410719698
 10
178.4234688591
 20
121.4545253866
 10
177.6990191054
 20
121.2903816455
 10
177.0582421657
 20
120.9328729861
 10
176.5580735143
 20
120.4137649589
 10
176.2429549333
 20
119.779183177
 10
176.1408866357
 20
119.0855136343
  0
LWPOLYLINE
  5
136
330
1F
100
AcDbEntity
  8
0
  6
HIDDEN
 62
     7
370
     0
100
AcDbPolyline
 90
       22
 70
   128
 43
0.0
 10
176.1408866357
 20
119.684048576
 10
176.2609378409
 20
118.9929252692
 10
176.5924421113
 20
118.3657586777
 10
177.1059426453
 20
117.8582754188
 10
177.7558130186
 20
117.5155664065
 10
178.484309369
 20
117.3680840262
 10
179.2267019834
 20
117.4289319866
 10
179.9170262154
 20
117.6927048915
 10
180.4939432975
 20
118.1359641456
 10
180.9061913725
 20
118.7193241172
 10
181.1171396609
 20
119.3909511172
 10
181.1080462273
 20
120.0911687889
 10
180.8797194596
 20
120.7577591964
 10
180.4524454262
 20
121.3314920866
 10
179.8641894918
 20
121.761390587
 10
179.1672212046
 20
122.0092546397
 10
178.4234688591
 20
122.0530603283
 10
177.6990191054
 20
121.8889165872
 10
177.0582421657
 20
121.5314079278
 10
176.5580735143
 20
121.0122999006
 10
176.2429549333
 20
120.37771905
 10
176.1408866357
 20
119.684048576
  0
LWPOLYLINE
  5
137
330
1F
100
AcDbEntity
  8
0
  6
HIDDEN
 62
     7
370
     0
100
AcDbPolyline
 90
       19
 70
   128
 43
0.0
 10
176.6408494648
 20
120.8697516673
 10
176.7698022511
 20
120.2283945137
 10
177.1244126346
 20
119.6671609038
 10
177.6619096261
 20
119.2537430876
 10
178.317463861
 20
119.0380059385
 10
179.0120051216
 20
119.0459706091
 10
179.6617609423
 20
119.2766759747
 10
180.1883614596
 20
119.7022959792
 10
180.5282923367
 20
120.2714942598
 10
180.6405520972
 20
120.9156165102
 10
180.5115993109
 20
121.5569727325
 10
180.1569889274
 20
122.1182063424
 10
179.6194910046
 20
122.5316241586
 10
178.9639377009
 20
122.7473613077
 10
178.2693964403
 20
122.739396637
 10
177.6196406197
 20
122.5086912715
 10
177.093039171
 20
122.083071267
 10
176.7531082939
 20
121.513874849
 10
176.6408494648
 20
120.8697516673
  0
LWPOLYLINE
  5
138
330
1F
100
AcDbEntity
  8
0
  6
HIDDEN
 62
     7
370
     0
100
AcDbPolyline
 90
       19
 70
   128
 43
0.0
 10
176.6408494648
 20
119.4519750976
 10
176.7698022511
 20
118.8106188753
 10
177.1244126346
 20
118.2493852654
 10
177.6619096261
 20
117.8359674492
 10
178.317463861
 20
117.6202303001
 10
179.0120051216
 20
117.6281949707
 10
179.6617609423
 20
117.8589003363
 10
180.1883614596
 20
118.2845203408
 10
180.5282923367
 20
118.8537176901
 10
180.6405520972
 20
119.4978408718
 10
180.5115993109
 20
120.1391970941
 10
180.1569889274
 20
120.700430704
 10
179.6194910046
 20
121.1138485202
 10
178.9639377009
 20
121.329584738
 10
178.2693964403
 20
121.3216219299
 10
177.6196406197
 20
121.0909156331
 10
177.093039171
 20
120.6652965599
 10
176.7531082939
 20
120.0960982793
 10
176.6408494648
 20
119.4519750976
  0
LWPOLYLINE
  5
139
330
1F
100
AcDbEntity
  8
0
  6
HIDDEN
 62
     7
370
     0
100
AcDbPolyline
 90
       22
 70
   128
 43
0.0
 10
176.1408866357
 20
119.9200429224
 10
176.2609378409
 20
119.2289196157
 10
176.5924421113
 20
118.6017530241
 10
177.1059426453
 20
118.0942688339
 10
177.7558130186
 20
117.7515607529
 10
178.484309369
 20
117.6040783727
 10
179.2267019834
 20
117.6649263331
 10
179.9170262154
 20
117.9286983066
 10
180.4939432975
 20
118.3719575607
 10
180.9061913725
 20
118.9553175324
 10
181.1171396609
 20
119.6269454637
 10
181.1080462273
 20
120.3271631354
 10
180.8797194596
 20
120.9937526115
 10
180.4524454262
 20
121.5674855017
 10
179.8641894918
 20
121.9973840022
 10
179.1672212046
 20
122.2452480548
 10
178.4234688591
 20
122.2890537434
 10
177.6990191054
 20
122.1249100023
 10
177.0582421657
 20
121.7674013429
 10
176.5580735143
 20
121.2482951784
 10
176.2429549333
 20
120.6137124651
 10
176.1408866357
 20
119.9200429224
  0
LWPOLYLINE
  5
13A
330
1F
100
AcDbEntity
  8
0
  6
HIDDEN
 62
     7
370
     0
100
AcDbPolyline
 90
       21
 70
   128
 43
0.0
 10
176.3408723261
 20
119.7478162327
 10
176.4621063109
 20
119.0812798419
 10
176.7965964016
 20
118.4825707429
 10
177.3116000902
 20
118.0102942714
 10
177.9567058172
 20
117.7106803485
 10
178.6687661868
 20
117.6130563223
 10
179.3780782234
 20
117.7269794249
 10
180.0152108978
 20
118.0412970685
 10
180.5177981939
 20
118.525243012
 10
180.8366402026
 20
119.1314436697
 10
180.9405292358
 20
119.8005607554
 10
180.819295251
 20
120.4670971462
 10
180.4848051604
 20
121.0658062451
 10
179.9698005404
 20
121.5380817854
 10
179.3246957447
 20
121.8376975709
 10
178.6126353752
 20
121.9353206658
 10
177.9033233386
 20
121.8213975632
 10
177.2661897328
 20
121.5070799195
 10
176.7636042994
 20
121.0231339761
 10
176.4447613593
 20
120.4169333183
 10
176.3408723261
 20
119.7478162327
  0
LWPOLYLINE
  5
13B
330
1F
100
AcDbEntity
  8
0
  6
HIDDEN
 62
     7
370
     0
100
AcDbPolyline
 90
       22
 70
   128
 43
0.0
 10
176.1408866357
 20
120.1560363376
 10
176.2609378409
 20
119.4649130308
 10
176.5924421113
 20
118.8377464392
 10
177.1059426453
 20
118.3302631804
 10
177.7558130186
 20
117.987554168
 10
178.484309369
 20
117.8400717878
 10
179.2267019834
 20
117.9009197482
 10
179.9170262154
 20
118.1646926531
 10
180.4939432975
 20
118.6079519072
 10
180.9061913725
 20
119.1913118788
 10
181.1171396609
 20
119.8629388788
 10
181.1080462273
 20
120.5631565505
 10
180.8797194596
 20
121.229746958
 10
180.4524454262
 20
121.8034807795
 10
179.8641894918
 20
122.2333774173
 10
179.1672212046
 20
122.4812414699
 10
178.4234688591
 20
122.5250490212
 10
177.6990191054
 20
122.3609052801
 10
177.0582421657
 20
122.0033966207
 10
176.5580735143
 20
121.4842885935
 10
176.2429549333
 20
120.8497068115
 10
176.1408866357
 20
120.1560363376
  0
LWPOLYLINE
  5
13C
330
1F
100
AcDbEntity
  8
0
  6
HIDDEN
 62
     7
370
     0
100
AcDbPolyline
 90
       21
 70
   128
 43
0.0
 10
176.3408723261
 20
119.9838096478
 10
176.4621063109
 20
119.3172741883
 10
176.7965964016
 20
118.7185650893
 10
177.3116000902
 20
118.2462886178
 10
177.9567058172
 20
117.9466737636
 10
178.6687661868
 20
117.8490506687
 10
179.3780782234
 20
117.96297284
 10
180.0152108978
 20
118.277291415
 10
180.5177981939
 20
118.7612364271
 10
180.8366402026
 20
119.3674380162
 10
180.9405292358
 20
120.0365551018
 10
180.819295251
 20
120.7030905613
 10
180.4848051604
 20
121.3017996603
 10
179.9698005404
 20
121.7740770631
 10
179.3246957447
 20
122.073690986
 10
178.6126353752
 20
122.1713140809
 10
177.9033233386
 20
122.0573909783
 10
177.2661897328
 20
121.7430733346
 10
176.7636042994
 20
121.2591283225
 10
176.4447613593
 20
120.6529267334
 10
176.3408723261
 20
119.9838096478
  0
LWPOLYLINE
  5
13D
330
1F
100
AcDbEntity
  8
0
  6
HIDDEN
 62
     7
370
     0
100
AcDbPolyline
 90
       22
 70
   128
 43
0.0
 10
176.1408866357
 20
120.392030684
 10
176.2609378409
 20
119.7009073772
 10
176.5924421113
 20
119.0737407857
 10
177.1059426453
 20
118.5662565955
 10
177.7558130186
 20
118.2235485145
 10
178.484309369
 20
118.0760661342
 10
179.2267019834
 20
118.1369140946
 10
179.9170262154
 20
118.4006860682
 10
180.4939432975
 20
118.8439453223
 10
180.9061913725
 20
119.4273052939
 10
181.1171396609
 20
120.0989332252
 10
181.1080462273
 20
120.7991508969
 10
180.8797194596
 20
121.4657403731
 10
180.4524454262
 20
122.0394741946
 10
179.8641894918
 20
122.469372695
 10
179.1672212046
 20
122.717234885
 10
178.4234688591
 20
122.7610424363
 10
177.6990191054
 20
122.5968986952
 10
177.0582421657
 20
122.2393900358
 10
176.5580735143
 20
121.7202820086
 10
176.2429549333
 20
121.0857002267
 10
176.1408866357
 20
120.392030684
  0
LWPOLYLINE
  5
13E
330
1F
100
AcDbEntity
  8
0
  6
HIDDEN
 62
     7
370
     0
100
AcDbPolyline
 90
       21
 70
   128
 43
0.0
 10
176.3408723261
 20
120.2198039942
 10
176.4621063109
 20
119.5532676035
 10
176.7965964016
 20
118.9545585045
 10
177.3116000902
 20
118.4822820329
 10
177.9567058172
 20
118.1826681101
 10
178.6687661868
 20
118.0850440838
 10
179.3780782234
 20
118.1989671865
 10
180.0152108978
 20
118.5132848301
 10
180.5177981939
 20
118.9972307735
 10
180.8366402026
 20
119.6034314313
 10
180.9405292358
 20
120.2725485169
 10
180.819295251
 20
120.9390849077
 10
180.4848051604
 20
121.5377930754
 10
179.9698005404
 20
122.0100704783
 10
179.3246957447
 20
122.3096844011
 10
178.6126353752
 20
122.407307496
 10
177.9033233386
 20
122.293386256
 10
177.2661897328
 20
121.9790667498
 10
176.7636042994
 20
121.4951217377
 10
176.4447613593
 20
120.8889210799
 10
176.3408723261
 20
120.2198039942
  0
LWPOLYLINE
  5
13F
330
1F
100
AcDbEntity
  8
0
  6
HIDDEN
 62
     7
370
     0
100
AcDbPolyline
 90
       22
 70
   128
 43
0.0
 10
176.1408866357
 20
120.6280240991
 10
176.2609378409
 20
119.9369007924
 10
176.5924421113
 20
119.3097342008
 10
177.1059426453
 20
118.8022509419
 10
177.7558130186
 20
118.4595419296
 10
178.484309369
 20
118.3120595493
 10
179.2267019834
 20
118.3729075097
 10
179.9170262154
 20
118.6366804146
 10
180.4939432975
 20
119.0799396687
 10
180.9061913725
 20
119.6632996404
 10
181.1171396609
 20
120.3349266403
 10
181.1080462273
 20
121.035144312
 10
180.8797194596
 20
121.7017337882
 10
180.4524454262
 20
122.2754676097
 10
179.8641894918
 20
122.7053661101
 10
179.1672212046
 20
122.9532301628
 10
178.4234688591
 20
122.9970358514
 10
177.6990191054
 20
122.8328921103
 10
177.0582421657
 20
122.4753834509
 10
176.5580735143
 20
121.9562754237
 10
176.2429549333
 20
121.3216945731
 10
176.1408866357
 20
120.6280240991
  0
LWPOLYLINE
  5
140
330
1F
100
AcDbEntity
  8
0
  6
HIDDEN
 62
     7
370
     0
100
AcDbPolyline
 90
       21
 70
   128
 43
0.0
 10
176.3408723261
 20
120.4557974094
 10
176.4621063109
 20
119.7892619499
 10
176.7965964016
 20
119.1905528509
 10
177.3116000902
 20
118.7182763793
 10
177.9567058172
 20
118.4186615252
 10
178.6687661868
 20
118.3210384303
 10
179.3780782234
 20
118.4349606016
 10
180.0152108978
 20
118.7492791765
 10
180.5177981939
 20
119.2332241886
 10
180.8366402026
 20
119.8394257777
 10
180.9405292358
 20
120.5085428634
 10
180.819295251
 20
121.1750783228
 10
180.4848051604
 20
121.7737883531
 10
179.9698005404
 20
122.2460638934
 10
179.3246957447
 20
122.5456778162
 10
178.6126353752
 20
122.6433027738
 10
177.9033233386
 20
122.5293796712
 10
177.2661897328
 20
122.2150620275
 10
176.7636042994
 20
121.7311151528
 10
176.4447613593
 20
121.124914495
 10
176.3408723261
 20
120.4557974094
  0
LWPOLYLINE
  5
141
330
1F
100
AcDbEntity
  8
0
  6
HIDDEN
 62
     7
370
     0
100
AcDbPolyline
 90
       22
 70
   128
 43
0.0
 10
176.1408866357
 20
120.8161354267
 10
176.2609378409
 20
120.1250121199
 10
176.5924421113
 20
119.4978455284
 10
177.1059426453
 20
118.9903622695
 10
177.7558130186
 20
118.6476532572
 10
178.484309369
 20
118.5001708769
 10
179.2267019834
 20
118.5610188373
 10
179.9170262154
 20
118.8247917422
 10
180.4939432975
 20
119.268050065
 10
180.9061913725
 20
119.8514109679
 10
181.1171396609
 20
120.5230379679
 10
181.1080462273
 20
121.2232556396
 10
180.8797194596
 20
121.8898460471
 10
180.4524454262
 20
122.4635798686
 10
179.8641894918
 20
122.8934765064
 10
179.1672212046
 20
123.1413405591
 10
178.4234688591
 20
123.1851462477
 10
177.6990191054
 20
123.0210043692
 10
177.0582421657
 20
122.6634938472
 10
176.5580735143
 20
122.1443876826
 10
176.2429549333
 20
121.5098049694
 10
176.1408866357
 20
120.8161354267
  0
LWPOLYLINE
  5
142
330
1F
100
AcDbEntity
  8
0
  6
HIDDEN
 62
     7
370
     0
100
AcDbPolyline
 90
       21
 70
   128
 43
0.0
 10
176.2808765259
 20
120.8656231143
 10
176.4052732822
 20
120.1816998624
 10
176.748488934
 20
119.5673724839
 10
177.2769278821
 20
119.082775546
 10
177.938862608
 20
118.7753450328
 10
178.6694982063
 20
118.6751747706
 10
179.3973146912
 20
118.7920697235
 10
180.0510677483
 20
119.1145867311
 10
180.5667652722
 20
119.6111567521
 10
180.8939258542
 20
120.2331721985
 10
181.0005250361
 20
120.9197441318
 10
180.8761282798
 20
121.6036673837
 10
180.5329116967
 20
122.2179956936
 10
180.0044727486
 20
122.7025926315
 10
179.3425389539
 20
123.0100222134
 10
178.6119033556
 20
123.1101934069
 10
177.8840868708
 20
122.9932993853
 10
177.2303328823
 20
122.670780515
 10
176.7146362897
 20
122.1742104941
 10
176.3874757078
 20
121.5521950477
 10
176.2808765259
 20
120.8656231143
  0
LWPOLYLINE
  5
143
330
1F
100
AcDbEntity
  8
0
  6
HIDDEN
 62
     7
370
     0
100
AcDbPolyline
 90
        3
 70
   128
 43
0.0
 10
181.1405139949
 20
90.3960518741
 10
181.0384466287
 20
89.7023823314
 10
181.0187603321
 20
89.6426435762
  0
ARC
  5
144
330
1F
100
AcDbEntity
  8
0
  6
HIDDEN
 62
     7
370
     0
100
AcDbCircle
 10
178.6413619448
 20
90.250076678
 30
0.0
 40
2.5034116176905
100
AcDbArc
 50
3.3428420181
 51
177.3141540937
  0
LINE
  5
145
330
1F
100
AcDbEntity
  8
0
  6
HIDDEN
 62
     7
370
     0
100
AcDbLine
 10
181.0005250361
 20
90.3465641865
 30
0.0
 11
180.9511146482
 21
89.8672934824
 31
0.0
  0
ARC
  5
146
330
1F
100
AcDbEntity
  8
0
  6
HIDDEN
 62
     7
370
     0
100
AcDbCircle
 10
178.626496732
 20
90.1836164287
 30
0.0
 40
2.379613909978374
100
AcDbArc
 50
3.9264901398
 51
155.0958215339
  0
ARC
  5
147
330
1F
100
AcDbEntity
  8
0
  6
HIDDEN
 62
     7
370
     0
100
AcDbCircle
 10
178.6395290735
 20
90.2156295983
 30
0.0
 40
2.005036885466319
100
AcDbArc
 50
3.6260194426
 51
126.5327396841
  0
LWPOLYLINE
  5
148
330
1F
100
AcDbEntity
  8
0
  6
HIDDEN
 62
     7
370
     0
100
AcDbPolyline
 90
       22
 70
   128
 43
0.0
 10
181.1405139949
 20
90.5841632017
 10
181.0384466287
 20
89.8904927277
 10
180.7233280476
 20
89.2559118771
 10
180.2231593963
 20
88.7368038499
 10
179.5823824566
 20
88.3792951905
 10
178.8579327028
 20
88.2151514494
 10
178.1141803574
 20
88.258957138
 10
177.4172120702
 20
88.5068211907
 10
176.8289561357
 20
88.9367196911
 10
176.4016821023
 20
89.5104535126
 10
176.1733544033
 20
90.1770429888
 10
176.1642609697
 20
90.8772606605
 10
176.3752101894
 20
91.5488876604
 10
176.7874582645
 20
92.1322476321
 10
177.3643753465
 20
92.5755068862
 10
178.0546986472
 20
92.8392797911
 10
178.797092193
 20
92.9001277515
 10
179.5255885433
 20
92.7526453712
 10
180.1754589167
 20
92.4099363589
 10
180.6889585193
 20
91.9024531
 10
181.0204627898
 20
91.2752865084
 10
181.1405139949
 20
90.5841632017
  0
LWPOLYLINE
  5
149
330
1F
100
AcDbEntity
  8
0
  6
HIDDEN
 62
     7
370
     0
100
AcDbPolyline
 90
       19
 70
   128
 43
0.0
 10
180.6405520972
 20
91.7602122032
 10
180.5282923367
 20
91.1160890215
 10
180.1883614596
 20
90.5468907409
 10
179.6617609423
 20
90.1212716677
 10
179.0120051216
 20
89.8905653709
 10
178.317463861
 20
89.8826025628
 10
177.6619096261
 20
90.0983387806
 10
177.1244126346
 20
90.5117565968
 10
176.7698022511
 20
91.0729902067
 10
176.6408494648
 20
91.7143464291
 10
176.7531082939
 20
92.3584696108
 10
177.093039171
 20
92.92766696
 10
177.6196406197
 20
93.3532869645
 10
178.2693964403
 20
93.5839923301
 10
178.9639377009
 20
93.5919570007
 10
179.6194910046
 20
93.3762198516
 10
180.1569889274
 20
92.9628020355
 10
180.5115993109
 20
92.4015684255
 10
180.6405520972
 20
91.7602122032
  0
LWPOLYLINE
  5
14A
330
1F
100
AcDbEntity
  8
0
  6
HIDDEN
 62
     7
370
     0
100
AcDbPolyline
 90
       22
 70
   128
 43
0.0
 10
181.1405139949
 20
90.8201566168
 10
181.0384466287
 20
90.1264870741
 10
180.7233280476
 20
89.4919052922
 10
180.2231593963
 20
88.972797265
 10
179.5823824566
 20
88.6152886056
 10
178.8579327028
 20
88.4511448645
 10
178.1141803574
 20
88.4949524158
 10
177.4172120702
 20
88.7428146058
 10
176.8289561357
 20
89.1727131062
 10
176.4016821023
 20
89.7464469277
 10
176.1733544033
 20
90.4130364039
 10
176.1642609697
 20
91.1132540756
 10
176.3752101894
 20
91.7848820069
 10
176.7874582645
 20
92.3682419785
 10
177.3643753465
 20
92.8115012326
 10
178.0546986472
 20
93.0752732062
 10
178.797092193
 20
93.1361211666
 10
179.5255885433
 20
92.9886387863
 10
180.1754589167
 20
92.6459307053
 10
180.6889585193
 20
92.1384465151
 10
181.0204627898
 20
91.5112799236
 10
181.1405139949
 20
90.8201566168
  0
LWPOLYLINE
  5
14B
330
1F
100
AcDbEntity
  8
0
  6
HIDDEN
 62
     7
370
     0
100
AcDbPolyline
 90
       21
 70
   128
 43
0.0
 10
180.9405292358
 20
90.7563898914
 10
180.8366402026
 20
90.0872728058
 10
180.5177981939
 20
89.481072148
 10
180.0152108978
 20
88.9971252733
 10
179.3780782234
 20
88.6828076296
 10
178.6687661868
 20
88.568884527
 10
177.9567058172
 20
88.6665094846
 10
177.3116000902
 20
88.9661234074
 10
176.7965964016
 20
89.4383989477
 10
176.4621063109
 20
90.037108978
 10
176.3408723261
 20
90.7036444374
 10
176.4447613593
 20
91.3727615231
 10
176.7636042994
 20
91.9789631122
 10
177.2661897328
 20
92.4629081243
 10
177.9033233386
 20
92.7772266992
 10
178.6126353752
 20
92.8911488705
 10
179.3246957447
 20
92.7935257756
 10
179.9698005404
 20
92.4939109215
 10
180.4848051604
 20
92.0216344499
 10
180.819295251
 20
91.4229253509
 10
180.9405292358
 20
90.7563898914
  0
LWPOLYLINE
  5
14C
330
1F
100
AcDbEntity
  8
0
  6
HIDDEN
 62
     7
370
     0
100
AcDbPolyline
 90
       22
 70
   128
 43
0.0
 10
181.1405139949
 20
91.0561509632
 10
181.0384466287
 20
90.3624804893
 10
180.7233280476
 20
89.7278987073
 10
180.2231593963
 20
89.2087906801
 10
179.5823824566
 20
88.8512820207
 10
178.8579327028
 20
88.6871382796
 10
178.1141803574
 20
88.7309458309
 10
177.4172120702
 20
88.9788098835
 10
176.8289561357
 20
89.4087065213
 10
176.4016821023
 20
89.9824403428
 10
176.1733544033
 20
90.6490307503
 10
176.1642609697
 20
91.349248422
 10
176.3752101894
 20
92.020875422
 10
176.7874582645
 20
92.6042353936
 10
177.3643753465
 20
93.0474946477
 10
178.0546986472
 20
93.3112675526
 10
178.797092193
 20
93.372115513
 10
179.5255885433
 20
93.2246331328
 10
180.1754589167
 20
92.8819241204
 10
180.6889585193
 20
92.3744408616
 10
181.0204627898
 20
91.74727427
 10
181.1405139949
 20
91.0561509632
  0
LWPOLYLINE
  5
14D
330
1F
100
AcDbEntity
  8
0
  6
HIDDEN
 62
     7
370
     0
100
AcDbPolyline
 90
       21
 70
   128
 43
0.0
 10
180.9405292358
 20
90.9923833066
 10
180.8366402026
 20
90.3232662209
 10
180.5177981939
 20
89.7170655631
 10
180.0152108978
 20
89.2331205511
 10
179.3780782234
 20
88.9188010448
 10
178.6687661868
 20
88.8048798048
 10
177.9567058172
 20
88.9025028997
 10
177.3116000902
 20
89.2021168225
 10
176.7965964016
 20
89.6743942254
 10
176.4621063109
 20
90.2731023931
 10
176.3408723261
 20
90.9396387839
 10
176.4447613593
 20
91.6087558695
 10
176.7636042994
 20
92.2149565273
 10
177.2661897328
 20
92.6989024707
 10
177.9033233386
 20
93.0132201144
 10
178.6126353752
 20
93.127143217
 10
179.3246957447
 20
93.0295191907
 10
179.9698005404
 20
92.7299052679
 10
180.4848051604
 20
92.2576287963
 10
180.819295251
 20
91.6589196973
 10
180.9405292358
 20
90.9923833066
  0
LWPOLYLINE
  5
14E
330
1F
100
AcDbEntity
  8
0
  6
HIDDEN
 62
     7
370
     0
100
AcDbPolyline
 90
       22
 70
   128
 43
0.0
 10
181.1405139949
 20
91.2921443784
 10
181.0384466287
 20
90.5984748357
 10
180.7233280476
 20
89.9638921224
 10
180.2231593963
 20
89.4447859579
 10
179.5823824566
 20
89.0872772985
 10
178.8579327028
 20
88.9231335574
 10
178.1141803574
 20
88.966939246
 10
177.4172120702
 20
89.2148032987
 10
176.8289561357
 20
89.6447017991
 10
176.4016821023
 20
90.2184346893
 10
176.1733544033
 20
90.8850241655
 10
176.1642609697
 20
91.5852418371
 10
176.3752101894
 20
92.2568697684
 10
176.7874582645
 20
92.8402297401
 10
177.3643753465
 20
93.2834889942
 10
178.0546986472
 20
93.5472609677
 10
178.797092193
 20
93.6081089281
 10
179.5255885433
 20
93.4606265479
 10
180.1754589167
 20
93.1179184669
 10
180.6889585193
 20
92.6104342767
 10
181.0204627898
 20
91.9832676851
 10
181.1405139949
 20
91.2921443784
  0
LWPOLYLINE
  5
14F
330
1F
100
AcDbEntity
  8
0
  6
HIDDEN
 62
     7
370
     0
100
AcDbPolyline
 90
       21
 70
   128
 43
0.0
 10
180.9405292358
 20
91.228377653
 10
180.8366402026
 20
90.5592605674
 10
180.5177981939
 20
89.9530589783
 10
180.0152108978
 20
89.4691139662
 10
179.3780782234
 20
89.1547963225
 10
178.6687661868
 20
89.0408732199
 10
177.9567058172
 20
89.1384963148
 10
177.3116000902
 20
89.4381102377
 10
176.7965964016
 20
89.9103876405
 10
176.4621063109
 20
90.5090967395
 10
176.3408723261
 20
91.175632199
 10
176.4447613593
 20
91.8447492846
 10
176.7636042994
 20
92.4509508737
 10
177.2661897328
 20
92.9348958858
 10
177.9033233386
 20
93.2492144608
 10
178.6126353752
 20
93.3631366321
 10
179.3246957447
 20
93.2655135372
 10
179.9698005404
 20
92.965898683
 10
180.4848051604
 20
92.4936222115
 10
180.819295251
 20
91.8949131125
 10
180.9405292358
 20
91.228377653
  0
LWPOLYLINE
  5
150
330
1F
100
AcDbEntity
  8
0
  6
HIDDEN
 62
     7
370
     0
100
AcDbPolyline
 90
       22
 70
   128
 43
0.0
 10
181.1405139949
 20
91.5281387248
 10
181.0384466287
 20
90.8344682508
 10
180.7233280476
 20
90.1998874002
 10
180.2231593963
 20
89.680779373
 10
179.5823824566
 20
89.3232707136
 10
178.8579327028
 20
89.1591269725
 10
178.1141803574
 20
89.2029326611
 10
177.4172120702
 20
89.4507967138
 10
176.8289561357
 20
89.8806952142
 10
176.4016821023
 20
90.4544281044
 10
176.1733544033
 20
91.1210185119
 10
176.1642609697
 20
91.8212361836
 10
176.3752101894
 20
92.4928631836
 10
176.7874582645
 20
93.0762231552
 10
177.3643753465
 20
93.5194824093
 10
178.0546986472
 20
93.7832553142
 10
178.797092193
 20
93.8441032746
 10
179.5255885433
 20
93.6966208943
 10
180.1754589167
 20
93.353911882
 10
180.6889585193
 20
92.8464286231
 10
181.0204627898
 20
92.2192620316
 10
181.1405139949
 20
91.5281387248
  0
LWPOLYLINE
  5
151
330
1F
100
AcDbEntity
  8
0
  6
HIDDEN
 62
     7
370
     0
100
AcDbPolyline
 90
       21
 70
   128
 43
0.0
 10
180.9405292358
 20
91.4643710681
 10
180.8366402026
 20
90.7952539825
 10
180.5177981939
 20
90.1890533247
 10
180.0152108978
 20
89.7051073813
 10
179.3780782234
 20
89.3907897376
 10
178.6687661868
 20
89.276866635
 10
177.9567058172
 20
89.3744897299
 10
177.3116000902
 20
89.6741055154
 10
176.7965964016
 20
90.1463810557
 10
176.4621063109
 20
90.7450901546
 10
176.3408723261
 20
91.4116265454
 10
176.4447613593
 20
92.0807436311
 10
176.7636042994
 20
92.6869442889
 10
177.2661897328
 20
93.1708902323
 10
177.9033233386
 20
93.4852078759
 10
178.6126353752
 20
93.5991309785
 10
179.3246957447
 20
93.5015069523
 10
179.9698005404
 20
93.2018930295
 10
180.4848051604
 20
92.7296165579
 10
180.819295251
 20
92.1309074589
 10
180.9405292358
 20
91.4643710681
  0
LWPOLYLINE
  5
152
330
1F
100
AcDbEntity
  8
0
  6
HIDDEN
 62
     7
370
     0
100
AcDbPolyline
 90
       22
 70
   128
 43
0.0
 10
181.1405139949
 20
92.1266736665
 10
181.0384466287
 20
91.4330041238
 10
180.7233280476
 20
90.7984223419
 10
180.2231593963
 20
90.2793143147
 10
179.5823824566
 20
89.9218056553
 10
178.8579327028
 20
89.7576619142
 10
178.1141803574
 20
89.8014676028
 10
177.4172120702
 20
90.0493325868
 10
176.8289561357
 20
90.4792301559
 10
176.4016821023
 20
91.0529639774
 10
176.1733544033
 20
91.7195534536
 10
176.1642609697
 20
92.4197711253
 10
176.3752101894
 20
93.0913981252
 10
176.7874582645
 20
93.6747590282
 10
177.3643753465
 20
94.1180182823
 10
178.0546986472
 20
94.3817902558
 10
178.797092193
 20
94.4426382163
 10
179.5255885433
 20
94.295155836
 10
180.1754589167
 20
93.952447755
 10
180.6889585193
 20
93.4449635648
 10
181.0204627898
 20
92.8177969732
 10
181.1405139949
 20
92.1266736665
  0
LWPOLYLINE
  5
153
330
1F
100
AcDbEntity
  8
0
  6
HIDDEN
 62
     7
370
     0
100
AcDbPolyline
 90
       19
 70
   128
 43
0.0
 10
180.6209384438
 20
92.2233216667
 10
180.5097795066
 20
91.5855165773
 10
180.1731827643
 20
91.0219006442
 10
179.6517473619
 20
90.6004557588
 10
179.0083636504
 20
90.3720125758
 10
178.3206340831
 20
90.3641261362
 10
177.6715096992
 20
90.5777473205
 10
177.1392839935
 20
90.9871101581
 10
176.7881511685
 20
91.5428396516
 10
176.6604631182
 20
92.1779066526
 10
176.7716211241
 20
92.815711742
 10
177.1082178663
 20
93.379327675
 10
177.6296542
 20
93.8007725605
 10
178.2730379116
 20
94.0292157435
 10
178.9607674789
 20
94.037102183
 10
179.6098918628
 20
93.8234809988
 10
180.1421175685
 20
93.4141181611
 10
180.4932503935
 20
92.8583886676
 10
180.6209384438
 20
92.2233216667
  0
LWPOLYLINE
  5
154
330
1F
100
AcDbEntity
  8
0
  6
HIDDEN
 62
     7
370
     0
100
AcDbPolyline
 90
       20
 70
   128
 43
0.0
 10
169.9645690594
 20
89.6897070312
 10
170.3023681391
 20
89.8374799841
 10
170.55987464
 20
90.1872204819
 10
170.7091847409
 20
90.701027421
 10
170.7341171775
 20
91.3232216814
 10
170.6319711145
 20
91.9863801652
 10
170.4138153207
 20
92.6186373659
 10
170.1032904882
 20
93.1514805385
 10
169.7340462331
 20
93.5271667519
 10
169.3460968297
 20
93.7049851024
 10
168.9814817134
 20
93.6656655946
 10
168.6797131758
 20
93.4134690293
 10
168.4734922808
 20
92.9757259988
 10
168.3851665791
 20
92.3998715558
 10
168.4243068073
 20
91.7483080381
 10
168.586672188
 20
91.0916445979
 10
168.8546677094
 20
90.5010389366
 10
169.1992519397
 20
90.0404934042
 10
169.5830835003
 20
89.7599138522
 10
169.9645690594
 20
89.6897070312
  0
LWPOLYLINE
  5
155
330
1F
100
AcDbEntity
  8
0
  6
HIDDEN
 62
     7
370
     0
100
AcDbPolyline
 90
       22
 70
   128
 43
0.0
 10
170.2623240624
 20
89.3045231902
 10
170.6377071302
 20
89.4560717248
 10
170.9361582968
 20
89.8115910792
 10
171.1311590832
 20
90.3394926541
 10
171.2053826984
 20
90.9928685256
 10
171.1522335161
 20
91.7136647009
 10
170.9764347386
 20
92.4378341266
 10
170.6936069738
 20
93.1010317259
 10
170.3288800988
 20
93.6443299257
 10
169.9146618109
 20
94.0194536203
 10
169.4877575126
 20
94.1930717059
 10
169.0860990409
 20
94.1497577556
 10
168.7453765396
 20
93.8933599942
 10
168.4958635803
 20
93.4466604345
 10
168.3597307626
 20
92.8493501821
 10
168.3490745697
 20
92.1545034477
 10
168.464841691
 20
91.4238594674
 10
168.6967452031
 20
90.7223407381
 10
169.0241800595
 20
90.1122788169
 10
169.4180517431
 20
89.6478813344
 10
169.8433634799
 20
89.3704105371
 10
170.2623240624
 20
89.3045231902
  0
LWPOLYLINE
  5
156
330
1F
100
AcDbEntity
  8
0
  6
HIDDEN
 62
     7
370
     0
100
AcDbPolyline
 90
       22
 70
   128
 43
0.0
 10
173.5332625892
 20
90.0878641956
 10
173.9086461227
 20
90.2394127303
 10
174.207097755
 20
90.5949320846
 10
174.4020980757
 20
91.1228336596
 10
174.4763216909
 20
91.7762095311
 10
174.4231729742
 20
92.4970057064
 10
174.2473737311
 20
93.221175132
 10
173.9645459663
 20
93.8843727314
 10
173.5998186257
 20
94.4276709312
 10
173.1856008034
 20
94.8027946257
 10
172.7586965051
 20
94.9764127114
 10
172.357038499
 20
94.9330987611
 10
172.0163150664
 20
94.6767009997
 10
171.7668025728
 20
94.23000144
 10
171.6306697551
 20
93.6326911875
 10
171.6200135622
 20
92.9378444531
 10
171.7357806835
 20
92.2072014042
 10
171.9676841956
 20
91.5056817436
 10
172.2951185863
 20
90.8956198224
 10
172.6889907356
 20
90.4312223398
 10
173.1143024724
 20
90.1537515425
 10
173.5332625892
 20
90.0878641956
  0
LINE
  5
157
330
1F
100
AcDbEntity
  8
0
  6
HIDDEN
 62
     7
370
     0
100
AcDbLine
 10
170.0935851756
 20
92.4803080239
 30
0.0
 11
169.2782760572
 21
93.1140739673
 31
0.0
  0
LINE
  5
158
330
1F
100
AcDbEntity
  8
0
  6
HIDDEN
 62
     7
370
     0
100
AcDbLine
 10
168.746121132
 20
92.3349993505
 30
0.0
 11
169.2782760572
 21
93.1140739673
 31
0.0
  0
LINE
  5
159
330
1F
100
AcDbEntity
  8
0
  6
HIDDEN
 62
     7
370
     0
100
AcDbLine
 10
169.0292748597
 20
90.9221587905
 30
0.0
 11
168.746121132
 21
92.3349993505
 31
0.0
  0
LINE
  5
15A
330
1F
100
AcDbEntity
  8
0
  6
HIDDEN
 62
     7
370
     0
100
AcDbLine
 10
169.0292748597
 20
90.9221587905
 30
0.0
 11
169.8445839781
 21
90.2883928471
 31
0.0
  0
LINE
  5
15B
330
1F
100
AcDbEntity
  8
0
  6
HIDDEN
 62
     7
370
     0
100
AcDbLine
 10
170.3767389033
 20
91.0674674639
 30
0.0
 11
169.8445839781
 21
90.2883928471
 31
0.0
  0
LINE
  5
15C
330
1F
100
AcDbEntity
  8
0
  6
HIDDEN
 62
     7
370
     0
100
AcDbLine
 10
170.3767389033
 20
91.0674674639
 30
0.0
 11
170.0935851756
 21
92.4803080239
 31
0.0
  0
LINE
  5
15D
330
1F
100
AcDbEntity
  8
0
  6
HIDDEN
 62
     7
370
     0
100
AcDbLine
 10
171.7318891522
 20
92.8726574608
 30
0.0
 11
170.0935851756
 21
92.4803080239
 31
0.0
  0
LINE
  5
15E
330
1F
100
AcDbEntity
  8
0
  6
HIDDEN
 62
     7
370
     0
100
AcDbLine
 10
172.0150428798
 20
91.4598169007
 30
0.0
 11
170.3767389033
 21
91.0674674639
 31
0.0
  0
LINE
  5
15F
330
1F
100
AcDbEntity
  8
0
  6
HIDDEN
 62
     7
370
     0
100
AcDbLine
 10
170.3844251085
 20
92.7273487874
 30
0.0
 11
170.9165804993
 21
93.5064234042
 31
0.0
  0
LINE
  5
160
330
1F
100
AcDbEntity
  8
0
  6
HIDDEN
 62
     7
370
     0
100
AcDbLine
 10
170.3844251085
 20
92.7273487874
 30
0.0
 11
168.746121132
 21
92.3349993505
 31
0.0
  0
LINE
  5
161
330
1F
100
AcDbEntity
  8
0
  6
HIDDEN
 62
     7
370
     0
100
AcDbLine
 10
170.9165804993
 20
93.5064234042
 30
0.0
 11
169.2782760572
 21
93.1140739673
 31
0.0
  0
LINE
  5
162
330
1F
100
AcDbEntity
  8
0
  6
HIDDEN
 62
     7
370
     0
100
AcDbLine
 10
170.6675788362
 20
91.3145082273
 30
0.0
 11
171.4828879546
 21
90.680742284
 31
0.0
  0
LINE
  5
163
330
1F
100
AcDbEntity
  8
0
  6
HIDDEN
 62
     7
370
     0
100
AcDbLine
 10
170.6675788362
 20
91.3145082273
 30
0.0
 11
170.3844251085
 21
92.7273487874
 31
0.0
  0
LINE
  5
164
330
1F
100
AcDbEntity
  8
0
  6
HIDDEN
 62
     7
370
     0
100
AcDbLine
 10
172.0150428798
 20
91.4598169007
 30
0.0
 11
171.4828879546
 21
90.680742284
 31
0.0
  0
LINE
  5
165
330
1F
100
AcDbEntity
  8
0
  6
HIDDEN
 62
     7
370
     0
100
AcDbLine
 10
172.0150428798
 20
91.4598169007
 30
0.0
 11
171.7318891522
 21
92.8726574608
 31
0.0
  0
LINE
  5
166
330
1F
100
AcDbEntity
  8
0
  6
HIDDEN
 62
     7
370
     0
100
AcDbLine
 10
171.7318891522
 20
92.8726574608
 30
0.0
 11
170.9165804993
 21
93.5064234042
 31
0.0
  0
LINE
  5
167
330
1F
100
AcDbEntity
  8
0
  6
HIDDEN
 62
     7
370
     0
100
AcDbLine
 10
170.6675788362
 20
91.3145082273
 30
0.0
 11
169.0292748597
 21
90.9221587905
 31
0.0
  0
LINE
  5
168
330
1F
100
AcDbEntity
  8
0
  6
HIDDEN
 62
     7
370
     0
100
AcDbLine
 10
171.4828879546
 20
90.680742284
 30
0.0
 11
169.8445839781
 21
90.2883928471
 31
0.0
  0
LWPOLYLINE
  5
169
330
1F
100
AcDbEntity
  8
0
  6
HIDDEN
 62
     7
370
     0
100
AcDbPolyline
 90
       18
 70
   128
 43
0.0
 10
174.000495949
 20
90.9691291132
 10
174.318045282
 20
91.1215465718
 10
174.5463422474
 20
91.4847260543
 10
174.6545544799
 20
92.0096194574
 10
174.6280676659
 20
92.6253354379
 10
174.470458084
 20
93.2487189972
 10
174.2030120429
 20
93.7955785745
 10
173.8618499573
 20
94.1920574957
 10
173.4930471491
 20
94.3846093693
 10
173.1464126121
 20
94.3472288751
 10
172.8687620696
 20
94.0849637815
 10
172.6975924309
 20
93.6332360112
 10
172.6560228478
 20
93.0530527809
 10
172.7496654701
 20
92.4227709153
 10
172.9658747997
 20
91.8275142291
 10
173.2754501488
 20
91.3476754182
 10
173.636581653
 20
91.0480587014
 10
174.000495949
 20
90.9691291132
  0
LWPOLYLINE
  5
16A
330
1F
100
AcDbEntity
  8
0
  6
HIDDEN
 62
     7
370
     0
100
AcDbPolyline
 90
       22
 70
   128
 43
0.0
 10
172.552388997
 20
120.6452107259
 10
172.9713500451
 20
120.9886098483
 10
173.3966617819
 20
121.1266309225
 10
173.7905339312
 20
121.0470102929
 10
174.117968322
 20
120.7568232172
 10
174.3498722997
 20
120.2818533608
 10
174.4656384896
 20
119.6643036061
 10
174.4549822968
 20
118.959046548
 10
174.3188499447
 20
118.2287471571
 10
174.0693374511
 20
117.5382962652
 10
173.7286140185
 20
116.949041953
 10
173.3269560125
 20
116.5133441069
 10
172.9000517141
 20
116.2699150124
 10
172.4858338919
 20
116.2403837048
 10
172.1211065512
 20
116.427376514
 10
171.8382783208
 20
116.8142767825
 10
171.6624795433
 20
117.3667066001
 10
171.6093308266
 20
118.0355806106
 10
171.6835544419
 20
118.7614664637
 10
171.8785547625
 20
119.4798654147
 10
172.1770063948
 20
120.1269455456
 10
172.552388997
 20
120.6452107259
  0
LWPOLYLINE
  5
16B
330
1F
100
AcDbEntity
  8
0
  6
HIDDEN
 62
     7
370
     0
100
AcDbPolyline
 90
       18
 70
   128
 43
0.0
 10
173.3138849001
 20
119.9076796153
 10
173.6777991962
 20
120.1842619308
 10
174.0389307003
 20
120.2374385872
 10
174.3485060494
 20
120.0600262933
 10
174.5647153791
 20
119.6759870478
 10
174.6583580013
 20
119.1371862047
 10
174.6167874869
 20
118.5163926535
 10
174.4456187796
 20
117.8974468463
 10
174.1679673057
 20
117.3639424347
 10
173.8213337
 20
116.9879311898
 10
173.4525308918
 20
116.8201962688
 10
173.1113688063
 20
116.8833902308
 10
172.8439227652
 20
117.1689784356
 10
172.6863131832
 20
117.6383910903
 10
172.6598254379
 20
118.2282321357
 10
172.7680376705
 20
118.8588381016
 10
172.9963355672
 20
119.445044195
 10
173.3138849001
 20
119.9076796153
  0
LWPOLYLINE
  5
16C
330
1F
100
AcDbEntity
  8
0
  6
HIDDEN
 62
     7
370
     0
100
AcDbPolyline
 90
       22
 70
   128
 43
0.0
 10
169.2814504702
 20
121.4285508
 10
169.7004110526
 20
121.7719499224
 10
170.1257227894
 20
121.9099719279
 10
170.519594473
 20
121.8303512984
 10
170.8470293295
 20
121.5401642227
 10
171.0789328415
 20
121.0651943662
 10
171.1946999628
 20
120.4476446115
 10
171.1840437699
 20
119.7423875534
 10
171.0479109522
 20
119.0120881625
 10
170.7983979929
 20
118.3216372707
 10
170.4576754916
 20
117.7323829585
 10
170.05601702
 20
117.2966851124
 10
169.6291127216
 20
117.0532560178
 10
169.2148944337
 20
117.0237256416
 10
168.8501675587
 20
117.2107175195
 10
168.567339794
 20
117.597617788
 10
168.3915410165
 20
118.1500476056
 10
168.3383918341
 20
118.818921616
 10
168.4126154494
 20
119.5448074692
 10
168.60761577
 20
120.2632064202
 10
168.9060674023
 20
120.9102865511
 10
169.2814504702
 20
121.4285508
  0
LINE
  5
16D
330
1F
100
AcDbEntity
  8
0
  6
HIDDEN
 62
     7
370
     0
100
AcDbLine
 10
170.3844251085
 20
118.9558865705
 30
0.0
 11
170.9165804993
 21
120.2548291736
 31
0.0
  0
LINE
  5
16E
330
1F
100
AcDbEntity
  8
0
  6
HIDDEN
 62
     7
370
     0
100
AcDbLine
 10
168.746121132
 20
119.3482360073
 30
0.0
 11
169.2782760572
 21
120.6471786105
 31
0.0
  0
LWPOLYLINE
  5
16F
330
1F
100
AcDbEntity
  8
0
  6
HIDDEN
 62
     7
370
     0
100
AcDbPolyline
 90
       20
 70
   128
 43
0.0
 10
169.1582909759
 20
121.1286490985
 10
169.5397760693
 20
121.4311193877
 10
169.9236080956
 20
121.5255089306
 10
170.2681923259
 20
121.4015927368
 10
170.5361878473
 20
121.0727939584
 10
170.698553228
 20
120.5747468599
 10
170.7376934562
 20
119.9614206531
 10
170.6493677545
 20
119.2992801049
 10
170.4431468595
 20
118.6600771003
 10
170.1413783219
 20
118.1130796873
 10
169.7767632056
 20
117.7175637537
 10
169.3888133366
 20
117.5163896956
 10
169.0195695471
 20
117.5313569807
 10
168.7090447146
 20
117.7608451077
 10
168.4908889208
 20
118.1799840384
 10
168.3887428578
 20
118.7433541023
 10
168.4136752944
 20
119.3899061733
 10
168.5629853953
 20
120.0495749914
 10
168.8204918962
 20
120.6508759611
 10
169.1582909759
 20
121.1286490985
  0
LINE
  5
170
330
1F
100
AcDbEntity
  8
0
  6
HIDDEN
 62
     7
370
     0
100
AcDbLine
 10
168.746121132
 20
119.3482360073
 30
0.0
 11
169.0292748597
 21
118.2120112904
 31
0.0
  0
LINE
  5
171
330
1F
100
AcDbEntity
  8
0
  6
HIDDEN
 62
     7
370
     0
100
AcDbLine
 10
170.3844251085
 20
118.9558865705
 30
0.0
 11
170.6675788362
 21
117.8196618536
 31
0.0
  0
LINE
  5
172
330
1F
100
AcDbEntity
  8
0
  6
HIDDEN
 62
     7
370
     0
100
AcDbLine
 10
170.3844251085
 20
118.9558865705
 30
0.0
 11
168.746121132
 21
119.3482360073
 31
0.0
  0
LINE
  5
173
330
1F
100
AcDbEntity
  8
0
  6
HIDDEN
 62
     7
370
     0
100
AcDbLine
 10
170.0935851756
 20
120.8098964968
 30
0.0
 11
169.2782760572
 21
120.6471786105
 31
0.0
  0
LINE
  5
174
330
1F
100
AcDbEntity
  8
0
  6
HIDDEN
 62
     7
370
     0
100
AcDbLine
 10
171.7318891522
 20
120.4175470599
 30
0.0
 11
170.9165804993
 21
120.2548291736
 31
0.0
  0
LINE
  5
175
330
1F
100
AcDbEntity
  8
0
  6
HIDDEN
 62
     7
370
     0
100
AcDbLine
 10
170.9165804993
 20
120.2548291736
 30
0.0
 11
169.2782760572
 21
120.6471786105
 31
0.0
  0
LINE
  5
176
330
1F
100
AcDbEntity
  8
0
  6
HIDDEN
 62
     7
370
     0
100
AcDbLine
 10
171.4828879546
 20
117.9823797398
 30
0.0
 11
169.8445839781
 21
118.3747291767
 31
0.0
  0
LINE
  5
177
330
1F
100
AcDbEntity
  8
0
  6
HIDDEN
 62
     7
370
     0
100
AcDbLine
 10
170.6675788362
 20
117.8196618536
 30
0.0
 11
169.0292748597
 21
118.2120112904
 31
0.0
  0
LINE
  5
178
330
1F
100
AcDbEntity
  8
0
  6
HIDDEN
 62
     7
370
     0
100
AcDbLine
 10
169.0292748597
 20
118.2120112904
 30
0.0
 11
169.8445839781
 21
118.3747291767
 31
0.0
  0
LINE
  5
179
330
1F
100
AcDbEntity
  8
0
  6
HIDDEN
 62
     7
370
     0
100
AcDbLine
 10
170.6675788362
 20
117.8196618536
 30
0.0
 11
171.4828879546
 21
117.9823797398
 31
0.0
  0
LINE
  5
17A
330
1F
100
AcDbEntity
  8
0
  6
HIDDEN
 62
     7
370
     0
100
AcDbLine
 10
172.0150428798
 20
119.281322343
 30
0.0
 11
170.3767389033
 21
119.6736717799
 31
0.0
  0
LINE
  5
17B
330
1F
100
AcDbEntity
  8
0
  6
HIDDEN
 62
     7
370
     0
100
AcDbLine
 10
171.7318891522
 20
120.4175470599
 30
0.0
 11
170.0935851756
 21
120.8098964968
 31
0.0
  0
LINE
  5
17C
330
1F
100
AcDbEntity
  8
0
  6
HIDDEN
 62
     7
370
     0
100
AcDbLine
 10
170.0935851756
 20
120.8098964968
 30
0.0
 11
170.3767389033
 21
119.6736717799
 31
0.0
  0
LINE
  5
17D
330
1F
100
AcDbEntity
  8
0
  6
HIDDEN
 62
     7
370
     0
100
AcDbLine
 10
171.7318891522
 20
120.4175470599
 30
0.0
 11
172.0150428798
 21
119.281322343
 31
0.0
  0
LINE
  5
17E
330
1F
100
AcDbEntity
  8
0
  6
HIDDEN
 62
     7
370
     0
100
AcDbLine
 10
170.3767389033
 20
119.6736717799
 30
0.0
 11
169.8445839781
 21
118.3747291767
 31
0.0
  0
LINE
  5
17F
330
1F
100
AcDbEntity
  8
0
  6
HIDDEN
 62
     7
370
     0
100
AcDbLine
 10
172.0150428798
 20
119.281322343
 30
0.0
 11
171.4828879546
 21
117.9823797398
 31
0.0
  0
LINE
  5
180
330
1F
100
AcDbEntity
  8
0
  6
HIDDEN
 62
     7
370
     0
100
AcDbLine
 10
181.1407002594
 20
88.941780498
 30
0.0
 11
181.1407002594
 21
92.098008489
 31
0.0
  0
LINE
  5
181
330
1F
100
AcDbEntity
  8
0
  6
HIDDEN
 62
     7
370
     0
100
AcDbLine
 10
176.1407003712
 20
92.098008489
 30
0.0
 11
176.1407003712
 21
90.0443490797
 31
0.0
  0
LINE
  5
182
330
1F
100
AcDbEntity
  8
0
  6
HIDDEN
 62
     7
370
     0
100
AcDbLine
 10
167.6407006077
 20
88.1564166599
 30
0.0
 11
170.2601284694
 21
88.7837313318
 31
0.0
  0
LINE
  5
183
330
1F
100
AcDbEntity
  8
0
  6
HIDDEN
 62
     7
370
     0
100
AcDbLine
 10
168.8627315659
 20
94.618736414
 30
0.0
 11
167.6407006077
 21
94.3260776081
 31
0.0
  0
LINE
  5
184
330
1F
100
AcDbEntity
  8
0
  6
HIDDEN
 62
     7
370
     0
100
AcDbLine
 10
170.3188511517
 20
89.7232439571
 30
0.0
 11
177.7880004581
 21
91.5119933167
 31
0.0
  0
LINE
  5
185
330
1F
100
AcDbEntity
  8
0
  6
HIDDEN
 62
     7
370
     0
100
AcDbLine
 10
177.7880004581
 20
95.8307558873
 30
0.0
 11
169.3406732727
 21
93.8077472352
 31
0.0
  0
LINE
  5
186
330
1F
100
AcDbEntity
  8
0
  6
HIDDEN
 62
     7
370
     0
100
AcDbLine
 10
180.7407009389
 20
92.1478025817
 30
0.0
 11
180.7407009389
 21
102.8710579236
 31
0.0
  0
LINE
  5
187
330
1F
100
AcDbEntity
  8
0
  6
HIDDEN
 62
     7
370
     0
100
AcDbLine
 10
176.540700623
 20
92.495852729
 30
0.0
 11
176.540700623
 21
92.1478025817
 31
0.0
  0
LINE
  5
188
330
1F
100
AcDbEntity
  8
0
  6
HIDDEN
 62
     7
370
     0
100
AcDbLine
 10
176.540700623
 20
102.8721126464
 30
0.0
 11
176.540700623
 21
94.2494772577
 31
0.0
  0
ARC
  5
189
330
1F
100
AcDbEntity
  8
0
  6
HIDDEN
 62
     7
370
     0
100
AcDbCircle
 10
193.9407006886
 20
123.1060936504
 30
0.0
 40
1.0
100
AcDbArc
 50
90.0
 51
180.0
  0
ARC
  5
18A
330
1F
100
AcDbEntity
  8
0
  6
HIDDEN
 62
     7
370
     0
100
AcDbCircle
 10
193.9407006886
 20
88.1060936504
 30
0.0
 40
1.0
100
AcDbArc
 50
180.0
 51
270.0
  0
LINE
  5
18B
330
1F
100
AcDbEntity
  8
0
  6
HIDDEN
 62
     7
370
     0
100
AcDbLine
 10
195.8090494361
 20
124.1060938888
 30
0.0
 11
193.9407008674
 21
124.1060938888
 31
0.0
  0
LINE
  5
18C
330
1F
100
AcDbEntity
  8
0
  6
HIDDEN
 62
     7
370
     0
100
AcDbLine
 10
193.9407008674
 20
87.106093412
 30
0.0
 11
195.8090494361
 21
87.106093412
 31
0.0
  0
ARC
  5
18D
330
1F
100
AcDbEntity
  8
0
  6
HIDDEN
 62
     7
370
     0
100
AcDbCircle
 10
195.809048191
 20
123.1060936504
 30
0.0
 40
0.9999999999999858
100
AcDbArc
 50
75.0
 51
90.0
  0
ARC
  5
18E
330
1F
100
AcDbEntity
  8
0
  6
HIDDEN
 62
     7
370
     0
100
AcDbCircle
 10
195.809048191
 20
88.1060936504
 30
0.0
 40
0.9999999999999957
100
AcDbArc
 50
270.0
 51
285.0
  0
LINE
  5
18F
330
1F
100
AcDbEntity
  8
0
  6
HIDDEN
 62
     7
370
     0
100
AcDbLine
 10
196.0678677049
 20
87.1401686423
 30
0.0
 11
197.8067251828
 21
87.6060944253
 31
0.0
  0
LINE
  5
190
330
1F
100
AcDbEntity
  8
0
  6
HIDDEN
 62
     7
370
     0
100
AcDbLine
 10
197.8067251828
 20
123.6060928755
 30
0.0
 11
196.0678677049
 21
124.0720186585
 31
0.0
  0
LINE
  5
191
330
1F
100
AcDbEntity
  8
0
  6
HIDDEN
 62
     7
370
     0
100
AcDbLine
 10
216.840701082
 20
123.6060928755
 30
0.0
 11
197.8067251828
 21
123.6060928755
 31
0.0
  0
LINE
  5
192
330
1F
100
AcDbEntity
  8
0
  6
HIDDEN
 62
     7
370
     0
100
AcDbLine
 10
197.8067251828
 20
87.6060944253
 30
0.0
 11
216.840701082
 21
87.6060944253
 31
0.0
  0
ARC
  5
193
330
1F
100
AcDbEntity
  8
0
  6
HIDDEN
 62
     7
370
     0
100
AcDbCircle
 10
64.0407006886
 20
91.9060936504
 30
0.0
 40
1.200000000000003
100
AcDbArc
 50
90.0
 51
180.0
  0
ARC
  5
194
330
1F
100
AcDbEntity
  8
0
  6
HIDDEN
 62
     7
370
     0
100
AcDbCircle
 10
64.0407006886
 20
119.3060936504
 30
0.0
 40
1.200000000000003
100
AcDbArc
 50
180.0
 51
270.0
  0
LINE
  5
195
330
1F
100
AcDbEntity
  8
0
  6
HIDDEN
 62
     7
370
     0
100
AcDbLine
 10
73.7330707695
 20
92.8810933807
 30
0.0
 11
74.6097582366
 21
92.8810933807
 31
0.0
  0
LINE
  5
196
330
1F
100
AcDbEntity
  8
0
  6
HIDDEN
 62
     7
370
     0
100
AcDbLine
 10
74.6097582366
 20
118.3310939201
 30
0.0
 11
73.7330707695
 21
118.3310939201
 31
0.0
  0
ARC
  5
197
330
1F
100
AcDbEntity
  8
0
  6
HIDDEN
 62
     7
370
     0
100
AcDbCircle
 10
73.7330731193
 20
93.2810936504
 30
0.0
 40
0.400000000000006
100
AcDbArc
 50
255.0
 51
270.0
  0
ARC
  5
198
330
1F
100
AcDbEntity
  8
0
  6
HIDDEN
 62
     7
370
     0
100
AcDbCircle
 10
73.7330731193
 20
117.9310936504
 30
0.0
 40
0.3999999999999923
100
AcDbArc
 50
90.0
 51
105.0
  0
ARC
  5
199
330
1F
100
AcDbEntity
  8
0
  6
HIDDEN
 62
     7
370
     0
100
AcDbCircle
 10
74.6097605809
 20
93.2810936504
 30
0.0
 40
0.3999999999999915
100
AcDbArc
 50
270.0
 51
330.0
  0
ARC
  5
19A
330
1F
100
AcDbEntity
  8
0
  6
HIDDEN
 62
     7
370
     0
100
AcDbCircle
 10
74.6097605809
 20
117.9310936504
 30
0.0
 40
0.3999999999999915
100
AcDbArc
 50
30.0
 51
90.0
  0
LINE
  5
19B
330
1F
100
AcDbEntity
  8
0
  6
HIDDEN
 62
     7
370
     0
100
AcDbLine
 10
73.6295449521
 20
118.3174640142
 30
0.0
 11
72.8406998303
 21
118.1060938367
 31
0.0
  0
LINE
  5
19C
330
1F
100
AcDbEntity
  8
0
  6
HIDDEN
 62
     7
370
     0
100
AcDbLine
 10
72.8406998303
 20
93.1060934641
 30
0.0
 11
73.6295449521
 21
92.8947232866
 31
0.0
  0
LINE
  5
19D
330
1F
100
AcDbEntity
  8
0
  6
HIDDEN
 62
     7
370
     0
100
AcDbLine
 10
74.9561729815
 20
93.0810939723
 30
0.0
 11
76.1253031876
 21
95.106093792
 31
0.0
  0
LINE
  5
19E
330
1F
100
AcDbEntity
  8
0
  6
HIDDEN
 62
     7
370
     0
100
AcDbLine
 10
76.1253031876
 20
116.1060935088
 30
0.0
 11
74.9561729815
 21
118.1310933285
 31
0.0
  0
LINE
  5
19F
330
1F
100
AcDbEntity
  8
0
  6
HIDDEN
 62
     7
370
     0
100
AcDbLine
 10
64.040699878
 20
93.1060934641
 30
0.0
 11
72.8406998303
 21
93.1060934641
 31
0.0
  0
LINE
  5
1A0
330
1F
100
AcDbEntity
  8
0
  6
HIDDEN
 62
     7
370
     0
100
AcDbLine
 10
72.8406998303
 20
118.1060938367
 30
0.0
 11
64.040699878
 21
118.1060938367
 31
0.0
  0
LINE
  5
1A1
330
1F
100
AcDbEntity
  8
0
  6
HIDDEN
 62
     7
370
     0
100
AcDbLine
 10
76.1253031876
 20
95.106093792
 30
0.0
 11
124.8407009032
 21
95.106093792
 31
0.0
  0
LINE
  5
1A2
330
1F
100
AcDbEntity
  8
0
  6
HIDDEN
 62
     7
370
     0
100
AcDbLine
 10
124.8407009032
 20
116.1060935088
 30
0.0
 11
76.1253031876
 21
116.1060935088
 31
0.0
  0
LINE
  5
1A3
330
1F
100
AcDbEntity
  8
0
  6
HIDDEN
 62
     7
370
     0
100
AcDbLine
 10
124.8407009032
 20
95.106093792
 30
0.0
 11
126.3428534355
 21
97.6060932704
 31
0.0
  0
LINE
  5
1A4
330
1F
100
AcDbEntity
  8
0
  6
HIDDEN
 62
     7
370
     0
100
AcDbLine
 10
126.3428534355
 20
113.6060940304
 30
0.0
 11
124.8407009032
 21
116.1060935088
 31
0.0
  0
LINE
  5
1A5
330
1F
100
AcDbEntity
  8
0
  6
HIDDEN
 62
     7
370
     0
100
AcDbLine
 10
233.4406989601
 20
131.6801753097
 30
0.0
 11
232.8539433863
 21
131.0934234613
 31
0.0
  0
LINE
  5
1A6
330
1F
100
AcDbEntity
  8
0
  6
HIDDEN
 62
     7
370
     0
100
AcDbLine
 10
232.8537422206
 20
80.1189594173
 30
0.0
 11
233.4406989601
 21
79.5320119911
 31
0.0
  0
LINE
  5
1A7
330
1F
100
AcDbEntity
  8
0
  6
HIDDEN
 62
     7
370
     0
100
AcDbLine
 10
126.3428534355
 20
97.6060932704
 30
0.0
 11
192.9407007035
 21
97.6060932704
 31
0.0
  0
LINE
  5
1A8
330
1F
100
AcDbEntity
  8
0
  6
HIDDEN
 62
     7
370
     0
100
AcDbLine
 10
192.9407007035
 20
113.6060940304
 30
0.0
 11
126.3428534355
 21
113.6060940304
 31
0.0
  0
LINE
  5
1A9
330
1F
100
AcDbEntity
  8
0
  6
HIDDEN
 62
     7
370
     0
100
AcDbLine
 10
216.840701082
 20
80.1060941272
 30
0.0
 11
232.8689339545
 21
80.1060941272
 31
0.0
  0
LINE
  5
1AA
330
1F
100
AcDbEntity
  8
0
  6
HIDDEN
 62
     7
370
     0
100
AcDbLine
 10
232.8697982218
 20
131.1060931736
 30
0.0
 11
216.840701082
 21
131.1060931736
 31
0.0
  0
LINE
  5
1AB
330
1F
100
AcDbEntity
  8
0
  6
HIDDEN
 62
     7
370
     0
100
AcDbLine
 10
180.7407009389
 20
108.3400746544
 30
0.0
 11
180.7407009389
 21
119.0643847191
 31
0.0
  0
LINE
  5
1AC
330
1F
100
AcDbEntity
  8
0
  6
HIDDEN
 62
     7
370
     0
100
AcDbLine
 10
176.540700623
 20
116.9627100431
 30
0.0
 11
176.540700623
 21
108.3411293772
 31
0.0
  0
LINE
  5
1AD
330
1F
100
AcDbEntity
  8
0
  6
HIDDEN
 62
     7
370
     0
100
AcDbLine
 10
176.540700623
 20
119.0643847191
 30
0.0
 11
176.540700623
 21
118.7163345718
 31
0.0
  0
LINE
  5
1AE
330
1F
100
AcDbEntity
  8
0
  6
HIDDEN
 62
     7
370
     0
100
AcDbLine
 10
169.3406732727
 20
117.4044400656
 30
0.0
 11
177.7880004581
 21
115.3814314135
 31
0.0
  0
LINE
  5
1AF
330
1F
100
AcDbEntity
  8
0
  6
HIDDEN
 62
     7
370
     0
100
AcDbLine
 10
177.7880004581
 20
119.7001939842
 30
0.0
 11
170.3188511517
 21
121.4889433437
 31
0.0
  0
LINE
  5
1B0
330
1F
100
AcDbEntity
  8
0
  6
HIDDEN
 62
     7
370
     0
100
AcDbLine
 10
167.6407006077
 20
116.8861096927
 30
0.0
 11
168.8627315659
 21
116.5934508868
 31
0.0
  0
LINE
  5
1B1
330
1F
100
AcDbEntity
  8
0
  6
HIDDEN
 62
     7
370
     0
100
AcDbLine
 10
170.2601284694
 20
122.428455969
 30
0.0
 11
167.6407006077
 21
123.0557706409
 31
0.0
  0
LINE
  5
1B2
330
1F
100
AcDbEntity
  8
0
  6
HIDDEN
 62
     7
370
     0
100
AcDbLine
 10
181.1407002594
 20
119.1141788118
 30
0.0
 11
181.1407002594
 21
122.2704068028
 31
0.0
  0
LINE
  5
1B3
330
1F
100
AcDbEntity
  8
0
  6
HIDDEN
 62
     7
370
     0
100
AcDbLine
 10
176.1407003712
 20
121.1678382211
 30
0.0
 11
176.1407003712
 21
119.1141788118
 31
0.0
  0
LINE
  5
1B4
330
1F
100
AcDbEntity
  8
0
  6
HIDDEN
 62
     7
370
     0
100
AcDbLine
 10
181.1407002594
 20
119.1141788118
 30
0.0
 11
181.1407002594
 21
119.7127146848
 31
0.0
  0
LINE
  5
1B5
330
1F
100
AcDbEntity
  8
0
  6
HIDDEN
 62
     7
370
     0
100
AcDbLine
 10
176.1407003712
 20
119.7127146848
 30
0.0
 11
176.1407003712
 21
119.1141788118
 31
0.0
  0
LINE
  5
1B6
330
1F
100
AcDbEntity
  8
0
  6
HIDDEN
 62
     7
370
     0
100
AcDbLine
 10
180.6407011088
 20
119.4749079847
 30
0.0
 11
180.6407011088
 21
120.8926836231
 31
0.0
  0
LINE
  5
1B7
330
1F
100
AcDbEntity
  8
0
  6
HIDDEN
 62
     7
370
     0
100
AcDbLine
 10
176.6407004531
 20
120.8926836231
 30
0.0
 11
176.6407004531
 21
119.4749079847
 31
0.0
  0
LINE
  5
1B8
330
1F
100
AcDbEntity
  8
0
  6
HIDDEN
 62
     7
370
     0
100
AcDbLine
 10
181.1407002594
 20
120.656690208
 30
0.0
 11
181.1407002594
 21
120.8448015355
 31
0.0
  0
LINE
  5
1B9
330
1F
100
AcDbEntity
  8
0
  6
HIDDEN
 62
     7
370
     0
100
AcDbLine
 10
176.1407003712
 20
120.8448015355
 30
0.0
 11
176.1407003712
 21
120.656690208
 31
0.0
  0
LINE
  5
1BA
330
1F
100
AcDbEntity
  8
0
  6
HIDDEN
 62
     7
370
     0
100
AcDbLine
 10
176.1407003712
 20
90.5554970928
 30
0.0
 11
176.1407003712
 21
90.3673857653
 31
0.0
  0
LINE
  5
1BB
330
1F
100
AcDbEntity
  8
0
  6
HIDDEN
 62
     7
370
     0
100
AcDbLine
 10
181.1407002594
 20
90.3673857653
 30
0.0
 11
181.1407002594
 21
90.5554970928
 31
0.0
  0
LINE
  5
1BC
330
1F
100
AcDbEntity
  8
0
  6
HIDDEN
 62
     7
370
     0
100
AcDbLine
 10
176.6407004531
 20
91.7372793161
 30
0.0
 11
176.6407004531
 21
90.3195036777
 31
0.0
  0
LINE
  5
1BD
330
1F
100
AcDbEntity
  8
0
  6
HIDDEN
 62
     7
370
     0
100
AcDbLine
 10
180.6407011088
 20
90.3195036777
 30
0.0
 11
180.6407011088
 21
91.7372793161
 31
0.0
  0
LINE
  5
1BE
330
1F
100
AcDbEntity
  8
0
  6
HIDDEN
 62
     7
370
     0
100
AcDbLine
 10
176.1407003712
 20
92.098008489
 30
0.0
 11
176.1407003712
 21
91.499472616
 31
0.0
  0
LINE
  5
1BF
330
1F
100
AcDbEntity
  8
0
  6
HIDDEN
 62
     7
370
     0
100
AcDbLine
 10
181.1407002594
 20
91.499472616
 30
0.0
 11
181.1407002594
 21
92.098008489
 31
0.0
  0
CIRCLE
  5
1C0
330
1F
100
AcDbEntity
  8
0
  6
HIDDEN
 62
     7
370
     0
100
AcDbCircle
 10
178.6407006886
 20
120.0718356124
 30
0.0
 40
1.99999999999999
  0
ARC
  5
1C1
330
1F
100
AcDbEntity
  8
0
  6
HIDDEN
 62
     7
370
     0
100
AcDbCircle
 10
178.6407006886
 20
91.1403516884
 30
0.0
 40
2.000000000000011
100
AcDbArc
 50
339.926737941
 51
192.2156859338
  0
LINE
  5
1C2
330
1F
100
AcDbEntity
  8
0
  6
HIDDEN
 62
     7
370
     0
100
AcDbLine
 10
170.3541357044
 20
89.3203836136
 30
0.0
 11
173.6250751626
 21
90.1037236878
 31
0.0
  0
LINE
  5
1C3
330
1F
100
AcDbEntity
  8
0
  6
HIDDEN
 62
     7
370
     0
100
AcDbLine
 10
172.460577355
 20
94.9662277677
 30
0.0
 11
169.1896388281
 21
94.1828867623
 31
0.0
  0
LINE
  5
1C4
330
1F
100
AcDbEntity
  8
0
  6
HIDDEN
 62
     7
370
     0
100
AcDbLine
 10
174.328779706
 20
90.8674435892
 30
0.0
 11
174.5573579308
 21
91.5148338505
 31
0.0
  0
LINE
  5
1C5
330
1F
100
AcDbEntity
  8
0
  6
HIDDEN
 62
     7
370
     0
100
AcDbLine
 10
173.9309410539
 20
94.1305156999
 30
0.0
 11
173.4338988524
 21
94.6041314133
 31
0.0
  0
LINE
  5
1C6
330
1F
100
AcDbEntity
  8
0
  6
HIDDEN
 62
     7
370
     0
100
AcDbLine
 10
173.4338988524
 20
116.6080558875
 30
0.0
 11
173.9309410539
 21
117.0816716009
 31
0.0
  0
LINE
  5
1C7
330
1F
100
AcDbEntity
  8
0
  6
HIDDEN
 62
     7
370
     0
100
AcDbLine
 10
174.5573579308
 20
119.6973534503
 30
0.0
 11
174.328779706
 21
120.3447437116
 31
0.0
  0
LINE
  5
1C8
330
1F
100
AcDbEntity
  8
0
  6
HIDDEN
 62
     7
370
     0
100
AcDbLine
 10
169.1896388281
 20
117.0293005385
 30
0.0
 11
172.460577355
 21
116.2459595331
 31
0.0
  0
LINE
  5
1C9
330
1F
100
AcDbEntity
  8
0
  6
HIDDEN
 62
     7
370
     0
100
AcDbLine
 10
173.6250751626
 20
121.108463613
 30
0.0
 11
170.3541357044
 21
121.8918036872
 31
0.0
  0
DIMENSION
  5
1CA
330
1F
100
AcDbEntity
  8
VERMASSUNG
100
AcDbDimension
  2
_D
 10
54.3086759754
 20
154.3310936504
 30
0.0
 11
54.3086759754
 21
105.6060936504
 31
0.0
 70
   160
  1
ISO 50 %%c<>
 71
     2
 42
-1.0
  3
SLDDIMSTYLE0
100
AcDbAlignedDimension
 13
182.8907006886
 23
56.8810936504
 33
0.0
 14
182.8907006886
 24
154.3310936504
 34
0.0
 50
90.0
100
AcDbRotatedDimension
  0
DIMENSION
  5
1D7
330
1F
100
AcDbEntity
  8
VERMASSUNG
100
AcDbDimension
  2
_D_1
 10
241.3787549977
 20
87.6060936504
 30
0.0
 11
241.3787549977
 21
105.6060936504
 31
0.0
 70
   160
  1
%%c<>
 71
     2
 42
-1.0
  3
SLDDIMSTYLE0
100
AcDbAlignedDimension
 13
216.8407006885
 23
123.6060936504
 33
0.0
 14
216.8407006885
 24
87.6060936504
 34
0.0
 50
90.0
100
AcDbRotatedDimension
  0
DIMENSION
  5
1E2
330
1F
100
AcDbEntity
  8
VERMASSUNG
100
AcDbDimension
  2
_D_2
 10
233.4407006886
 20
160.8249737242
 30
0.0
 11
208.4657006886
 21
160.8249737242
 31
0.0
 70
   160
  1
(<>)
 71
     2
 42
-1.0
  3
SLDDIMSTYLE0
100
AcDbAlignedDimension
 13
183.4907006886
 23
151.9010806036
 33
0.0
 14
233.4407006886
 24
137.0060936504
 34
0.0
100
AcDbRotatedDimension
  0
DIMENSION
  5
1EE
330
1F
100
AcDbEntity
  8
VERMASSUNG
100
AcDbDimension
  2
_D_3
 10
233.4407006886
 20
166.8249737242
 30
0.0
 11
198.9407006886
 21
166.8249737242
 31
0.0
 70
   160
  1
<>
 71
     2
 42
-1.0
  3
SLDDIMSTYLE0
100
AcDbAlignedDimension
 13
164.4407006886
 23
140.5310936504
 33
0.0
 14
233.4407006886
 24
137.0060936504
 34
0.0
100
AcDbRotatedDimension
  0
DIMENSION
  5
1F8
330
1F
100
AcDbEntity
  8
VERMASSUNG
100
AcDbDimension
  2
_D_4
 10
233.4407006886
 20
172.8249737242
 30
0.0
 11
148.1407006886
 21
172.8249737242
 31
0.0
 70
   160
  1
(<>)
 71
     2
 42
-1.0
  3
SLDDIMSTYLE0
100
AcDbAlignedDimension
 13
62.8407006886
 23
123.9849381778
 33
0.0
 14
233.4407006886
 24
137.0060936504
 34
0.0
100
AcDbRotatedDimension
  0
DIMENSION
  5
204
330
1F
100
AcDbEntity
  8
VERMASSUNG
100
AcDbDimension
  2
_D_5
 10
247.3787549977
 20
73.6060936504
 30
0.0
 11
247.3787549977
 21
105.6060936504
 31
0.0
 70
   160
  1
ST6 %%c<>
 71
     2
 42
-1.0
  3
SLDDIMSTYLE0
100
AcDbAlignedDimension
 13
232.8407006886
 23
137.6060936504
 33
0.0
 14
232.8407006886
 24
73.6060936504
 34
0.0
 50
90.0
100
AcDbRotatedDimension
  0
LINE
  5
210
330
1F
100
AcDbEntity
  8
VERMASSUNG
  6
CENTERX2
 62
     7
370
     0
100
AcDbLine
 10
176.3446756182
 20
117.8864675153
 30
0.0
 11
180.2469292654
 21
116.9519359784
 31
0.0
  0
LINE
  5
211
330
1F
100
AcDbEntity
  8
VERMASSUNG
  6
CENTERX2
 62
     7
370
     0
100
AcDbLine
 10
60.8407006886
 20
105.6060936504
 30
0.0
 11
235.5372459233
 21
105.6060936504
 31
0.0
  0
LINE
  5
212
330
1F
100
AcDbEntity
  8
0
  6
Continuous
 62
     7
370
    15
100
AcDbLine
 10
264.0854815985
 20
39.7385022881
 30
0.0
 11
263.9086758982
 21
39.8406036015
 31
0.0
  0
LINE
  5
213
330
1F
100
AcDbEntity
  8
0
  6
Continuous
 62
     7
370
    15
100
AcDbLine
 10
260.0189565297
 20
39.8406036648
 30
0.0
 11
259.8421520668
 21
39.7385019252
 31
0.0
  0
LINE
  5
214
330
1F
100
AcDbEntity
  8
0
  6
Continuous
 62
     7
370
    15
100
AcDbLine
 10
264.963817147
 20
38.2078859888
 30
0.0
 11
264.963817147
 21
38.5140886533
 31
0.0
  0
LINE
  5
215
330
1F
100
AcDbEntity
  8
0
  6
Continuous
 62
     7
370
    15
100
AcDbLine
 10
258.9638164884
 20
38.5140892236
 30
0.0
 11
258.9638164884
 21
38.207886559
 31
0.0
  0
LINE
  5
216
330
1F
100
AcDbEntity
  8
0
  6
Continuous
 62
     7
370
    15
100
AcDbLine
 10
267.4280564264
 20
9.436603501
 30
0.0
 11
267.6401523059
 21
9.5590851767
 31
0.0
  0
LINE
  5
217
330
1F
100
AcDbEntity
  8
0
  6
Continuous
 62
     7
370
    15
100
AcDbLine
 10
278.7399240328
 20
28.7865372639
 30
0.0
 11
278.739926667
 21
29.0314592814
 31
0.0
  0
LINE
  5
218
330
1F
100
AcDbEntity
  8
0
  6
Continuous
 62
     7
370
    15
100
AcDbLine
 10
275.4255676473
 20
36.356975846
 30
0.0
 11
259.3919206326
 21
45.6130032475
 31
0.0
  0
LINE
  5
219
330
1F
100
AcDbEntity
  8
0
  6
Continuous
 62
     7
370
    15
100
AcDbLine
 10
243.3932205993
 20
17.8994397087
 30
0.0
 11
259.426867614
 21
8.6434123072
 31
0.0
  0
SPLINE
  5
21A
330
1F
100
AcDbEntity
  8
0
  6
Continuous
 62
     7
370
    15
100
AcDbSpline
210
0.0
220
0.0
230
1.0
 70
     8
 71
     3
 72
    23
 73
    19
 74
     0
 42
0.000000001
 43
0.00000001
 40
0.0
 40
0.0
 40
0.0
 40
0.0
 40
0.012472041981491
 40
0.0811956919512607
 40
0.1499953397709288
 40
0.218817192584618
 40
0.2876216631838473
 40
0.3563658844829838
 40
0.4250143341938887
 40
0.4935339734773579
 40
0.5619000618644351
 40
0.6301096178786164
 40
0.6982083894504076
 40
0.7662999999064325
 40
0.8346155413484924
 40
0.9036217649871984
 40
0.9739725109120065
 40
1.0
 40
1.0
 40
1.0
 40
1.0
 10
261.8405438712282
 20
22.66745293602628
 30
0.0
 10
261.86347611443
 20
22.7319187472939
 30
0.0
 10
262.012769979663
 20
23.15160512750663
 30
0.0
 10
262.3515287785339
 20
23.92489113182813
 30
0.0
 10
262.8877545748167
 20
24.96491637870975
 30
0.0
 10
263.5039103900259
 20
25.96425257412608
 30
0.0
 10
264.1842557742851
 20
26.90532910337584
 30
0.0
 10
264.917993785454
 20
27.77189804635383
 30
0.0
 10
265.69152696155
 20
28.54913643619628
 30
0.0
 10
266.4907502447437
 20
29.22404282695447
 30
0.0
 10
267.3008049213042
 20
29.78572598169201
 30
0.0
 10
268.1064780251471
 20
30.22573595400095
 30
0.0
 10
268.8927686058391
 20
30.53864249642339
 30
0.0
 10
269.6449571341495
 20
30.72115649580255
 30
0.0
 10
270.3524506548922
 20
30.77638811435861
 30
0.0
 10
271.0010293893735
 20
30.69622671609497
 30
0.0
 10
271.4766154817324
 20
30.5587022847741
 30
0.0
 10
271.710742862579
 20
30.40427483917954
 30
0.0
 10
271.7739702899061
 20
30.36257083147941
 30
0.0
  0
SPLINE
  5
21B
330
1F
100
AcDbEntity
  8
0
  6
Continuous
 62
     7
370
    15
100
AcDbSpline
210
0.0
220
0.0
230
1.0
 70
     8
 71
     3
 72
    28
 73
    24
 74
     0
 42
0.000000001
 43
0.00000001
 40
0.0
 40
0.0
 40
0.0
 40
0.0
 40
0.0244042008031626
 40
0.0749200727373679
 40
0.1254844059791899
 40
0.1760740831331162
 40
0.2266722741461267
 40
0.2772663909716269
 40
0.3278516343276425
 40
0.3784260249814442
 40
0.4289892989875458
 40
0.4795423260298322
 40
0.5300866380801815
 40
0.580624133261516
 40
0.6311569012282197
 40
0.6816870583044121
 40
0.7322169328883469
 40
0.7827483110678416
 40
0.8332832072586733
 40
0.8838238753405063
 40
0.9343726086114524
 40
0.9849316291216844
 40
1.0
 40
1.0
 40
1.0
 40
1.0
 10
249.2828580887265
 20
57.57345633230418
 30
0.0
 10
249.0709110259375
 20
57.52589361559755
 30
0.0
 10
248.4202406971407
 20
57.37987768071866
 30
0.0
 10
247.3032616106028
 20
56.98802259130023
 30
0.0
 10
245.9431801048482
 20
56.40873562506774
 30
0.0
 10
244.5734490269299
 20
55.69198767861656
 30
0.0
 10
243.2046610246313
 20
54.85191821821792
 30
0.0
 10
241.8449093752108
 20
53.89148224237977
 30
0.0
 10
240.5027826172392
 20
52.81755694674482
 30
0.0
 10
239.1865198145637
 20
51.63678982854744
 30
0.0
 10
237.9042260016889
 20
50.35669152596106
 30
0.0
 10
236.663781870265
 20
48.98528905665096
 30
0.0
 10
235.4728201466616
 20
47.53116195206421
 30
0.0
 10
234.338672448932
 20
46.00338382886473
 30
0.0
 10
233.2683400344446
 20
44.41146363008877
 30
0.0
 10
232.2684292548039
 20
42.76529962064025
 30
0.0
 10
231.3451583496088
 20
41.07511649615721
 30
0.0
 10
230.5042058081066
 20
39.35139191305596
 30
0.0
 10
229.7510229447905
 20
37.60486796010159
 30
0.0
 10
229.089543620024
 20
35.84615484548683
 30
0.0
 10
228.5268552990768
 20
34.08687797678117
 30
0.0
 10
228.1659083706125
 20
32.74512805171261
 30
0.0
 10
228.0000182782541
 20
31.99537806452099
 30
0.0
 10
227.9619290995772
 20
31.82323179093031
 30
0.0
  0
SPLINE
  5
21C
330
1F
100
AcDbEntity
  8
0
  6
Continuous
 62
     7
370
    15
100
AcDbSpline
210
0.0
220
0.0
230
1.0
 70
     8
 71
     3
 72
    10
 73
     6
 74
     0
 42
0.000000001
 43
0.00000001
 40
0.0
 40
0.0
 40
0.0
 40
0.0
 40
0.2874791808585812
 40
0.7438196566344245
 40
1.0
 40
1.0
 40
1.0
 40
1.0
 10
262.7956770692711
 20
14.80108782352027
 30
0.0
 10
262.6796389226624
 20
14.86742237547627
 30
0.0
 10
262.3794034269681
 20
15.03905547778143
 30
0.0
 10
262.0396888493203
 20
15.38295504213235
 30
0.0
 10
261.8421664552727
 20
15.69751924706882
 30
0.0
 10
261.771149085155
 20
15.81061792975469
 30
0.0
  0
LINE
  5
21D
330
1F
100
AcDbEntity
  8
0
  6
Continuous
 62
     7
370
    15
100
AcDbLine
 10
243.216128103
 20
54.8379695432
 30
0.0
 11
212.4642247033
 21
65.919735883
 31
0.0
  0
LINE
  5
21E
330
1F
100
AcDbEntity
  8
0
  6
Continuous
 62
     7
370
    15
100
AcDbLine
 10
202.3403653229
 20
48.3827974826
 30
0.0
 11
231.8078764414
 21
23.5006750443
 31
0.0
  0
SPLINE
  5
21F
330
1F
100
AcDbEntity
  8
0
  6
Continuous
 62
     7
370
    15
100
AcDbSpline
210
0.0
220
0.0
230
1.0
 70
     8
 71
     3
 72
    12
 73
     8
 74
     0
 42
0.000000001
 43
0.00000001
 40
0.0
 40
0.0
 40
0.0
 40
0.0
 40
0.1059784726340712
 40
0.3324097432727355
 40
0.5590606349727566
 40
0.7858269674273703
 40
1.0
 40
1.0
 40
1.0
 40
1.0
 10
245.0630105779667
 20
10.80508915840365
 30
0.0
 10
245.2682639562518
 20
10.85080154006112
 30
0.0
 10
245.9120571822324
 20
10.99418198963236
 30
0.0
 10
247.0220520086054
 20
11.38136263170448
 30
0.0
 10
248.3816994250828
 20
11.95990734298361
 30
0.0
 10
249.7264371777965
 20
12.65313344436501
 30
0.0
 10
250.6124062638192
 20
13.21200986501715
 30
0.0
 10
251.0427390963332
 20
13.48346727467032
 30
0.0
  0
LINE
  5
220
330
1F
100
AcDbEntity
  8
0
  6
Continuous
 62
     7
370
    15
100
AcDbLine
 10
236.1304424074
 20
12.4362308456
 30
0.0
 11
237.5859643937
 21
11.5959758882
 31
0.0
  0
LINE
  5
221
330
1F
100
AcDbEntity
  8
0
  6
Continuous
 62
     7
370
    15
100
AcDbLine
 10
232.4064074591
 20
14.5860704606
 30
0.0
 11
233.8442521351
 21
13.7560203972
 31
0.0
  0
LINE
  5
222
330
1F
100
AcDbEntity
  8
0
  6
Continuous
 62
     7
370
    15
100
AcDbLine
 10
227.9744295914
 20
20.6515249409
 30
0.0
 11
228.0744327854
 21
20.3221471488
 31
0.0
  0
LINE
  5
223
330
1F
100
AcDbEntity
  8
0
  6
Continuous
 62
     7
370
    15
100
AcDbLine
 10
266.3934920845
 20
47.6831035552
 30
0.0
 11
266.2432741309
 21
48.1668038983
 31
0.0
  0
SPLINE
  5
224
330
1F
100
AcDbEntity
  8
0
  6
Continuous
 62
     7
370
    15
100
AcDbSpline
210
0.0
220
0.0
230
1.0
 70
     8
 71
     3
 72
    26
 73
    22
 74
     0
 42
0.000000001
 43
0.00000001
 40
0.0
 40
0.0
 40
0.0
 40
0.0
 40
0.0380597519871543
 40
0.0896860522573086
 40
0.1422054271512805
 40
0.1959554512984247
 40
0.250861178319549
 40
0.30656066161629
 40
0.3626397862281063
 40
0.4187666599705011
 40
0.4747963370122812
 40
0.5307031402548771
 40
0.5865062009538609
 40
0.6422448127299988
 40
0.6979668400104496
 40
0.75371900750431
 40
0.8095419987088942
 40
0.8654897028432275
 40
0.921613595783787
 40
0.9779544482370455
 40
1.0
 40
1.0
 40
1.0
 40
1.0
 10
212.4828144269354
 20
65.89773115115753
 30
0.0
 10
212.2991524459407
 20
65.96283069486788
 30
0.0
 10
211.8663614484919
 20
66.1162347706775
 30
0.0
 10
211.1235458101617
 20
66.19495609699449
 30
0.0
 10
210.2781083130207
 20
66.1600793523556
 30
0.0
 10
209.3970336830304
 20
65.98095971615945
 30
0.0
 10
208.4927267173003
 20
65.6635580362727
 30
0.0
 10
207.5782183060392
 20
65.20911126322666
 30
0.0
 10
206.6695799561752
 20
64.62550324691787
 30
0.0
 10
205.7822629114567
 20
63.92349098036687
 30
0.0
 10
204.9300785276662
 20
63.11582239423599
 30
0.0
 10
204.1250311247391
 20
62.21580728666884
 30
0.0
 10
203.3779885004875
 20
61.23725356971937
 30
0.0
 10
202.6990283239898
 20
60.19455804877655
 30
0.0
 10
202.0975322991388
 20
59.10267100443424
 30
0.0
 10
201.5820437925713
 20
57.97702678228993
 30
0.0
 10
201.1603831206123
 20
56.83333597997568
 30
0.0
 10
200.8388598852869
 20
55.68698959117298
 30
0.0
 10
200.6250011345696
 20
54.55416559806447
 30
0.0
 10
200.5396770897506
 20
53.67294574921178
 30
0.0
 10
200.5331738585192
 20
53.17751234010229
 30
0.0
 10
200.5313448765398
 20
53.0381756403923
 30
0.0
  0
SPLINE
  5
225
330
1F
100
AcDbEntity
  8
0
  6
Continuous
 62
     7
370
    15
100
AcDbSpline
210
0.0
220
0.0
230
1.0
 70
     8
 71
     3
 72
    13
 73
     9
 74
     0
 42
0.000000001
 43
0.00000001
 40
0.0
 40
0.0
 40
0.0
 40
0.0
 40
0.1011549671195234
 40
0.2918958092254513
 40
0.4826356693552741
 40
0.6716172153146351
 40
0.8570202046325245
 40
0.9999999999999999
 40
0.9999999999999999
 40
0.9999999999999999
 40
0.9999999999999999
 10
200.5313448765398
 20
53.0381756403923
 30
0.0
 10
200.5346750150068
 20
52.85089042493814
 30
0.0
 10
200.544284562519
 20
52.31045458597082
 30
0.0
 10
200.6520169405389
 20
51.4614730024491
 30
0.0
 10
200.8943601301183
 20
50.5271329162572
 30
0.0
 10
201.2622597475815
 20
49.69151032393944
 30
0.0
 10
201.6994072709102
 20
49.00427585080532
 30
0.0
 10
202.0614790829765
 20
48.65795460247431
 30
0.0
 10
202.2191272789597
 20
48.507164294556
 30
0.0
  0
LWPOLYLINE
  5
226
330
1F
100
AcDbEntity
  8
0
  6
Continuous
 62
     7
370
    15
100
AcDbPolyline
 90
       26
 70
   128
 43
0.0
 10
260.0192725214
 20
37.5956637876
 10
259.596776213
 20
37.9101003012
 10
259.3230095475
 20
38.2753145546
 10
259.2151730489
 20
38.6683591274
 10
259.2800457745
 20
39.064535918
 10
259.5135483291
 20
39.4389534847
 10
259.9010116132
 20
39.7680842563
 10
260.4180868696
 20
40.0312494393
 10
261.0322870896
 20
40.2119118319
 10
261.7050182103
 20
40.2987206732
 10
262.3940111822
 20
40.286220695
 10
263.0559732069
 20
40.1751980407
 10
263.6493111072
 20
39.9726283481
 10
264.1367433615
 20
39.6912396972
 10
264.4876423818
 20
39.3487130183
 10
264.6799600979
 20
38.9665704755
 10
264.7016117242
 20
38.5688240595
 10
264.5512394243
 20
38.1804638896
 10
264.2382877554
 20
37.8258944102
 10
263.7824242109
 20
37.5273924581
 10
263.2122898999
 20
37.3037154257
 10
262.5637106932
 20
37.1689165098
 10
261.877436687
 20
37.1314670428
 10
261.1965910632
 20
37.193718968
 10
260.563952873
 20
37.3517611
 10
260.0192725214
 20
37.5956637876
  0
LWPOLYLINE
  5
227
330
1F
100
AcDbEntity
  8
0
  6
Continuous
 62
     7
370
    15
100
AcDbPolyline
 90
        8
 70
   128
 43
0.0
 10
259.8424957971
 20
37.2894771402
 10
259.39647348
 20
37.6181303831
 10
259.0996536409
 20
37.998854703
 10
258.969290475
 20
38.4095213747
 10
259.0129568326
 20
38.8262661513
 10
259.2281167412
 20
39.2248680917
 10
259.6022664574
 20
39.5821615816
 10
259.8421520668
 20
39.7385019252
  0
LWPOLYLINE
  5
228
330
1F
100
AcDbEntity
  8
0
  6
Continuous
 62
     7
370
    15
100
AcDbPolyline
 90
       14
 70
   128
 43
0.0
 10
264.0854815985
 20
39.7385022881
 10
264.5311601553
 20
39.4100474937
 10
264.8279786774
 20
39.0293239342
 10
264.9583431604
 20
38.6186565022
 10
264.9146768027
 20
38.2019117255
 10
264.6995155771
 20
37.8033105456
 10
264.325367178
 20
37.4460162952
 10
263.8139733702
 20
37.150794934
 10
263.1950545142
 20
36.9348036607
 10
262.5045822045
 20
36.810593729
 10
261.782680858
 20
36.7853856773
 10
261.0713069218
 20
36.8606434914
 10
260.4118029145
 20
37.0319931769
 10
259.8424957971
 20
37.2894771402
  0
LWPOLYLINE
  5
229
330
1F
100
AcDbEntity
  8
0
  6
Continuous
 62
     7
370
    15
100
AcDbPolyline
 90
       21
 70
   128
 43
0.0
 10
260.7263792539
 20
38.0038678154
 10
260.4045546443
 20
38.2595795228
 10
260.2353621302
 20
38.5601861773
 10
260.2353614717
 20
38.8762634081
 10
260.4045554264
 20
39.1768700388
 10
260.7263794185
 20
39.4325819601
 10
261.1693334532
 20
39.6183669962
 10
261.6900558321
 20
39.7160405872
 10
262.2375769801
 20
39.7160402071
 10
262.7582994001
 20
39.6183674477
 10
263.2012530644
 20
39.4325820552
 10
263.5230776739
 20
39.1768703477
 10
263.6922715051
 20
38.8762629329
 10
263.6922708466
 20
38.5601864624
 10
263.523078209
 20
38.2595790714
 10
263.2012528998
 20
38.0038679104
 10
262.7583001821
 20
37.818082114
 10
262.2375764861
 20
37.7204092833
 10
261.6900566553
 20
37.7204089031
 10
261.1693329182
 20
37.8180824229
 10
260.7263792539
 20
38.0038678154
  0
SPLINE
  5
22A
330
1F
100
AcDbEntity
  8
0
  6
Continuous
 62
     7
370
    15
100
AcDbSpline
210
0.0
220
0.0
230
1.0
 70
     8
 71
     3
 72
     9
 73
     5
 74
     0
 42
0.000000001
 43
0.00000001
 40
0.0
 40
0.0
 40
0.0
 40
0.0
 40
0.6311769816644678
 40
1.0
 40
1.0
 40
1.0
 40
1.0
 10
260.9033245655276
 20
37.90630647851709
 30
0.0
 10
260.7683570668287
 20
37.99924097965665
 30
0.0
 10
260.5545224330895
 20
38.14648098339459
 30
0.0
 10
260.3618475804802
 20
38.36440187911749
 30
0.0
 10
260.2907846597835
 20
38.4447761216364
 30
0.0
  0
SPLINE
  5
22B
330
1F
100
AcDbEntity
  8
0
  6
Continuous
 62
     7
370
    15
100
AcDbSpline
210
0.0
220
0.0
230
1.0
 70
     8
 71
     3
 72
    10
 73
     6
 74
     0
 42
0.000000001
 43
0.00000001
 40
0.0
 40
0.0
 40
0.0
 40
0.0
 40
0.4391281197593838
 40
0.7513761521252575
 40
1.0
 40
1.0
 40
1.0
 40
1.0
 10
263.6368489755714
 20
38.96235866504173
 30
0.0
 10
263.5726715572476
 20
38.74020091705866
 30
0.0
 10
263.4628599112525
 20
38.36007487562958
 30
0.0
 10
263.3032304246613
 20
38.07997122080484
 30
0.0
 10
263.2237802034915
 20
38.02216276727697
 30
0.0
 10
263.188561430011
 20
37.99653737819592
 30
0.0
  0
SPLINE
  5
22C
330
1F
100
AcDbEntity
  8
0
  6
Continuous
 62
     7
370
    15
100
AcDbSpline
210
0.0
220
0.0
230
1.0
 70
     8
 71
     3
 72
    11
 73
     7
 74
     0
 42
0.000000001
 43
0.00000001
 40
0.0
 40
0.0
 40
0.0
 40
0.0
 40
0.1843644584347549
 40
0.5174526572975828
 40
0.8663349316354882
 40
1.0
 40
1.0
 40
1.0
 40
1.0
 10
262.4121050217824
 20
39.66938830001521
 30
0.0
 10
262.4831752758789
 20
39.59025440186399
 30
0.0
 10
262.6826469753011
 20
39.36815060686841
 30
0.0
 10
263.0542804042274
 20
39.07402818893677
 30
0.0
 10
263.4003111846098
 20
38.96970295229229
 30
0.0
 10
263.5855406289172
 20
38.96395174340205
 30
0.0
 10
263.6368489755714
 20
38.96235866504173
 30
0.0
  0
SPLINE
  5
22D
330
1F
100
AcDbEntity
  8
0
  6
Continuous
 62
     7
370
    15
100
AcDbSpline
210
0.0
220
0.0
230
1.0
 70
     8
 71
     3
 72
    10
 73
     6
 74
     0
 42
0.000000001
 43
0.00000001
 40
0.0
 40
0.0
 40
0.0
 40
0.0
 40
0.4391275887153922
 40
0.7513761702796584
 40
0.9999999999999999
 40
0.9999999999999999
 40
0.9999999999999999
 40
0.9999999999999999
 10
260.7390722053439
 20
39.4105974084822
 30
0.0
 10
260.9785861030948
 20
39.36375780233592
 30
0.0
 10
261.3884101265574
 20
39.28361215722499
 30
0.0
 10
261.9841523281138
 20
39.43957302950173
 30
0.0
 10
262.2806661932253
 20
39.59880421353157
 30
0.0
 10
262.4121050217824
 20
39.66938830001521
 30
0.0
  0
SPLINE
  5
22E
330
1F
100
AcDbEntity
  8
0
  6
Continuous
 62
     7
370
    15
100
AcDbSpline
210
0.0
220
0.0
230
1.0
 70
     8
 71
     3
 72
    10
 73
     6
 74
     0
 42
0.000000001
 43
0.00000001
 40
0.0
 40
0.0
 40
0.0
 40
0.0
 40
0.4391281197593838
 40
0.7513761521252575
 40
1.0
 40
1.0
 40
1.0
 40
1.0
 10
260.2907846597835
 20
38.4447761216364
 30
0.0
 10
260.3549620781074
 20
38.49915589460728
 30
0.0
 10
260.4647737241024
 20
38.59220314603516
 30
0.0
 10
260.6244032106937
 20
38.99992778308872
 30
0.0
 10
260.7038534318635
 20
39.28446670893136
 30
0.0
 10
260.7390722053439
 20
39.4105974084822
 30
0.0
  0
LINE
  5
22F
330
1F
100
AcDbEntity
  8
0
  6
Continuous
 62
     7
370
    15
100
AcDbLine
 10
260.7390722053
 20
38.0334759193
 30
0.0
 11
260.7390722053
 21
39.4105974085
 31
0.0
  0
LINE
  5
230
330
1F
100
AcDbEntity
  8
0
  6
Continuous
 62
     7
370
    15
100
AcDbLine
 10
262.4121050218
 20
37.7416787497
 30
0.0
 11
262.4121050218
 21
39.6693883
 31
0.0
  0
LWPOLYLINE
  5
231
330
1F
100
AcDbEntity
  8
0
  6
Continuous
 62
     7
370
    15
100
AcDbPolyline
 90
       61
 70
   128
 43
0.0
 10
267.6383479875
 20
35.1974240905
 10
266.4779172434
 20
34.4572944542
 10
265.3302005243
 20
33.5848180815
 10
264.2077723258
 20
32.5895552352
 10
263.1229298965
 20
31.4824088011
 10
262.0875599649
 20
30.2755100887
 10
261.1130049722
 20
28.982081533
 10
260.209943547
 20
27.6162939281
 10
259.3882690033
 20
26.1931118754
 10
258.6569836446
 20
24.7281278215
 10
258.0241006405
 20
23.2373921049
 10
257.4965531475
 20
21.7372384377
 10
257.0801212107
 20
20.2441014016
 10
256.7793678852
 20
18.7743415471
 10
256.5975872105
 20
17.3440608918
 10
256.5367719423
 20
15.9689303925
 10
256.5975872105
 20
14.6640157073
 10
256.7793678852
 20
13.4436145515
 10
257.0801212107
 20
12.3210970955
 10
257.4965531475
 20
11.3087621393
 10
258.0241006405
 20
10.4177018426
 10
258.6569836446
 20
9.657677289
 10
259.3882690033
 20
9.0370173383
 10
260.209943547
 20
8.5625205204
 10
261.1130049722
 20
8.2393854436
 10
262.0875599649
 20
8.0711541319
 10
263.1229298965
 20
8.0596680976
 10
264.2077723258
 20
8.2050540713
 10
265.3302005243
 20
8.5057192384
 10
266.4779172434
 20
8.9583683836
 10
267.6383479875
 20
9.5580435658
 10
268.7987787316
 20
10.2981732022
 10
269.9464954508
 20
11.1706495749
 10
271.0689236493
 20
12.1659124212
 10
272.1537660785
 20
13.2730588553
 10
273.1891360102
 20
14.4799575677
 10
274.1636910028
 20
15.7733861234
 10
275.0667524281
 20
17.1391737282
 10
275.8884269718
 20
18.562355781
 10
276.6197123305
 20
20.0273398349
 10
277.2525953346
 20
21.5180755514
 10
277.7801428276
 20
23.0182292186
 10
278.1965747643
 20
24.5113662548
 10
278.4973280899
 20
25.9811261092
 10
278.6791087646
 20
27.4114067646
 10
278.7399240328
 20
28.7865372639
 10
278.6791087646
 20
30.0914519491
 10
278.4973280899
 20
31.3118531048
 10
278.1965747643
 20
32.4343705609
 10
277.7801428276
 20
33.4467055171
 10
277.2525953346
 20
34.3377658138
 10
276.6197123305
 20
35.0977903674
 10
275.8884269718
 20
35.718450318
 10
275.0667524281
 20
36.192947136
 10
274.1636910028
 20
36.5160822127
 10
273.1891360102
 20
36.6843135244
 10
272.1537660785
 20
36.6957995588
 10
271.0689236493
 20
36.550413585
 10
269.9464954508
 20
36.249748418
 10
268.7987787316
 20
35.7970992727
 10
267.6383479875
 20
35.1974240905
  0
LWPOLYLINE
  5
232
330
1F
100
AcDbEntity
  8
0
  6
Continuous
 62
     7
370
    15
100
AcDbPolyline
 90
       32
 70
   128
 43
0.0
 10
267.4262176306
 20
35.5648476873
 10
266.2629308613
 20
34.8240518207
 10
265.1119751733
 20
33.952619725
 10
263.9855510914
 20
32.9597900694
 10
262.8955990153
 20
31.85608635
 10
261.8536726145
 20
30.6532072993
 10
260.8708160098
 20
29.3639035128
 10
259.9574490215
 20
28.0018435233
 10
259.123252254
 20
26.5814645711
 10
258.3770693015
 20
25.1178233717
 10
257.7268099419
 20
23.626434527
 10
257.1793665023
 20
22.1231074139
 10
256.7405420767
 20
20.6237769877
 10
256.414987965
 20
19.1443370568
 10
256.2061562575
 20
17.7004705135
 10
256.1162596638
 20
16.3074818699
 10
256.1462524149
 20
14.9801381088
 10
256.2958144581
 20
13.7325081803
 10
256.5633619939
 20
12.5778182749
 10
256.9460580125
 20
11.5283074535
 10
257.439847197
 20
10.595102049
 10
258.0394934598
 20
9.7880931329
 10
258.7386418465
 20
9.1158357488
 10
259.5298810972
 20
8.5854561292
 10
260.404822672
 20
8.2025756427
 10
261.3541936056
 20
7.9712541298
 10
262.3679287037
 20
7.8939427466
 10
263.4352834836
 20
7.9714609494
 10
264.5449428333
 20
8.2029877396
 10
265.6851444895
 20
8.5860690664
 10
266.8438020202
 20
9.1166424353
 10
267.4280564264
 20
9.436603501
  0
LWPOLYLINE
  5
233
330
1F
100
AcDbEntity
  8
0
  6
Continuous
 62
     7
370
    15
100
AcDbPolyline
 90
       17
 70
   128
 43
0.0
 10
278.739926667
 20
29.0314592814
 10
278.7361755975
 20
29.3656813868
 10
278.6462790038
 20
30.6548776326
 10
278.4374472963
 20
31.8576322187
 10
278.1118931846
 20
32.961195373
 10
277.673068759
 20
33.9538699018
 10
277.1256253193
 20
34.8251322734
 10
276.4753659598
 20
35.5657476422
 10
275.7291830072
 20
36.1678643426
 10
274.8949862397
 20
36.6251002082
 10
273.9816192515
 20
36.9326091198
 10
272.9987626467
 20
37.087130825
 10
271.956836246
 20
37.0870272596
 10
270.8668841699
 20
36.9322990984
 10
269.740460088
 20
36.6245871918
 10
268.5895043999
 20
36.1671541358
 10
267.4262176306
 20
35.5648476873
  0
SPLINE
  5
234
330
1F
100
AcDbEntity
  8
0
  6
Continuous
 62
     7
370
    15
100
AcDbSpline
210
0.0
220
0.0
230
1.0
 70
    11
 71
     3
 72
    94
 73
    90
 74
     0
 42
0.000000001
 43
0.00000001
 40
0.0
 40
0.0
 40
0.0
 40
0.0
 40
0.0312499999999997
 40
0.0312499999999997
 40
0.0624999999999995
 40
0.0624999999999995
 40
0.0937499999999992
 40
0.0937499999999992
 40
0.1093749999999991
 40
0.1093749999999991
 40
0.124999999999999
 40
0.124999999999999
 40
0.1562499999999992
 40
0.1562499999999992
 40
0.1718749999999995
 40
0.1718749999999995
 40
0.1874999999999999
 40
0.1874999999999999
 40
0.2187500000000005
 40
0.2187500000000005
 40
0.2343750000000007
 40
0.2343750000000007
 40
0.2500000000000008
 40
0.2500000000000008
 40
0.2812500000000013
 40
0.2812500000000013
 40
0.3125000000000019
 40
0.3125000000000019
 40
0.3281250000000022
 40
0.3281250000000022
 40
0.3437500000000026
 40
0.3437500000000026
 40
0.3750000000000032
 40
0.3750000000000032
 40
0.3906250000000035
 40
0.3906250000000035
 40
0.4062500000000038
 40
0.4062500000000038
 40
0.4218750000000041
 40
0.4218750000000041
 40
0.4375000000000044
 40
0.4375000000000044
 40
0.4687500000000051
 40
0.4687500000000051
 40
0.4843750000000053
 40
0.4843750000000053
 40
0.5000000000000057
 40
0.5000000000000057
 40
0.5312500000000059
 40
0.5312500000000059
 40
0.562500000000006
 40
0.562500000000006
 40
0.5781250000000059
 40
0.5781250000000059
 40
0.5937500000000058
 40
0.5937500000000058
 40
0.6250000000000054
 40
0.6250000000000054
 40
0.656250000000005
 40
0.656250000000005
 40
0.6875000000000047
 40
0.6875000000000047
 40
0.7187500000000043
 40
0.7187500000000043
 40
0.7500000000000039
 40
0.7500000000000039
 40
0.7812500000000036
 40
0.7812500000000036
 40
0.8125000000000033
 40
0.8125000000000033
 40
0.8281250000000031
 40
0.8281250000000031
 40
0.8437500000000029
 40
0.8437500000000029
 40
0.8593750000000026
 40
0.8593750000000026
 40
0.8750000000000023
 40
0.8750000000000023
 40
0.9062500000000019
 40
0.9062500000000019
 40
0.9218750000000017
 40
0.9218750000000017
 40
0.9375000000000013
 40
0.9375000000000013
 40
0.9531250000000009
 40
0.9531250000000009
 40
0.9687500000000006
 40
0.9687500000000006
 40
1.0
 40
1.0
 40
1.0
 40
1.0
 10
261.9472890955702
 20
40.55403783175059
 30
0.0
 10
262.1738054777569
 20
40.52367829172454
 30
0.0
 10
262.3953414902744
 20
40.48169981573152
 30
0.0
 10
262.8293576685863
 20
40.37799645048948
 30
0.0
 10
263.0431153592945
 20
40.31566356475653
 30
0.0
 10
263.4478019684483
 20
40.17716696709829
 30
0.0
 10
263.6403611096463
 20
40.10073200885475
 30
0.0
 10
263.9146932089579
 20
39.97611126384799
 30
0.0
 10
264.0041116944772
 20
39.93267150966288
 30
0.0
 10
264.1754036352712
 20
39.84371793488446
 30
0.0
 10
264.2573369127397
 20
39.79821193907577
 30
0.0
 10
264.4922778747696
 20
39.65870373368734
 30
0.0
 10
264.6345195604158
 20
39.56176009454107
 30
0.0
 10
264.8257243668656
 20
39.40994474591601
 30
0.0
 10
264.8859074370341
 20
39.35806806683025
 30
0.0
 10
264.9964269519707
 20
39.25395866770307
 30
0.0
 10
265.0470515020504
 20
39.20152572034504
 30
0.0
 10
265.1851681875114
 20
39.04285887666733
 30
0.0
 10
265.2590418034089
 20
38.93529378455725
 30
0.0
 10
265.34080982654
 20
38.7697658795364
 30
0.0
 10
265.363126225495
 20
38.71385121782833
 30
0.0
 10
265.3967772202009
 20
38.6027715027307
 30
0.0
 10
265.4082833310552
 20
38.54730170508926
 30
0.0
 10
265.4267460872288
 20
38.38070344677708
 30
0.0
 10
265.4178464964295
 20
38.26940191989852
 30
0.0
 10
265.3529055293739
 20
38.04399176383511
 30
0.0
 10
265.2975672434956
 20
37.93315370977994
 30
0.0
 10
265.1808219547818
 20
37.77065698189768
 30
0.0
 10
265.1362068141695
 20
37.71700020538109
 30
0.0
 10
265.0350073557353
 20
37.61056940124267
 30
0.0
 10
264.9779402056195
 20
37.55742500558144
 30
0.0
 10
264.7918596415065
 20
37.40284084304767
 30
0.0
 10
264.6481912486372
 20
37.30578208196577
 30
0.0
 10
264.4032569542771
 20
37.16890215315859
 30
0.0
 10
264.3160609301177
 20
37.12447299588513
 30
0.0
 10
264.1344937333415
 20
37.04017995488961
 30
0.0
 10
264.040496460701
 20
37.00042828752142
 30
0.0
 10
263.8463367817844
 20
36.92560885630189
 30
0.0
 10
263.7461735830317
 20
36.89054158758319
 30
0.0
 10
263.5397366521795
 20
36.8251870461709
 30
0.0
 10
263.4328171636716
 20
36.79475076242439
 30
0.0
 10
263.108852413907
 20
36.7125293549926
 30
0.0
 10
262.8882878181218
 20
36.66942345233735
 30
0.0
 10
262.5508868300348
 20
36.62246515440382
 30
0.0
 10
262.436760731639
 20
36.60975805552101
 30
0.0
 10
262.210213493225
 20
36.59089358353631
 30
0.0
 10
262.0975585558202
 20
36.58467008617063
 30
0.0
 10
261.7613184178905
 20
36.5755512018284
 30
0.0
 10
261.5384482384123
 20
36.58221640628645
 30
0.0
 10
261.1013157737678
 20
36.62225148119074
 30
0.0
 10
260.891089131377
 20
36.65513436561194
 30
0.0
 10
260.5874391257944
 20
36.72378299176834
 30
0.0
 10
260.4881859550235
 20
36.74990510029124
 30
0.0
 10
260.2936404388779
 20
36.80884869948305
 30
0.0
 10
260.1982994741621
 20
36.84173798839011
 30
0.0
 10
259.9235778968819
 20
36.94871529611439
 30
0.0
 10
259.7535056606898
 20
37.03158156896099
 30
0.0
 10
259.4390868365186
 20
37.22032948200015
 30
0.0
 10
259.2937119226172
 20
37.32738745462519
 30
0.0
 10
259.0393566646109
 20
37.55756261108511
 30
0.0
 10
258.9292879347965
 20
37.68096466029817
 30
0.0
 10
258.7438959841926
 20
37.9436012365481
 30
0.0
 10
258.6683946537518
 20
38.08410280928438
 30
0.0
 10
258.5599909218161
 20
38.36925633767317
 30
0.0
 10
258.5260242365924
 20
38.51488641593556
 30
0.0
 10
258.5007797593754
 20
38.8107205604608
 30
0.0
 10
258.5101993786477
 20
38.96173626116112
 30
0.0
 10
258.5743825697879
 20
39.25231114952818
 30
0.0
 10
258.6286997412592
 20
39.39361371850271
 30
0.0
 10
258.7465389218592
 20
39.59774476445626
 30
0.0
 10
258.7922143127164
 20
39.66471190255849
 30
0.0
 10
258.8937929120306
 20
39.79208232822803
 30
0.0
 10
258.9498966260986
 20
39.85293360811872
 30
0.0
 10
259.0727127863872
 20
39.96885467433412
 30
0.0
 10
259.1394245807008
 20
40.02392494673334
 30
0.0
 10
259.2837730421944
 20
40.12803737444055
 30
0.0
 10
259.3620198708799
 20
40.17739056753731
 30
0.0
 10
259.6089328056877
 20
40.31307024967155
 30
0.0
 10
259.7890304237452
 20
40.38723658761716
 30
0.0
 10
260.0816392259455
 20
40.47528854967608
 30
0.0
 10
260.1836059945423
 20
40.50085796875471
 30
0.0
 10
260.3910145280678
 20
40.54334680958038
 30
0.0
 10
260.4965793176045
 20
40.56037535143033
 30
0.0
 10
260.7112707087077
 20
40.58658779506366
 30
0.0
 10
260.820397850941
 20
40.59577012813449
 30
0.0
 10
261.0421780461938
 20
40.60663603960154
 30
0.0
 10
261.1552871387918
 20
40.60828785000754
 30
0.0
 10
261.4939558203293
 20
40.60244953808876
 30
0.0
 10
261.7207727133835
 20
40.58439737177663
 30
0.0
 10
261.9472890955702
 20
40.55403783175059
 30
0.0
  0
LINE
  5
235
330
1F
100
AcDbEntity
  8
0
  6
Continuous
 62
     7
370
    15
100
AcDbLine
 10
273.6483173636
 20
22.3819121406
 30
0.0
 11
275.8231092348
 21
25.0873323776
 31
0.0
  0
SPLINE
  5
236
330
1F
100
AcDbEntity
  8
0
  6
Continuous
 62
     7
370
    15
100
AcDbSpline
210
0.0
220
0.0
230
1.0
 70
     8
 71
     3
 72
    20
 73
    16
 74
     0
 42
0.000000001
 43
0.00000001
 40
0.0
 40
0.0
 40
0.0
 40
0.0
 40
0.0469163091108922
 40
0.097706241442933
 40
0.1516689633031483
 40
0.20784633832185
 40
0.2651938476233375
 40
0.3192095203174432
 40
0.3728953068123729
 40
0.4259306594990931
 40
0.4781535685998788
 40
0.5793596734499672
 40
0.6698058354121683
 40
0.8327057026614845
 40
0.9074992363787103
 40
0.9074992363787103
 40
0.9074992363787103
 40
0.9074992363787103
 10
275.823109590864
 20
25.08733192657312
 30
0.0
 10
275.9234409352034
 20
25.21214316509913
 30
0.0
 10
276.1224936222357
 20
25.48764521073048
 30
0.0
 10
276.3884527455854
 20
25.94721453240456
 30
0.0
 10
276.61486694991
 20
26.45725659094138
 30
0.0
 10
276.7798940285202
 20
26.99379253512669
 30
0.0
 10
276.8628287728124
 20
27.51484924788254
 30
0.0
 10
276.8577911150205
 20
27.98859635640598
 30
0.0
 10
276.7690576413005
 20
28.39127361754479
 30
0.0
 10
276.6017866916382
 20
28.71130236336644
 30
0.0
 10
276.2992054057934
 20
29.01860880070006
 30
0.0
 10
275.7981935285609
 20
29.13687874120224
 30
0.0
 10
275.0862549540279
 20
29.17577463336629
 30
0.0
 10
274.5855601557632
 20
29.22923140810991
 30
0.0
 10
273.8808462123185
 20
29.29246942617067
 30
0.0
 10
273.6479435058037
 20
29.31316768791799
 30
0.0
  0
SPLINE
  5
237
330
1F
100
AcDbEntity
  8
0
  6
Continuous
 62
     7
370
    15
100
AcDbSpline
210
0.0
220
0.0
230
1.0
 70
     8
 71
     3
 72
    20
 73
    16
 74
     0
 42
0.000000001
 43
0.00000001
 40
0.0
 40
0.0
 40
0.0
 40
0.0
 40
0.0469163091108921
 40
0.097706241442933
 40
0.1516689633031483
 40
0.2078463383218499
 40
0.2651938476233375
 40
0.3192095203174433
 40
0.3728953068123729
 40
0.4259306594990931
 40
0.4781535685998787
 40
0.579359673449967
 40
0.6698058354121682
 40
0.8327057026614842
 40
0.9074992363787102
 40
0.9074992363787102
 40
0.9074992363787102
 40
0.9074992363787102
 10
259.4535876063928
 20
15.63740803222379
 30
0.0
 10
259.3532562620534
 20
15.64637916630147
 30
0.0
 10
259.1542035750211
 20
15.6920598713701
 30
0.0
 10
258.8882444516714
 20
15.84455932539049
 30
0.0
 10
258.6618302473468
 20
16.09318910793096
 30
0.0
 10
258.4968031687366
 20
16.43918884283019
 30
0.0
 10
258.4138684244443
 20
16.86449113801632
 30
0.0
 10
258.4189060822363
 20
17.34405460242169
 30
0.0
 10
258.5076395559562
 20
17.84918135161887
 30
0.0
 10
258.6749105056186
 20
18.36233702509847
 30
0.0
 10
258.9774917914634
 20
19.01899637888253
 30
0.0
 10
259.4785036686959
 20
19.71572232005515
 30
0.0
 10
260.1904422432289
 20
20.57660499389438
 30
0.0
 10
260.6911370414936
 20
21.20815167772473
 30
0.0
 10
261.3958509849383
 20
22.08503509595746
 30
0.0
 10
261.6287536914531
 20
22.37463709886975
 30
0.0
  0
LINE
  5
238
330
1F
100
AcDbEntity
  8
0
  6
Continuous
 62
     7
370
    15
100
AcDbLine
 10
261.6283786115
 20
15.442949199
 30
0.0
 11
259.4535867403
 21
15.6374081888
 31
0.0
  0
SPLINE
  5
239
330
1F
100
AcDbEntity
  8
0
  6
Continuous
 62
     7
370
    15
100
AcDbSpline
210
0.0
220
0.0
230
1.0
 70
     8
 71
     3
 72
    12
 73
     8
 74
     0
 42
0.000000001
 43
0.00000001
 40
0.0
 40
0.0
 40
0.0
 40
0.0
 40
0.2499999999999992
 40
0.2499999999999992
 40
0.4999999999999983
 40
0.4999999999999983
 40
1.0
 40
1.0
 40
1.0
 40
1.0
 10
233.2449366241333
 20
28.7926022560569
 30
0.0
 10
233.2788681164229
 20
28.77301402250542
 30
0.0
 10
233.3172998254501
 20
28.74582683356902
 30
0.0
 10
233.3914766781151
 20
28.68660290603319
 30
0.0
 10
233.4266929583706
 20
28.65517022701642
 30
0.0
 10
233.5217918756285
 20
28.56317751021445
 30
0.0
 10
233.5703210323904
 20
28.50632084468981
 30
0.0
 10
233.6036626285454
 20
28.45809203868747
 30
0.0
  0
ARC
  5
23A
330
1F
100
AcDbEntity
  8
0
  6
Continuous
 62
     7
370
    15
100
AcDbCircle
 10
257.3353477046
 20
44.220981737
 30
0.0
 40
10.7135659609623
100
AcDbArc
 50
73.8253040097
 51
104.8155595464
  0
SPLINE
  5
23B
330
1F
100
AcDbEntity
  8
0
  6
Continuous
 62
     7
370
    15
100
AcDbSpline
210
0.0
220
0.0
230
1.0
 70
     8
 71
     3
 72
    14
 73
    10
 74
     0
 42
0.000000001
 43
0.00000001
 40
0.0
 40
0.0
 40
0.0
 40
0.0
 40
0.25
 40
0.25
 40
0.5
 40
0.5
 40
0.75
 40
0.75
 40
1.0
 40
1.0
 40
1.0
 40
1.0
 10
260.5319254477438
 20
54.07690797689877
 30
0.0
 10
260.5319254477438
 20
54.11364909517575
 30
0.0
 10
260.5276581551366
 20
54.15204823604073
 30
0.0
 10
260.5100638948295
 20
54.23236658244073
 30
0.0
 10
260.4967874604492
 20
54.27361346477105
 30
0.0
 10
260.4605129774319
 20
54.35459089307088
 30
0.0
 10
260.4374808758969
 20
54.39418611036198
 30
0.0
 10
260.3828208627662
 20
54.46336476492786
 30
0.0
 10
260.3513812289499
 20
54.49223469387827
 30
0.0
 10
260.3197934133881
 20
54.51046995165382
 30
0.0
  0
LWPOLYLINE
  5
23C
330
1F
100
AcDbEntity
  8
0
  6
Continuous
 62
     7
370
    15
100
AcDbPolyline
 90
       16
 70
   128
 43
0.0
 10
233.7029205812
 20
28.9058713655
 10
234.0577891431
 20
30.3140643897
 10
234.62801493
 20
32.1865062653
 10
235.3101853808
 20
34.0617650378
 10
236.0993218989
 20
35.9261627283
 10
236.9896727566
 20
37.766105842
 10
237.974743388
 20
39.5681750995
 10
239.0473510481
 20
41.3192299959
 10
240.1996728867
 20
43.0064996711
 10
241.4233058759
 20
44.6176806241
 10
242.7093267376
 20
46.1410222592
 10
244.0483571395
 20
47.5654162341
 10
245.4306321836
 20
48.880475542
 10
246.8460718583
 20
50.0766092203
 10
248.2843534787
 20
51.1450945875
 10
249.5023727052
 20
51.9381729406
  0
LWPOLYLINE
  5
23D
330
1F
100
AcDbEntity
  8
0
  6
Continuous
 62
     7
370
    15
100
AcDbPolyline
 90
       12
 70
   128
 43
0.0
 10
243.2558976058
 20
49.6345967791
 10
244.7062546275
 20
50.9072000898
 10
246.1838865871
 20
52.048349127
 10
247.6776123454
 20
53.0494081488
 10
249.1761288505
 20
53.9028026035
 10
250.6680965831
 20
54.6020760607
 10
252.1422257444
 20
55.1419338824
 10
253.5873611667
 20
55.5182937624
 10
254.9925677184
 20
55.7283061315
 10
256.3472122106
 20
55.7703816696
 10
257.6410434101
 20
55.6442040354
 10
258.8642713945
 20
55.3507254866
  0
LINE
  5
23E
330
1F
100
AcDbEntity
  8
0
  6
Continuous
 62
     7
370
    15
100
AcDbLine
 10
260.3197933807
 20
54.5104705292
 30
0.0
 11
258.8642713945
 21
55.3507254866
 31
0.0
  0
LINE
  5
23F
330
1F
100
AcDbEntity
  8
0
  6
Continuous
 62
     7
370
    15
100
AcDbLine
 10
231.7894144754
 20
29.6328573985
 30
0.0
 11
233.2449364617
 21
28.7926024412
 31
0.0
  0
ARC
  5
240
330
1F
100
AcDbEntity
  8
0
  6
Continuous
 62
     7
370
    15
100
AcDbCircle
 10
271.122138347
 20
20.4017565336
 30
0.0
 40
40.4014404488389
100
AcDbArc
 50
136.9528122493
 51
166.7921386576
  0
SPLINE
  5
241
330
1F
100
AcDbEntity
  8
0
  6
Continuous
 62
     7
370
    15
100
AcDbSpline
210
0.0
220
0.0
230
1.0
 70
     8
 71
     3
 72
    34
 73
    30
 74
     0
 42
0.000000001
 43
0.00000001
 40
0.0
 40
0.0
 40
0.0
 40
0.0
 40
0.0624999999999989
 40
0.0624999999999989
 40
0.1249999999999978
 40
0.1249999999999978
 40
0.1874999999999968
 40
0.1874999999999968
 40
0.2499999999999962
 40
0.2499999999999962
 40
0.3124999999999957
 40
0.3124999999999957
 40
0.3749999999999952
 40
0.3749999999999952
 40
0.499999999999995
 40
0.499999999999995
 40
0.6249999999999948
 40
0.6249999999999948
 40
0.6874999999999954
 40
0.6874999999999954
 40
0.749999999999996
 40
0.749999999999996
 40
0.8124999999999966
 40
0.8124999999999966
 40
0.8749999999999977
 40
0.8749999999999977
 40
0.9374999999999989
 40
0.9374999999999989
 40
1.0
 40
1.0
 40
1.0
 40
1.0
 10
241.5970982386655
 20
47.97979914708922
 30
0.0
 10
241.6562236523088
 20
47.95022166323098
 30
0.0
 10
241.7190363477393
 20
47.92654564103545
 30
0.0
 10
241.8517453506639
 20
47.89046613061572
 30
0.0
 10
241.9223570470351
 20
47.87801824047646
 30
0.0
 10
242.0676050170124
 20
47.86530834675108
 30
0.0
 10
242.1415874467746
 20
47.86496616685375
 30
0.0
 10
242.2922695115994
 20
47.87597251167637
 30
0.0
 10
242.3697175313996
 20
47.88755917566186
 30
0.0
 10
242.5216501173746
 20
47.92173371840065
 30
0.0
 10
242.5966061979592
 20
47.94424612079064
 30
0.0
 10
242.7445412648678
 20
48.0000581933887
 30
0.0
 10
242.8174699779582
 20
48.033503039595
 30
0.0
 10
243.0240825039682
 20
48.14586529891432
 30
0.0
 10
243.1510076800175
 20
48.23990269993506
 30
0.0
 10
243.3601144326444
 20
48.44850401511095
 30
0.0
 10
243.4446628158423
 20
48.56542810925467
 30
0.0
 10
243.5296363726163
 20
48.74395335922732
 30
0.0
 10
243.5515960732142
 20
48.80516993815399
 30
0.0
 10
243.580707169954
 20
48.92597592066785
 30
0.0
 10
243.5880616327338
 20
48.985576447113
 30
0.0
 10
243.5884045677781
 20
49.10331773724626
 30
0.0
 10
243.5811645249428
 20
49.16176912538336
 30
0.0
 10
243.5525526744208
 20
49.27253174977482
 30
0.0
 10
243.5312693328613
 20
49.32544419449746
 30
0.0
 10
243.4744411662543
 20
49.4263624018067
 30
0.0
 10
243.4389836772804
 20
49.47387741643782
 30
0.0
 10
243.3565787243938
 20
49.56013739432123
 30
0.0
 10
243.309373821818
 20
49.59938294674129
 30
0.0
 10
243.2558976759291
 20
49.63459607485492
 30
0.0
  0
LINE
  5
242
330
1F
100
AcDbEntity
  8
0
  6
Continuous
 62
     7
370
    15
100
AcDbLine
 10
266.2418246745
 20
47.2076044207
 30
0.0
 11
266.3461065144
 21
47.3882262454
 31
0.0
  0
LINE
  5
243
330
1F
100
AcDbEntity
  8
0
  6
Continuous
 62
     7
370
    15
100
AcDbLine
 10
263.9437163929
 20
45.8809347487
 30
0.0
 11
266.2418246745
 21
47.2076044207
 31
0.0
  0
ARC
  5
244
330
1F
100
AcDbEntity
  8
0
  6
Continuous
 62
     7
370
    15
100
AcDbCircle
 10
264.7718194906
 20
44.5863324657
 30
0.0
 40
1.536798559128407
100
AcDbArc
 50
122.6053519586
 51
177.394632491
  0
LINE
  5
245
330
1F
100
AcDbEntity
  8
0
  6
Continuous
 62
     7
370
    15
100
AcDbLine
 10
263.2366094959
 20
43.3935121526
 30
0.0
 11
263.2366094959
 21
44.6561900604
 31
0.0
  0
LINE
  5
246
330
1F
100
AcDbEntity
  8
0
  6
Continuous
 62
     7
370
    15
100
AcDbLine
 10
233.6491701784
 20
17.8997163765
 30
0.0
 11
233.6036621188
 21
17.7813477535
 31
0.0
  0
LINE
  5
247
330
1F
100
AcDbEntity
  8
0
  6
Continuous
 62
     7
370
    15
100
AcDbLine
 10
233.6491701784
 20
17.8997163765
 30
0.0
 11
236.7908147057
 21
19.7133491578
 31
0.0
  0
ARC
  5
248
330
1F
100
AcDbEntity
  8
0
  6
Continuous
 62
     7
370
    15
100
AcDbCircle
 10
235.9627116081
 20
21.0079514408
 30
0.0
 40
1.536798559128166
100
AcDbArc
 50
302.6053519586
 51
357.394632491
  0
LINE
  5
249
330
1F
100
AcDbEntity
  8
0
  6
Continuous
 62
     7
370
    15
100
AcDbLine
 10
237.4979216028
 20
22.4835194615
 30
0.0
 11
237.4979216028
 21
20.9380938461
 31
0.0
  0
LINE
  5
24A
330
1F
100
AcDbEntity
  8
0
  6
Continuous
 62
     7
370
    15
100
AcDbLine
 10
237.4979216028
 20
29.7975618145
 30
0.0
 11
237.4979216028
 21
28.2521361991
 31
0.0
  0
ARC
  5
24B
330
1F
100
AcDbEntity
  8
0
  6
Continuous
 62
     7
370
    15
100
AcDbCircle
 10
237.0668481197
 20
29.8674903615
 30
0.0
 40
0.4367085406723195
100
AcDbArc
 50
350.7857695821
 51
129.2035248725
  0
LINE
  5
24C
330
1F
100
AcDbEntity
  8
0
  6
Continuous
 62
     7
370
    15
100
AcDbLine
 10
236.7908147057
 20
30.2058982572
 30
0.0
 11
233.6491701784
 21
28.3922654758
 31
0.0
  0
LINE
  5
24D
330
1F
100
AcDbEntity
  8
0
  6
Continuous
 62
     7
370
    15
100
AcDbLine
 10
233.6036621188
 20
28.4580916116
 30
0.0
 11
233.6491701784
 21
28.3922654758
 31
0.0
  0
LINE
  5
24E
330
1F
100
AcDbEntity
  8
0
  6
Continuous
 62
     7
370
    15
100
AcDbLine
 10
260.5319257133
 20
50.8519471913
 30
0.0
 11
260.5319257133
 21
54.0769083343
 31
0.0
  0
LINE
  5
24F
330
1F
100
AcDbEntity
  8
0
  6
Continuous
 62
     7
370
    15
100
AcDbLine
 10
263.3246727016
 20
52.4641657107
 30
0.0
 11
260.5319257133
 21
50.8519471913
 31
0.0
  0
SPLINE
  5
250
330
1F
100
AcDbEntity
  8
0
  6
Continuous
 62
     7
370
    15
100
AcDbSpline
210
0.0
220
0.0
230
1.0
 70
     8
 71
     3
 72
    18
 73
    14
 74
     0
 42
0.000000001
 43
0.00000001
 40
0.0
 40
0.0
 40
0.0
 40
0.0
 40
0.2500000000000037
 40
0.2500000000000037
 40
0.5000000000000073
 40
0.5000000000000073
 40
0.6250000000000054
 40
0.6250000000000054
 40
0.7500000000000037
 40
0.7500000000000037
 40
0.8750000000000018
 40
0.8750000000000018
 40
1.0
 40
1.0
 40
1.0
 40
1.0
 10
273.6479435058138
 20
29.31316768795108
 30
0.0
 10
273.6142429150565
 20
29.31616268813365
 30
0.0
 10
273.5780788405305
 20
29.31780002977072
 30
0.0
 10
273.4977907085135
 20
29.31668672225782
 30
0.0
 10
273.4527170129385
 20
29.31394884066304
 30
0.0
 10
273.3783622244184
 20
29.30307596884947
 30
0.0
 10
273.351711831618
 20
29.29815062628776
 30
0.0
 10
273.2981858811219
 20
29.2852702288614
 30
0.0
 10
273.270981822579
 20
29.27716299426271
 30
0.0
 10
273.221678473953
 20
29.25908495986828
 30
0.0
 10
273.1993534499653
 20
29.24909493313511
 30
0.0
 10
273.1609594289942
 20
29.22897574915038
 30
0.0
 10
273.1450893720658
 20
29.2190595191305
 30
0.0
 10
273.1312872000091
 20
29.20928471532538
 30
0.0
  0
SPLINE
  5
251
330
1F
100
AcDbEntity
  8
0
  6
Continuous
 62
     7
370
    15
100
AcDbSpline
210
0.0
220
0.0
230
1.0
 70
     8
 71
     3
 72
    10
 73
     6
 74
     0
 42
0.000000001
 43
0.00000001
 40
0.0
 40
0.0
 40
0.0
 40
0.0
 40
0.5
 40
0.5
 40
1.0
 40
1.0
 40
1.0
 40
1.0
 10
273.1312872000092
 20
29.20928471532538
 30
0.0
 10
273.0868494059407
 20
29.22443911393055
 30
0.0
 10
273.040952791958
 20
29.24145262745289
 30
0.0
 10
272.9531175205678
 20
29.2783899122984
 30
0.0
 10
272.911187033823
 20
29.29840321525316
 30
0.0
 10
272.8767529283049
 20
29.31828160124537
 30
0.0
  0
SPLINE
  5
252
330
1F
100
AcDbEntity
  8
0
  6
Continuous
 62
     7
370
    15
100
AcDbSpline
210
0.0
220
0.0
230
1.0
 70
     8
 71
     3
 72
    11
 73
     7
 74
     0
 42
0.000000001
 43
0.00000001
 40
0.0
 40
0.0
 40
0.0
 40
0.0
 40
0.1212414265628238
 40
0.3348185968437155
 40
0.7110373900210142
 40
0.9999999999999999
 40
0.9999999999999999
 40
0.9999999999999999
 40
0.9999999999999999
 10
261.8374559560302
 20
22.66860876849685
 30
0.0
 10
261.8346510920406
 20
22.6616129769954
 30
0.0
 10
261.8269052195943
 20
22.64229349882091
 30
0.0
 10
261.7828591147118
 20
22.57477984558203
 30
0.0
 10
261.7133338480535
 20
22.48085253808322
 30
0.0
 10
261.6543685436843
 20
22.40680481807853
 30
0.0
 10
261.6287533232829
 20
22.37463761927529
 30
0.0
  0
SPLINE
  5
253
330
1F
100
AcDbEntity
  8
0
  6
Continuous
 62
     7
370
    15
100
AcDbSpline
210
0.0
220
0.0
230
1.0
 70
     8
 71
     3
 72
    11
 73
     7
 74
     0
 42
0.000000001
 43
0.00000001
 40
0.0
 40
0.0
 40
0.0
 40
0.0
 40
0.3137257178700437
 40
0.6274277035183086
 40
0.941168282031727
 40
1.0
 40
1.0
 40
1.0
 40
1.0
 10
259.3651982135441
 20
15.96727134922921
 30
0.0
 10
259.1951897725331
 20
16.00912239017448
 30
0.0
 10
258.855185751038
 20
16.09282130618433
 30
0.0
 10
258.5409909737813
 20
16.55652366282199
 30
0.0
 10
258.3933042554729
 20
17.00682410568061
 30
0.0
 10
258.4309615961257
 20
17.30870482317401
 30
0.0
 10
258.4369079481911
 20
17.3563738565384
 30
0.0
  0
SPLINE
  5
254
330
1F
100
AcDbEntity
  8
0
  6
Continuous
 62
     7
370
    15
100
AcDbSpline
210
0.0
220
0.0
230
1.0
 70
     8
 71
     3
 72
     8
 73
     4
 74
     0
 42
0.000000001
 43
0.00000001
 40
0.0
 40
0.0
 40
0.0
 40
0.0
 40
1.0
 40
1.0
 40
1.0
 40
1.0
 10
230.7168601519048
 20
30.72437118358837
 30
0.0
 10
230.4297930222325
 20
30.67691918386502
 30
0.0
 10
230.1426799036471
 20
30.62956175116224
 30
0.0
 10
229.8555250772494
 20
30.58229008225017
 30
0.0
  0
SPLINE
  5
255
330
1F
100
AcDbEntity
  8
0
  6
Continuous
 62
     7
370
    15
100
AcDbSpline
210
0.0
220
0.0
230
1.0
 70
     8
 71
     3
 72
     8
 73
     4
 74
     0
 42
0.000000001
 43
0.00000001
 40
0.0
 40
0.0
 40
0.0
 40
0.0
 40
0.0011862984959113
 40
0.0011862984959113
 40
0.0011862984959113
 40
0.0011862984959113
 10
229.5032239899739
 20
30.95264698191235
 30
0.0
 10
229.6209348578184
 20
30.82909703079989
 30
0.0
 10
229.7383746082545
 20
30.70564198168461
 30
0.0
 10
229.8555250772494
 20
30.58229008225017
 30
0.0
  0
LWPOLYLINE
  5
256
330
1F
100
AcDbEntity
  8
0
  6
Continuous
 62
     7
370
    15
100
AcDbPolyline
 90
       24
 70
   128
 43
0.0
 10
229.5032242031
 20
30.9526469502
 10
229.9738833288
 20
32.8140071974
 10
230.5590172463
 20
34.6899252709
 10
231.2544521005
 20
36.5670208376
 10
232.0552290513
 20
38.4319079344
 10
232.9556372008
 20
40.27128432
 10
233.9492531057
 20
42.0720333725
 10
235.0289908271
 20
43.8213092574
 10
236.1871506628
 20
45.5066380638
 10
237.4154711718
 20
47.1159987893
 10
238.7051923951
 20
48.6379145894
 10
240.0471164416
 20
50.0615288183
 10
241.4316713668
 20
51.3766905748
 10
242.8489829543
 20
52.5740189548
 10
244.2889427107
 20
53.6449727221
 10
245.7412809429
 20
54.5819168305
 10
247.195639137
 20
55.3781657275
 10
248.6416446612
 20
56.0280432101
 10
250.0689847291
 20
56.5269129552
 10
251.4674787366
 20
56.8712172369
 10
252.8271531918
 20
57.0585004107
 10
254.1383106974
 20
57.0874274434
 10
255.3915992628
 20
56.9577904654
 10
256.5780811222
 20
56.6705150383
  0
LINE
  5
257
330
1F
100
AcDbEntity
  8
0
  6
Continuous
 62
     7
370
    15
100
AcDbLine
 10
256.8813079409
 20
55.7163945037
 30
0.0
 11
256.5780811222
 21
56.6705150383
 31
0.0
  0
LWPOLYLINE
  5
258
330
1F
100
AcDbEntity
  8
0
  6
Continuous
 62
     7
370
    15
100
AcDbPolyline
 90
       23
 70
   128
 43
0.0
 10
230.7168601574
 20
30.7243711579
 10
231.1681093422
 20
32.5383788219
 10
231.7338451727
 20
34.3676770171
 10
232.4098411102
 20
36.1985998615
 10
233.1910474353
 20
38.017467862
 10
234.0716268096
 20
39.8106920943
 10
235.0450003734
 20
41.5648761011
 10
236.1038971369
 20
43.266914367
 10
237.2404053462
 20
44.9040919343
 10
238.4460343871
 20
46.4641748925
 10
239.7117773463
 20
47.9355103731
 10
241.0281768662
 20
49.3071041109
 10
242.3853992308
 20
50.5687103615
 10
243.7733043366
 20
51.7109042339
 10
245.1815229885
 20
52.7251506477
 10
246.5995345471
 20
53.6038734922
 10
248.0167451921
 20
54.3405068913
 10
249.4225666597
 20
54.9295482615
 10
250.8064966262
 20
55.3665971122
 10
252.1581954488
 20
55.64838718
 10
253.4675643475
 20
55.7728148313
 10
254.7248219607
 20
55.7389482763
 10
254.907891407
 20
55.7202643959
  0
LINE
  5
259
330
1F
100
AcDbEntity
  8
0
  6
Continuous
 62
     7
370
    15
100
AcDbLine
 10
270.4019794061
 20
30.746937854
 30
0.0
 11
272.8767541057
 21
29.3182808298
 31
0.0
  0
ARC
  5
25A
330
1F
100
AcDbEntity
  8
0
  6
Continuous
 62
     7
370
    15
100
AcDbCircle
 10
257.2275183212
 20
29.4816454163
 30
0.0
 40
10.89318020605908
100
AcDbArc
 50
338.4798523728
 51
3.827748194
  0
LINE
  5
25B
330
1F
100
AcDbEntity
  8
0
  6
Continuous
 62
     7
370
    15
100
AcDbLine
 10
267.361320045
 20
25.4857177862
 30
0.0
 11
272.8767541057
 21
22.3017254761
 31
0.0
  0
LINE
  5
25C
330
1F
100
AcDbEntity
  8
0
  6
Continuous
 62
     7
370
    15
100
AcDbLine
 10
258.4970106713
 20
17.6903010484
 30
0.0
 11
261.6928389235
 21
15.8453886684
 31
0.0
  0
LINE
  5
25D
330
1F
100
AcDbEntity
  8
0
  6
Continuous
 62
     7
370
    15
100
AcDbLine
 10
228.0653795271
 20
31.7826970136
 30
0.0
 11
229.5032242031
 21
30.9526469502
 31
0.0
  0
ARC
  5
25E
330
1F
100
AcDbEntity
  8
0
  6
Continuous
 62
     7
370
    15
100
AcDbCircle
 10
252.155788751
 20
47.2110522485
 30
0.0
 40
10.71358963179664
100
AcDbArc
 50
73.8253294846
 51
104.8155786464
  0
LINE
  5
25F
330
1F
100
AcDbEntity
  8
0
  6
Continuous
 62
     7
370
    15
100
AcDbLine
 10
256.5780811222
 20
56.6705150383
 30
0.0
 11
255.1402364461
 21
57.5005651016
 31
0.0
  0
LINE
  5
260
330
1F
100
AcDbEntity
  8
0
  6
Continuous
 62
     7
370
    15
100
AcDbLine
 10
231.969450995
 20
30.3980291564
 30
0.0
 11
231.3433473773
 21
30.7594710814
 31
0.0
  0
SPLINE
  5
261
330
1F
100
AcDbEntity
  8
0
  6
Continuous
 62
     7
370
    15
100
AcDbSpline
210
0.0
220
0.0
230
1.0
 70
     8
 71
     3
 72
    11
 73
     7
 74
     0
 42
0.000000001
 43
0.00000001
 40
0.0
 40
0.0
 40
0.0
 40
0.0
 40
0.3165694752064712
 40
0.6331520400060429
 40
0.9494411625907934
 40
1.0
 40
1.0
 40
1.0
 40
1.0
 10
242.5638736828428
 20
48.7421178293421
 30
0.0
 10
242.430283502639
 20
48.69493916642204
 30
0.0
 10
242.1630976185117
 20
48.60057988982687
 30
0.0
 10
241.847147419313
 20
48.34076419063368
 30
0.0
 10
241.6664447283563
 20
48.1175728051612
 30
0.0
 10
241.6315097648063
 20
47.98882362766339
 30
0.0
 10
241.6266950422655
 20
47.97107946811624
 30
0.0
  0
SPLINE
  5
262
330
1F
100
AcDbEntity
  8
0
  6
Continuous
 62
     7
370
    15
100
AcDbSpline
210
0.0
220
0.0
230
1.0
 70
     8
 71
     3
 72
    14
 73
    10
 74
     0
 42
0.000000001
 43
0.00000001
 40
0.0
 40
0.0
 40
0.0
 40
0.0
 40
0.25
 40
0.25
 40
0.5
 40
0.5
 40
0.75
 40
0.75
 40
1.0
 40
1.0
 40
1.0
 40
1.0
 10
231.3433472646385
 20
30.75947125082042
 30
0.0
 10
231.3057132711805
 20
30.78119689280046
 30
0.0
 10
231.2599393144913
 20
30.79840865391197
 30
0.0
 10
231.1600034369814
 20
30.82081398754446
 30
0.0
 10
231.1055695681415
 20
30.82598887114429
 30
0.0
 10
230.9993539176495
 20
30.82404667682953
 30
0.0
 10
230.9460376176994
 20
30.8169582739113
 30
0.0
 10
230.8485445503987
 20
30.79222483762661
 30
0.0
 10
230.8036328598691
 20
30.77446400164057
 30
0.0
 10
230.7658795942691
 20
30.75266950531858
 30
0.0
  0
LINE
  5
263
330
1F
100
AcDbEntity
  8
0
  6
Continuous
 62
     7
370
    15
100
AcDbLine
 10
230.7658795764
 20
30.7526694661
 30
0.0
 11
230.7168601574
 21
30.7243711579
 31
0.0
  0
SPLINE
  5
264
330
1F
100
AcDbEntity
  8
0
  6
Continuous
 62
     7
370
    15
100
AcDbSpline
210
0.0
220
0.0
230
1.0
 70
     8
 71
     3
 72
    10
 73
     6
 74
     0
 42
0.000000001
 43
0.00000001
 40
0.0
 40
0.0
 40
0.0
 40
0.0
 40
0.5
 40
0.5
 40
1.0
 40
1.0
 40
1.0
 40
1.0
 10
227.963366961619
 20
31.81214519249707
 30
0.0
 10
227.9706832460412
 20
31.81651319239025
 30
0.0
 10
227.9825071062496
 20
31.81704524497851
 30
0.0
 10
228.0166584705274
 20
31.8078151953402
 30
0.0
 10
228.0389154339202
 20
31.7979743180239
 30
0.0
 10
228.0653794519419
 20
31.78269696560759
 30
0.0
  0
SPLINE
  5
265
330
1F
100
AcDbEntity
  8
0
  6
Continuous
 62
     7
370
    15
100
AcDbSpline
210
0.0
220
0.0
230
1.0
 70
     8
 71
     3
 72
    18
 73
    14
 74
     0
 42
0.000000001
 43
0.00000001
 40
0.0
 40
0.0
 40
0.0
 40
0.0
 40
0.2499999999999999
 40
0.2499999999999999
 40
0.4999999999999999
 40
0.4999999999999999
 40
0.5624999999999999
 40
0.5624999999999999
 40
0.6249999999999999
 40
0.6249999999999999
 40
0.7499999999999998
 40
0.7499999999999998
 40
1.0
 40
1.0
 40
1.0
 40
1.0
 10
237.497922050592
 20
28.25213652373549
 30
0.0
 10
237.497922050592
 20
27.77288599765594
 30
0.0
 10
237.5045874926788
 20
27.28945029921832
 30
0.0
 10
237.5155170846497
 20
26.32408665255961
 30
0.0
 10
237.5197063558605
 20
25.84226784405669
 30
0.0
 10
237.5197550021608
 20
25.24297132787172
 30
0.0
 10
237.5195303710792
 20
25.12198697041591
 30
0.0
 10
237.51863407243
 20
24.88150094302064
 30
0.0
 10
237.5179625436276
 20
24.76138872022948
 30
0.0
 10
237.5153802023346
 20
24.4013844779898
 30
0.0
 10
237.5128807388629
 20
24.16183711954665
 30
0.0
 10
237.5046549811846
 20
23.4436209249858
 30
0.0
 10
237.497922050592
 20
22.96554148448631
 30
0.0
 10
237.497922050592
 20
22.48351984614461
 30
0.0
  0
LINE
  5
266
330
1F
100
AcDbEntity
  8
0
  6
Continuous
 62
     7
370
    15
100
AcDbLine
 10
261.7918286998
 20
15.7502942363
 30
0.0
 11
259.3651982135
 21
15.9672713492
 31
0.0
  0
SPLINE
  5
267
330
1F
100
AcDbEntity
  8
0
  6
Continuous
 62
     7
370
    15
100
AcDbSpline
210
0.0
220
0.0
230
1.0
 70
     8
 71
     3
 72
    18
 73
    14
 74
     0
 42
0.000000001
 43
0.00000001
 40
0.0
 40
0.0
 40
0.0
 40
0.0
 40
0.2499999999999908
 40
0.2499999999999908
 40
0.4999999999999816
 40
0.4999999999999816
 40
0.6249999999999861
 40
0.6249999999999861
 40
0.7499999999999908
 40
0.7499999999999908
 40
0.8749999999999953
 40
0.8749999999999953
 40
1.0
 40
1.0
 40
1.0
 40
1.0
 10
261.6283792778811
 20
15.44294888476753
 30
0.0
 10
261.6619020039641
 20
15.4399514479012
 30
0.0
 10
261.6949241120084
 20
15.44042730294114
 30
0.0
 10
261.7560284679829
 20
15.4528811484352
 30
0.0
 10
261.7850607985678
 20
15.46471457241985
 30
0.0
 10
261.81836172985
 20
15.49986383237833
 30
0.0
 10
261.8276341735926
 20
15.51471656787819
 30
0.0
 10
261.8393139598259
 20
15.55132366535935
 30
0.0
 10
261.8416419264934
 20
15.57374224074893
 30
0.0
 10
261.8379000273208
 20
15.62210560342577
 30
0.0
 10
261.8319368537283
 20
15.6483930063519
 30
0.0
 10
261.8149607849676
 20
15.69997891560159
 30
0.0
 10
261.8039556886351
 20
15.72565806718733
 30
0.0
 10
261.7918294723205
 20
15.75029351677228
 30
0.0
  0
SPLINE
  5
268
330
1F
100
AcDbEntity
  8
0
  6
Continuous
 62
     7
370
    15
100
AcDbSpline
210
0.0
220
0.0
230
1.0
 70
     8
 71
     3
 72
    10
 73
     6
 74
     0
 42
0.000000001
 43
0.00000001
 40
0.0
 40
0.0
 40
0.0
 40
0.0
 40
0.5
 40
0.5
 40
1.0
 40
1.0
 40
1.0
 40
1.0
 10
261.6928374878457
 20
15.84538940544468
 30
0.0
 10
261.7272757289789
 20
15.82550863201263
 30
0.0
 10
261.7521149963596
 20
15.80694462110923
 30
0.0
 10
261.7833936759943
 20
15.7751437168048
 30
0.0
 10
261.7904344431668
 20
15.76159390699403
 30
0.0
 10
261.7918294723205
 20
15.75029351677228
 30
0.0
  0
SPLINE
  5
269
330
1F
100
AcDbEntity
  8
0
  6
Continuous
 62
     7
370
    15
100
AcDbSpline
210
0.0
220
0.0
230
1.0
 70
     8
 71
     3
 72
    14
 73
    10
 74
     0
 42
0.000000001
 43
0.00000001
 40
0.0
 40
0.0
 40
0.0
 40
0.0
 40
0.25
 40
0.25
 40
0.5
 40
0.5
 40
0.75
 40
0.75
 40
1.0
 40
1.0
 40
1.0
 40
1.0
 10
242.9809525378684
 20
49.04856963848034
 30
0.0
 10
242.9957677300845
 20
49.01011832114293
 30
0.0
 10
242.9952039304862
 20
48.97225951847017
 30
0.0
 10
242.9622331496382
 20
48.90617239079624
 30
0.0
 10
242.9300913109058
 20
48.87793554880093
 30
0.0
 10
242.8453837171273
 20
48.83009595565696
 30
0.0
 10
242.7935689106573
 20
48.81040866179139
 30
0.0
 10
242.6821869946098
 20
48.77448003182053
 30
0.0
 10
242.6233728036182
 20
48.75841926956235
 30
0.0
 10
242.5638734271567
 20
48.74211805529034
 30
0.0
  0
LINE
  5
26A
330
1F
100
AcDbEntity
  8
0
  6
Continuous
 62
     7
370
    15
100
AcDbLine
 10
242.9648255431
 20
49.0904254811
 30
0.0
 11
242.9809526395
 21
49.0485699914
 31
0.0
  0
SPLINE
  5
26B
330
1F
100
AcDbEntity
  8
0
  6
Continuous
 62
     7
370
    15
100
AcDbSpline
210
0.0
220
0.0
230
1.0
 70
     8
 71
     3
 72
    10
 73
     6
 74
     0
 42
0.000000001
 43
0.00000001
 40
0.0
 40
0.0
 40
0.0
 40
0.0
 40
0.5
 40
0.5
 40
1.0
 40
1.0
 40
1.0
 40
1.0
 10
243.2558976759291
 20
49.63459607485493
 30
0.0
 10
243.2278826261912
 20
49.5625699721669
 30
0.0
 10
243.1900647377414
 20
49.48162348686344
 30
0.0
 10
243.0940889899065
 20
49.30122845052353
 30
0.0
 10
243.0360572126068
 20
49.20190224354873
 30
0.0
 10
242.9648254750168
 20
49.09042578198466
 30
0.0
  0
LINE
  5
26C
330
1F
100
AcDbEntity
  8
0
  6
Continuous
 62
     7
370
    15
100
AcDbLine
 10
233.6491701784
 20
28.3922654758
 30
0.0
 11
231.8213160177
 21
29.4474632223
 31
0.0
  0
SPLINE
  5
26D
330
1F
100
AcDbEntity
  8
0
  6
Continuous
 62
     7
370
    15
100
AcDbSpline
210
0.0
220
0.0
230
1.0
 70
     8
 71
     3
 72
     8
 73
     4
 74
     0
 42
0.000000001
 43
0.00000001
 40
0.0000000000000004
 40
0.0000000000000004
 40
0.0000000000000004
 40
0.0000000000000004
 40
0.0011862984959128
 40
0.0011862984959128
 40
0.0011862984959128
 40
0.0011862984959128
 10
231.8213157502204
 20
29.44746328221164
 30
0.0
 10
231.8102535509627
 20
29.50957172713042
 30
0.0
 10
231.799627544389
 20
29.57136451443203
 30
0.0
 10
231.7894144165716
 20
29.63285734114993
 30
0.0
  0
SPLINE
  5
26E
330
1F
100
AcDbEntity
  8
0
  6
Continuous
 62
     7
370
    15
100
AcDbSpline
210
0.0
220
0.0
230
1.0
 70
     8
 71
     3
 72
    10
 73
     6
 74
     0
 42
0.000000001
 43
0.00000001
 40
0.0
 40
0.0
 40
0.0
 40
0.0
 40
0.5
 40
0.5
 40
1.0
 40
1.0
 40
1.0
 40
1.0
 10
272.8767529283049
 20
22.30172636222557
 30
0.0
 10
272.9111911694382
 20
22.28184558879352
 30
0.0
 10
272.9533489199404
 20
22.27327932538815
 30
0.0
 10
273.0409706107936
 20
22.27400454912209
 30
0.0
 10
273.0868955481405
 20
22.28290209294762
 30
0.0
 10
273.1313143343431
 20
22.29643878899791
 30
0.0
  0
SPLINE
  5
26F
330
1F
100
AcDbEntity
  8
0
  6
Continuous
 62
     7
370
    15
100
AcDbSpline
210
0.0
220
0.0
230
1.0
 70
     8
 71
     3
 72
    16
 73
    12
 74
     0
 42
0.000000001
 43
0.00000001
 40
0.0
 40
0.0
 40
0.0
 40
0.0
 40
0.2499999999999943
 40
0.2499999999999943
 40
0.3749999999999915
 40
0.3749999999999915
 40
0.4999999999999887
 40
0.4999999999999887
 40
0.7499999999999943
 40
0.7499999999999943
 40
1.0
 40
1.0
 40
1.0
 40
1.0
 10
273.1313143343431
 20
22.29643878899792
 30
0.0
 10
273.1590390100203
 20
22.24859062090564
 30
0.0
 10
273.1965522776432
 20
22.20500986618292
 30
0.0
 10
273.2707732572698
 20
22.17135235851277
 30
0.0
 10
273.297539262208
 20
22.16606820184239
 30
0.0
 10
273.3510670987112
 20
22.16685673552681
 30
0.0
 10
273.3776570008452
 20
22.17276733162099
 30
0.0
 10
273.4524407074977
 20
22.20020086767024
 30
0.0
 10
273.4973937984355
 20
22.23105909106653
 30
0.0
 10
273.5780570163975
 20
22.30044258297168
 30
0.0
 10
273.6147724387865
 20
22.34018150352901
 30
0.0
 10
273.6483179194571
 20
22.38191176257295
 30
0.0
  0
LINE
  5
270
330
1F
100
AcDbEntity
  8
0
  6
Continuous
 62
     7
370
    15
100
AcDbLine
 10
231.8941002501
 20
30.2326381175
 30
0.0
 11
231.8742069376
 21
30.0032923611
 31
0.0
  0
ARC
  5
271
330
1F
100
AcDbEntity
  8
0
  6
Continuous
 62
     7
370
    15
100
AcDbCircle
 10
247.8823496752
 20
28.5763361386
 30
0.0
 40
16.06843613557758
100
AcDbArc
 50
176.889578633
 51
185.7264146849
  0
LWPOLYLINE
  5
272
330
1F
100
AcDbEntity
  8
0
  6
Continuous
 62
     7
370
    15
100
AcDbPolyline
 90
        3
 70
   128
 43
0.0
 10
230.8953128774
 20
29.3325103067
 10
230.9566721034
 20
30.7876546641
 10
230.9571620605
 20
30.793581761
  0
ARC
  5
273
330
1F
100
AcDbEntity
  8
0
  6
Continuous
 62
     7
370
    15
100
AcDbCircle
 10
242.5466074897
 20
29.0212576652
 30
0.0
 40
11.65545127175735
100
AcDbArc
 50
178.4697646986
 51
203.9428670419
  0
LINE
  5
274
330
1F
100
AcDbEntity
  8
0
  6
Continuous
 62
     7
370
    15
100
AcDbLine
 10
202.3403653229
 20
48.3827974826
 30
0.0
 11
202.2312563517
 21
48.4788568454
 31
0.0
  0
LINE
  5
275
330
1F
100
AcDbEntity
  8
0
  6
Continuous
 62
     7
370
    15
100
AcDbLine
 10
228.3989021919
 20
31.4231806696
 30
0.0
 11
227.963366373
 21
31.8121448393
 31
0.0
  0
LINE
  5
276
330
1F
100
AcDbEntity
  8
0
  6
Continuous
 62
     7
370
    15
100
AcDbLine
 10
229.8555254293
 20
30.5822899736
 30
0.0
 11
228.3989021919
 21
31.4231806696
 31
0.0
  0
LINE
  5
277
330
1F
100
AcDbEntity
  8
0
  6
Continuous
 62
     7
370
    15
100
AcDbLine
 10
231.8941002501
 20
30.2326381175
 30
0.0
 11
231.8941002501
 21
30.0874882803
 31
0.0
  0
LINE
  5
278
330
1F
100
AcDbEntity
  8
0
  6
Continuous
 62
     7
370
    15
100
AcDbLine
 10
231.8941002501
 20
29.4054450829
 30
0.0
 11
231.8941002501
 21
26.9730519584
 31
0.0
  0
LINE
  5
279
330
1F
100
AcDbEntity
  8
0
  6
Continuous
 62
     7
370
    15
100
AcDbLine
 10
231.8941002501
 20
30.441527768
 30
0.0
 11
231.8941002501
 21
30.2326381175
 31
0.0
  0
LINE
  5
27A
330
1F
100
AcDbEntity
  8
0
  6
Continuous
 62
     7
370
    15
100
AcDbLine
 10
231.8941002501
 20
26.9730519584
 30
0.0
 11
231.8941002501
 21
24.1030629157
 31
0.0
  0
SPLINE
  5
27B
330
1F
100
AcDbEntity
  8
0
  6
Continuous
 62
     7
370
    15
100
AcDbSpline
210
0.0
220
0.0
230
1.0
 70
     8
 71
     3
 72
    32
 73
    28
 74
     0
 42
0.000000001
 43
0.00000001
 40
0.0
 40
0.0
 40
0.0
 40
0.0
 40
0.1250000000000001
 40
0.1250000000000001
 40
0.1874999999999999
 40
0.1874999999999999
 40
0.2499999999999998
 40
0.2499999999999998
 40
0.3749999999999998
 40
0.3749999999999998
 40
0.4374999999999998
 40
0.4374999999999998
 40
0.4999999999999998
 40
0.4999999999999998
 40
0.6249999999999997
 40
0.6249999999999997
 40
0.6874999999999997
 40
0.6874999999999997
 40
0.7499999999999998
 40
0.7499999999999998
 40
0.8124999999999998
 40
0.8124999999999998
 40
0.8749999999999999
 40
0.8749999999999999
 40
0.9374999999999999
 40
0.9374999999999999
 40
1.0
 40
1.0
 40
1.0
 40
1.0
 10
275.5579445479178
 20
25.31514370514384
 30
0.0
 10
275.6981639349959
 20
25.48957528962827
 30
0.0
 10
275.825000396563
 20
25.67534703225413
 30
0.0
 10
275.9938800282713
 20
25.97164249064963
 30
0.0
 10
276.0465975396413
 20
26.07374168248398
 30
0.0
 10
276.142029226097
 20
26.27809851484933
 30
0.0
 10
276.1851407034011
 20
26.38104594580228
 30
0.0
 10
276.3007796317154
 20
26.6921845890938
 30
0.0
 10
276.3597035278375
 20
26.90499779044952
 30
0.0
 10
276.4164435866455
 20
27.21095454957097
 30
0.0
 10
276.4303485962955
 20
27.31134273304906
 30
0.0
 10
276.448241722437
 20
27.50876692374993
 30
0.0
 10
276.45220706346
 20
27.60640614261905
 30
0.0
 10
276.4489951642221
 20
27.8863817659246
 30
0.0
 10
276.427387688931
 20
28.05772856020975
 30
0.0
 10
276.3662267102862
 20
28.29091097536708
 30
0.0
 10
276.3412248124934
 20
28.36366145357585
 30
0.0
 10
276.2827786369916
 20
28.49733365159871
 30
0.0
 10
276.2491744874353
 20
28.55868596505371
 30
0.0
 10
276.1726430801401
 20
28.67069621385421
 30
0.0
 10
276.1293961314873
 20
28.7216370183423
 30
0.0
 10
276.0363933535903
 20
28.80970881222415
 30
0.0
 10
275.9871866595608
 20
28.84663994237938
 30
0.0
 10
275.8816629796374
 20
28.90774456458071
 30
0.0
 10
275.8251426530935
 20
28.93203727004608
 30
0.0
 10
275.7009788539505
 20
28.96969463542009
 30
0.0
 10
275.6333408825813
 20
28.98296234403265
 30
0.0
 10
275.5598525801418
 20
28.99119667044996
 30
0.0
  0
SPLINE
  5
27C
330
1F
100
AcDbEntity
  8
0
  6
Continuous
 62
     7
370
    15
100
AcDbSpline
210
0.0
220
0.0
230
1.0
 70
     8
 71
     3
 72
    14
 73
    10
 74
     0
 42
0.000000001
 43
0.00000001
 40
0.0
 40
0.0
 40
0.0
 40
0.0
 40
0.25
 40
0.25
 40
0.5
 40
0.5
 40
0.75
 40
0.75
 40
1.0
 40
1.0
 40
1.0
 40
1.0
 10
275.5598525801416
 20
28.99119667044982
 30
0.0
 10
275.3478617073059
 20
29.01495013850494
 30
0.0
 10
275.1516835910941
 20
29.02954195196189
 30
0.0
 10
274.7517368670392
 20
29.06311328112037
 30
0.0
 10
274.5491147465789
 20
29.08142108468396
 30
0.0
 10
274.1429810805996
 20
29.11855443377447
 30
0.0
 10
273.9397804188002
 20
29.13719846768306
 30
0.0
 10
273.5352674864997
 20
29.17339544178079
 30
0.0
 10
273.3334444977687
 20
29.19124358590373
 30
0.0
 10
273.1312872000092
 20
29.2092847153254
 30
0.0
  0
LINE
  5
27D
330
1F
100
AcDbEntity
  8
0
  6
Continuous
 62
     7
370
    15
100
AcDbLine
 10
231.8213160177
 20
18.954914123
 30
0.0
 11
233.6491701784
 21
17.8997163765
 31
0.0
  0
SPLINE
  5
27E
330
1F
100
AcDbEntity
  8
0
  6
Continuous
 62
     7
370
    15
100
AcDbSpline
210
0.0
220
0.0
230
1.0
 70
     8
 71
     3
 72
    14
 73
    10
 74
     0
 42
0.000000001
 43
0.00000001
 40
0.0
 40
0.0
 40
0.0
 40
0.0
 40
0.25
 40
0.25
 40
0.5
 40
0.5
 40
0.75
 40
0.75
 40
1.0
 40
1.0
 40
1.0
 40
1.0
 10
233.6036626285454
 20
17.78134810715095
 30
0.0
 10
233.586987785479
 20
17.73797548904436
 30
0.0
 10
233.5666925425631
 20
17.69774515959852
 30
0.0
 10
233.5183955634927
 20
17.62397327192638
 30
0.0
 10
233.4901767156876
 20
17.59040366524927
 30
0.0
 10
233.4272513672644
 20
17.53685225958665
 30
0.0
 10
233.3920881912474
 20
17.516396230227
 30
0.0
 10
233.317405202039
 20
17.49896393671511
 30
0.0
 10
233.2788803268306
 20
17.50291124570001
 30
0.0
 10
233.2449366241333
 20
17.52250652816984
 30
0.0
  0
LINE
  5
27F
330
1F
100
AcDbEntity
  8
0
  6
Continuous
 62
     7
370
    15
100
AcDbLine
 10
233.2449364617
 20
17.5225066518
 30
0.0
 11
231.7894144754
 21
18.3627616091
 31
0.0
  0
SPLINE
  5
280
330
1F
100
AcDbEntity
  8
0
  6
Continuous
 62
     7
370
    15
100
AcDbSpline
210
0.0
220
0.0
230
1.0
 70
     8
 71
     3
 72
     8
 73
     4
 74
     0
 42
0.000000001
 43
0.00000001
 40
0.0
 40
0.0
 40
0.0
 40
0.0
 40
0.0011862984959113
 40
0.0011862984959113
 40
0.0011862984959113
 40
0.0011862984959113
 10
231.7894144165716
 20
18.36276161326286
 30
0.0
 10
231.7996275443889
 20
18.56016051515181
 30
0.0
 10
231.8102535509641
 20
18.7575463521286
 30
0.0
 10
231.8213157502218
 20
18.95491384947895
 30
0.0
  0
LWPOLYLINE
  5
281
330
1F
100
AcDbEntity
  8
0
  6
Continuous
 62
     7
370
    15
100
AcDbPolyline
 90
       13
 70
   128
 43
0.0
 10
244.9298268659
 20
10.8101822402
 10
244.0060153618
 20
10.6218414292
 10
242.6375532888
 20
10.469969274
 10
241.3214106012
 20
10.4812126404
 10
240.0672474887
 20
10.655491914
 10
238.884267769
 20
10.9915256117
 10
237.7811543517
 20
11.4868493992
 10
236.7660027243
 20
12.1378263635
 10
235.8462649764
 20
12.939680859
 10
235.0286885552
 20
13.8865247487
 10
234.3192767524
 20
14.9714114014
 10
233.7232347036
 20
16.1863782821
 10
233.341559429
 20
17.2134458466
  0
SPLINE
  5
282
330
1F
100
AcDbEntity
  8
0
  6
Continuous
 62
     7
370
    15
100
AcDbSpline
210
0.0
220
0.0
230
1.0
 70
     8
 71
     3
 72
     8
 73
     4
 74
     0
 42
0.000000001
 43
0.00000001
 40
0.0
 40
0.0
 40
0.0
 40
0.0
 40
1.0
 40
1.0
 40
1.0
 40
1.0
 10
232.0674341039711
 20
19.4521520040658
 30
0.0
 10
231.9852359231855
 20
19.28643167756233
 30
0.0
 10
231.9032015550335
 20
19.12068480222436
 30
0.0
 10
231.8213157502218
 20
18.95491384947895
 30
0.0
  0
LINE
  5
283
330
1F
100
AcDbEntity
  8
0
  6
Continuous
 62
     7
370
    15
100
AcDbLine
 10
232.116453605
 20
19.4804505758
 30
0.0
 11
232.067434186
 21
19.4521522676
 31
0.0
  0
SPLINE
  5
284
330
1F
100
AcDbEntity
  8
0
  6
Continuous
 62
     7
370
    15
100
AcDbSpline
210
0.0
220
0.0
230
1.0
 70
     8
 71
     3
 72
    12
 73
     8
 74
     0
 42
0.000000001
 43
0.00000001
 40
0.0
 40
0.0
 40
0.0
 40
0.0
 40
0.249999999999997
 40
0.249999999999997
 40
0.499999999999994
 40
0.499999999999994
 40
1.0
 40
1.0
 40
1.0
 40
1.0
 10
232.1282357917556
 20
19.81381531602693
 30
0.0
 10
232.1658345763302
 20
19.79210999970264
 30
0.0
 10
232.1960121355766
 20
19.76530812912947
 30
0.0
 10
232.2346018702576
 20
19.70768442429947
 30
0.0
 10
232.2434613554474
 20
19.6766362987281
 30
0.0
 10
232.238413921609
 20
19.5844473223228
 30
0.0
 10
232.1917116345338
 20
19.52389589534794
 30
0.0
 10
232.1164535463354
 20
19.480450325796
 30
0.0
  0
LINE
  5
285
330
1F
100
AcDbEntity
  8
0
  6
Continuous
 62
     7
370
    15
100
AcDbLine
 10
231.3433473773
 20
20.266921982
 30
0.0
 11
232.128235954
 21
19.8138154513
 31
0.0
  0
SPLINE
  5
286
330
1F
100
AcDbEntity
  8
0
  6
Continuous
 62
     7
370
    15
100
AcDbSpline
210
0.0
220
0.0
230
1.0
 70
     8
 71
     3
 72
    10
 73
     6
 74
     0
 42
0.000000001
 43
0.00000001
 40
0.0
 40
0.0
 40
0.0
 40
0.0
 40
0.5
 40
0.5
 40
1.0
 40
1.0
 40
1.0
 40
1.0
 10
230.7658795942691
 20
20.26012007258669
 30
0.0
 10
230.8420169846077
 20
20.30407325245941
 30
0.0
 10
230.945524765292
 20
20.33055991863819
 30
0.0
 10
231.1600200573778
 20
20.33438798902552
 30
0.0
 10
231.267450301796
 20
20.31073620212212
 30
0.0
 10
231.3433472646385
 20
20.26692181808853
 30
0.0
  0
LINE
  5
287
330
1F
100
AcDbEntity
  8
0
  6
Continuous
 62
     7
370
    15
100
AcDbLine
 10
230.7168601574
 20
20.2318220586
 30
0.0
 11
230.7658795764
 21
20.2601203668
 31
0.0
  0
SPLINE
  5
288
330
1F
100
AcDbEntity
  8
0
  6
Continuous
 62
     7
370
    15
100
AcDbSpline
210
0.0
220
0.0
230
1.0
 70
     8
 71
     3
 72
     8
 73
     4
 74
     0
 42
0.000000001
 43
0.00000001
 40
0.0
 40
0.0
 40
0.0
 40
0.0
 40
1.0
 40
1.0
 40
1.0
 40
1.0
 10
229.8555250772503
 20
20.08974064951843
 30
0.0
 10
230.1426799036477
 20
20.13701231843045
 30
0.0
 10
230.4297930222328
 20
20.18436975113319
 30
0.0
 10
230.7168601519048
 20
20.23182175085649
 30
0.0
  0
LINE
  5
289
330
1F
100
AcDbEntity
  8
0
  6
Continuous
 62
     7
370
    15
100
AcDbLine
 10
228.3989021919
 20
20.9306315703
 30
0.0
 11
229.8555254293
 21
20.0897408742
 31
0.0
  0
LINE
  5
28A
330
1F
100
AcDbEntity
  8
0
  6
Continuous
 62
     7
370
    15
100
AcDbLine
 10
228.3989021919
 20
20.9306315703
 30
0.0
 11
231.5405467192
 21
22.7442643516
 31
0.0
  0
ARC
  5
28B
330
1F
100
AcDbEntity
  8
0
  6
Continuous
 62
     7
370
    15
100
AcDbCircle
 10
241.3683423042
 20
20.8259645599
 30
0.0
 40
9.890562528246896
100
AcDbArc
 50
194.4210541018
 51
238.0225374632
  0
ARC
  5
28C
330
1F
100
AcDbEntity
  8
0
  6
Continuous
 62
     7
370
    15
100
AcDbCircle
 10
266.640943954
 20
31.2434642982
 30
0.0
 40
4.169042011086163
100
AcDbArc
 50
320.6700418241
 51
350.3607181244
  0
LINE
  5
28D
330
1F
100
AcDbEntity
  8
0
  6
Continuous
 62
     7
370
    15
100
AcDbLine
 10
273.1313131682
 20
22.2964392813
 30
0.0
 11
275.5579436544
 21
25.3151443172
 31
0.0
  0
LINE
  5
28E
330
1F
100
AcDbEntity
  8
0
  6
Continuous
 62
     7
370
    15
100
AcDbLine
 10
267.361320045
 20
25.4857177862
 30
0.0
 11
269.8657351744
 21
28.6011863274
 31
0.0
  0
ELLIPSE
  5
28F
330
1F
100
AcDbEntity
  8
0
  6
Continuous
 62
     7
370
    15
100
AcDbEllipse
 10
231.2476542003
 20
23.7298889959
 30
0.0
 11
-7.507462981948265E-5
 21
1.066811201853401
 31
0.0
210
0.0
220
0.0
230
1.0
 40
0.7174342186
 41
3.534193645557478
 42
5.104989972352355
  0
ARC
  5
290
330
1F
100
AcDbEntity
  8
0
  6
Continuous
 62
     7
370
    15
100
AcDbCircle
 10
241.4157627786
 20
23.2105048911
 30
0.0
 40
11.10581238431477
100
AcDbArc
 50
195.5577410858
 51
215.7110930235
  0
ARC
  5
291
330
1F
100
AcDbEntity
  8
0
  6
Continuous
 62
     7
370
    15
100
AcDbCircle
 10
238.8144067902
 20
22.0154631339
 30
0.0
 40
9.598989501195904
100
AcDbArc
 50
194.065870688
 51
246.8527503441
  0
SPLINE
  5
292
330
1F
100
AcDbEntity
  8
0
  6
Continuous
 62
     7
370
    15
100
AcDbSpline
210
0.0
220
0.0
230
1.0
 70
     8
 71
     3
 72
     8
 73
     4
 74
     0
 42
0.000000001
 43
0.00000001
 40
0.0000000000000004
 40
0.0000000000000004
 40
0.0000000000000004
 40
0.0000000000000004
 40
0.0011862984959128
 40
0.0011862984959128
 40
0.0011862984959128
 40
0.0011862984959128
 10
229.8555250772508
 20
20.08974064951747
 30
0.0
 10
229.7383746082558
 20
19.9536166066827
 30
0.0
 10
229.6209348578186
 20
19.81789303151976
 30
0.0
 10
229.5032239899739
 20
19.68255125402528
 30
0.0
  0
LINE
  5
293
330
1F
100
AcDbEntity
  8
0
  6
Continuous
 62
     7
370
    15
100
AcDbLine
 10
227.963366373
 20
20.6791498627
 30
0.0
 11
228.3989021919
 21
20.9306315703
 31
0.0
  0
LINE
  5
294
330
1F
100
AcDbEntity
  8
0
  6
Continuous
 62
     7
370
    15
100
AcDbLine
 10
229.5032242031
 20
19.6825511608
 30
0.0
 11
228.0653795271
 21
20.5126012242
 31
0.0
  0
SPLINE
  5
295
330
1F
100
AcDbEntity
  8
0
  6
Continuous
 62
     7
370
    15
100
AcDbSpline
210
0.0
220
0.0
230
1.0
 70
     8
 71
     3
 72
    10
 73
     6
 74
     0
 42
0.000000001
 43
0.00000001
 40
0.0
 40
0.0
 40
0.0
 40
0.0
 40
0.5
 40
0.5
 40
1.0
 40
1.0
 40
1.0
 40
1.0
 10
228.0653794519419
 20
20.51260123772052
 30
0.0
 10
228.0389700226612
 20
20.52784707672745
 30
0.0
 10
228.0166866184521
 20
20.55170449913971
 30
0.0
 10
227.9825794836306
 20
20.60963059087399
 30
0.0
 10
227.9706794535757
 20
20.64352912235485
 30
0.0
 10
227.963366961619
 20
20.6791501648092
 30
0.0
  0
ARC
  5
296
330
1F
100
AcDbEntity
  8
0
  6
Continuous
 62
     7
370
    15
100
AcDbCircle
 10
237.5663044633
 20
22.8981701392
 30
0.0
 40
9.783431819263948
100
AcDbArc
 50
195.8750094926
 51
238.1692558296
  0
ELLIPSE
  5
297
330
1F
100
AcDbEntity
  8
0
  6
Continuous
 62
     7
370
    15
100
AcDbEllipse
 10
231.1869940285
 20
23.6948592402
 30
0.0
 11
0.3250094736511926
 21
1.213179526238669
 31
0.0
210
0.0
220
0.0
230
1.0
 40
0.5176380889
 41
3.619174351347776
 42
5.189970678142606
  0
SPLINE
  5
298
330
1F
100
AcDbEntity
  8
0
  6
Continuous
 62
     7
370
    15
100
AcDbSpline
210
0.0
220
0.0
230
1.0
 70
     8
 71
     3
 72
    14
 73
    10
 74
     0
 42
0.000000001
 43
0.00000001
 40
0.0
 40
0.0
 40
0.0
 40
0.0
 40
0.25
 40
0.25
 40
0.5
 40
0.5
 40
0.75
 40
0.75
 40
1.0
 40
1.0
 40
1.0
 40
1.0
 10
257.7208511174999
 20
55.69918254123326
 30
0.0
 10
257.7525732281946
 20
55.71749532593816
 30
0.0
 10
257.7883040512025
 20
55.73313670976955
 30
0.0
 10
257.8663177199243
 20
55.75793516043552
 30
0.0
 10
257.9090111603315
 20
55.76712544728634
 30
0.0
 10
257.9969604549987
 20
55.77615289303036
 30
0.0
 10
258.0434526943258
 20
55.77595890226229
 30
0.0
 10
258.130091958635
 20
55.76323889588307
 30
0.0
 10
258.1706943410763
 20
55.75054377535874
 30
0.0
 10
258.2023897172038
 20
55.7322464241904
 30
0.0
  0
LINE
  5
299
330
1F
100
AcDbEntity
  8
0
  6
Continuous
 62
     7
370
    15
100
AcDbLine
 10
258.2023900415
 20
55.7322467957
 30
0.0
 11
258.8620583556
 21
55.3514283839
 31
0.0
  0
LINE
  5
29A
330
1F
100
AcDbEntity
  8
0
  6
Continuous
 62
     7
370
    15
100
AcDbLine
 10
260.531925384
 20
53.2766321673
 30
0.0
 11
261.9264249898
 21
53.5824071807
 31
0.0
  0
LINE
  5
29B
330
1F
100
AcDbEntity
  8
0
  6
Continuous
 62
     7
370
    15
100
AcDbLine
 10
261.9264249898
 20
53.5824071807
 30
0.0
 11
263.381946976
 21
52.7421522233
 31
0.0
  0
SPLINE
  5
29C
330
1F
100
AcDbEntity
  8
0
  6
Continuous
 62
     7
370
    15
100
AcDbSpline
210
0.0
220
0.0
230
1.0
 70
     8
 71
     3
 72
    12
 73
     8
 74
     0
 42
0.000000001
 43
0.00000001
 40
0.0
 40
0.0
 40
0.0
 40
0.0
 40
0.2500000000000054
 40
0.2500000000000054
 40
0.5000000000000108
 40
0.5000000000000108
 40
1.0
 40
1.0
 40
1.0
 40
1.0
 10
263.3819468893955
 20
52.74215171463963
 30
0.0
 10
263.4136030198956
 20
52.72387701948971
 30
0.0
 10
263.4359022969057
 20
52.70005290869141
 30
0.0
 10
263.4577228674976
 20
52.65002100624371
 30
0.0
 10
263.4580036298238
 20
52.62362979782981
 30
0.0
 10
263.434636255703
 20
52.5475545678349
 30
0.0
 10
263.3875978528981
 20
52.50049151288449
 30
0.0
 10
263.3246723583976
 20
52.46416539813251
 30
0.0
  0
LINE
  5
29D
330
1F
100
AcDbEntity
  8
0
  6
Continuous
 62
     7
370
    15
100
AcDbLine
 10
257.7208513489
 20
55.6991829183
 30
0.0
 11
257.6290607812
 21
55.6461933515
 31
0.0
  0
SPLINE
  5
29E
330
1F
100
AcDbEntity
  8
0
  6
Continuous
 62
     7
370
    15
100
AcDbSpline
210
0.0
220
0.0
230
1.0
 70
     8
 71
     3
 72
    10
 73
     6
 74
     0
 42
0.000000001
 43
0.00000001
 40
0.0
 40
0.0
 40
0.0
 40
0.0
 40
0.4038344527200883
 40
0.8087313349863076
 40
1.0
 40
1.0
 40
1.0
 40
1.0
 10
266.3461065144046
 20
47.38822624542104
 30
0.0
 10
266.364347620763
 20
47.42699019632759
 30
0.0
 10
266.4008778231702
 20
47.50462008044185
 30
0.0
 10
266.4148160173849
 20
47.61201326086303
 30
0.0
 10
266.3967636137289
 20
47.66528208970676
 30
0.0
 10
266.3909718346445
 20
47.68237240602288
 30
0.0
  0
ARC
  5
29F
330
1F
100
AcDbEntity
  8
0
  6
Continuous
 62
     7
370
    15
100
AcDbCircle
 10
256.1364367854
 20
45.1417553267
 30
0.0
 40
10.50064049996709
100
AcDbArc
 50
17.3022104842
 51
46.3693766627
  0
LWPOLYLINE
  5
2A0
330
1F
100
AcDbEntity
  8
0
  6
Continuous
 62
     7
370
    15
100
AcDbPolyline
 90
        3
 70
   128
 43
0.0
 10
260.5319250547
 20
53.9576219537
 10
260.5703801027
 20
53.9101578563
 10
260.9527929472
 20
53.4007989101
  0
ARC
  5
2A1
330
1F
100
AcDbEntity
  8
0
  6
Continuous
 62
     7
370
    15
100
AcDbCircle
 10
243.1112649627
 20
46.935244043
 30
0.0
 40
1.581669494054377
100
AcDbArc
 50
80.0614982135
 51
142.2453959477
  0
ARC
  5
2A2
330
1F
100
AcDbEntity
  8
0
  6
Continuous
 62
     7
370
    15
100
AcDbCircle
 10
243.06855014
 20
47.0462956556
 30
0.0
 40
1.462458378725146
100
AcDbArc
 50
78.1399538406
 51
144.3952209912
  0
ARC
  5
2A3
330
1F
100
AcDbEntity
  8
0
  6
Continuous
 62
     7
370
    15
100
AcDbCircle
 10
243.0404475562
 20
47.1193554158
 30
0.0
 40
1.24911323895105
100
AcDbArc
 50
80.730997876
 51
142.173359635
  0
LWPOLYLINE
  5
2A4
330
1F
100
AcDbEntity
  8
0
  6
Continuous
 62
     7
370
     0
100
AcDbPolyline
 90
        9
 70
   128
 43
0.0
 10
240.0788615796
 20
25.2249562733
 10
240.1388260083
 20
23.9162523764
 10
240.3180831405
 20
22.6906541689
 10
240.6147317581
 20
21.5611528167
 10
241.0256279697
 20
20.5397217228
 10
241.5464168204
 20
19.6371885764
 10
242.1715777316
 20
18.8631197582
 10
242.8944831115
 20
18.225721665
 10
243.3932205993
 20
17.8994397087
  0
LWPOLYLINE
  5
2A5
330
1F
100
AcDbEntity
  8
0
  6
Continuous
 62
     7
370
     0
100
AcDbPolyline
 90
       24
 70
   128
 43
0.0
 10
259.3919206326
 20
45.6130032475
 10
258.6400550995
 20
45.9721970745
 10
257.7083772812
 20
46.2417016701
 10
256.7097505111
 20
46.3576560784
 10
255.6547602337
 20
46.3188326794
 10
254.5545895225
 20
46.1256408839
 10
253.4209008714
 20
45.7801303756
 10
252.2657113184
 20
45.2859623687
 10
251.1012662311
 20
44.6483770503
 10
249.9399090178
 20
43.8741305334
 10
248.7939505301
 20
42.971431632
 10
247.6755379714
 20
41.9498479327
 10
246.5965266245
 20
40.820209691
 10
245.5683549136
 20
39.5944913182
 10
244.6019210918
 20
38.2856854408
 10
243.707470136
 20
36.9076653626
 10
242.8944831115
 20
35.475038306
 10
242.1715777316
 20
34.0029914272
 10
241.5464168204
 20
32.5071271848
 10
241.0256279697
 20
31.0033040302
 10
240.6147317581
 20
29.5074622685
 10
240.3180831405
 20
28.0354577128
 10
240.1388260083
 20
26.6028936259
 10
240.0788615796
 20
25.2249562733
  0
LWPOLYLINE
  5
2A6
330
1F
100
AcDbEntity
  8
0
  6
Continuous
 62
     7
370
     0
100
AcDbPolyline
 90
       17
 70
   128
 43
0.0
 10
261.6283786115
 20
15.442949199
 10
262.1000782375
 20
14.7905494514
 10
262.6777867364
 20
14.2833773322
 10
263.3504454995
 20
13.931139477
 10
264.1051796525
 20
13.7405791676
 10
264.9275422106
 20
13.7153427534
 10
265.8017928075
 20
13.8559143201
 10
266.7111970865
 20
14.159603732
 10
267.6383479875
 20
14.6205963647
 10
268.5654988886
 20
15.2300693769
 10
269.4749031676
 20
15.9763557961
 10
270.3491537645
 20
16.8451724832
 10
271.1715163226
 20
17.8198884967
 10
271.9262504756
 20
18.8818463109
 10
272.5989092387
 20
20.0107194429
 10
273.1766177376
 20
21.1848995972
 10
273.6483173636
 20
22.3819121406
  0
LWPOLYLINE
  5
2A7
330
1F
100
AcDbEntity
  8
0
  6
Continuous
 62
     7
370
     0
100
AcDbPolyline
 90
       17
 70
   128
 43
0.0
 10
273.6479426518
 20
29.3131679279
 10
273.1762028546
 20
29.9653768031
 10
272.5984854653
 20
30.4723818113
 10
271.9258471171
 20
30.8244812604
 10
271.17116005
 20
31.0149375721
 10
270.3488661452
 20
31.0401048728
 10
269.474701653
 20
30.8995031646
 10
268.5653951678
 20
30.5958207778
 10
267.6383479875
 20
30.1348712917
 10
266.7113008073
 20
29.5254748864
 10
265.8019943221
 20
28.7792943524
 10
264.9278298299
 20
27.9106072212
 10
264.1055359251
 20
26.9360395865
 10
263.350848858
 20
25.8742401343
 10
262.6782105097
 20
24.745528979
 10
262.1004931205
 20
23.571505671
 10
261.6287533233
 20
22.3746376193
  0
LWPOLYLINE
  5
2A8
330
1F
100
AcDbEntity
  8
0
  6
Continuous
 62
     7
370
     0
100
AcDbPolyline
 90
       20
 70
   128
 43
0.0
 10
233.2449364617
 20
28.7926024412
 10
233.7155955873
 20
30.6539626884
 10
234.3007295048
 20
32.5298807619
 10
234.9961643591
 20
34.4069763285
 10
235.7969413099
 20
36.2718634254
 10
236.6973494593
 20
38.1112398109
 10
237.6909653642
 20
39.9119888635
 10
238.7707030857
 20
41.6612647484
 10
239.9288629214
 20
43.3465935548
 10
241.1571834304
 20
44.9559542802
 10
242.4469046537
 20
46.4778700804
 10
243.7888287001
 20
47.9014843093
 10
245.1733836253
 20
49.2166460658
 10
246.5906952129
 20
50.4139744458
 10
248.0306549692
 20
51.484928213
 10
249.4829932015
 20
52.4218723214
 10
250.9373513955
 20
53.2181212184
 10
252.3833569198
 20
53.8679987011
 10
253.8106969877
 20
54.3668684462
 10
254.5957999207
 20
54.5783642992
  0
LINE
  5
2A9
330
1F
100
AcDbEntity
  8
0
  6
Continuous
 62
     7
370
     0
100
AcDbLine
 10
233.6036621188
 20
28.4580916116
 30
0.0
 11
233.7029205812
 21
28.9058713655
 31
0.0
  0
LWPOLYLINE
  5
2AA
330
1F
100
AcDbEntity
  8
0
  6
Continuous
 62
     7
370
     0
100
AcDbPolyline
 90
       10
 70
   128
 43
0.0
 10
249.5023727052
 20
51.9381729406
 10
249.7349886119
 20
52.078139903
 10
251.187398605
 20
52.8689401355
 10
252.6309915514
 20
53.5117305205
 10
254.0552402468
 20
54.0018224374
 10
255.4497579625
 20
54.3356410694
 10
256.8043754544
 20
54.510751608
 10
258.1092142254
 20
54.5258787333
 10
259.354758966
 20
54.3809119303
 10
260.5319257133
 20
54.0769083343
  0
LWPOLYLINE
  5
2AB
330
1F
100
AcDbEntity
  8
0
  6
Continuous
 62
     7
370
     0
100
AcDbPolyline
 90
       17
 70
   128
 43
0.0
 10
250.9658918913
 20
13.5278299861
 10
249.9656109243
 20
12.9172634372
 10
248.4986690509
 20
12.1448500271
 10
247.0427471635
 20
11.5245729721
 10
245.6086881305
 20
11.0610506479
 10
244.2071723916
 20
10.7577369304
 10
242.848637877
 20
10.6168901754
 10
241.5432018061
 20
10.639560013
 10
240.30058693
 20
10.8255767082
 10
239.1300477747
 20
11.1735542094
 10
238.0403014937
 20
11.6809034633
 10
237.0394639897
 20
12.3438426867
 10
236.1349899865
 20
13.1574380574
 10
235.3336137602
 20
14.1156272938
 10
234.6413056753
 20
15.2112759334
 10
234.0632195011
 20
16.4362237256
 10
233.6036621188
 20
17.7813477535
  0
LWPOLYLINE
  5
2AC
330
1F
100
AcDbEntity
  8
0
  6
Continuous
 62
     7
370
     0
100
AcDbPolyline
 90
       28
 70
   128
 43
0.0
 10
237.4979216028
 20
28.2521361991
 10
237.8026960011
 20
29.8262574209
 10
238.224634687
 20
31.4268062819
 10
238.7596783921
 20
33.038381508
 10
239.4026772984
 20
34.6454743222
 10
240.1474450388
 20
36.2326205314
 10
240.9868140149
 20
37.7845476716
 10
241.9127078368
 20
39.2863202489
 10
242.9162163973
 20
40.7234887835
 10
243.9876834583
 20
42.0822225022
 10
245.1167972007
 20
43.3494460232
 10
246.2926936156
 20
44.5129652025
 10
247.5040567681
 20
45.5615843317
 10
248.739229762
 20
46.4852127816
 10
249.9863266457
 20
47.2749630655
 10
251.2333469016
 20
47.9232321408
 10
252.4682903928
 20
48.4237860182
 10
253.6792738944
 20
48.7718057405
 10
254.8546434737
 20
48.9639431324
 10
255.9830894519
 20
48.9983491441
 10
257.0537524301
 20
48.8746917117
 10
258.0563298087
 20
48.5941617364
 10
258.9811739106
 20
48.1594590061
 10
259.8193851654
 20
47.5747661414
 10
260.5628970615
 20
46.845708663
 10
261.2045558297
 20
45.9793044135
 10
261.7381862984
 20
44.9838886455
 10
262.1011470552
 20
44.0489996848
  0
LWPOLYLINE
  5
2AD
330
1F
100
AcDbEntity
  8
0
  6
Continuous
 62
     7
370
     0
100
AcDbPolyline
 90
       12
 70
   128
 43
0.0
 10
246.1024476805
 20
16.3354357656
 10
245.1167972007
 20
16.1827761626
 10
243.9876834583
 20
16.1463527055
 10
242.9162163973
 20
16.2679968878
 10
241.9127078368
 20
16.5465391006
 10
240.9868140149
 20
16.9792974257
 10
240.1474450388
 20
17.5621097743
 10
239.4026772984
 20
18.2893654537
 10
238.7596783921
 20
19.1540675328
 10
238.224634687
 20
20.1478944462
 10
237.8026960011
 20
21.2612832699
 10
237.4979216028
 20
22.4835194615
  0
ARC
  5
2AE
330
1F
100
AcDbEntity
  8
0
  6
Continuous
 62
     7
370
     0
100
AcDbCircle
 10
256.1659671117
 20
44.7657549509
 30
0.0
 40
10.51249703684915
100
AcDbArc
 50
14.4456939373
 51
47.0804331381
  0
ARC
  5
2AF
330
1F
100
AcDbEntity
  8
0
  6
Continuous
 62
     7
370
     0
100
AcDbCircle
 10
270.1896312006
 20
27.6368092573
 30
0.0
 40
3.169854279939507
100
AcDbArc
 50
32.0363415302
 51
59.8554156364
  0
LINE
  5
2B0
330
1F
100
AcDbEntity
  8
0
  6
Continuous
 62
     7
370
     0
100
AcDbLine
 10
259.3651982135
 20
15.9672713492
 30
0.0
 11
259.4535867403
 21
15.6374081888
 31
0.0
  0
LWPOLYLINE
  5
2B1
330
1F
100
AcDbEntity
  8
0
  6
Continuous
 62
     7
370
     0
100
AcDbPolyline
 90
       14
 70
   128
 43
0.0
 10
262.7851620891
 20
14.7873948374
 10
263.4645501893
 20
14.4989795297
 10
264.2293590855
 20
14.371503805
 10
265.056613806
 20
14.4118267227
 10
265.929407044
 20
14.6191241019
 10
266.8299010512
 20
14.9891600793
 10
267.7396919781
 20
15.514371202
 10
268.6401859853
 20
16.1840234749
 10
269.5129792232
 20
16.9844317186
 10
270.3402339438
 20
17.8992367708
 10
271.1050428399
 20
18.9097420512
 10
271.791775687
 20
19.9952965655
 10
272.386396926
 20
21.1337128445
 10
272.8767541057
 20
22.3017254761
  0
LWPOLYLINE
  5
2B2
330
1F
100
AcDbEntity
  8
0
  6
Continuous
 62
     7
370
     0
100
AcDbPolyline
 90
       20
 70
   128
 43
0.0
 10
228.0653795271
 20
31.7826970136
 10
228.5360386527
 20
33.6440572608
 10
229.1211725702
 20
35.5199753343
 10
229.8166074245
 20
37.3970709009
 10
230.6173843753
 20
39.2619579978
 10
231.5177925247
 20
41.1013343833
 10
232.5114084296
 20
42.9020834359
 10
233.5911461511
 20
44.6513593208
 10
234.7493059868
 20
46.3366881271
 10
235.9776264958
 20
47.9460488526
 10
237.2673477191
 20
49.4679646527
 10
238.6092717656
 20
50.8915788817
 10
239.9938266907
 20
52.2067406382
 10
241.4111382783
 20
53.4040690181
 10
242.8510980346
 20
54.4750227854
 10
244.3034362669
 20
55.4119668938
 10
245.757794461
 20
56.2082157908
 10
247.2037999852
 20
56.8580932734
 10
248.6311400531
 20
57.3569630185
 10
249.4162314616
 20
57.5684567814
  0
LWPOLYLINE
  5
2B3
330
1F
100
AcDbEntity
  8
0
  6
Continuous
 62
     7
370
     0
100
AcDbPolyline
 90
       20
 70
   128
 43
0.0
 10
231.3433473773
 20
30.7594710814
 10
231.7962258012
 20
32.5487475788
 10
232.3623014407
 20
34.3521785969
 10
233.0372950734
 20
36.1561355212
 10
233.8161056136
 20
37.9469860122
 10
234.6928483076
 20
39.7111959034
 10
235.6608981976
 20
41.4354341416
 10
236.7129388542
 20
43.1066701211
 10
237.8410196694
 20
44.7122752006
 10
239.0366164433
 20
46.2401131922
 10
240.2906939451
 20
47.6786411169
 10
241.5937744023
 20
49.0169852448
 10
242.9360109281
 20
50.2450336742
 10
244.3072601262
 20
51.3535041012
 10
245.6971593047
 20
52.3340233758
 10
247.095205008
 20
53.1791774
 10
248.490832042
 20
53.8825810832
 10
249.8734938163
 20
54.4389201594
 10
251.2327415346
 20
54.8439877779
 10
251.3592238977
 20
54.874234538
  0
LINE
  5
2B4
330
1F
100
AcDbEntity
  8
0
  6
Continuous
 62
     7
370
     0
100
AcDbLine
 10
242.5638736828
 20
48.7421178293
 30
0.0
 11
242.9218357576
 21
49.0785105522
 31
0.0
  0
LWPOLYLINE
  5
2B5
330
1F
100
AcDbEntity
  8
0
  6
Continuous
 62
     7
370
     0
100
AcDbPolyline
 90
       22
 70
   128
 43
0.0
 10
230.7658795764
 20
30.7526694661
 10
231.2173526664
 20
32.5631363939
 10
231.7831253753
 20
34.3887326523
 10
232.4589672134
 20
36.2157984434
 10
233.2398179245
 20
38.0306618796
 10
234.1198375359
 20
39.8197424022
 10
235.0924379685
 20
41.5696511592
 10
236.1503429639
 20
43.267296324
 10
237.2856355001
 20
44.8999728255
 10
238.48982167
 20
46.4554646244
 10
239.753889292
 20
47.9221310201
 10
241.0683800206
 20
49.2889969491
 10
242.4234575058
 20
50.5458349184
 10
243.8089818085
 20
51.683241425
 10
245.2145854625
 20
52.6927021584
 10
246.6297502567
 20
53.5666667449
 10
248.0438866101
 20
54.2985930483
 10
249.4464128856
 20
54.8830051246
 10
250.8268337977
 20
55.3155293603
 10
252.1748197463
 20
55.5929296242
 10
253.4802847932
 20
55.7131309891
 10
254.6053428891
 20
55.686581465
  0
LINE
  5
2B6
330
1F
100
AcDbEntity
  8
0
  6
Continuous
 62
     7
370
     0
100
AcDbLine
 10
258.7615473416
 20
16.31575158
 30
0.0
 11
259.3651982135
 21
15.9672713492
 31
0.0
  0
LINE
  5
2B7
330
1F
100
AcDbEntity
  8
0
  6
Continuous
 62
     7
370
     0
100
AcDbLine
 10
231.8145516955
 20
28.8018450326
 30
0.0
 11
231.8276778046
 21
29.4667257273
 31
0.0
  0
LWPOLYLINE
  5
2B8
330
1F
100
AcDbEntity
  8
0
  6
Continuous
 62
     7
370
     0
100
AcDbPolyline
 90
        3
 70
   128
 43
0.0
 10
231.8497838267
 20
29.8985690458
 10
231.8759109215
 20
30.25698939
 10
231.8941012379
 20
30.4636951853
  0
LINE
  5
2B9
330
1F
100
AcDbEntity
  8
0
  6
Continuous
 62
     7
370
     0
100
AcDbLine
 10
231.815003457
 20
28.6801661153
 30
0.0
 11
231.8145516955
 21
28.8018450326
 31
0.0
  0
LWPOLYLINE
  5
2BA
330
1F
100
AcDbEntity
  8
0
  6
Continuous
 62
     7
370
     0
100
AcDbPolyline
 90
       19
 70
   128
 43
0.0
 10
200.729597725
 20
52.6931515319
 10
200.7911742707
 20
53.8135715684
 10
200.9748502365
 20
54.9859155809
 10
201.2774830481
 20
56.1901246592
 10
201.6938945699
 20
57.4055944522
 10
202.2169593504
 20
58.6115273486
 10
202.8377284284
 20
59.7872903583
 10
203.54557981
 20
60.9127654818
 10
204.3284018741
 20
61.9686949425
 10
205.1728006485
 20
62.9370126349
 10
206.0643279959
 20
63.8011496183
 10
206.9877296385
 20
64.5463202658
 10
207.9272060231
 20
65.1597747606
 10
208.8666824078
 20
65.6310166111
 10
209.7900840503
 20
65.9519828068
 10
210.6816113978
 20
66.1171813887
 10
211.5260101722
 20
66.1237857694
 10
212.3088322363
 20
65.9716834253
 10
212.4642247033
 20
65.919735883
  0
ARC
  5
2BB
330
1F
100
AcDbEntity
  8
0
  6
Continuous
 62
     7
370
     0
100
AcDbCircle
 10
206.1789335929
 20
52.2601996175
 30
0.0
 40
5.466507912796094
100
AcDbArc
 50
175.4573696118
 51
223.7671409619
  0
LINE
  5
2BC
330
1F
100
AcDbEntity
  8
0
  6
Continuous
 62
     7
370
     0
100
AcDbLine
 10
237.4979216028
 20
29.7975618145
 30
0.0
 11
236.7907001189
 21
30.2058320868
 31
0.0
  0
LINE
  5
2BD
330
1F
100
AcDbEntity
  8
0
  6
Continuous
 62
     7
370
     0
100
AcDbLine
 10
231.954760431
 20
24.1380926767
 30
0.0
 11
237.4979216028
 21
20.9380938461
 31
0.0
  0
LINE
  5
2BE
330
1F
100
AcDbEntity
  8
0
  6
Continuous
 62
     7
370
     0
100
AcDbLine
 10
231.8941002501
 20
24.1030629157
 30
0.0
 11
231.954760431
 21
24.1380926767
 31
0.0
  0
LINE
  5
2BF
330
1F
100
AcDbEntity
  8
0
  6
Continuous
 62
     7
370
     0
100
AcDbLine
 10
275.8231092348
 20
25.0873323776
 30
0.0
 11
275.5579436544
 21
25.3151443172
 31
0.0
  0
LINE
  5
2C0
330
1F
100
AcDbEntity
  8
0
  6
Continuous
 62
     7
370
     0
100
AcDbLine
 10
233.341559429
 20
17.2134458466
 30
0.0
 11
233.2449364617
 21
17.5225066518
 31
0.0
  0
LINE
  5
2C1
330
1F
100
AcDbEntity
  8
0
  6
Continuous
 62
     7
370
     0
100
AcDbLine
 10
236.7908147057
 20
19.7133491578
 30
0.0
 11
231.5405467192
 21
22.7442643516
 31
0.0
  0
LINE
  5
2C2
330
1F
100
AcDbEntity
  8
0
  6
Continuous
 62
     7
370
     0
100
AcDbLine
 10
269.8657351744
 20
28.6011863274
 30
0.0
 11
275.5579436544
 21
25.3151443172
 31
0.0
  0
LINE
  5
2C3
330
1F
100
AcDbEntity
  8
0
  6
Continuous
 62
     7
370
     0
100
AcDbLine
 10
232.2053581014
 20
19.5647992038
 30
0.0
 11
232.128235954
 21
19.8138154513
 31
0.0
  0
LWPOLYLINE
  5
2C4
330
1F
100
AcDbEntity
  8
0
  6
Continuous
 62
     7
370
     0
100
AcDbPolyline
 90
        3
 70
   128
 43
0.0
 10
231.8077516472
 20
18.9732937649
 10
231.8057865504
 20
18.9779236474
 10
231.3433473773
 20
20.266921982
  0
ARC
  5
2C5
330
1F
100
AcDbEntity
  8
0
  6
Continuous
 62
     7
370
     0
100
AcDbCircle
 10
241.5283399447
 20
23.2789948479
 30
0.0
 40
11.17784220286584
100
AcDbArc
 50
195.6688296447
 51
214.1331604714
  0
LINE
  5
2C6
330
1F
100
AcDbEntity
  8
0
  6
Continuous
 62
     7
370
     0
100
AcDbLine
 10
228.1560057881
 20
20.2220130055
 30
0.0
 11
228.0653795271
 21
20.5126012242
 31
0.0
  0
OLE2FRAME
  5
2C7
330
1F
100
AcDbEntity
  8
0
100
AcDbOle2Frame
 70
     2
  3
Paintbrush-Bild
 10
13.8511154363
 20
38.264191557
 30
0.0
 11
51.6290888628
 21
31.9806341108
 31
0.0
 71
     2
 72
     0
 73
     1
 90
    12928
310
80552BED0767C5B32B40DDAF6807D121434000000000000000006FFBDDFB85D0
310
4940DDAF6807D121434000000000000000006FFBDDFB85D04940416F4BD60AFB
310
3F4000000000000000002BED0767C5B32B40416F4BD60AFB3F40000000000000
310
0000000000000100000000010000010000000100000000000100000000320000
310
D0CF11E0A1B11AE1000000000000000000000000000000003E000300FEFF0900
310
0600000000000000000000000100000001000000000000000010000002000000
310
01000000FEFFFFFF0000000000000000FFFFFFFFFFFFFFFFFFFFFFFFFFFFFFFF
310
FFFFFFFFFFFFFFFFFFFFFFFFFFFFFFFFFFFFFFFFFFFFFFFFFFFFFFFFFFFFFFFF
310
FFFFFFFFFFFFFFFFFFFFFFFFFFFFFFFFFFFFFFFFFFFFFFFFFFFFFFFFFFFFFFFF
310
FFFFFFFFFFFFFFFFFFFFFFFFFFFFFFFFFFFFFFFFFFFFFFFFFFFFFFFFFFFFFFFF
310
FFFFFFFFFFFFFFFFFFFFFFFFFFFFFFFFFFFFFFFFFFFFFFFFFFFFFFFFFFFFFFFF
310
FFFFFFFFFFFFFFFFFFFFFFFFFFFFFFFFFFFFFFFFFFFFFFFFFFFFFFFFFFFFFFFF
310
FFFFFFFFFFFFFFFFFFFFFFFFFFFFFFFFFFFFFFFFFFFFFFFFFFFFFFFFFFFFFFFF
310
FFFFFFFFFFFFFFFFFFFFFFFFFFFFFFFFFFFFFFFFFFFFFFFFFFFFFFFFFFFFFFFF
310
FFFFFFFFFFFFFFFFFFFFFFFFFFFFFFFFFFFFFFFFFFFFFFFFFFFFFFFFFFFFFFFF
310
FFFFFFFFFFFFFFFFFFFFFFFFFFFFFFFFFFFFFFFFFFFFFFFFFFFFFFFFFFFFFFFF
310
FFFFFFFFFFFFFFFFFFFFFFFFFFFFFFFFFFFFFFFFFFFFFFFFFFFFFFFFFFFFFFFF
310
FFFFFFFFFFFFFFFFFFFFFFFFFFFFFFFFFFFFFFFFFFFFFFFFFFFFFFFFFFFFFFFF
310
FFFFFFFFFFFFFFFFFFFFFFFFFFFFFFFFFFFFFFFFFFFFFFFFFFFFFFFFFFFFFFFF
310
FFFFFFFFFFFFFFFFFFFFFFFFFFFFFFFFFFFFFFFFFFFFFFFFFFFFFFFFFFFFFFFF
310
FDFFFFFFFEFFFFFFFEFFFFFFFEFFFFFF05000000060000000700000008000000
310
090000000A0000000B0000000C0000000D0000000E0000000F00000010000000
310
11000000120000001300000014000000150000001600000017000000FEFFFFFF
310
FFFFFFFFFFFFFFFFFFFFFFFFFFFFFFFFFFFFFFFFFFFFFFFFFFFFFFFFFFFFFFFF
310
FFFFFFFFFFFFFFFFFFFFFFFFFFFFFFFFFFFFFFFFFFFFFFFFFFFFFFFFFFFFFFFF
310
FFFFFFFFFFFFFFFFFFFFFFFFFFFFFFFFFFFFFFFFFFFFFFFFFFFFFFFFFFFFFFFF
310
FFFFFFFFFFFFFFFFFFFFFFFFFFFFFFFFFFFFFFFFFFFFFFFFFFFFFFFFFFFFFFFF
310
FFFFFFFFFFFFFFFFFFFFFFFFFFFFFFFFFFFFFFFFFFFFFFFFFFFFFFFFFFFFFFFF
310
FFFFFFFFFFFFFFFFFFFFFFFFFFFFFFFFFFFFFFFFFFFFFFFFFFFFFFFFFFFFFFFF
310
FFFFFFFFFFFFFFFFFFFFFFFFFFFFFFFFFFFFFFFFFFFFFFFFFFFFFFFFFFFFFFFF
310
FFFFFFFFFFFFFFFFFFFFFFFFFFFFFFFFFFFFFFFFFFFFFFFFFFFFFFFFFFFFFFFF
310
FFFFFFFFFFFFFFFFFFFFFFFFFFFFFFFFFFFFFFFFFFFFFFFFFFFFFFFFFFFFFFFF
310
FFFFFFFFFFFFFFFFFFFFFFFFFFFFFFFFFFFFFFFFFFFFFFFFFFFFFFFFFFFFFFFF
310
FFFFFFFFFFFFFFFFFFFFFFFFFFFFFFFFFFFFFFFFFFFFFFFFFFFFFFFFFFFFFFFF
310
FFFFFFFFFFFFFFFFFFFFFFFFFFFFFFFFFFFFFFFFFFFFFFFFFFFFFFFFFFFFFFFF
310
FFFFFFFFFFFFFFFFFFFFFFFFFFFFFFFFFFFFFFFFFFFFFFFFFFFFFFFFFFFFFFFF
310
52006F006F007400200045006E00740072007900000000000000000000000000
310
0000000000000000000000000000000000000000000000000000000000000000
310
16000500FFFFFFFFFFFFFFFF020000000A00030000000000C000000000000046
310
000000000000000000000000006E13A8AB1FD20103000000C000000000000000
310
01004F006C006500000000000000000000000000000000000000000000000000
310
0000000000000000000000000000000000000000000000000000000000000000
310
0A000200FFFFFFFFFFFFFFFFFFFFFFFF00000000000000000000000000000000
310
0000000000000000000000000000000000000000000000001400000000000000
310
010043006F006D0070004F0062006A0000000000000000000000000000000000
310
0000000000000000000000000000000000000000000000000000000000000000
310
120002010100000003000000FFFFFFFF00000000000000000000000000000000
310
0000000000000000000000000000000000000000010000004D00000000000000
310
01004F006C006500310030004E00610074006900760065000000000000000000
310
0000000000000000000000000000000000000000000000000000000000000000
310
1A000200FFFFFFFFFFFFFFFFFFFFFFFF00000000000000000000000000000000
310
0000000000000000000000000000000000000000040000002426000000000000
310
FEFFFFFF02000000FEFFFFFFFFFFFFFFFFFFFFFFFFFFFFFFFFFFFFFFFFFFFFFF
310
FFFFFFFFFFFFFFFFFFFFFFFFFFFFFFFFFFFFFFFFFFFFFFFFFFFFFFFFFFFFFFFF
310
FFFFFFFFFFFFFFFFFFFFFFFFFFFFFFFFFFFFFFFFFFFFFFFFFFFFFFFFFFFFFFFF
310
FFFFFFFFFFFFFFFFFFFFFFFFFFFFFFFFFFFFFFFFFFFFFFFFFFFFFFFFFFFFFFFF
310
FFFFFFFFFFFFFFFFFFFFFFFFFFFFFFFFFFFFFFFFFFFFFFFFFFFFFFFFFFFFFFFF
310
FFFFFFFFFFFFFFFFFFFFFFFFFFFFFFFFFFFFFFFFFFFFFFFFFFFFFFFFFFFFFFFF
310
FFFFFFFFFFFFFFFFFFFFFFFFFFFFFFFFFFFFFFFFFFFFFFFFFFFFFFFFFFFFFFFF
310
FFFFFFFFFFFFFFFFFFFFFFFFFFFFFFFFFFFFFFFFFFFFFFFFFFFFFFFFFFFFFFFF
310
FFFFFFFFFFFFFFFFFFFFFFFFFFFFFFFFFFFFFFFFFFFFFFFFFFFFFFFFFFFFFFFF
310
FFFFFFFFFFFFFFFFFFFFFFFFFFFFFFFFFFFFFFFFFFFFFFFFFFFFFFFFFFFFFFFF
310
FFFFFFFFFFFFFFFFFFFFFFFFFFFFFFFFFFFFFFFFFFFFFFFFFFFFFFFFFFFFFFFF
310
FFFFFFFFFFFFFFFFFFFFFFFFFFFFFFFFFFFFFFFFFFFFFFFFFFFFFFFFFFFFFFFF
310
FFFFFFFFFFFFFFFFFFFFFFFFFFFFFFFFFFFFFFFFFFFFFFFFFFFFFFFFFFFFFFFF
310
FFFFFFFFFFFFFFFFFFFFFFFFFFFFFFFFFFFFFFFFFFFFFFFFFFFFFFFFFFFFFFFF
310
FFFFFFFFFFFFFFFFFFFFFFFFFFFFFFFFFFFFFFFFFFFFFFFFFFFFFFFFFFFFFFFF
310
FFFFFFFFFFFFFFFFFFFFFFFFFFFFFFFFFFFFFFFFFFFFFFFFFFFFFFFFFFFFFFFF
310
0100000200000000000000000000000000000000000000000000000000000000
310
0000000000000000000000000000000000000000000000000000000000000000
310
0100FEFF030A0000FFFFFFFF0A00030000000000C00000000000004607000000
310
5042727573680007000000504272757368000700000050427275736800F439B2
310
7100000000000000000000000000000000000000000000000000000000000000
310
0000000000000000000000000000000000000000000000000000000000000000
310
0000000000000000000000000000000000000000000000000000000000000000
310
0000000000000000000000000000000000000000000000000000000000000000
310
0000000000000000000000000000000000000000000000000000000000000000
310
0000000000000000000000000000000000000000000000000000000000000000
310
0000000000000000000000000000000000000000000000000000000000000000
310
0000000000000000000000000000000000000000000000000000000000000000
310
0000000000000000000000000000000000000000000000000000000000000000
310
0000000000000000000000000000000000000000000000000000000000000000
310
0000000000000000000000000000000000000000000000000000000000000000
310
0000000000000000000000000000000000000000000000000000000000000000
310
20260000424D0E260000000000003E00000028000000B40200006E0000000100
310
01000000000000000000130B0000130B00000200000002000000000000FFFFFF
310
FFFFFFFFFFFFFFFFFFFFFFFFFFFFFFFFFFFFFFFFFFFFFFFFFFFFFFFFFFFFFFFF
310
FFFFFFFFFFFFFFFFFFFFFFFFFFFFFFFFFFFFFFFFFFFFFFFFFFFFFFFFFFFFFFFF
310
FFFFFFFFFFFFFFFFFFFFFFFFFFFFFFFFFFFFFFFFFFFFFFFFF000FFFFFFFFFFFF
310
FFFFFFFFFFFFFFFFFFFFFFFFFFFFFFFFFFFFFFFFFFFFFFFFFFFFFFFFFFFFFFFF
310
FFFFFFFFFFFFFFFFFFFFFFFFFFFFFFFFFFFFFFFFFFFFFFFFFFFFFFFFFFFFFFFF
310
FFFFFFFFFFFFFFFFFFFFFFFFFFFFFFFFF000FFFFFFFFFFFFFFFFFFFFFFFFFFFF
310
FFFFFFFFFFFFFFFFFFFFFFFFFFFFFFFFFFFFFFFFFFFFFFFFFFFFFFFFFFFFFFFF
310
FFFFFFFFFFFFFFFFFFFFFFFFFFFFFFFFFFFFFFFFFFFFFFFFFFFFFFFFFFFFFFFF
310
FFFFFFFFFFFFFFFFF000FFFFFFFFFFFFFFFFFFFFFFFFFFFFFFFFFFFFFFFFFFFF
310
FFFFFFFFFFFFFFFFFFFFFFFFFFFFFFFFFFFFFFFFFFFFFFFFFFFFFFFFFFFFFFFF
310
FFFFFFFFFFFFFFFFFFFFFFFFFFFFFFFFFFFFFFFFFFFFFFFFFFFFFFFFFFFFFFFF
310
F000FFFFFFFFFFFFFFFFFFFFFFFFFFFFFFFFFFFFFFFFFFFFFFFFFFFFFFFFFFFF
310
FFFFFFFFFFFFFFFFFFFFFFFFFFFFFFFFFFFFFFFFFFFFFFFFFFFFFFFFFFFFFFFF
310
FFFFFFFFFFFFFFFFFFFFFFFFFFFFFFFFFFFFFFFFFFFFFFFFF000FFFFFFFFFFFF
310
FFFFFFFFFFFFFFFFFFFFFFFFFFFFFFFFFFFFFFFFFFFFFFFFFFFFFFFFFFFFFFFF
310
FFFFFFFFFFFFFFFFFFFFFFFFFFFFFFFFFFFFFFFFFFFFFFFFFFFFFFFFFFFFFFFF
310
FFFFFFFFFFFFFFFFFFFFFFFFFFFFFFFFF000FFFFFFFFFFFFFFFFFFFFFFFFFFFF
310
FFFFFFFFFFFFFFFFFFFFFFFFFFFFFFFFFFFFFFFFFFFFFFFFFFFFFFFFFFFFFFFF
310
FFFFFFFFFFFFFFFFFFFFFFFFFFFFFFFFFFFFFFFFFFFFFFFFFFFFFFFFFFFFFFFF
310
FFFFFFFFFFFFFFFFF000FFFFFFFFFFFFFFFFFFFFFFFFFFFFFFFFFFFFFFFFFFFF
310
FFFFFFFFFFFFFFFFFFFFFFFFFFFFFFFFFFFFFFFFFFFFFFFFFFFFFFFFFFFFFFFF
310
FFFFFFFFFFFFFFFFFFFFFFFFFFFFFFFFFFFFFFFFFFFFFFFFFFFFFFFFFFFFFFFF
310
F000FFFFFFFFFFFFFFFFFFFFFFFFFFFFFFFFFFFFFFFFFFFFFFFFFFFFFFFFFFFF
310
FFFFFFFFFFFFFFFFFFFFFFFFFFFFFFFFFFFFFFFFFFFFFFFFFFFFFFFFFFFFFFFF
310
FFFFFFFFFFFFFFFFFFFFFFFFFFFFFFFFFFFFFFFFFFFFFFFFF000FFFFFFFFFFFF
310
FFFFFFFFFFFFFFFFFFFFFFFFFFFFFFFFFFFFFFFFFFFFFFFFFFFFFFFFFFFFFFFF
310
FFFFFFFFFFFFFFFFFFFFFFFFFFFFFFFFFFFFFFFFFFFFFFFFFFFFFFFFFFFFFFFF
310
FFFFFFFFFFFFFFFFFFFFFFFFFFFFFFFFF000FFFFFFFFFFFFFFFFFFFFFFFFFFFF
310
FFFFFFFFFFFFFFFFFFFFFFFFFFFFFFFFFFFFFFFFFFFFFFFFFFFFFFFFFFFFFFFF
310
FFFFFFFFFFFFFFFFFFFFFFFFFFFFFFFFFFFFFFFFFFFFFFFFFFFFFFFFFFFFFFFF
310
FFFFFFFFFFFFFFFFF000FFFFFFFFFFFFFFFFFFFFFFFFFFFFFFFFFFFFFFFFFFFF
310
FFFFFFFFFFFFFFFFFFFFFFFFFFFFFFFFFFFFFFFFFFFFFFFFFFFFFFFFFFFFFFFF
310
FFFFFFFFFFFFFFFFFFFFFFFFFFFFFFFFFFFFFFFFFFFFFFFFFFFFFFFFFFFFFFFF
310
F000FFFFFFFFFFFFFFFFFFFFFFFFFFFFFFFFFFFFFFFFFFFFFFFFFFFFFFFFFFFF
310
FFFFFFFFFFFFFFFFFFFFFFFFFFFFFFFFFFFFFFFFFFFFFFFFFFFFFFFFFFFFFFFF
310
FFFFFFFFFFFFFFFFFFFFFFFFFFFFFFFFFFFFFFFFFFFFFFFFF000FFFFFFFFFFFF
310
FFFFFFFFFFFFFFFFFFFFFFFFFFFFFFFFFFFFFFFFFFFFFFFFFFFFFFFFFFFFFFFF
310
FFFFFFFFFFFFFFFFFFFFFFFFFFFFFFFFFFFFFFFFFFFFFFFFFFFFFFFFFFFFFFFF
310
FFFFFFFFFFFFFFFFFFFFFFFFFFFFFFFFF000FFFFFFFFFFFFFFFFFFFFFFFFFFFF
310
FFFFFFFFFFFFFFFFFFFFFFFFFFFFFFFFFFFFFFFFFFFFFFFFFFFFFFFFFFFFFFFF
310
FFFFFFFFFFFFFFFFFFFFFFFFFFFFFFFFFFFFFFFFFFFFFFFFFFFFFFFFFFFFFFFF
310
FFFFFFFFFFFFFFFFF000FFFFFFFFFFFFFFFFFFFFFFFFFFFFFFFFFFFFFFFFFFFF
310
FFFFFFFFFFFFFFFFFFFFFFFFFFFFFFFFFFFFFFFFFFFFFFFFFFFFFFFFFFFFFFFF
310
FFFFFFFFFFFFFFFFFFFFFFFFFFFFFFFFFFFFFFFFFFFFFFFFFFFFFFFFFFFFFFFF
310
F000FFFFFFFFFFFFFFFFFFFFFFFFFFFFFFFFFFFFFFFFFFFFFFFFFFFFFFFFFFFF
310
FFFFFFFFFFFFFFFFFFFFFFFFFFFFFFFFFFFFFFFFFFFFFFFFFFFFFFFFFFFFFFFF
310
FFFFFFFFFFFFFFFFFFFFFFFFFFFFFFFFFFFFFFFFFFFFFFFFF000FFFFFFFFFFFF
310
FFFFFFFFFFFFFFFFFFFFFFFFFFFFFFFFFFFFFFFFFFFFFFFFFFFFFFFFFFFFFFFF
310
FFFFFFFFFFFFFFFFFFFFFFFFFFFFFFFFFFFFFFFFFFFFFFFFFFFFFFFFFFFFFFFF
310
FFFFFFFFFFFFFFFFFFFFFFFFFFFFFFFFF000FFFFFFFFFFFFFFFFFFFFFFFFFFFF
310
FFFFFFFFFFFFFFFFFFFFFFFFFFFFFFFFFFFFFFFFFFFFFFFFFFFFFFFFFFFFFFFF
310
FFFFFFFFFFFFFFFFFFFFFFFFFFFFFFFFFFFFFFFFFFFFFFFFFFFFFFFFFFFFFFFF
310
FFFFFFFFFFFFFFFFF000FFFFF80003FFFFFFFFFFFFFFFFFFFFFFFFFFFFFFFFFF
310
FFFFF00007FFFFFFFFFF00007FFFFFF800000000000000007FFFFFFFFFFFFFFF
310
FFFFFFFC001FFFFFFFFFFFFFFC001FFFFFFFFFFFFFFFFFFFFFFFFFFE0007FFFF
310
F000FFFF8000007FFFFFFFF8000FFFFFC0007FFFFF80007FFFFF0000007FFFFF
310
FFF8000007FFFFF800000000000000007FFFFFF0001FFFFFFFFFFFC00001FFFF
310
FFFFFFFFC00001FFFFFFFF000000000003FFFFE000007FFFF000FFFE0000000F
310
FFFFFFF0000FFFFF80007FFFFF80007FFFFC0000001FFFFFFFC0000001FFFFF8
310
00000000000000007FFFFFF0001FFFFFFFFFFE0000003FFFFFFFFFFE0000003F
310
FFFFFF000000000003FFFF0000000FFFF000FFF800000003FFFFFFF00007FFFF
310
80007FFFFF80007FFFF000000007FFFFFF000000003FFFF80000000000000000
310
7FFFFFF0001FFFFFFFFFF80000000FFFFFFFFFF80000000FFFFFFF0000000000
310
03FFFC00000003FFF000FFE000000000FFFFFFF00007FFFF80003FFFFF80007F
310
FFC000000001FFFFFC000000001FFFF800000000000000007FFFFFF0001FFFFF
310
FFFFE000000003FFFFFFFFE000000003FFFFFF000000000003FFF000000000FF
310
F000FF80000000007FFFFFF00007FFFF80003FFFFF80007FFF8000000000FFFF
310
F80000000007FFF800000000000000007FFFFFF0001FFFFFFFFFC000000001FF
310
FFFFFFC000000001FFFFFF000000000003FFC0000000007FF000FF0000000000
310
3FFFFFE00007FFFF00003FFFFF80007FFE00000000003FFFF00000000003FFF8
310
00000000000000007FFFFFF0001FFFFFFFFF8000000000FFFFFFFF8000000000
310
FFFFFF000000000003FF80000000003FF000FE00000000001FFFFFE00003FFFF
310
00003FFFFF80007FFC00000000001FFFE00000000001FFF8000001FFFE000000
310
7FFFFFF0001FFFFFFFFE00000000003FFFFFFE00000000003FFFFF0000000000
310
03FF00000000001FF000FC00000000000FFFFFE00003FFFF00001FFFFF80007F
310
F800000000001FFFC00000000000FFF8000001FFFE0000007FFFFFF0001FFFFF
310
FFFC00000000001FFFFFFC00000000001FFFFF000000000003FE00000000000F
310
F000F8000000000007FFFFE00003FFFF00001FFFFF80007FF800000000000FFF
310
800000000000FFF8000001FFFE0000007FFFFFF0001FFFFFFFF800000000000F
310
FFFFF800000000000FFFFF000000000003FC000000000007F000F80000000000
310
03FFFFC00003FFFE00001FFFFF80007FF0000000000007FF0000000000007FF8
310
000001FFFE0000007FFFFFF0001FFFFFFFF0000000000007FFFFF00000000000
310
07FFFF000000000003F8000000000003F000F0000000000003FFFFC00001FFFE
310
00001FFFFF80007FE0000000000007FE0000000000003FF8000001FFFE000000
310
7FFFFFF0001FFFFFFFF0000000000007FFFFF0000000000007FFFF0000000000
310
03F800001F800003F000E00001FFF00001FFFFC00001FFFE00000FFFFF80007F
310
E00001FFE00003FE00001FFF00003FF8000001FFFE0000007FFFFFF0001FFFFF
310
FFE000003E000003FFFFE000003E000003FFFF000000000003F00001FFF80001
310
F000E00007FFFC0001FFFFC00001FFFE00000FFFFF80007FC0000FFFFC0003FC
310
0000FFFFC0001FF8000001FFFE0000007FFFFFF0001FFFFFFFC00003FFE00001
310
FFFFC00003FFE00001FFFF0001FFFFFFFFF00007FFFE0001F000E0000FFFFF00
310
00FFFF800001FFFC00000FFFFF80007FC0001FFFFE0001FC0001FFFFE0001FF8
310
000001FFFE0000007FFFFFF0001FFFFFFF80000FFFF80000FFFF80000FFFF800
310
00FFFF0003FFFFFFFFE0000FFFFF8000F000C0003FFFFF8000FFFF800000FFFC
310
000007FFFF80007F80003FFFFF0001FC0003FFFFF0001FF8000001FFFE000000
310
7FFFFFF0001FFFFFFF80003FFFFE0000FFFF80003FFFFE0000FFFF0003FFFFFF
310
FFE0003FFFFF8000F000C0003FFFFF8000FFFF800000FFFC000007FFFF80007F
310
80007FFFFF8001F80007FFFFF8000FF8000001FFFE0000007FFFFFF0001FFFFF
310
FF00007FFFFF00007FFF00007FFFFF00007FFF0003FFFFFFFFE0003FFFFFC000
310
F000C0007FFFFFC000FFFF000000FFFC000007FFFF80007F8000FFFFFF8000F8
310
000FFFFFF8000FF8000001FFFE0000007FFFFFF0001FFFFFFF0000FFFFFF8000
310
7FFF0000FFFFFF80007FFF0003FFFFFFFFC0007FFFFFC00070008000FFFFFFC0
310
00FFFF000000FFF8000007FFFF80007F8000FFFFFF8000F8000FFFFFF8000FF8
310
000001FFFE0000007FFFFFF0001FFFFFFE0001FFFFFFC0003FFE0001FFFFFFC0
310
003FFF0003FFFFFFFFC0007FFFFFE00070008000FFFFFFC0007FFF0000007FF8
310
000003FFFF80007F0001FFFFFF8000F8000FFFFFF8000FF8000001FFFE000000
310
7FFFFFF0001FFFFFFE0001FFFFFFC0003FFE0001FFFFFFC0003FFF0003FFFFFF
310
FFC000FFFFFFE00070008000FFFFFFC0007FFF0000007FF8000003FFFF80007F
310
0001FFFFFF8000F8001FFFFFF8000FF8000001FFFE0000007FFFFFF0001FFFFF
310
FE0003FFFFFFE0003FFE0003FFFFFFE0003FFF0003FFFFFFFFC000FFFFFFE000
310
70008000FFFFFFC0007FFE0000007FF8000003FFFF80007F0001FFFFFF8000F0
310
001FFFFFF8000FF8000001FFFE0000007FFFFFF0001FFFFFFC0003FFFFFFE000
310
1FFC0003FFFFFFE0001FFF0003FFFFFFFFC000FFFFFFC00070008000FFFFFF80
310
007FFE0000007FF0000003FFFF80007F0001FFFFFF0000F0001FFFFFF8000FF8
310
000001FFFE0000007FFFFFF0001FFFFFFC0007FFFFFFF0001FFC0007FFFFFFF0
310
001FFF0003FFFFFFFFC000FFFFFFC00070008001FFFFFF0000FFFE0000003FF0
310
000001FFFF80007F0001FFFFFF0000F8001FFFFFF0000FF8000001FFFE000000
310
7FFFFFF0001FFFFFFC0007FFFFFFF0001FFC0007FFFFFFF0001FFF0003FFFFFF
310
FFC001FFFFFF80007000FFFFFFFFFE0000FFFE0008003FF0008001FFFF80007F
310
FFFFFFFFFC0000FFFFFFFFFFE0000FF8000001FFFE0000007FFFFFF0001FFFFF
310
F8000FFFFFFFF8000FF8000FFFFFFFF8000FFF0003FFFFFFFFFFFFFFFFFF0000
310
7000FFFFFFFFFC0000FFFC0008003FF0008001FFFF80007FFFFFFFFFF80001FF
310
FFFFFFFF80000FF8000001FFFE0000007FFFFFF0001FFFFFF8000FFFFFFFF800
310
0FF8000FFFFFFFF8000FFF0003FFFFFFFFFFFFFFFFFE0000F000FFFFFFFFE000
310
00FFFC000C003FE000C001FFFF80007FFFFFFFFFC00001FFFFFFFFFE00001FF8
310
000001FFFE0000007FFFFFF0001FFFFFF8000FFFFFFFF8000FF8000FFFFFFFF8
310
000FFF0003FFFFFFFFFFFFFFFFF00000F000FFFFFFFE000001FFFC000C001FE0
310
00C000FFFF80007FFFFFFFFE000001FFFFFFFFE000001FF80FFFFFFFFFFFFFC0
310
7FFFFFF0001FFFFFF8000FFFFFFFF8000FF8000FFFFFFFF8000FFF0003FFFFFF
310
FFFFFFFFFF800000F000FFFFFFC0000001FFFC001C001FE001C000FFFF80007F
310
FFFFFF80000003FFFFFFF80000001FF80FFFFFFFFFFFFFC07FFFFFF0001FFFFF
310
F8001FFFFFFFFC000FF8001FFFFFFFFC000FFF0003FFFFFFFFFFFFFFF0000001
310
F000FFFFF800000001FFF8001C001FE001C000FFFF80007FFFFFF800000003FF
310
FFFF800000003FF80FFFFFFFFFFFFFC07FFFFFF0001FFFFFF8001FFFFFFFFC00
310
0FF8001FFFFFFFFC000FFF0003FFFFFFFFFFFFFE00000001F000FFFFC0000000
310
03FFF8001E001FC001E000FFFF80007FFFFF8000000007FFFFFC000000003FF8
310
0FFFFFFFFFFFFFC07FFFFFF0001FFFFFF8001FFFFFFFFC000FF8001FFFFFFFFC
310
000FFF0003FFFFFFFFFFFFE000000003F000FFFE0000000007FFF8001E000FC0
310
01E0007FFF80007FFFFE0000000007FFFFE0000000007FF80FFFFFFFFFFFFFC0
310
7FFFFFF0001FFFFFF0001FFFFFFFFC0007F0001FFFFFFFFC0007FF0003FFFFFF
310
FFFFFF0000000003F000FFF80000000007FFF8001E000FC003E0007FFF80007F
310
FFF0000000000FFFFF8000000000FFF80FFFFFFFFFFFFFC07FFFFFF0001FFFFF
310
F0001FFFFFFFFC0007F0001FFFFFFFFC0007FF0003FFFFFFFFFFFC0000000007
310
F000FFE0000000000FFFF0003E000FC003E0007FFF80007FFFC0000000001FFF
310
FE0000000001FFF80FFFFFFFFFFFFFC07FFFFFF0001FFFFFF0001FFFFFFFFC00
310
07F0001FFFFFFFFC0007FF0003FFFFFFFFFFF0000000000FF000FFC000000000
310
1FFFF0003F000F8003F0003FFF80007FFF80000000003FFFF80000000003FFF8
310
0FFFFFFFFFFFFFC07FFFFFF0001FFFFFF0001FFFFFFFFC0007F0001FFFFFFFFC
310
0007FF0003FFFFFFFFFFE0000000001FF000FF00000000007FFFF0003F000780
310
03F0003FFF80007FFF00000000007FFFF00000000007FFF80FFFFFFFFFFFFFC0
310
7FFFFFF0001FFFFFF0001FFFFFFFFC0007F0001FFFFFFFFC0007FF0003FFFFFF
310
FFFF80000000007FF000FE0000000000FFFFE0003F00078007F0003FFF80007F
310
FE0000000001FFFFE0000000001FFFF80FFFFFFFFFFFFFC07FFFFFF0001FFFFF
310
F0001FFFFFFFFC0007F0001FFFFFFFFC0007FF0003FFFFFFFFFF0000000000FF
310
F000FC0000000003FFFFE0007F00078007F0003FFF80007FFC0000000007FFFF
310
C0000000007FFFF80FFFFFFFFFFFFFC07FFFFFF0001FFFFFF8001FFFFFFFFC00
310
0FF8001FFFFFFFFC000FFF0003FFFFFFFFFE0000000003FFF000FC000000000F
310
FFFFE0007F80070007F8001FFF80007FF8000000001FFFFF8000000001FFFFF8
310
0FFFFFFFFFFFFFC07FFFFFF0001FFFFFF8001FFFFFFFFC000FF8001FFFFFFFFC
310
000FFF0003FFFFFFFFFC000000000FFFF000F8000000007FFFFFE0007F800700
310
07F8001FFF80007FF000000000FFFFFF800000000FFFFFF80FFFFFFFFFFFFFC0
310
7FFFFFF0001FFFFFF8000FFFFFFFF8000FF8000FFFFFFFF8000FFF0003FFFFFF
310
FFFC000000007FFFF000F800000007FFFFFFC0007F8003000FF8001FFF80007F
310
F000000007FFFFFF000000007FFFFFF80FFFFFFFFFFFFFC07FFFFFF0001FFFFF
310
F8000FFFFFFFF8000FF8000FFFFFFFF8000FFF0003FFFFFFFFF80000000FFFFF
310
F000F0000000FFFFFFFFC000FF8003000FF8001FFF80007FE0000000FFFFFFFF
310
0000000FFFFFFFF8000001FFFE0000007FFFFFF0001FFFFFF8000FFFFFFFF800
310
0FF8000FFFFFFFF8000FFF0003FFFFFFFFF8000000FFFFFFF000F000000FFFFF
310
FFFFC000FFC002000FF8000FFF80007FE000001FFFFFFFFE000001FFFFFFFFF8
310
000001FFFE0000007FFFFFF0001FFFFFF8000FFFFFFFF8000FF8000FFFFFFFF8
310
000FFF0003FFFFFFFFF000001FFFFFFFF000E00000FFFFFFFFFFC000FFC00200
310
0FFC000FFF80007FE00001FFFFFFFFFE00001FFFFFFFFFF8000001FFFE000000
310
7FFFFFF0001FFFFFFC000FFFFFFFF8001FFC000FFFFFFFF8001FFF0003FFFFFF
310
FFF00001FFFFFFFFF000E00007FFFFFFFFFF8000FFC000001FFC000FFF80007F
310
C0000FFFFFFFFFFE0000FFFFFFFFFFF8000001FFFE0000007FFFFFF0001FFFFF
310
FC0007FFFFFFF0001FFC0007FFFFFFF0001FFF0003FFFFFFFFF00007FFFFFFFF
310
F000E0001FFFFFFFFFFF8000FFC000001FFC000FFF80007FC0003FFFFFFFFFFE
310
0001FFFFFFFFFFF8000001FFFE0000007FFFFFF0001FFFFFFC0007FFFFFFF000
310
1FFC0007FFFFFFF0001FFF0003FFFFFFFFF0001FFFFFFFFFF000E0003FFFFF00
310
03FF8001FFE000001FFC0007FF80007FC0007FFFFF0007FC0003FFFFF0003FF8
310
000001FFFE0000007FFFFFF0001FFFFFFC0003FFFFFFE0001FFC0003FFFFFFE0
310
001FFF0003FFFFFFFFF0003FFFFFFFFFF000E0003FFFFF0001FF8001FFE00000
310
1FFE0007FF80007FC0007FFFFE0003FC0007FFFFE0003FF8000001FFFE000000
310
7FFFFFF0001FFFFFFE0003FFFFFFE0003FFE0003FFFFFFE0003FFF0003FFFFFF
310
FFF0003FFFFF8001F000E0003FFFFF0001FF0001FFE000001FFE0007FF80007F
310
C0007FFFFE0003FC0007FFFFE0003FF8000001FFFE0000007FFFFFF0001FFFFF
310
FE0001FFFFFFC0003FFE0001FFFFFFC0003FFF0003FFFFFFFFF0003FFFFF0001
310
F000E0003FFFFF0003FF0001FFE000003FFE0007FF80007FC0007FFFFE0003FC
310
0007FFFFE0003FF8000001FFFE0000007FFFFFF0001FFFFFFF0001FFFFFFC000
310
7FFF0001FFFFFFC0007FFF0003FFFFFFFFF0003FFFFF0001F000E0003FFFFE00
310
03FF0003FFF000003FFE0003FF80007FC0007FFFFC0003FE0007FFFFE0003FF8
310
000001FFFE0000007FFFFFF0001FFFFFFF0000FFFFFF80007FFF0000FFFFFF80
310
007FFF0003FFFFFFFFF0003FFFFF0001F000E0003FFFFE0003FF0003FFF00000
310
3FFF0003FF80007FC0007FFFFC0007FE0007FFFFC0003FF8000001FFFE000000
310
7FFFFFF0001FFFFFFF80007FFFFF0000FFFF80007FFFFF0000FFFF0003FFFFFF
310
FFF0003FFFFF0003F000E0003FFFFC0003FE0003FFF000003FFF0003FF80007F
310
E0003FFFF80007FE0003FFFFC0007FF8000001FFFE0000007FFFFFF0001FFFFF
310
FF80003FFFFE0000FFFF80003FFFFE0000FFFF0003FFFFFFFFF0001FFFFE0003
310
F000F0001FFFF80003FE0003FFF000007FFF0001FF80007FE0003FFFF00007FE
310
0001FFFF80007FF8000001FFFE0000007FFFFFF0001FFFFFFFC0000FFFF80001
310
FFFFC0000FFFF80001FFFF0003FFFFFFFFF0001FFFFC0003F000F0000FFFF000
310
07FE0007FFF800007FFF0001FF80007FE0001FFFE00007FF0000FFFE00007FF8
310
000001FFFE0000007FFFFFF0001FFFFFFFC00003FFE00001FFFFC00003FFE000
310
01FFFF0003FFFFFFFFF8000FFFF80003F000F00003FFC00007FC0007FFF80000
310
7FFF8001FF80007FF00007FF80000FFF00007FF80000FFF8000001FFFE000000
310
7F80000000000001FFE000003E000003FFFFE000003E000003FFFF0003FFFFFF
310
FFF80003FFE00007F000F800000000000FFC0007FFF800007FFF8001FF80007F
310
F000000000000FFF000000000000FFF8000001FFFE0000007F80000000000001
310
FFF0000000000007FFFFF0000000000007FFFF0003FFFFFFFFFC00007E000007
310
F000F800000000000FFC0007FFF80000FFFF8000FF80007FF800000000001FFF
310
800000000001FFF8000001FFFE0000007F80000000000001FFF800000000000F
310
FFFFF800000000000FFFFF0003FFFFFFFFFC00000000000FF000FC0000000000
310
1FFC0007FFFC0000FFFF8000FF80007FF800000000003FFFC00000000001FFF8
310
000001FFFE0000007F80000000000001FFF800000000000FFFFFF80000000000
310
0FFFFF0003FFFFFFFFFE00000000001FF000FE00000000003FF8000FFFFC0000
310
FFFF8000FF80007FFC00000000003FFFC00000000003FFF8000001FFFE000000
310
7F80000000000001FFFC00000000001FFFFFFC00000000001FFFFF0003FFFFFF
310
FFFF00000000001FF000FF00000000003FF8000FFFFC0000FFFFC000FF80007F
310
FE00000000007FFFE00000000007FFF8000001FFFE0000007F80000000000001
310
FFFE00000000003FFFFFFE00000000003FFFFF0003FFFFFFFFFF80000000003F
310
F000FF80000000007FF8000FFFFC0001FFFFC0007F80007FFF0000000000FFFF
310
F0000000000FFFF800000000000000007F80000000000001FFFF8000000000FF
310
FFFFFF8000000000FFFFFF0003FFFFFFFFFFC0000000007FF000FFC000000000
310
FFF8000FFFFE0001FFFFC0007F80007FFF8000000001FFFFF8000000001FFFF8
310
00000000000000007F80000000000001FFFFC000000001FFFFFFFFC000000001
310
FFFFFF0003FFFFFFFFFFE000000000FFF000FFE000000003FFF0001FFFFE0001
310
FFFFC0007F80007FFFC000000007FFFFFE000000003FFFF80000000000000000
310
7F80000000000001FFFFE000000003FFFFFFFFE000000003FFFFFF0003FFFFFF
310
FFFFF000000003FFF000FFF80000000FFFF0001FFFFE0001FFFFE0007F80007F
310
FFF00000000FFFFFFF00000000FFFFF800000000000000007F80000000000001
310
FFFFF80000000FFFFFFFFFF80000000FFFFFFF0003FFFFFFFFFFFC0000000FFF
310
F000FFFE0000003FFFF0001FFFFE0003FFFFE0003F80007FFFFC0000003FFFFF
310
FFC0000003FFFFF800000000000000007F80000000000001FFFFFE0000003FFF
310
FFFFFFFE0000003FFFFFFF0003FFFFFFFFFFFF0000003FFFF000FFFF800000FF
310
FFF0001FFFFF0003FFFFE0003F80007FFFFF000001FFFFFFFFF800001FFFFFF8
310
00000000000000007F80000000000001FFFFFFC00001FFFFFFFFFFFFC00001FF
310
FFFFFF0003FFFFFFFFFFFFC00000FFFFF000FFFFF8000FFFFFFFFFFFFFFFFFFF
310
FFFFFFFFFFFFFFFFFFFFF0001FFFFFFFFFFF0000FFFFFFF80000000000000000
310
7FFFFFFFFFFFFFFFFFFFFFFC001FFFFFFFFFFFFFFC001FFFFFFFFFFFFFFFFFFF
310
FFFFFFFC001FFFFFF000FFFFFFFFFFFFFFFFFFFFFFFFFFFFFFFFFFFFFFFFFFFF
310
FFFFFFFFFFFFFFFFFFFFFFFFFFFFFFFFFFFFFFFFFFFFFFFFFFFFFFFFFFFFFFFF
310
FFFFFFFFFFFFFFFFFFFFFFFFFFFFFFFFFFFFFFFFFFFFFFFFFFFFFFFFFFFFFFFF
310
F000FFFFFFFFFFFFFFFFFFFFFFFFFFFFFFFFFFFFFFFFFFFFFFFFFFFFFFFFFFFF
310
FFFFFFFFFFFFFFFFFFFFFFFFFFFFFFFFFFFFFFFFFFFFFFFFFFFFFFFFFFFFFFFF
310
FFFFFFFFFFFFFFFFFFFFFFFFFFFFFFFFFFFFFFFFFFFFFFFFF000FFFFFFFFFFFF
310
FFFFFFFFFFFFFFFFFFFFFFFFFFFFFFFFFFFFFFFFFFFFFFFFFFFFFFFFFFFFFFFF
310
FFFFFFFFFFFFFFFFFFFFFFFFFFFFFFFFFFFFFFFFFFFFFFFFFFFFFFFFFFFFFFFF
310
FFFFFFFFFFFFFFFFFFFFFFFFFFFFFFFFF000FFFFFFFFFFFFFFFFFFFFFFFFFFFF
310
FFFFFFFFFFFFFFFFFFFFFFFFFFFFFFFFFFFFFFFFFFFFFFFFFFFFFFFFFFFFFFFF
310
FFFFFFFFFFFFFFFFFFFFFFFFFFFFFFFFFFFFFFFFFFFFFFFFFFFFFFFFFFFFFFFF
310
FFFFFFFFFFFFFFFFF000FFFFFFFFFFFFFFFFFFFFFFFFFFFFFFFFFFFFFFFFFFFF
310
FFFFFFFFFFFFFFFFFFFFFFFFFFFFFFFFFFFFFFFFFFFFFFFFFFFFFFFFFFFFFFFF
310
FFFFFFFFFFFFFFFFFFFFFFFFFFFFFFFFFFFFFFFFFFFFFFFFFFFFFFFFFFFFFFFF
310
F000FFFFFFFFFFFFFFFFFFFFFFFFFFFFFFFFFFFFFFFFFFFFFFFFFFFFFFFFFFFF
310
FFFFFFFFFFFFFFFFFFFFFFFFFFFFFFFFFFFFFFFFFFFFFFFFFFFFFFFFFFFFFFFF
310
FFFFFFFFFFFFFFFFFFFFFFFFFFFFFFFFFFFFFFFFFFFFFFFFF000FFFFFFFFFFFF
310
FFFFFFFFFFFFFFFFFFFFFFFFFFFFFFFFFFFFFFFFFFFFFFFFFFFFFFFFFFFFFFFF
310
FFFFFFFFFFFFFFFFFFFFFFFFFFFFFFFFFFFFFFFFFFFFFFFFFFFFFFFFFFFFFFFF
310
FFFFFFFFFFFFFFFFFFFFFFFFFFFFFFFFF000FFFFFFFFFFFFFFFFFFFFFFFFFFFF
310
FFFFFFFFFFFFFFFFFFFFFFFFFFFFFFFFFFFFFFFFFFFFFFFFFFFFFFFFFFFFFFFF
310
FFFFFFFFFFFFFFFFFFFFFFFFFFFFFFFFFFFFFFFFFFFFFFFFFFFFFFFFFFFFFFFF
310
FFFFFFFFFFFFFFFFF000FFFFFFFFFFFFFFFFFFFFFFFFFFFFFFFFFFFFFFFFFFFF
310
FFFFFFFFFFFFFFFFFFFFFFFFFFFFFFFFFFFFFFFFFFFFFFFFFFFFFFFFFFFFFFFF
310
FFFFFFFFFFFFFFFFFFFFFFFFFFFFFFFFFFFFFFFFFFFFFFFFFFFFFFFFFFFFFFFF
310
F000FFFFFFFFFFFFFFFFFFFFFFFFFFFFFFFFFFFFFFFFFFFFFFFFFFFFFFFFFFFF
310
FFFFFFFFFFFFFFFFFFFFFFFFFFFFFFFFFFFFFFFFFFFFFFFFFFFFFFFFFFFFFFFF
310
FFFFFFFFFFFFFFFFFFFFFFFFFFFFFFFFFFFFFFFFFFFFFFFFF000FFFFFFFFFFFF
310
FFFFFFFFFFFFFFFFFFFFFFFFFFFFFFFFFFFFFFFFFFFFFFFFFFFFFFFFFFFFFFFF
310
FFFFFFFFFFFFFFFFFFFFFFFFFFFFFFFFFFFFFFFFFFFFFFFFFFFFFFFFFFFFFFFF
310
FFFFFFFFFFFFFFFFFFFFFFFFFFFFFFFFF000FFFFFFFFFFFFFFFFFFFFFFFFFFFF
310
FFFFFFFFFFFFFFFFFFFFFFFFFFFFFFFFFFFFFFFFFFFFFFFFFFFFFFFFFFFFFFFF
310
FFFFFFFFFFFFFFFFFFFFFFFFFFFFFFFFFFFFFFFFFFFFFFFFFFFFFFFFFFFFFFFF
310
FFFFFFFFFFFFFFFFF000FFFFFFFFFFFFFFFFFFFFFFFFFFFFFFFFFFFFFFFFFFFF
310
FFFFFFFFFFFFFFFFFFFFFFFFFFFFFFFFFFFFFFFFFFFFFFFFFFFFFFFFFFFFFFFF
310
FFFFFFFFFFFFFFFFFFFFFFFFFFFFFFFFFFFFFFFFFFFFFFFFFFFFFFFFFFFFFFFF
310
F000FFFFFFFFFFFFFFFFFFFFFFFFFFFFFFFFFFFFFFFFFFFFFFFFFFFFFFFFFFFF
310
FFFFFFFFFFFFFFFFFFFFFFFFFFFFFFFFFFFFFFFFFFFFFFFFFFFFFFFFFFFFFFFF
310
FFFFFFFFFFFFFFFFFFFFFFFFFFFFFFFFFFFFFFFFFFFFFFFFF000FFFFFFFFFFFF
310
FFFFFFFFFFFFFFFFFFFFFFFFFFFFFFFFFFFFFFFFFFFFFFFFFFFFFFFFFFFFFFFF
310
FFFFFFFFFFFFFFFFFFFFFFFFFFFFFFFFFFFFFFFFFFFFFFFFFFFFFFFFFFFFFFFF
310
FFFFFFFFFFFFFFFFFFFFFFFFFFFFFFFFF000FFFFFFFFFFFFFFFFFFFFFFFFFFFF
310
FFFFFFFFFFFFFFFFFFFFFFFFFFFFFFFFFFFFFFFFFFFFFFFFFFFFFFFFFFFFFFFF
310
FFFFFFFFFFFFFFFFFFFFFFFFFFFFFFFFFFFFFFFFFFFFFFFFFFFFFFFFFFFFFFFF
310
FFFFFFFFFFFFFFFFF000FFFFFFFFFFFFFFFFFFFFFFFFFFFFFFFFFFFFFFFFFFFF
310
FFFFFFFFFFFFFFFFFFFFFFFFFFFFFFFFFFFFFFFFFFFFFFFFFFFFFFFFFFFFFFFF
310
FFFFFFFFFFFFFFFFFFFFFFFFFFFFFFFFFFFFFFFFFFFFFFFFFFFFFFFFFFFFFFFF
310
F000FFFFFFFFFFFFFFFFFFFFFFFFFFFFFFFFFFFFFFFFFFFFFFFFFFFFFFFFFFFF
310
FFFFFFFFFFFFFFFFFFFFFFFFFFFFFFFFFFFFFFFFFFFFFFFFFFFFFFFFFFFFFFFF
310
FFFFFFFFFFFFFFFFFFFFFFFFFFFFFFFFFFFFFFFFFFFFFFFFF000FFFFFFFFFFFF
310
FFFFFFFFFFFFFFFFFFFFFFFFFFFFFFFFFFFFFFFFFFFFFFFFFFFFFFFFFFFFFFFF
310
FFFFFFFFFFFFFFFFFFFFFFFFFFFFFFFFFFFFFFFFFFFFFFFFFFFFFFFFFFFFFFFF
310
FFFFFFFFFFFFFFFFFFFFFFFFFFFFFFFFF000FFFFFFFFFFFFFFFFFFFFFFFFFFFF
310
FFFFFFFFFFFFFFFFFFFFFFFFFFFFFFFFFFFFFFFFFFFFFFFFFFFFFFFFFFFFFFFF
310
FFFFFFFFFFFFFFFFFFFFFFFFFFFFFFFFFFFFFFFFFFFFFFFFFFFFFFFFFFFFFFFF
310
FFFFFFFFFFFFFFFFF000FFFFFFFFFFFFFFFFFFFFFFFFFFFFFFFFFFFFFFFFFFFF
310
FFFFFFFFFFFFFFFFFFFFFFFFFFFFFFFFFFFFFFFFFFFFFFFFFFFFFFFFFFFFFFFF
310
FFFFFFFFFFFFFFFFFFFFFFFFFFFFFFFFFFFFFFFFFFFFFFFFFFFFFFFFFFFFFFFF
310
F000FFFFFFFFFFFFFFFFFFFFFFFFFFFFFFFFFFFFFFFFFFFFFFFFFFFFFFFFFFFF
310
FFFFFFFFFFFFFFFFFFFFFFFFFFFFFFFFFFFFFFFFFFFFFFFFFFFFFFFFFFFFFFFF
310
FFFFFFFFFFFFFFFFFFFFFFFFFFFFFFFFFFFFFFFFFFFFFFFFF000FFFFFFFFFFFF
310
FFFFFFFFFFFFFFFFFFFFFFFFFFFFFFFFFFFFFFFFFFFFFFFFFFFFFFFFFFFFFFFF
310
FFFFFFFFFFFFFFFFFFFFFFFFFFFFFFFFFFFFFFFFFFFFFFFFFFFFFFFFFFFFFFFF
310
FFFFFFFFFFFFFFFFFFFFFFFFFFFFFFFFF0000000000000000000000000000000
310
0000000000000000000000000000000000000000000000000000000000000000
310
0000000000000000000000000000000000000000000000000000000000000000
310
0000000000000000000000000000000000000000000000000000000000000000
310
0000000000000000000000000000000000000000000000000000000000000000
310
0000000000000000000000000000000000000000000000000000000000000000
310
0000000000000000000000000000000000000000000000000000000000000000
310
0000000000000000000000000000000000000000000000000000000000000000
310
0000000000000000000000000000000000000000000000000000000000000000
310
0000000000000000000000000000000000000000000000000000000000000000
310
0000000000000000000000000000000000000000000000000000000000000000
310
0000000000000000000000000000000000000000000000000000000000000000
310
0000000000000000000000000000000000000000000000000000000000000000
310
0000000000000000000000000000000000000000000000000000000000000000
310
0000000000000000000000000000000000000000000000000000000000000000
310
0000000000000000000000000000000000000000000000000000000000000000
  1
OLE
  0
ENDSEC
  0
SECTION
  2
OBJECTS
  0
DICTIONARY
  5
C
330
0
100
AcDbDictionary
281
     1
  3
ACAD_GROUP
350
D
  3
ACAD_LAYOUT
350
1A
  3
ACAD_MLINESTYLE
350
17
  3
ACAD_PLOTSETTINGS
350
19
  3
ACAD_PLOTSTYLENAME
350
E
  3
ACAD_SCALELIST
350
47
  0
DICTIONARY
  5
D
102
{ACAD_REACTORS
330
C
102
}
330
C
100
AcDbDictionary
281
     1
  0
DICTIONARY
  5
1A
102
{ACAD_REACTORS
330
C
102
}
330
C
100
AcDbDictionary
281
     1
  3
Layout1
350
1E
  3
Layout2
350
26
  3
Model
350
22
  0
DICTIONARY
  5
17
102
{ACAD_REACTORS
330
C
102
}
330
C
100
AcDbDictionary
281
     1
  3
Standard
350
18
  0
DICTIONARY
  5
19
102
{ACAD_REACTORS
330
C
102
}
330
C
100
AcDbDictionary
281
     1
  0
ACDBDICTIONARYWDFLT
  5
E
102
{ACAD_REACTORS
330
C
102
}
330
C
100
AcDbDictionary
281
     1
  3
Normal
350
F
100
AcDbDictionaryWithDefault
340
F
  0
DICTIONARY
  5
47
102
{ACAD_REACTORS
330
C
102
}
330
C
100
AcDbDictionary
281
     1
  3
A0
350
48
  3
A1
350
49
  3
A2
350
4A
  3
A3
350
4B
  3
A4
350
4C
  3
A5
350
4D
  3
A6
350
4E
  3
A7
350
4F
  3
A8
350
50
  3
A9
350
51
  3
B0
350
52
  3
B1
350
53
  3
B2
350
54
  3
B3
350
55
  3
B4
350
56
  3
B5
350
57
  3
B6
350
58
  3
B7
350
59
  3
B8
350
5A
  3
B9
350
5B
  3
C0
350
5C
  3
C1
350
5D
  3
C2
350
5E
  3
C3
350
5F
  3
C4
350
60
  3
C5
350
61
  3
C6
350
62
  3
C7
350
63
  3
C8
350
64
  3
C9
350
65
  3
D0
350
66
  3
D1
350
67
  3
D2
350
68
  0
LAYOUT
  5
1E
102
{ACAD_REACTORS
330
1A
102
}
330
1A
100
AcDbPlotSettings
  1

  2
none_device
  4

  6

 40
0.0
 41
0.0
 42
0.0
 43
0.0
 44
0.0
 45
0.0
 46
0.0
 47
0.0
 48
0.0
 49
0.0
140
0.0
141
0.0
142
1.0
143
1.0
 70
   688
 72
     1
 73
     0
 74
     5
  7

 75
    16
147
1.0
148
0.0
149
0.0
100
AcDbLayout
  1
Layout1
 70
     1
 71
     1
 10
0.0
 20
0.0
 11
420.0
 21
297.0
 12
0.0
 22
0.0
 32
0.0
 14
1.0000000000E+20
 24
1.0000000000E+20
 34
1.0000000000E+20
 15
-1.0000000000E+20
 25
-1.0000000000E+20
 35
-1.0000000000E+20
146
0.0
 13
0.0
 23
0.0
 33
0.0
 16
1.0
 26
0.0
 36
0.0
 17
0.0
 27
1.0
 37
0.0
 76
     0
330
1B
  0
LAYOUT
  5
26
102
{ACAD_REACTORS
330
1A
102
}
330
1A
100
AcDbPlotSettings
  1

  2
none_device
  4

  6

 40
0.0
 41
0.0
 42
0.0
 43
0.0
 44
0.0
 45
0.0
 46
0.0
 47
0.0
 48
0.0
 49
0.0
140
0.0
141
0.0
142
1.0
143
1.0
 70
   688
 72
     1
 73
     0
 74
     5
  7

 75
    16
147
1.0
148
0.0
149
0.0
100
AcDbLayout
  1
Layout2
 70
     1
 71
     2
 10
0.0
 20
0.0
 11
0.0
 21
0.0
 12
0.0
 22
0.0
 32
0.0
 14
0.0
 24
0.0
 34
0.0
 15
0.0
 25
0.0
 35
0.0
146
0.0
 13
0.0
 23
0.0
 33
0.0
 16
1.0
 26
0.0
 36
0.0
 17
0.0
 27
1.0
 37
0.0
 76
     0
330
23
  0
LAYOUT
  5
22
102
{ACAD_REACTORS
330
1A
102
}
330
1A
100
AcDbPlotSettings
  1

  2
none_device
  4
Letter_(8.50_x_11.00_Inches)
  6

 40
6.35
 41
6.35
 42
6.35000508
 43
6.35000508
 44
215.9
 45
279.4
 46
0.0
 47
0.0
 48
0.0
 49
0.0
140
0.0
141
0.0
142
1.0
143
1.0
 70
  1712
 72
     1
 73
     0
 74
     0
  7

 75
     0
147
1.0
148
0.0
149
0.0
100
AcDbLayout
  1
Model
 70
     1
 71
     0
 10
0.0
 20
0.0
 11
297.0
 21
210.0
 12
0.0
 22
0.0
 32
0.0
 14
0.0
 24
0.0
 34
0.0
 15
297.0
 25
210.0
 35
0.0
146
0.0
 13
0.0
 23
0.0
 33
0.0
 16
1.0
 26
0.0
 36
0.0
 17
0.0
 27
1.0
 37
0.0
 76
     0
330
1F
331
29
  0
MLINESTYLE
  5
18
102
{ACAD_REACTORS
330
17
102
}
330
17
100
AcDbMlineStyle
  2
Standard
 70
     0
  3

 62
   256
 51
90.0
 52
90.0
 71
     2
 49
0.5
 62
   256
  6
BYLAYER
 49
-0.5
 62
   256
  6
BYLAYER
  0
ACDBPLACEHOLDER
  5
F
102
{ACAD_REACTORS
330
E
102
}
330
E
  0
SCALE
  5
48
102
{ACAD_REACTORS
330
47
102
}
330
47
100
AcDbScale
 70
     0
300
1:1
140
1.0
141
1.0
290
     1
  0
SCALE
  5
49
102
{ACAD_REACTORS
330
47
102
}
330
47
100
AcDbScale
 70
     0
300
1:2
140
1.0
141
2.0
290
     0
  0
SCALE
  5
4A
102
{ACAD_REACTORS
330
47
102
}
330
47
100
AcDbScale
 70
     0
300
1:4
140
1.0
141
4.0
290
     0
  0
SCALE
  5
4B
102
{ACAD_REACTORS
330
47
102
}
330
47
100
AcDbScale
 70
     0
300
1:5
140
1.0
141
5.0
290
     0
  0
SCALE
  5
4C
102
{ACAD_REACTORS
330
47
102
}
330
47
100
AcDbScale
 70
     0
300
1:8
140
1.0
141
8.0
290
     0
  0
SCALE
  5
4D
102
{ACAD_REACTORS
330
47
102
}
330
47
100
AcDbScale
 70
     0
300
1:10
140
1.0
141
10.0
290
     0
  0
SCALE
  5
4E
102
{ACAD_REACTORS
330
47
102
}
330
47
100
AcDbScale
 70
     0
300
1:16
140
1.0
141
16.0
290
     0
  0
SCALE
  5
4F
102
{ACAD_REACTORS
330
47
102
}
330
47
100
AcDbScale
 70
     0
300
1:20
140
1.0
141
20.0
290
     0
  0
SCALE
  5
50
102
{ACAD_REACTORS
330
47
102
}
330
47
100
AcDbScale
 70
     0
300
1:30
140
1.0
141
30.0
290
     0
  0
SCALE
  5
51
102
{ACAD_REACTORS
330
47
102
}
330
47
100
AcDbScale
 70
     0
300
1:40
140
1.0
141
40.0
290
     0
  0
SCALE
  5
52
102
{ACAD_REACTORS
330
47
102
}
330
47
100
AcDbScale
 70
     0
300
1:50
140
1.0
141
50.0
290
     0
  0
SCALE
  5
53
102
{ACAD_REACTORS
330
47
102
}
330
47
100
AcDbScale
 70
     0
300
1:100
140
1.0
141
100.0
290
     0
  0
SCALE
  5
54
102
{ACAD_REACTORS
330
47
102
}
330
47
100
AcDbScale
 70
     0
300
2:1
140
2.0
141
1.0
290
     0
  0
SCALE
  5
55
102
{ACAD_REACTORS
330
47
102
}
330
47
100
AcDbScale
 70
     0
300
4:1
140
4.0
141
1.0
290
     0
  0
SCALE
  5
56
102
{ACAD_REACTORS
330
47
102
}
330
47
100
AcDbScale
 70
     0
300
8:1
140
8.0
141
1.0
290
     0
  0
SCALE
  5
57
102
{ACAD_REACTORS
330
47
102
}
330
47
100
AcDbScale
 70
     0
300
10:1
140
10.0
141
1.0
290
     0
  0
SCALE
  5
58
102
{ACAD_REACTORS
330
47
102
}
330
47
100
AcDbScale
 70
     0
300
100:1
140
100.0
141
1.0
290
     0
  0
SCALE
  5
59
102
{ACAD_REACTORS
330
47
102
}
330
47
100
AcDbScale
 70
     0
300
1/128" = 1'-0"
140
0.0078125
141
12.0
290
     0
  0
SCALE
  5
5A
102
{ACAD_REACTORS
330
47
102
}
330
47
100
AcDbScale
 70
     0
300
1/64" = 1'-0"
140
0.015625
141
12.0
290
     0
  0
SCALE
  5
5B
102
{ACAD_REACTORS
330
47
102
}
330
47
100
AcDbScale
 70
     0
300
1/32" = 1'-0"
140
0.03125
141
12.0
290
     0
  0
SCALE
  5
5C
102
{ACAD_REACTORS
330
47
102
}
330
47
100
AcDbScale
 70
     0
300
1/16" = 1'-0"
140
0.0625
141
12.0
290
     0
  0
SCALE
  5
5D
102
{ACAD_REACTORS
330
47
102
}
330
47
100
AcDbScale
 70
     0
300
3/32" = 1'-0"
140
0.09375
141
12.0
290
     0
  0
SCALE
  5
5E
102
{ACAD_REACTORS
330
47
102
}
330
47
100
AcDbScale
 70
     0
300
1/8" = 1'-0"
140
0.125
141
12.0
290
     0
  0
SCALE
  5
5F
102
{ACAD_REACTORS
330
47
102
}
330
47
100
AcDbScale
 70
     0
300
3/16" = 1'-0"
140
0.1875
141
12.0
290
     0
  0
SCALE
  5
60
102
{ACAD_REACTORS
330
47
102
}
330
47
100
AcDbScale
 70
     0
300
1/4" = 1'-0"
140
0.25
141
12.0
290
     0
  0
SCALE
  5
61
102
{ACAD_REACTORS
330
47
102
}
330
47
100
AcDbScale
 70
     0
300
3/8" = 1'-0"
140
0.375
141
12.0
290
     0
  0
SCALE
  5
62
102
{ACAD_REACTORS
330
47
102
}
330
47
100
AcDbScale
 70
     0
300
1/2" = 1'-0"
140
0.5
141
12.0
290
     0
  0
SCALE
  5
63
102
{ACAD_REACTORS
330
47
102
}
330
47
100
AcDbScale
 70
     0
300
3/4" = 1'-0"
140
0.75
141
12.0
290
     0
  0
SCALE
  5
64
102
{ACAD_REACTORS
330
47
102
}
330
47
100
AcDbScale
 70
     0
300
1" = 1'-0"
140
1.0
141
12.0
290
     0
  0
SCALE
  5
65
102
{ACAD_REACTORS
330
47
102
}
330
47
100
AcDbScale
 70
     0
300
1-1/2" = 1'-0"
140
1.5
141
12.0
290
     0
  0
SCALE
  5
66
102
{ACAD_REACTORS
330
47
102
}
330
47
100
AcDbScale
 70
     0
300
3" = 1'-0"
140
3.0
141
12.0
290
     0
  0
SCALE
  5
67
102
{ACAD_REACTORS
330
47
102
}
330
47
100
AcDbScale
 70
     0
300
6" = 1'-0"
140
6.0
141
12.0
290
     0
  0
SCALE
  5
68
102
{ACAD_REACTORS
330
47
102
}
330
47
100
AcDbScale
 70
     0
300
1'-0" = 1'-0"
140
12.0
141
12.0
290
     0
  0
ENDSEC
  0
EOF
