  0
SECTION
  2
HEADER
  9
$ACADVER
  1
AC1015
  9
$ACADMAINTVER
 70
     6
  9
$DWGCODEPAGE
  3
ANSI_1252
  9
$INSBASE
 10
0.0
 20
0.0
 30
0.0
  9
$EXTMIN
 10
0.0
 20
0.0
 30
0.0
  9
$EXTMAX
 10
297.0
 20
210.0
 30
0.0
  9
$LIMMIN
 10
0.0
 20
0.0
  9
$LIMMAX
 10
297.0
 20
210.0
  9
$ORTHOMODE
 70
     0
  9
$REGENMODE
 70
     1
  9
$FILLMODE
 70
     1
  9
$QTEXTMODE
 70
     0
  9
$MIRRTEXT
 70
     1
  9
$LTSCALE
 40
1.0
  9
$ATTMODE
 70
     1
  9
$TEXTSIZE
 40
2.0
  9
$TRACEWID
 40
1.0
  9
$TEXTSTYLE
  7
Standard
  9
$CLAYER
  8
0
  9
$CELTYPE
  6
ByLayer
  9
$CECOLOR
 62
   256
  9
$CELTSCALE
 40
1.0
  9
$DISPSILH
 70
     0
  9
$DIMSCALE
 40
1.0
  9
$DIMASZ
 40
3.0
  9
$DIMEXO
 40
0.0
  9
$DIMDLI
 40
3.75
  9
$DIMRND
 40
0.0
  9
$DIMDLE
 40
0.0
  9
$DIMEXE
 40
1.0
  9
$DIMTP
 40
0.0
  9
$DIMTM
 40
0.0
  9
$DIMTXT
 40
2.0
  9
$DIMCEN
 40
2.5
  9
$DIMTSZ
 40
0.0
  9
$DIMTOL
 70
     0
  9
$DIMLIM
 70
     0
  9
$DIMTIH
 70
     1
  9
$DIMTOH
 70
     1
  9
$DIMSE1
 70
     0
  9
$DIMSE2
 70
     0
  9
$DIMTAD
 70
     1
  9
$DIMZIN
 70
     0
  9
$DIMBLK
  1

  9
$DIMASO
 70
     1
  9
$DIMSHO
 70
     1
  9
$DIMPOST
  1

  9
$DIMAPOST
  1

  9
$DIMALT
 70
     0
  9
$DIMALTD
 70
     3
  9
$DIMALTF
 40
0.0393700787
  9
$DIMLFAC
 40
1.0
  9
$DIMTOFL
 70
     1
  9
$DIMTVP
 40
0.0
  9
$DIMTIX
 70
     0
  9
$DIMSOXD
 70
     0
  9
$DIMSAH
 70
     0
  9
$DIMBLK1
  1

  9
$DIMBLK2
  1

  9
$DIMSTYLE
  2
ISO-25
  9
$DIMCLRD
 70
     0
  9
$DIMCLRE
 70
     0
  9
$DIMCLRT
 70
     0
  9
$DIMTFAC
 40
1.0
  9
$DIMGAP
 40
1.524
  9
$DIMJUST
 70
     0
  9
$DIMSD1
 70
     0
  9
$DIMSD2
 70
     0
  9
$DIMTOLJ
 70
     0
  9
$DIMTZIN
 70
     0
  9
$DIMALTZ
 70
     0
  9
$DIMALTTZ
 70
     0
  9
$DIMUPT
 70
     0
  9
$DIMDEC
 70
     2
  9
$DIMTDEC
 70
     3
  9
$DIMALTU
 70
     2
  9
$DIMALTTD
 70
     3
  9
$DIMTXSTY
  7
Standard
  9
$DIMAUNIT
 70
     0
  9
$DIMADEC
 70
     2
  9
$DIMALTRND
 40
0.0
  9
$DIMAZIN
 70
     0
  9
$DIMDSEP
 70
    44
  9
$DIMATFIT
 70
     3
  9
$DIMFRAC
 70
     0
  9
$DIMLDRBLK
  1

  9
$DIMLUNIT
 70
     2
  9
$DIMLWD
 70
    -2
  9
$DIMLWE
 70
    -2
  9
$DIMTMOVE
 70
     0
  9
$LUNITS
 70
     2
  9
$LUPREC
 70
     2
  9
$SKETCHINC
 40
1.0
  9
$FILLETRAD
 40
10.0
  9
$AUNITS
 70
     0
  9
$AUPREC
 70
     2
  9
$MENU
  1
.
  9
$ELEVATION
 40
0.0
  9
$PELEVATION
 40
0.0
  9
$THICKNESS
 40
0.0
  9
$LIMCHECK
 70
     0
  9
$CHAMFERA
 40
0.0
  9
$CHAMFERB
 40
0.0
  9
$CHAMFERC
 40
0.0
  9
$CHAMFERD
 40
0.0
  9
$SKPOLY
 70
     0
  9
$TDCREATE
 40
2457668.346995787
  9
$TDUCREATE
 40
2457668.263662454
  9
$TDUPDATE
 40
2457668.346996956
  9
$TDUUPDATE
 40
2457668.263663623
  9
$TDINDWG
 40
0.0000000116
  9
$TDUSRTIMER
 40
0.0000000116
  9
$USRTIMER
 70
     1
  9
$ANGBASE
 50
0.0
  9
$ANGDIR
 70
     0
  9
$PDMODE
 70
     0
  9
$PDSIZE
 40
-1.0
  9
$PLINEWID
 40
0.0
  9
$SPLFRAME
 70
     0
  9
$SPLINETYPE
 70
     6
  9
$SPLINESEGS
 70
     8
  9
$HANDSEED
  5
242
  9
$SURFTAB1
 70
     6
  9
$SURFTAB2
 70
     6
  9
$SURFTYPE
 70
     6
  9
$SURFU
 70
     6
  9
$SURFV
 70
     6
  9
$UCSBASE
  2

  9
$UCSNAME
  2

  9
$UCSORG
 10
0.0
 20
0.0
 30
0.0
  9
$UCSXDIR
 10
1.0
 20
0.0
 30
0.0
  9
$UCSYDIR
 10
0.0
 20
1.0
 30
0.0
  9
$UCSORTHOREF
  2

  9
$UCSORTHOVIEW
 70
     0
  9
$UCSORGTOP
 10
0.0
 20
0.0
 30
0.0
  9
$UCSORGBOTTOM
 10
0.0
 20
0.0
 30
0.0
  9
$UCSORGLEFT
 10
0.0
 20
0.0
 30
0.0
  9
$UCSORGRIGHT
 10
0.0
 20
0.0
 30
0.0
  9
$UCSORGFRONT
 10
0.0
 20
0.0
 30
0.0
  9
$UCSORGBACK
 10
0.0
 20
0.0
 30
0.0
  9
$PUCSBASE
  2

  9
$PUCSNAME
  2

  9
$PUCSORG
 10
0.0
 20
0.0
 30
0.0
  9
$PUCSXDIR
 10
1.0
 20
0.0
 30
0.0
  9
$PUCSYDIR
 10
0.0
 20
1.0
 30
0.0
  9
$PUCSORTHOREF
  2

  9
$PUCSORTHOVIEW
 70
     0
  9
$PUCSORGTOP
 10
0.0
 20
0.0
 30
0.0
  9
$PUCSORGBOTTOM
 10
0.0
 20
0.0
 30
0.0
  9
$PUCSORGLEFT
 10
0.0
 20
0.0
 30
0.0
  9
$PUCSORGRIGHT
 10
0.0
 20
0.0
 30
0.0
  9
$PUCSORGFRONT
 10
0.0
 20
0.0
 30
0.0
  9
$PUCSORGBACK
 10
0.0
 20
0.0
 30
0.0
  9
$USERI1
 70
     0
  9
$USERI2
 70
     0
  9
$USERI3
 70
     0
  9
$USERI4
 70
     0
  9
$USERI5
 70
     0
  9
$USERR1
 40
0.0
  9
$USERR2
 40
0.0
  9
$USERR3
 40
0.0
  9
$USERR4
 40
0.0
  9
$USERR5
 40
0.0
  9
$WORLDVIEW
 70
     1
  9
$SHADEDGE
 70
     3
  9
$SHADEDIF
 70
    70
  9
$TILEMODE
 70
     1
  9
$MAXACTVP
 70
    64
  9
$PINSBASE
 10
0.0
 20
0.0
 30
0.0
  9
$PLIMCHECK
 70
     0
  9
$PEXTMIN
 10
1.0000000000E+20
 20
1.0000000000E+20
 30
1.0000000000E+20
  9
$PEXTMAX
 10
-1.0000000000E+20
 20
-1.0000000000E+20
 30
-1.0000000000E+20
  9
$PLIMMIN
 10
0.0
 20
0.0
  9
$PLIMMAX
 10
420.0
 20
297.0
  9
$UNITMODE
 70
     0
  9
$VISRETAIN
 70
     1
  9
$PLINEGEN
 70
     0
  9
$PSLTSCALE
 70
     1
  9
$TREEDEPTH
 70
  3020
  9
$CMLSTYLE
  2
Standard
  9
$CMLJUST
 70
     0
  9
$CMLSCALE
 40
20.0
  9
$PROXYGRAPHICS
 70
     1
  9
$MEASUREMENT
 70
     1
  9
$CELWEIGHT
370
    -1
  9
$ENDCAPS
280
     0
  9
$JOINSTYLE
280
     0
  9
$LWDISPLAY
290
     1
  9
$INSUNITS
 70
     4
  9
$HYPERLINKBASE
  1

  9
$STYLESHEET
  1

  9
$XEDIT
290
     1
  9
$CEPSNTYPE
380
     0
  9
$PSTYLEMODE
290
     1
  9
$FINGERPRINTGUID
  2
{5DF290D7-F836-4B8A-9830-69AD0D603D71}
  9
$VERSIONGUID
  2
{FAEB1C32-E019-11D5-929B-00C0DF256EC4}
  9
$EXTNAMES
290
     1
  9
$PSVPSCALE
 40
0.0
  9
$OLESTARTUP
290
     0
  0
ENDSEC
  0
SECTION
  2
CLASSES
  0
CLASS
  1
ACDBDICTIONARYWDFLT
  2
AcDbDictionaryWithDefault
  3
ObjectDBX Classes
 90
        0
280
     0
281
     0
  0
CLASS
  1
VISUALSTYLE
  2
AcDbVisualStyle
  3
ObjectDBX Classes
 90
     4095
280
     0
281
     0
  0
CLASS
  1
MATERIAL
  2
AcDbMaterial
  3
ObjectDBX Classes
 90
     1153
280
     0
281
     0
  0
CLASS
  1
SCALE
  2
AcDbScale
  3
ObjectDBX Classes
 90
     1153
280
     0
281
     0
  0
CLASS
  1
TABLESTYLE
  2
AcDbTableStyle
  3
ObjectDBX Classes
 90
     4095
280
     0
281
     0
  0
CLASS
  1
MLEADERSTYLE
  2
AcDbMLeaderStyle
  3
ACDB_MLEADERSTYLE_CLASS
 90
     4095
280
     0
281
     0
  0
CLASS
  1
SUN
  2
AcDbSun
  3
SCENEOE
 90
     1153
280
     0
281
     0
  0
CLASS
  1
ACDBPLACEHOLDER
  2
AcDbPlaceHolder
  3
ObjectDBX Classes
 90
        0
280
     0
281
     0
  0
CLASS
  1
LAYOUT
  2
AcDbLayout
  3
ObjectDBX Classes
 90
        0
280
     0
281
     0
  0
ENDSEC
  0
SECTION
  2
TABLES
  0
TABLE
  2
VPORT
  5
8
330
0
100
AcDbSymbolTable
 70
     1
  0
VPORT
  5
29
330
8
100
AcDbSymbolTableRecord
100
AcDbViewportTableRecord
  2
*Active
 70
     0
 10
0.0
 20
0.0
 11
1.0
 21
1.0
 12
148.5
 22
105.0
 13
0.0
 23
0.0
 14
10.0
 24
10.0
 15
10.0
 25
10.0
 16
0.0
 26
0.0
 36
1.0
 17
0.0
 27
0.0
 37
0.0
 40
210.0
 41
1.4142857143
 42
50.0
 43
0.0
 44
0.0
 50
0.0
 51
0.0
 71
     0
 72
  2000
 73
     1
 74
     3
 75
     0
 76
     0
 77
     0
 78
     0
281
     0
 65
     1
110
0.0
120
0.0
130
0.0
111
1.0
121
0.0
131
0.0
112
0.0
122
1.0
132
0.0
 79
     0
146
0.0
  0
ENDTAB
  0
TABLE
  2
LTYPE
  5
5
330
0
100
AcDbSymbolTable
 70
     6
  0
LTYPE
  5
14
330
5
100
AcDbSymbolTableRecord
100
AcDbLinetypeTableRecord
  2
ByBlock
 70
     0
  3

 72
    65
 73
     0
 40
0.0
  0
LTYPE
  5
15
330
5
100
AcDbSymbolTableRecord
100
AcDbLinetypeTableRecord
  2
ByLayer
 70
     0
  3

 72
    65
 73
     0
 40
0.0
  0
LTYPE
  5
16
330
5
100
AcDbSymbolTableRecord
100
AcDbLinetypeTableRecord
  2
Continuous
 70
     0
  3
Solid line
 72
    65
 73
     0
 40
0.0
  0
LTYPE
  5
6E
330
5
100
AcDbSymbolTableRecord
100
AcDbLinetypeTableRecord
  2
HIDDEN
 70
     0
  3
Hidden __ __ __ __ __ __ __ __ __ __ __ __ __ __
 72
    65
 73
     2
 40
1.905
 49
1.27
 74
     0
 49
-0.635
 74
     0
  0
LTYPE
  5
6F
330
5
100
AcDbSymbolTableRecord
100
AcDbLinetypeTableRecord
  2
PHANTOM
 70
     0
  3
Phantom ______  __  __  ______  __  __  ______
 72
    65
 73
     6
 40
12.7
 49
6.35
 74
     0
 49
-1.27
 74
     0
 49
1.27
 74
     0
 49
-1.27
 74
     0
 49
1.27
 74
     0
 49
-1.27
 74
     0
  0
LTYPE
  5
70
330
5
100
AcDbSymbolTableRecord
100
AcDbLinetypeTableRecord
  2
CENTER
 70
     0
  3
Center ____ _ ____ _ ____ _ ____ _ ____ _ ____
 72
    65
 73
     4
 40
10.16
 49
6.35
 74
     0
 49
-1.27
 74
     0
 49
1.27
 74
     0
 49
-1.27
 74
     0
  0
LTYPE
  5
71
330
5
100
AcDbSymbolTableRecord
100
AcDbLinetypeTableRecord
  2
CENTERX2
 70
     0
  3
Center (2x) ________  __  ________  __  _____
 72
    65
 73
     4
 40
20.32
 49
12.7
 74
     0
 49
-2.54
 74
     0
 49
2.54
 74
     0
 49
-2.54
 74
     0
  0
LTYPE
  5
72
330
5
100
AcDbSymbolTableRecord
100
AcDbLinetypeTableRecord
  2
DOT2
 70
     0
  3
Dot (.5x) ........................................
 72
    65
 73
     2
 40
0.635
 49
0.0
 74
     0
 49
-0.635
 74
     0
  0
ENDTAB
  0
TABLE
  2
LAYER
  5
2
330
0
100
AcDbSymbolTable
 70
     5
  0
LAYER
  5
10
330
2
100
AcDbSymbolTableRecord
100
AcDbLayerTableRecord
  2
0
 70
     0
 62
     7
  6
Continuous
370
    -3
390
F
  0
LAYER
  5
73
330
2
100
AcDbSymbolTableRecord
100
AcDbLayerTableRecord
  2
FORMAT
 70
     0
 62
     7
  6
Continuous
370
    -3
390
F
  0
LAYER
  5
74
330
2
100
AcDbSymbolTableRecord
100
AcDbLayerTableRecord
  2
VERMASSUNG
 70
     0
 62
     7
  6
Continuous
370
    -3
390
F
  0
LAYER
  5
75
330
2
100
AcDbSymbolTableRecord
100
AcDbLayerTableRecord
  2
KOPF_DÜNN
 70
     0
 62
     7
  6
Continuous
370
    -3
390
F
  0
LAYER
  5
76
330
2
100
AcDbSymbolTableRecord
100
AcDbLayerTableRecord
  2
KOPF_DICK
 70
     0
 62
     7
  6
Continuous
370
    15
390
F
  0
ENDTAB
  0
TABLE
  2
STYLE
  5
3
330
0
100
AcDbSymbolTable
 70
     2
  0
STYLE
  5
11
330
3
100
AcDbSymbolTableRecord
100
AcDbTextStyleTableRecord
  2
Standard
 70
     0
 40
0.0
 41
1.0
 50
0.0
 71
     0
 42
2.0
  3
txt
  4

  0
STYLE
  5
77
330
3
100
AcDbSymbolTableRecord
100
AcDbTextStyleTableRecord
  2
SLDTEXTSTYLE0
 70
     0
 40
0.0
 41
0.7
 50
0.0
 71
     0
 42
2.0
  3
TXT
  4

  0
ENDTAB
  0
TABLE
  2
VIEW
  5
6
330
0
100
AcDbSymbolTable
 70
     0
  0
ENDTAB
  0
TABLE
  2
UCS
  5
7
330
0
100
AcDbSymbolTable
 70
     0
  0
ENDTAB
  0
TABLE
  2
APPID
  5
9
330
0
100
AcDbSymbolTable
 70
     1
  0
APPID
  5
12
330
9
100
AcDbSymbolTableRecord
100
AcDbRegAppTableRecord
  2
ACAD
 70
     0
  0
ENDTAB
  0
TABLE
  2
DIMSTYLE
  5
A
330
0
100
AcDbSymbolTable
 70
     2
100
AcDbDimStyleTable
  0
DIMSTYLE
105
27
330
A
100
AcDbSymbolTableRecord
100
AcDbDimStyleTableRecord
  2
ISO-25
 70
     0
 41
2.5
 42
0.625
 43
3.75
 44
1.25
 73
     0
 74
     0
 77
     1
 78
     8
140
2.5
141
2.5
143
0.0393700787
147
0.625
171
     3
172
     1
178
     0
271
     2
272
     2
274
     3
278
    44
283
     0
284
     8
340
11
  0
DIMSTYLE
105
1FB
102
{ACAD_REACTORS
330
1FA
330
207
330
212
330
21E
330
228
330
234
102
}
330
A
100
AcDbSymbolTableRecord
100
AcDbDimStyleTableRecord
  2
SLDDIMSTYLE0
 70
     0
 41
3.0
 44
0.0
 45
0.000000001
 73
     0
 74
     0
 77
     1
 78
    12
 79
     3
140
2.0
147
0.5
173
     1
178
     0
271
     2
272
     3
276
     2
284
    12
340
77
  0
ENDTAB
  0
TABLE
  2
BLOCK_RECORD
  5
1
330
0
100
AcDbSymbolTable
 70
     7
  0
BLOCK_RECORD
  5
1F
330
1
100
AcDbSymbolTableRecord
100
AcDbBlockTableRecord
  2
*Model_Space
340
22
  0
BLOCK_RECORD
  5
1B
330
1
100
AcDbSymbolTableRecord
100
AcDbBlockTableRecord
  2
*Paper_Space
340
1E
  0
BLOCK_RECORD
  5
23
330
1
100
AcDbSymbolTableRecord
100
AcDbBlockTableRecord
  2
*Paper_Space0
340
26
  0
BLOCK_RECORD
  5
1FC
330
1
100
AcDbSymbolTableRecord
100
AcDbBlockTableRecord
  2
_D
340
0
  0
BLOCK_RECORD
  5
208
330
1
100
AcDbSymbolTableRecord
100
AcDbBlockTableRecord
  2
_D_1
340
0
  0
BLOCK_RECORD
  5
213
330
1
100
AcDbSymbolTableRecord
100
AcDbBlockTableRecord
  2
_D_2
340
0
  0
BLOCK_RECORD
  5
21F
330
1
100
AcDbSymbolTableRecord
100
AcDbBlockTableRecord
  2
_D_3
340
0
  0
BLOCK_RECORD
  5
229
330
1
100
AcDbSymbolTableRecord
100
AcDbBlockTableRecord
  2
_D_4
340
0
  0
BLOCK_RECORD
  5
235
330
1
100
AcDbSymbolTableRecord
100
AcDbBlockTableRecord
  2
_D_5
340
0
  0
ENDTAB
  0
ENDSEC
  0
SECTION
  2
BLOCKS
  0
BLOCK
  5
20
330
1F
100
AcDbEntity
  8
0
100
AcDbBlockBegin
  2
*Model_Space
 70
     0
 10
0.0
 20
0.0
 30
0.0
  3
*Model_Space
  1

  0
ENDBLK
  5
21
330
1F
100
AcDbEntity
  8
0
100
AcDbBlockEnd
  0
BLOCK
  5
1C
330
1B
100
AcDbEntity
 67
     1
  8
0
100
AcDbBlockBegin
  2
*Paper_Space
 70
     0
 10
0.0
 20
0.0
 30
0.0
  3
*Paper_Space
  1

  0
ENDBLK
  5
1D
330
1B
100
AcDbEntity
 67
     1
  8
0
100
AcDbBlockEnd
  0
BLOCK
  5
24
330
23
100
AcDbEntity
  8
0
100
AcDbBlockBegin
  2
*Paper_Space0
 70
     0
 10
0.0
 20
0.0
 30
0.0
  3
*Paper_Space0
  1

  0
ENDBLK
  5
25
330
23
100
AcDbEntity
  8
0
100
AcDbBlockEnd
  0
BLOCK
  5
1FD
330
1FC
100
AcDbEntity
  8
0
100
AcDbBlockBegin
  2
_D
 70
     0
 10
0.0
 20
0.0
 30
0.0
  3
_D
  1

  0
SOLID
  5
1FF
330
1FC
100
AcDbEntity
  8
VERMASSUNG
100
AcDbTrace
 10
78.5571731397
 20
75.4271868583
 30
0.0
 11
79.0071731397
 21
78.4271868583
 31
0.0
 12
78.1071731397
 22
78.4271868583
 32
0.0
 13
78.1071731397
 23
78.4271868583
 33
0.0
  0
SOLID
  5
200
330
1FC
100
AcDbEntity
  8
VERMASSUNG
100
AcDbTrace
 10
78.5571731397
 20
138.9271868583
 30
0.0
 11
78.1071731397
 21
135.9271868583
 31
0.0
 12
79.0071731397
 22
135.9271868583
 32
0.0
 13
79.0071731397
 23
135.9271868583
 33
0.0
  0
LINE
  5
201
330
1FC
100
AcDbEntity
  8
VERMASSUNG
100
AcDbLine
 10
170.9046739945
 20
75.4271868583
 30
0.0
 11
77.5571731397
 21
75.4271868583
 31
0.0
  0
LINE
  5
202
330
1FC
100
AcDbEntity
  8
VERMASSUNG
100
AcDbLine
 10
170.9046739945
 20
138.9271868583
 30
0.0
 11
77.5571731397
 21
138.9271868583
 31
0.0
  0
LINE
  5
203
330
1FC
100
AcDbEntity
  8
VERMASSUNG
100
AcDbLine
 10
78.5571731397
 20
75.4271868583
 30
0.0
 11
78.5571731397
 21
138.9271868583
 31
0.0
  0
MTEXT
  5
204
330
1FC
100
AcDbEntity
  8
VERMASSUNG
100
AcDbMText
 10
75.7790378835
 20
98.37425071
 30
0.0
 40
2.0
 41
0.0
 71
     1
 72
     1
  1
ISO 40
  7
SLDTEXTSTYLE0
 11
3.391901413832837E-15
 21
1.0
 31
0.0
 73
     1
 44
1.0
  0
MTEXT
  5
205
330
1FC
100
AcDbEntity
  8
VERMASSUNG
100
AcDbMText
 10
75.9790378348
 20
107.5742509142
 30
0.0
 40
2.0
 41
0.0
 71
     1
 72
     1
  1
%%c
  7
SLDTEXTSTYLE0
 11
3.391901413832837E-15
 21
1.0
 31
0.0
 73
     1
 44
1.0
  0
MTEXT
  5
206
330
1FC
100
AcDbEntity
  8
VERMASSUNG
100
AcDbMText
 10
75.9790375438
 20
111.1821312455
 30
0.0
 40
2.0
 41
0.0
 71
     1
 72
     1
  1
63.5
  7
SLDTEXTSTYLE0
 11
3.391901413832837E-15
 21
1.0
 31
0.0
 73
     1
 44
1.0
  0
ENDBLK
  5
1FE
330
1FC
100
AcDbEntity
  8
0
100
AcDbBlockEnd
  0
BLOCK
  5
209
330
208
100
AcDbEntity
  8
0
100
AcDbBlockBegin
  2
_D_1
 70
     0
 10
0.0
 20
0.0
 30
0.0
  3
_D_1
  1

  0
SOLID
  5
20B
330
208
100
AcDbEntity
  8
VERMASSUNG
100
AcDbTrace
 10
218.9846548416
 20
125.1771868583
 30
0.0
 11
218.5346548416
 21
122.1771868583
 31
0.0
 12
219.4346548416
 22
122.1771868583
 32
0.0
 13
219.4346548416
 23
122.1771868583
 33
0.0
  0
SOLID
  5
20C
330
208
100
AcDbEntity
  8
VERMASSUNG
100
AcDbTrace
 10
218.9846548416
 20
89.1771868583
 30
0.0
 11
219.4346548416
 21
92.1771868583
 31
0.0
 12
218.5346548416
 22
92.1771868583
 32
0.0
 13
218.5346548416
 23
92.1771868583
 33
0.0
  0
LINE
  5
20D
330
208
100
AcDbEntity
  8
VERMASSUNG
100
AcDbLine
 10
194.8546739944
 20
125.1771868583
 30
0.0
 11
219.9846548416
 21
125.1771868583
 31
0.0
  0
LINE
  5
20E
330
208
100
AcDbEntity
  8
VERMASSUNG
100
AcDbLine
 10
194.8546739944
 20
89.1771868583
 30
0.0
 11
219.9846548416
 21
89.1771868583
 31
0.0
  0
LINE
  5
20F
330
208
100
AcDbEntity
  8
VERMASSUNG
100
AcDbLine
 10
218.9846548416
 20
125.1771868583
 30
0.0
 11
218.9846548416
 21
89.1771868583
 31
0.0
  0
MTEXT
  5
210
330
208
100
AcDbEntity
  8
VERMASSUNG
100
AcDbMText
 10
216.4065193038
 20
103.9730107512
 30
0.0
 40
2.0
 41
0.0
 71
     1
 72
     1
  1
%%c
  7
SLDTEXTSTYLE0
 11
-7.044195017643634E-15
 21
1.0
 31
0.0
 73
     1
 44
1.0
  0
MTEXT
  5
211
330
208
100
AcDbEntity
  8
VERMASSUNG
100
AcDbMText
 10
216.4065192456
 20
107.5819829448
 30
0.0
 40
2.0
 41
0.0
 71
     1
 72
     1
  1
36
  7
SLDTEXTSTYLE0
 11
-7.044195017643634E-15
 21
1.0
 31
0.0
 73
     1
 44
1.0
  0
ENDBLK
  5
20A
330
208
100
AcDbEntity
  8
0
100
AcDbBlockEnd
  0
BLOCK
  5
214
330
213
100
AcDbEntity
  8
0
100
AcDbBlockBegin
  2
_D_2
 70
     0
 10
0.0
 20
0.0
 30
0.0
  3
_D_2
  1

  0
ARC
  5
216
330
213
100
AcDbEntity
  8
VERMASSUNG
100
AcDbCircle
 10
190.5914675064
 20
148.772685654
 30
0.0
 40
4.247059938537297
100
AcDbArc
 50
153.4349488229
 51
206.5650511771
  0
ARC
  5
217
330
213
100
AcDbEntity
  8
VERMASSUNG
100
AcDbCircle
 10
192.3678804827
 20
148.772685654
 30
0.0
 40
4.247059938537323
100
AcDbArc
 50
333.4349488229
 51
26.5650511771
  0
SOLID
  5
218
330
213
100
AcDbEntity
  8
VERMASSUNG
100
AcDbTrace
 10
171.5046739945
 20
146.8733427086
 30
0.0
 11
174.5046739945
 21
146.4233427086
 31
0.0
 12
174.5046739945
 22
147.3233427086
 32
0.0
 13
174.5046739945
 23
147.3233427086
 33
0.0
  0
SOLID
  5
219
330
213
100
AcDbEntity
  8
VERMASSUNG
100
AcDbTrace
 10
211.4546739945
 20
146.8733427086
 30
0.0
 11
208.4546739945
 21
147.3233427086
 31
0.0
 12
208.4546739945
 22
146.4233427086
 32
0.0
 13
208.4546739945
 23
146.4233427086
 33
0.0
  0
LINE
  5
21A
330
213
100
AcDbEntity
  8
VERMASSUNG
100
AcDbLine
 10
171.5046739945
 20
137.1877379918
 30
0.0
 11
171.5046739945
 21
147.8733427086
 31
0.0
  0
LINE
  5
21B
330
213
100
AcDbEntity
  8
VERMASSUNG
100
AcDbLine
 10
211.4546739945
 20
138.5771868583
 30
0.0
 11
211.4546739945
 21
147.8733427086
 31
0.0
  0
LINE
  5
21C
330
213
100
AcDbEntity
  8
VERMASSUNG
100
AcDbLine
 10
171.5046739945
 20
146.8733427086
 30
0.0
 11
211.4546739945
 21
146.8733427086
 31
0.0
  0
MTEXT
  5
21D
330
213
100
AcDbEntity
  8
VERMASSUNG
100
AcDbMText
 10
188.3802816156
 20
149.4514783045
 30
0.0
 40
2.0
 41
0.0
 71
     1
 72
     1
  1
39.95
  7
SLDTEXTSTYLE0
 73
     1
 44
1.0
  0
ENDBLK
  5
215
330
213
100
AcDbEntity
  8
0
100
AcDbBlockEnd
  0
BLOCK
  5
220
330
21F
100
AcDbEntity
  8
0
100
AcDbBlockBegin
  2
_D_3
 70
     0
 10
0.0
 20
0.0
 30
0.0
  3
_D_3
  1

  0
SOLID
  5
222
330
21F
100
AcDbEntity
  8
VERMASSUNG
100
AcDbTrace
 10
152.4546739945
 20
152.8733427086
 30
0.0
 11
155.4546739945
 21
152.4233427086
 31
0.0
 12
155.4546739945
 22
153.3233427086
 32
0.0
 13
155.4546739945
 23
153.3233427086
 33
0.0
  0
SOLID
  5
223
330
21F
100
AcDbEntity
  8
VERMASSUNG
100
AcDbTrace
 10
211.4546739945
 20
152.8733427086
 30
0.0
 11
208.4546739945
 21
153.3233427086
 31
0.0
 12
208.4546739945
 22
152.4233427086
 32
0.0
 13
208.4546739945
 23
152.4233427086
 33
0.0
  0
LINE
  5
224
330
21F
100
AcDbEntity
  8
VERMASSUNG
100
AcDbLine
 10
152.4546739945
 20
129.4021868583
 30
0.0
 11
152.4546739945
 21
153.8733427086
 31
0.0
  0
LINE
  5
225
330
21F
100
AcDbEntity
  8
VERMASSUNG
100
AcDbLine
 10
211.4546739945
 20
138.5771868583
 30
0.0
 11
211.4546739945
 21
153.8733427086
 31
0.0
  0
LINE
  5
226
330
21F
100
AcDbEntity
  8
VERMASSUNG
100
AcDbLine
 10
152.4546739945
 20
152.8733427086
 30
0.0
 11
211.4546739945
 21
152.8733427086
 31
0.0
  0
MTEXT
  5
227
330
21F
100
AcDbEntity
  8
VERMASSUNG
100
AcDbMText
 10
180.5549839842
 20
155.4514783045
 30
0.0
 40
2.0
 41
0.0
 71
     1
 72
     1
  1
59
  7
SLDTEXTSTYLE0
 73
     1
 44
1.0
  0
ENDBLK
  5
221
330
21F
100
AcDbEntity
  8
0
100
AcDbBlockEnd
  0
BLOCK
  5
22A
330
229
100
AcDbEntity
  8
0
100
AcDbBlockBegin
  2
_D_4
 70
     0
 10
0.0
 20
0.0
 30
0.0
  3
_D_4
  1

  0
ARC
  5
22C
330
229
100
AcDbEntity
  8
VERMASSUNG
100
AcDbCircle
 10
146.4418145713
 20
160.772685654
 30
0.0
 40
4.247059938537323
100
AcDbArc
 50
153.4349488229
 51
206.5650511771
  0
ARC
  5
22D
330
229
100
AcDbEntity
  8
VERMASSUNG
100
AcDbCircle
 10
149.2175334178
 20
160.772685654
 30
0.0
 40
4.247059938537323
100
AcDbArc
 50
333.4349488229
 51
26.5650511771
  0
SOLID
  5
22E
330
229
100
AcDbEntity
  8
VERMASSUNG
100
AcDbTrace
 10
84.2046739945
 20
158.8733427086
 30
0.0
 11
87.2046739945
 21
158.4233427086
 31
0.0
 12
87.2046739945
 22
159.3233427086
 32
0.0
 13
87.2046739945
 23
159.3233427086
 33
0.0
  0
SOLID
  5
22F
330
229
100
AcDbEntity
  8
VERMASSUNG
100
AcDbTrace
 10
211.4546739945
 20
158.8733427086
 30
0.0
 11
208.4546739945
 21
159.3233427086
 31
0.0
 12
208.4546739945
 22
158.4233427086
 32
0.0
 13
208.4546739945
 23
158.4233427086
 33
0.0
  0
LINE
  5
230
330
229
100
AcDbEntity
  8
VERMASSUNG
100
AcDbLine
 10
84.2046739945
 20
118.5843174553
 30
0.0
 11
84.2046739945
 21
159.8733427086
 31
0.0
  0
LINE
  5
231
330
229
100
AcDbEntity
  8
VERMASSUNG
100
AcDbLine
 10
211.4546739945
 20
138.5771868583
 30
0.0
 11
211.4546739945
 21
159.8733427086
 31
0.0
  0
LINE
  5
232
330
229
100
AcDbEntity
  8
VERMASSUNG
100
AcDbLine
 10
84.2046739945
 20
158.8733427086
 30
0.0
 11
211.4546739945
 21
158.8733427086
 31
0.0
  0
MTEXT
  5
233
330
229
100
AcDbEntity
  8
VERMASSUNG
100
AcDbMText
 10
144.2306286804
 20
161.4514783045
 30
0.0
 40
2.0
 41
0.0
 71
     1
 72
     1
  1
127.25
  7
SLDTEXTSTYLE0
 73
     1
 44
1.0
  0
ENDBLK
  5
22B
330
229
100
AcDbEntity
  8
0
100
AcDbBlockEnd
  0
BLOCK
  5
236
330
235
100
AcDbEntity
  8
0
100
AcDbBlockBegin
  2
_D_5
 70
     0
 10
0.0
 20
0.0
 30
0.0
  3
_D_5
  1

  0
SOLID
  5
238
330
235
100
AcDbEntity
  8
VERMASSUNG
100
AcDbTrace
 10
224.1002728087
 20
139.1771868583
 30
0.0
 11
223.6502728087
 21
136.1771868583
 31
0.0
 12
224.5502728087
 22
136.1771868583
 32
0.0
 13
224.5502728087
 23
136.1771868583
 33
0.0
  0
SOLID
  5
239
330
235
100
AcDbEntity
  8
VERMASSUNG
100
AcDbTrace
 10
224.1002728087
 20
75.1771868583
 30
0.0
 11
224.5502728087
 21
78.1771868583
 31
0.0
 12
223.6502728087
 22
78.1771868583
 32
0.0
 13
223.6502728087
 23
78.1771868583
 33
0.0
  0
LINE
  5
23A
330
235
100
AcDbEntity
  8
VERMASSUNG
100
AcDbLine
 10
210.8546739945
 20
139.1771868583
 30
0.0
 11
225.1002728087
 21
139.1771868583
 31
0.0
  0
LINE
  5
23B
330
235
100
AcDbEntity
  8
VERMASSUNG
100
AcDbLine
 10
210.8546739945
 20
75.1771868583
 30
0.0
 11
225.1002728087
 21
75.1771868583
 31
0.0
  0
LINE
  5
23C
330
235
100
AcDbEntity
  8
VERMASSUNG
100
AcDbLine
 10
224.1002728087
 20
139.1771868583
 30
0.0
 11
224.1002728087
 21
75.1771868583
 31
0.0
  0
MTEXT
  5
23D
330
235
100
AcDbEntity
  8
VERMASSUNG
100
AcDbMText
 10
221.3221375525
 20
100.9721873407
 30
0.0
 40
2.0
 41
0.0
 71
     1
 72
     1
  1
ST6
  7
SLDTEXTSTYLE0
 11
-7.044195017643634E-15
 21
1.0
 31
0.0
 73
     1
 44
1.0
  0
MTEXT
  5
23E
330
235
100
AcDbEntity
  8
VERMASSUNG
100
AcDbMText
 10
221.5221375038
 20
106.7721872669
 30
0.0
 40
2.0
 41
0.0
 71
     1
 72
     1
  1
%%c
  7
SLDTEXTSTYLE0
 11
-7.044195017643634E-15
 21
1.0
 31
0.0
 73
     1
 44
1.0
  0
MTEXT
  5
23F
330
235
100
AcDbEntity
  8
VERMASSUNG
100
AcDbMText
 10
221.3221375525
 20
110.3821868155
 30
0.0
 40
2.0
 41
0.0
 71
     1
 72
     1
  1
64
  7
SLDTEXTSTYLE0
 11
-7.044195017643634E-15
 21
1.0
 31
0.0
 73
     1
 44
1.0
  0
ENDBLK
  5
237
330
235
100
AcDbEntity
  8
0
100
AcDbBlockEnd
  0
ENDSEC
  0
SECTION
  2
ENTITIES
  0
MTEXT
  5
78
330
1F
100
AcDbEntity
  8
KOPF_DÜNN
100
AcDbMText
 10
13.8892156294
 20
23.8442973028
 30
0.0
 40
3.0
 41
0.0
 71
     1
 72
     1
  1
124.440.064.059
  7
SLDTEXTSTYLE0
 73
     1
 44
1.0
  0
MTEXT
  5
79
330
1F
100
AcDbEntity
  8
VERMASSUNG
100
AcDbMText
 10
13.9329988022
 20
28.8834360957
 30
0.0
 40
3.0
 41
0.0
 71
     1
 72
     1
  1
Aufnahme_Master shank ST6
  7
SLDTEXTSTYLE0
 73
     1
 44
1.0
  0
MTEXT
  5
7A
330
1F
100
AcDbEntity
  8
VERMASSUNG
100
AcDbMText
 10
98.8601118557
 20
13.8365368761
 30
0.0
 40
2.0
 41
0.0
 71
     1
 72
     1
  1
Datum: 14.05.2008
  7
SLDTEXTSTYLE0
 73
     1
 44
1.0
  0
MTEXT
  5
7B
330
1F
100
AcDbEntity
  8
VERMASSUNG
100
AcDbMText
 10
13.933048693
 20
18.0482802738
 30
0.0
 40
2.0
 41
0.0
 71
     1
 72
     1
  1
DIN 69871 B ISO 40
  7
SLDTEXTSTYLE0
 73
     1
 44
1.0
  0
MTEXT
  5
7C
330
1F
100
AcDbEntity
  8
VERMASSUNG
100
AcDbMText
 10
13.9808475933
 20
13.9090974274
 30
0.0
 40
2.0
 41
0.0
 71
     1
 72
     1
  1
Gewicht: 1281g
  7
SLDTEXTSTYLE0
 73
     1
 44
1.0
  0
ARC
  5
7D
330
1F
100
AcDbEntity
  8
0
  6
Continuous
 62
     7
370
    15
100
AcDbCircle
 10
188.4546739945
 20
76.1771868583
 30
0.0
 40
1.0
100
AcDbArc
 50
180.0
 51
270.0
  0
ARC
  5
7E
330
1F
100
AcDbEntity
  8
0
  6
Continuous
 62
     7
370
    15
100
AcDbCircle
 10
188.4546739945
 20
138.1771868583
 30
0.0
 40
1.0
100
AcDbArc
 50
90.0
 51
180.0
  0
LINE
  5
7F
330
1F
100
AcDbEntity
  8
0
  6
Continuous
 62
     7
370
    15
100
AcDbLine
 10
210.8546753714
 20
75.1771853384
 30
0.0
 11
211.4546743522
 21
75.7771880444
 31
0.0
  0
LINE
  5
80
330
1F
100
AcDbEntity
  8
0
  6
Continuous
 62
     7
370
    15
100
AcDbLine
 10
211.4546743522
 20
138.5771856722
 30
0.0
 11
210.8546753714
 21
139.1771883782
 31
0.0
  0
LINE
  5
81
330
1F
100
AcDbEntity
  8
0
  6
Continuous
 62
     7
370
    15
100
AcDbLine
 10
210.8546753714
 20
139.1771883782
 30
0.0
 11
188.4546724448
 21
139.1771883782
 31
0.0
  0
LINE
  5
82
330
1F
100
AcDbEntity
  8
0
  6
Continuous
 62
     7
370
    15
100
AcDbLine
 10
188.4546724448
 20
75.1771853384
 30
0.0
 11
210.8546753714
 21
75.1771853384
 31
0.0
  0
ARC
  5
83
330
1F
100
AcDbEntity
  8
0
  6
Continuous
 62
     7
370
    15
100
AcDbCircle
 10
186.4546739945
 20
81.1771868583
 30
0.0
 40
1.0
100
AcDbArc
 50
0.0
 51
90.0
  0
ARC
  5
84
330
1F
100
AcDbEntity
  8
0
  6
Continuous
 62
     7
370
    15
100
AcDbCircle
 10
186.4546739945
 20
133.1771868583
 30
0.0
 40
1.0
100
AcDbArc
 50
270.0
 51
0.0
  0
LINE
  5
85
330
1F
100
AcDbEntity
  8
0
  6
Continuous
 62
     7
370
    15
100
AcDbLine
 10
179.5306780676
 20
82.1771864858
 30
0.0
 11
186.4546758423
 21
82.1771864858
 31
0.0
  0
LINE
  5
86
330
1F
100
AcDbEntity
  8
0
  6
Continuous
 62
     7
370
    15
100
AcDbLine
 10
186.4546758423
 20
132.1771872308
 30
0.0
 11
179.52891228
 21
132.1771872308
 31
0.0
  0
ARC
  5
87
330
1F
100
AcDbEntity
  8
0
  6
Continuous
 62
     7
370
    15
100
AcDbCircle
 10
155.0546739945
 20
84.3521868583
 30
0.0
 40
0.6000000000000227
100
AcDbArc
 50
0.0
 51
90.0
  0
ARC
  5
88
330
1F
100
AcDbEntity
  8
0
  6
Continuous
 62
     7
370
    15
100
AcDbCircle
 10
155.0546739945
 20
130.0021868583
 30
0.0
 40
0.6000000000000227
100
AcDbArc
 50
270.0
 51
0.0
  0
LINE
  5
89
330
1F
100
AcDbEntity
  8
0
  6
Continuous
 62
     7
370
    15
100
AcDbLine
 10
152.4546739945
 20
84.9521868941
 30
0.0
 11
155.0546740016
 21
84.9521868941
 31
0.0
  0
LINE
  5
8A
330
1F
100
AcDbEntity
  8
0
  6
Continuous
 62
     7
370
    15
100
AcDbLine
 10
155.0546740016
 20
129.4021868226
 30
0.0
 11
152.4546739945
 21
129.4021868226
 31
0.0
  0
LINE
  5
8B
330
1F
100
AcDbEntity
  8
0
  6
Continuous
 62
     7
370
    15
100
AcDbLine
 10
152.4546739945
 20
129.4021868226
 30
0.0
 11
85.0603652487
 21
119.5738502857
 31
0.0
  0
LINE
  5
8C
330
1F
100
AcDbEntity
  8
0
  6
Continuous
 62
     7
370
    15
100
AcDbLine
 10
85.0603652487
 20
94.780523431
 30
0.0
 11
152.4546739945
 21
84.9521868941
 31
0.0
  0
ARC
  5
8D
330
1F
100
AcDbEntity
  8
0
  6
Continuous
 62
     7
370
    15
100
AcDbCircle
 10
85.2046739945
 20
95.7700562613
 30
0.0
 40
0.9999999999999938
100
AcDbArc
 50
180.0
 51
261.7028550302
  0
ARC
  5
8E
330
1F
100
AcDbEntity
  8
0
  6
Continuous
 62
     7
370
    15
100
AcDbCircle
 10
85.2046739945
 20
118.5843174553
 30
0.0
 40
0.9999999999999858
100
AcDbArc
 50
98.2971449698
 51
180.0
  0
ARC
  5
8F
330
1F
100
AcDbEntity
  8
0
  6
Continuous
 62
     7
370
    15
100
AcDbCircle
 10
165.4546739945
 20
98.4556732035
 30
0.0
 40
1.500000000000008
100
AcDbArc
 50
244.078633816
 51
336.0523279712
  0
ARC
  5
90
330
1F
100
AcDbEntity
  8
0
  6
Continuous
 62
     7
370
    15
100
AcDbCircle
 10
165.4546739945
 20
98.4556732035
 30
0.0
 40
1.500000000000008
100
AcDbArc
 50
191.527441716
 51
244.078633816
  0
SPLINE
  5
91
330
1F
100
AcDbEntity
  8
0
  6
Continuous
 62
     7
370
    15
100
AcDbSpline
210
0.0
220
0.0
230
1.0
 70
     8
 71
     3
 72
    11
 73
     7
 74
     0
 42
0.000000001
 43
0.00000001
 40
0.0
 40
0.0
 40
0.0
 40
0.0
 40
0.1336646587079086
 40
0.4825472197551702
 40
0.8156356042825329
 40
1.0
 40
1.0
 40
1.0
 40
1.0
 10
193.0925843606005
 20
104.5976054001947
 30
0.0
 10
193.0474268315454
 20
104.7355222268527
 30
0.0
 10
192.8844021374551
 20
105.2334203392226
 30
0.0
 10
192.5798478633045
 20
106.1635533854652
 30
0.0
 10
192.2527595665291
 20
107.1625064083311
 30
0.0
 10
192.077197081763
 20
107.6986875428276
 30
0.0
 10
192.0146455357084
 20
107.8897247053099
 30
0.0
  0
SPLINE
  5
92
330
1F
100
AcDbEntity
  8
0
  6
Continuous
 62
     7
370
    15
100
AcDbSpline
210
0.0
220
0.0
230
1.0
 70
     8
 71
     3
 72
    11
 73
     7
 74
     0
 42
0.000000001
 43
0.00000001
 40
0.0
 40
0.0
 40
0.0
 40
0.0
 40
0.216455972010469
 40
0.4403116151796836
 40
0.7519010384281095
 40
1.0
 40
1.0
 40
1.0
 40
1.0
 10
198.7947036812315
 20
106.4646490113226
 30
0.0
 10
198.6363218203554
 20
106.2879454180909
 30
0.0
 10
198.3141437241366
 20
105.9284975182651
 30
0.0
 10
197.7162741128628
 20
105.2614534580549
 30
0.0
 10
197.0749485657172
 20
104.5459340165153
 30
0.0
 10
196.664539693901
 20
104.0880420754439
 30
0.0
 10
196.482613433362
 20
103.8850674949934
 30
0.0
  0
SPLINE
  5
93
330
1F
100
AcDbEntity
  8
0
  6
Continuous
 62
     7
370
    15
100
AcDbSpline
210
0.0
220
0.0
230
1.0
 70
     8
 71
     3
 72
    11
 73
     7
 74
     0
 42
0.000000001
 43
0.00000001
 40
0.0
 40
0.0
 40
0.0
 40
0.0
 40
0.184364425162589
 40
0.5174524900200367
 40
0.8663350375840724
 40
0.9999999999999999
 40
0.9999999999999999
 40
0.9999999999999999
 40
0.9999999999999999
 10
197.7167648563394
 20
109.7567683164378
 30
0.0
 10
197.7793165240518
 20
109.5657311615172
 30
0.0
 10
197.9548792237652
 20
109.0295504346075
 30
0.0
 10
198.2819630878919
 20
108.0305963873492
 30
0.0
 10
198.5865153245853
 20
107.1004629622905
 30
0.0
 10
198.7495447626553
 20
106.6025658040957
 30
0.0
 10
198.7947036812315
 20
106.4646490113226
 30
0.0
  0
CIRCLE
  5
94
330
1F
100
AcDbEntity
  8
0
  6
Continuous
 62
     7
370
    15
100
AcDbCircle
 10
195.4046739945
 20
107.1771868583
 30
0.0
 40
3.500000000000006
  0
SPLINE
  5
95
330
1F
100
AcDbEntity
  8
0
  6
Continuous
 62
     7
370
    15
100
AcDbSpline
210
0.0
220
0.0
230
1.0
 70
     8
 71
     3
 72
    11
 73
     7
 74
     0
 42
0.000000001
 43
0.00000001
 40
0.0
 40
0.0
 40
0.0
 40
0.0
 40
0.2164553270199286
 40
0.4403116370470038
 40
0.7519010481214666
 40
1.0
 40
1.0
 40
1.0
 40
1.0
 10
192.0146455357084
 20
107.8897247053099
 30
0.0
 10
192.1730257477066
 20
108.0664286347401
 30
0.0
 10
192.4952014658138
 20
108.4258783073873
 30
0.0
 10
193.0930759133401
 20
109.0929185660469
 30
0.0
 10
193.7344003547372
 20
109.8084399342123
 30
0.0
 10
194.1448094319781
 20
110.2663317130871
 30
0.0
 10
194.3267357835779
 20
110.4693062216391
 30
0.0
  0
SPLINE
  5
96
330
1F
100
AcDbEntity
  8
0
  6
Continuous
 62
     7
370
    15
100
AcDbSpline
210
0.0
220
0.0
230
1.0
 70
     8
 71
     3
 72
    11
 73
     7
 74
     0
 42
0.000000001
 43
0.00000001
 40
0.0
 40
0.0
 40
0.0
 40
0.0
 40
0.216455664152805
 40
0.4403111158866485
 40
0.7519002152024026
 40
1.0
 40
1.0
 40
1.0
 40
1.0
 10
194.3267357835779
 20
110.4693062216391
 30
0.0
 10
194.5589564332584
 20
110.4204966742469
 30
0.0
 10
195.03133646449
 20
110.321208968553
 30
0.0
 10
195.907946772691
 20
110.1369567656402
 30
0.0
 10
196.848268129367
 20
109.9393136700062
 30
0.0
 10
197.4500195312908
 20
109.8128342959187
 30
0.0
 10
197.7167648563394
 20
109.7567683164378
 30
0.0
  0
SPLINE
  5
97
330
1F
100
AcDbEntity
  8
0
  6
Continuous
 62
     7
370
    15
100
AcDbSpline
210
0.0
220
0.0
230
1.0
 70
     8
 71
     3
 72
    11
 73
     7
 74
     0
 42
0.000000001
 43
0.00000001
 40
0.0
 40
0.0
 40
0.0
 40
0.0
 40
0.2164556499215601
 40
0.4403110869376471
 40
0.7519011695583386
 40
1.0
 40
1.0
 40
1.0
 40
1.0
 10
196.482613433362
 20
103.8850674949934
 30
0.0
 10
196.2503927765846
 20
103.9338770263619
 30
0.0
 10
195.7780127309166
 20
104.0331646994605
 30
0.0
 10
194.9014013782266
 20
104.2174174323673
 30
0.0
 10
193.9610792734717
 20
104.4150591577674
 30
0.0
 10
193.3593284079825
 20
104.5415392991528
 30
0.0
 10
193.0925843606005
 20
104.5976054001947
 30
0.0
  0
CIRCLE
  5
98
330
1F
100
AcDbEntity
  8
0
  6
Continuous
 62
     7
370
    15
100
AcDbCircle
 10
195.4046739945
 20
107.1771868583
 30
0.0
 40
5.500000000000028
  0
CIRCLE
  5
99
330
1F
100
AcDbEntity
  8
0
  6
Continuous
 62
     7
370
    15
100
AcDbCircle
 10
195.4046739945
 20
107.1771868583
 30
0.0
 40
6.000000000000001
  0
ARC
  5
9A
330
1F
100
AcDbEntity
  8
0
  6
Continuous
 62
     7
370
    15
100
AcDbCircle
 10
195.4046739945
 20
107.1771868583
 30
0.0
 40
3.000000000000032
100
AcDbArc
 50
198.1299913566
 51
258.1299913566
  0
ARC
  5
9B
330
1F
100
AcDbEntity
  8
0
  6
Continuous
 62
     7
370
    15
100
AcDbCircle
 10
195.4046739945
 20
107.1771868583
 30
0.0
 40
3.00000000000001
100
AcDbArc
 50
258.1299913566
 51
318.1299913566
  0
ARC
  5
9C
330
1F
100
AcDbEntity
  8
0
  6
Continuous
 62
     7
370
    15
100
AcDbCircle
 10
195.4046739945
 20
107.1771868583
 30
0.0
 40
3.000000000000032
100
AcDbArc
 50
138.1299913566
 51
198.1299913566
  0
ARC
  5
9D
330
1F
100
AcDbEntity
  8
0
  6
Continuous
 62
     7
370
    15
100
AcDbCircle
 10
195.4046739945
 20
107.1771868583
 30
0.0
 40
3.0
100
AcDbArc
 50
18.1299913566
 51
78.1299913566
  0
ARC
  5
9E
330
1F
100
AcDbEntity
  8
0
  6
Continuous
 62
     7
370
    15
100
AcDbCircle
 10
195.4046739945
 20
107.1771868583
 30
0.0
 40
3.000000000000024
100
AcDbArc
 50
78.1299913566
 51
138.1299913566
  0
ARC
  5
9F
330
1F
100
AcDbEntity
  8
0
  6
Continuous
 62
     7
370
    15
100
AcDbCircle
 10
195.4046739945
 20
107.1771868583
 30
0.0
 40
3.000000000000002
100
AcDbArc
 50
318.1299913566
 51
18.1299913566
  0
SPLINE
  5
A0
330
1F
100
AcDbEntity
  8
0
  6
Continuous
 62
     7
370
    15
100
AcDbSpline
210
0.0
220
0.0
230
1.0
 70
     8
 71
     3
 72
    18
 73
    14
 74
     0
 42
0.000000001
 43
0.00000001
 40
0.0
 40
0.0
 40
0.0
 40
0.0
 40
0.1250000000000001
 40
0.1250000000000001
 40
0.2500000000000002
 40
0.2500000000000002
 40
0.5000000000000003
 40
0.5000000000000003
 40
0.7500000000000004
 40
0.7500000000000004
 40
0.8750000000000002
 40
0.8750000000000002
 40
1.0
 40
1.0
 40
1.0
 40
1.0
 10
188.4546739945421
 20
109.7158460587843
 30
0.0
 10
188.3648771253744
 20
109.5162982248642
 30
0.0
 10
188.2963773412166
 20
109.3109695722858
 30
0.0
 10
188.1838468321522
 20
108.8937259317075
 30
0.0
 10
188.1403612032215
 20
108.6816614078102
 30
0.0
 10
188.0385719991288
 20
108.0377999677617
 30
0.0
 10
188.0092825035462
 20
107.605703788094
 30
0.0
 10
188.0093567850451
 20
106.7471144601194
 30
0.0
 10
188.0384956381905
 20
106.3187442825128
 30
0.0
 10
188.1394001851773
 20
105.6779598621705
 30
0.0
 10
188.1831419134126
 20
105.4635210190074
 30
0.0
 10
188.2962459175676
 20
105.0436338341373
 30
0.0
 10
188.3650665596082
 20
104.8376545284163
 30
0.0
 10
188.4546739945421
 20
104.6385276578482
 30
0.0
  0
SPLINE
  5
A1
330
1F
100
AcDbEntity
  8
0
  6
Continuous
 62
     7
370
    15
100
AcDbSpline
210
0.0
220
0.0
230
1.0
 70
     8
 71
     3
 72
    75
 73
    71
 74
     0
 42
0.000000001
 43
0.00000001
 40
0.0
 40
0.0
 40
0.0
 40
0.0
 40
0.0312499999999998
 40
0.0312499999999998
 40
0.0624999999999996
 40
0.0624999999999996
 40
0.0937499999999994
 40
0.0937499999999994
 40
0.1249999999999993
 40
0.1249999999999993
 40
0.1562499999999991
 40
0.1562499999999991
 40
0.1874999999999989
 40
0.1874999999999989
 40
0.2187499999999987
 40
0.2187499999999987
 40
0.2499999999999985
 40
0.2499999999999985
 40
0.2812499999999983
 40
0.2812499999999983
 40
0.3124999999999981
 40
0.3124999999999981
 40
0.3437499999999979
 40
0.3437499999999979
 40
0.3749999999999978
 40
0.3749999999999978
 40
0.4062499999999976
 40
0.4062499999999976
 40
0.4218749999999976
 40
0.4218749999999976
 40
0.4374999999999976
 40
0.4374999999999976
 40
0.4687499999999976
 40
0.4687499999999976
 40
0.4843749999999977
 40
0.4843749999999977
 40
0.4999999999999977
 40
0.5156249999999977
 40
0.5156249999999977
 40
0.5312499999999977
 40
0.5312499999999977
 40
0.5624999999999977
 40
0.5624999999999977
 40
0.5937499999999976
 40
0.5937499999999976
 40
0.6249999999999974
 40
0.6249999999999974
 40
0.6562499999999974
 40
0.6562499999999974
 40
0.6874999999999973
 40
0.6874999999999973
 40
0.7499999999999976
 40
0.7499999999999976
 40
0.781249999999998
 40
0.781249999999998
 40
0.8124999999999983
 40
0.8124999999999983
 40
0.8281249999999982
 40
0.8281249999999982
 40
0.8437499999999981
 40
0.8437499999999981
 40
0.8749999999999986
 40
0.8749999999999986
 40
0.9062499999999989
 40
0.9062499999999989
 40
0.9374999999999992
 40
0.9374999999999992
 40
0.9687499999999997
 40
0.9687499999999997
 40
1.0
 40
1.0
 40
1.0
 40
1.0
 10
188.4546739945421
 20
109.7158460587843
 30
0.0
 10
188.6251116099982
 20
110.0945948648169
 30
0.0
 10
188.8299455503524
 20
110.4522921019208
 30
0.0
 10
189.3039882832119
 20
111.1285946316061
 30
0.0
 10
189.574789374174
 20
111.448008789182
 30
0.0
 10
190.1640363046756
 20
112.0309115616672
 30
0.0
 10
190.4859741990088
 20
112.2978663394794
 30
0.0
 10
191.1601740433636
 20
112.7692349893542
 30
0.0
 10
191.5141485386187
 20
112.9757534327415
 30
0.0
 10
192.2546747446502
 20
113.3330447791985
 30
0.0
 10
192.6447109991555
 20
113.4846000869194
 30
0.0
 10
193.4357941091288
 20
113.7234590179617
 30
0.0
 10
193.8376523261894
 20
113.8118169747001
 30
0.0
 10
194.6537524532382
 20
113.9279360742242
 30
0.0
 10
195.0715538771956
 20
113.9555266846751
 30
0.0
 10
195.9003031297477
 20
113.9473560823114
 30
0.0
 10
196.3104685592708
 20
113.9122670042669
 30
0.0
 10
197.1225290351225
 20
113.7810419091318
 30
0.0
 10
197.5265212235855
 20
113.6842260746381
 30
0.0
 10
198.3164311750822
 20
113.4285043567318
 30
0.0
 10
198.6964432958365
 20
113.2718848886827
 30
0.0
 10
199.4270615801962
 20
112.9015762711648
 30
0.0
 10
199.7776841346015
 20
112.6879220048857
 30
0.0
 10
200.4473589272412
 20
112.1987217318354
 30
0.0
 10
200.75886130625
 20
111.9283387729671
 30
0.0
 10
201.3278824739678
 20
111.3416621297386
 30
0.0
 10
201.5866945055083
 20
111.0244952715291
 30
0.0
 10
201.9328308623057
 20
110.5093498283133
 30
0.0
 10
202.0412212632097
 20
110.3306187633934
 30
0.0
 10
202.2382856755088
 20
109.967859663622
 30
0.0
 10
202.3276752440592
 20
109.7828578380569
 30
0.0
 10
202.5683472221406
 20
109.2169213963743
 30
0.0
 10
202.6923933892276
 20
108.8251577381692
 30
0.0
 10
202.8192932355582
 20
108.2138756023205
 30
0.0
 10
202.8513816878417
 20
108.006719056067
 30
0.0
 10
202.8938281054215
 20
107.5948758599071
 30
0.0
 10
202.9151242876201
 20
107.1829707844271
 30
0.0
 10
202.8946083456119
 20
106.7709433290016
 30
0.0
 10
202.8529139537717
 20
106.3588539107819
 30
0.0
 10
202.8211963940863
 20
106.15157231212
 30
0.0
 10
202.6953628106929
 20
105.539855925898
 30
0.0
 10
202.5716539708467
 20
105.1463109250351
 30
0.0
 10
202.2492219674401
 20
104.3859682711624
 30
0.0
 10
202.0483654016499
 20
104.0171958486781
 30
0.0
 10
201.58881034649
 20
103.3328034951191
 30
0.0
 10
201.3290994307819
 20
103.0136237827274
 30
0.0
 10
200.7519360939689
 20
102.4192407833009
 30
0.0
 10
200.4374881549494
 20
102.147839921036
 30
0.0
 10
199.7731608170596
 20
101.6637620123188
 30
0.0
 10
199.4213805405644
 20
101.4491390280962
 30
0.0
 10
198.3071348005324
 20
100.8867663677617
 30
0.0
 10
197.5224882473291
 20
100.6361893030655
 30
0.0
 10
196.28776283011
 20
100.4393526124184
 30
0.0
 10
195.8742804057328
 20
100.4056169156607
 30
0.0
 10
195.0504465388568
 20
100.3998504812717
 30
0.0
 10
194.6389667000653
 20
100.4276428407205
 30
0.0
 10
194.0224213907052
 20
100.5167458759942
 30
0.0
 10
193.8165738854433
 20
100.5545574483522
 30
0.0
 10
193.4121398955859
 20
100.6449623101384
 30
0.0
 10
193.2127114384049
 20
100.697638371836
 30
0.0
 10
192.6226674504505
 20
100.8778215346322
 30
0.0
 10
192.2402344177776
 20
101.0273187916219
 30
0.0
 10
191.4979343015873
 20
101.3874619243924
 30
0.0
 10
191.1370523185827
 20
101.5995925249404
 30
0.0
 10
190.4657596840785
 20
102.0724662580488
 30
0.0
 10
190.1517658277563
 20
102.3345886285321
 30
0.0
 10
189.5690416834513
 20
102.9130943761722
 30
0.0
 10
189.2981236540266
 20
103.2332895018042
 30
0.0
 10
188.8264769239213
 20
103.907903775312
 30
0.0
 10
188.6234180838626
 20
104.2635422288148
 30
0.0
 10
188.4546739945421
 20
104.6385276578482
 30
0.0
  0
LINE
  5
A2
330
1F
100
AcDbEntity
  8
0
  6
Continuous
 62
     7
370
    15
100
AcDbLine
 10
187.4546741436
 20
76.177187365
 30
0.0
 11
187.4546741436
 21
138.1771863517
 31
0.0
  0
LINE
  5
A3
330
1F
100
AcDbEntity
  8
0
  6
Continuous
 62
     7
370
    15
100
AcDbLine
 10
211.4546743522
 20
107.1771868583
 30
0.0
 11
211.4546743522
 21
75.7771880444
 31
0.0
  0
LINE
  5
A4
330
1F
100
AcDbEntity
  8
0
  6
Continuous
 62
     7
370
    15
100
AcDbLine
 10
211.4546743522
 20
138.5771856722
 30
0.0
 11
211.4546743522
 21
107.1771868583
 31
0.0
  0
LINE
  5
A5
330
1F
100
AcDbEntity
  8
0
  6
Continuous
 62
     7
370
    15
100
AcDbLine
 10
210.8546753714
 20
107.1771868583
 30
0.0
 11
210.8546753714
 21
75.1771853384
 31
0.0
  0
LINE
  5
A6
330
1F
100
AcDbEntity
  8
0
  6
Continuous
 62
     7
370
    15
100
AcDbLine
 10
210.8546753714
 20
139.1771883782
 30
0.0
 11
210.8546753714
 21
107.1771868583
 31
0.0
  0
LINE
  5
A7
330
1F
100
AcDbEntity
  8
0
  6
Continuous
 62
     7
370
    15
100
AcDbLine
 10
167.0765110592
 20
97.4251666185
 30
0.0
 11
167.0765110592
 21
125.5271864202
 31
0.0
  0
LINE
  5
A8
330
1F
100
AcDbEntity
  8
0
  6
Continuous
 62
     7
370
    15
100
AcDbLine
 10
170.9046733866
 20
125.5271864202
 30
0.0
 11
167.0765110592
 21
125.5271864202
 31
0.0
  0
LINE
  5
A9
330
1F
100
AcDbEntity
  8
0
  6
Continuous
 62
     7
370
    15
100
AcDbLine
 10
167.0765110592
 20
76.7290947106
 30
0.0
 11
170.9046733866
 21
76.7290947106
 31
0.0
  0
LINE
  5
AA
330
1F
100
AcDbEntity
  8
0
  6
Continuous
 62
     7
370
    15
100
AcDbLine
 10
167.0765110592
 20
76.7290947106
 30
0.0
 11
167.0765110592
 21
95.2256872397
 31
0.0
  0
SPLINE
  5
AB
330
1F
100
AcDbEntity
  8
0
  6
Continuous
 62
     7
370
    15
100
AcDbSpline
210
0.0
220
0.0
230
1.0
 70
     8
 71
     3
 72
    12
 73
     8
 74
     0
 42
0.000000001
 43
0.00000001
 40
0.0
 40
0.0
 40
0.0
 40
0.0
 40
0.2499999999999997
 40
0.2499999999999997
 40
0.4999999999999993
 40
0.4999999999999993
 40
1.0
 40
1.0
 40
1.0
 40
1.0
 10
167.0765106365988
 20
95.22568706010918
 30
0.0
 10
167.1994581303944
 20
95.38364390880427
 30
0.0
 10
167.2930023335032
 20
95.5554772757818
 30
0.0
 10
167.4219417226655
 20
95.92714998542765
 30
0.0
 10
167.4544944800506
 20
96.12033843161888
 30
0.0
 10
167.4550308217844
 20
96.70863496989513
 30
0.0
 10
167.3224071648164
 20
97.10065320778385
 30
0.0
 10
167.0765106365988
 20
97.42516679049254
 30
0.0
  0
SPLINE
  5
AC
330
1F
100
AcDbEntity
  8
0
  6
Continuous
 62
     7
370
    15
100
AcDbSpline
210
0.0
220
0.0
230
1.0
 70
     8
 71
     3
 72
    12
 73
     8
 74
     0
 42
0.000000001
 43
0.00000001
 40
0.0
 40
0.0
 40
0.0
 40
0.0
 40
0.2500000000000008
 40
0.2500000000000008
 40
0.5000000000000017
 40
0.5000000000000017
 40
1.0
 40
1.0
 40
1.0
 40
1.0
 10
170.9046739945421
 20
76.72909450967956
 30
0.0
 10
171.0002159046781
 20
76.72909450967956
 30
0.0
 10
171.0923608465409
 20
76.74534817887576
 30
0.0
 10
171.2486871231508
 20
76.79895659978925
 30
0.0
 10
171.3123552657708
 20
76.83536772507092
 30
0.0
 10
171.4612231112011
 20
76.9574913647574
 30
0.0
 10
171.5046739945421
 20
77.05264404019445
 30
0.0
 10
171.5046739945421
 20
77.14827049581413
 30
0.0
  0
SPLINE
  5
AD
330
1F
100
AcDbEntity
  8
0
  6
Continuous
 62
     7
370
    15
100
AcDbSpline
210
0.0
220
0.0
230
1.0
 70
    24
 71
     3
 72
    12
 73
     8
 74
     0
 42
0.000000001
 43
0.00000001
 40
0.0
 40
0.0
 40
0.0
 40
0.0
 40
0.4999999999999931
 40
0.4999999999999931
 40
0.7499999999999966
 40
0.7499999999999966
 40
1.0
 40
1.0
 40
1.0
 40
1.0
 10
171.5046739945421
 20
125.5271868583162
 30
0.0
 10
171.5046739945421
 20
125.5271868583162
 30
0.0
 10
171.4549939995871
 20
125.5271868583162
 30
0.0
 10
171.2990754425695
 20
125.5271868583162
 30
0.0
 10
171.2331943779934
 20
125.5271868583162
 30
0.0
 10
171.0805487225047
 20
125.5271868583162
 30
0.0
 10
170.9932988146437
 20
125.5271868583162
 30
0.0
 10
170.904673994542
 20
125.5271868583162
 30
0.0
  0
LINE
  5
AE
330
1F
100
AcDbEntity
  8
0
  6
Continuous
 62
     7
370
    15
100
AcDbLine
 10
171.50467423
 20
77.1482699629
 30
0.0
 11
171.50467423
 21
125.5271864202
 31
0.0
  0
SPLINE
  5
AF
330
1F
100
AcDbEntity
  8
0
  6
Continuous
 62
     7
370
    15
100
AcDbSpline
210
0.0
220
0.0
230
1.0
 70
     8
 71
     3
 72
     8
 73
     4
 74
     0
 42
0.000000001
 43
0.00000001
 40
0.0
 40
0.0
 40
0.0
 40
0.0
 40
1.0
 40
1.0
 40
1.0
 40
1.0
 10
161.6446739945421
 20
79.36036039881478
 30
0.0
 10
161.2605392459578
 20
78.66771897687059
 30
0.0
 10
160.8755529694648
 20
77.97553280254688
 30
0.0
 10
160.4898843908385
 20
77.28373851170268
 30
0.0
  0
SPLINE
  5
B0
330
1F
100
AcDbEntity
  8
0
  6
Continuous
 62
     7
370
    15
100
AcDbSpline
210
0.0
220
0.0
230
1.0
 70
     8
 71
     3
 72
     8
 73
     4
 74
     0
 42
0.000000001
 43
0.00000001
 40
0.0
 40
0.0
 40
0.0
 40
0.0
 40
0.0011901715795577
 40
0.0011901715795577
 40
0.0011901715795577
 40
0.0011901715795577
 10
160.0328373524854
 20
76.72909450967956
 30
0.0
 10
160.1866835419813
 20
76.91365974736314
 30
0.0
 10
160.339078809654
 20
77.09853510789176
 30
0.0
 10
160.4898843908385
 20
77.28373851170268
 30
0.0
  0
LINE
  5
B1
330
1F
100
AcDbEntity
  8
0
  6
Continuous
 62
     7
370
    15
100
AcDbLine
 10
160.0328374023
 20
76.7290947106
 30
0.0
 11
160.0328374023
 21
125.5271864202
 31
0.0
  0
SPLINE
  5
B2
330
1F
100
AcDbEntity
  8
0
  6
Continuous
 62
     7
370
    15
100
AcDbSpline
210
0.0
220
0.0
230
1.0
 70
    24
 71
     3
 72
     8
 73
     4
 74
     0
 42
0.000000001
 43
0.00000001
 40
0.0
 40
0.0
 40
0.0
 40
0.0
 40
1.0
 40
1.0
 40
1.0
 40
1.0
 10
161.6446739945421
 20
125.5271868583162
 30
0.0
 10
161.1199415061802
 20
125.5271868583162
 30
0.0
 10
160.5812660219614
 20
125.5271868583162
 30
0.0
 10
160.0328373524854
 20
125.5271868583162
 30
0.0
  0
LINE
  5
B3
330
1F
100
AcDbEntity
  8
0
  6
Continuous
 62
     7
370
    15
100
AcDbLine
 10
161.6446736569
 20
79.3603603807
 30
0.0
 11
161.6446736569
 21
125.5271864202
 31
0.0
  0
LINE
  5
B4
330
1F
100
AcDbEntity
  8
0
  6
Continuous
 62
     7
370
    15
100
AcDbLine
 10
156.2546740586
 20
76.7290947106
 30
0.0
 11
160.0328374023
 21
76.7290947106
 31
0.0
  0
LINE
  5
B5
330
1F
100
AcDbEntity
  8
0
  6
Continuous
 62
     7
370
    15
100
AcDbLine
 10
160.0328374023
 20
125.5271864202
 30
0.0
 11
156.2546740586
 21
125.5271864202
 31
0.0
  0
SPLINE
  5
B6
330
1F
100
AcDbEntity
  8
0
  6
Continuous
 62
     7
370
    15
100
AcDbSpline
210
0.0
220
0.0
230
1.0
 70
     8
 71
     3
 72
    10
 73
     6
 74
     0
 42
0.000000001
 43
0.00000001
 40
0.0
 40
0.0
 40
0.0
 40
0.0
 40
0.5
 40
0.5
 40
1.0
 40
1.0
 40
1.0
 40
1.0
 10
155.8708185358893
 20
76.82545700884802
 30
0.0
 10
155.9195885088706
 20
76.79722900164
 30
0.0
 10
155.977040632173
 20
76.77313439739841
 30
0.0
 10
156.1076375351617
 20
76.73887092430586
 30
0.0
 10
156.1801272150039
 20
76.72909450967954
 30
0.0
 10
156.2546739945421
 20
76.72909450967954
 30
0.0
  0
SPLINE
  5
B7
330
1F
100
AcDbEntity
  8
0
  6
Continuous
 62
     7
370
    15
100
AcDbSpline
210
0.0
220
0.0
230
1.0
 70
     8
 71
     3
 72
    10
 73
     6
 74
     0
 42
0.000000001
 43
0.00000001
 40
0.0
 40
0.0
 40
0.0
 40
0.0
 40
0.5
 40
0.5
 40
1.0
 40
1.0
 40
1.0
 40
1.0
 10
155.8708185358893
 20
76.82545700884802
 30
0.0
 10
155.8126958758132
 20
76.89276216870982
 30
0.0
 10
155.7602927098097
 20
76.97284755574346
 30
0.0
 10
155.6813896882634
 20
77.15686699743223
 30
0.0
 10
155.6546739945421
 20
77.26207835485269
 30
0.0
 10
155.6546739945421
 20
77.37081170131333
 30
0.0
  0
LINE
  5
B8
330
1F
100
AcDbEntity
  8
0
  6
Continuous
 62
     7
370
    15
100
AcDbLine
 10
155.6546739137
 20
77.3708113548
 30
0.0
 11
155.6546739137
 21
125.5271864202
 31
0.0
  0
SPLINE
  5
B9
330
1F
100
AcDbEntity
  8
0
  6
Continuous
 62
     7
370
    15
100
AcDbSpline
210
0.0
220
0.0
230
1.0
 70
    24
 71
     3
 72
    12
 73
     8
 74
     0
 42
0.000000001
 43
0.00000001
 40
0.0
 40
0.0
 40
0.0
 40
0.0
 40
0.2499999999999998
 40
0.2499999999999998
 40
0.4999999999999997
 40
0.4999999999999997
 40
1.0
 40
1.0
 40
1.0
 40
1.0
 10
156.2546739945421
 20
125.5271868583162
 30
0.0
 10
156.1662586172316
 20
125.5271868583162
 30
0.0
 10
156.078988180061
 20
125.5271868583162
 30
0.0
 10
155.9265244552892
 20
125.5271868583162
 30
0.0
 10
155.8608858430668
 20
125.5271868583162
 30
0.0
 10
155.7042274417828
 20
125.5271868583162
 30
0.0
 10
155.6546739945421
 20
125.5271868583162
 30
0.0
 10
155.6546739945421
 20
125.5271868583162
 30
0.0
  0
LINE
  5
BA
330
1F
100
AcDbEntity
  8
0
  6
Continuous
 62
     7
370
    15
100
AcDbLine
 10
165.4646738732
 20
99.1759040472
 30
0.0
 11
165.4646738732
 21
125.5271864202
 31
0.0
  0
SPLINE
  5
BB
330
1F
100
AcDbEntity
  8
0
  6
Continuous
 62
     7
370
    15
100
AcDbSpline
210
0.0
220
0.0
230
1.0
 70
    24
 71
     3
 72
     8
 73
     4
 74
     0
 42
0.000000001
 43
0.00000001
 40
0.0
 40
0.0
 40
0.0
 40
0.0
 40
1.0
 40
1.0
 40
1.0
 40
1.0
 10
167.0765106365988
 20
125.5271868583162
 30
0.0
 10
166.5280819671228
 20
125.5271868583162
 30
0.0
 10
165.989406482904
 20
125.5271868583162
 30
0.0
 10
165.4646739945421
 20
125.5271868583162
 30
0.0
  0
SPLINE
  5
BC
330
1F
100
AcDbEntity
  8
0
  6
Continuous
 62
     7
370
    15
100
AcDbSpline
210
0.0
220
0.0
230
1.0
 70
     8
 71
     3
 72
    12
 73
     8
 74
     0
 42
0.000000001
 43
0.00000001
 40
0.0
 40
0.0
 40
0.0
 40
0.0
 40
0.2499999999999994
 40
0.2499999999999994
 40
0.4999999999999989
 40
0.4999999999999989
 40
1.0
 40
1.0
 40
1.0
 40
1.0
 10
167.0765106365988
 20
97.42516679049254
 30
0.0
 10
166.9616145853382
 20
97.64490722554909
 30
0.0
 10
166.8348485688655
 20
97.84187557717084
 30
0.0
 10
166.574633635247
 20
98.19559315000974
 30
0.0
 10
166.4411261772847
 20
98.35241844388197
 30
0.0
 10
166.0327279086965
 20
98.77896101478967
 30
0.0
 10
165.749074773759
 20
99.00565319374488
 30
0.0
 10
165.4646739945422
 20
99.17590433814036
 30
0.0
  0
SPLINE
  5
BD
330
1F
100
AcDbEntity
  8
0
  6
Continuous
 62
     7
370
    15
100
AcDbSpline
210
0.0
220
0.0
230
1.0
 70
     8
 71
     3
 72
    14
 73
    10
 74
     0
 42
0.000000001
 43
0.00000001
 40
0.0
 40
0.0
 40
0.0
 40
0.0
 40
0.2499999999999995
 40
0.2499999999999995
 40
0.4999999999999997
 40
0.4999999999999997
 40
0.7499999999999998
 40
0.7499999999999998
 40
1.0
 40
1.0
 40
1.0
 40
1.0
 10
165.4646739945421
 20
99.23014798798657
 30
0.0
 10
165.4646739945421
 20
99.26679885615039
 30
0.0
 10
165.4433462058303
 20
99.30326565339931
 30
0.0
 10
165.3608878031737
 20
99.36840450794018
 30
0.0
 10
165.2997716113185
 20
99.39647563853109
 30
0.0
 10
165.1484685182564
 20
99.43030352025797
 30
0.0
 10
165.0570904948658
 20
99.43576666165447
 30
0.0
 10
164.8647167818129
 20
99.41484074364188
 30
0.0
 10
164.7625364423339
 20
99.38830531826657
 30
0.0
 10
164.6646739945421
 20
99.3478191449853
 30
0.0
  0
SPLINE
  5
BE
330
1F
100
AcDbEntity
  8
0
  6
Continuous
 62
     7
370
    15
100
AcDbSpline
210
0.0
220
0.0
230
1.0
 70
     8
 71
     3
 72
    12
 73
     8
 74
     0
 42
0.000000001
 43
0.00000001
 40
0.0
 40
0.0
 40
0.0
 40
0.0
 40
0.499999999999999
 40
0.499999999999999
 40
0.7499999999999994
 40
0.7499999999999994
 40
1.0
 40
1.0
 40
1.0
 40
1.0
 10
165.4646739945421
 20
95.4171808399193
 30
0.0
 10
165.7488805291074
 20
95.24971667762556
 30
0.0
 10
166.0275762632112
 20
95.13807957811395
 30
0.0
 10
166.4369223064004
 20
95.07076631247459
 30
0.0
 10
166.57306164372
 20
95.06561527246063
 30
0.0
 10
166.834381692716
 20
95.10338121008
 30
0.0
 10
166.9598028751478
 20
95.14493096842428
 30
0.0
 10
167.0765106365992
 20
95.22568706010709
 30
0.0
  0
LINE
  5
BF
330
1F
100
AcDbEntity
  8
0
  6
Continuous
 62
     7
370
    15
100
AcDbLine
 10
165.4646738732
 20
95.4714241516
 30
0.0
 11
165.4646738732
 21
95.4171811309
 31
0.0
  0
SPLINE
  5
C0
330
1F
100
AcDbEntity
  8
0
  6
Continuous
 62
     7
370
    15
100
AcDbSpline
210
0.0
220
0.0
230
1.0
 70
     8
 71
     3
 72
    14
 73
    10
 74
     0
 42
0.000000001
 43
0.00000001
 40
0.0
 40
0.0
 40
0.0
 40
0.0
 40
0.25
 40
0.25
 40
0.5
 40
0.5
 40
0.75
 40
0.75
 40
1.0
 40
1.0
 40
1.0
 40
1.0
 10
164.6646739945385
 20
95.89470766820945
 30
0.0
 10
164.7620834145224
 20
95.85629294881527
 30
0.0
 10
164.864407657536
 20
95.81859254403253
 30
0.0
 10
165.0564093430735
 20
95.74754775843839
 30
0.0
 10
165.1478439727279
 20
95.71334629708034
 30
0.0
 10
165.2996228400229
 20
95.64634987167494
 30
0.0
 10
165.3605997299375
 20
95.61320840336546
 30
0.0
 10
165.4436176685018
 20
95.54353083571537
 30
0.0
 10
165.4646739945421
 20
95.50779712454816
 30
0.0
 10
165.4646739945421
 20
95.47142448976739
 30
0.0
  0
SPLINE
  5
C1
330
1F
100
AcDbEntity
  8
0
  6
Continuous
 62
     7
370
    15
100
AcDbSpline
210
0.0
220
0.0
230
1.0
 70
     8
 71
     3
 72
    22
 73
    18
 74
     0
 42
0.000000001
 43
0.00000001
 40
0.0
 40
0.0
 40
0.0
 40
0.0
 40
0.125
 40
0.125
 40
0.25
 40
0.25
 40
0.375
 40
0.375
 40
0.5
 40
0.5
 40
0.625
 40
0.625
 40
0.75
 40
0.75
 40
0.875
 40
0.875
 40
1.0
 40
1.0
 40
1.0
 40
1.0
 10
164.6646739945421
 20
99.34781914498531
 30
0.0
 10
164.4846572999728
 20
99.27334535800877
 30
0.0
 10
164.3202254781026
 20
99.1758960960248
 30
0.0
 10
164.0218292443441
 20
98.93652666246065
 30
0.0
 10
163.8915255169793
 20
98.79663005039028
 30
0.0
 10
163.6783067333602
 20
98.48837846033028
 30
0.0
 10
163.5946788762488
 20
98.31821524221115
 30
0.0
 10
163.4835479993305
 20
97.96772050742088
 30
0.0
 10
163.4547120044767
 20
97.78259554626966
 30
0.0
 10
163.4546360618168
 20
97.41938867165258
 30
0.0
 10
163.4832946872439
 20
97.23601865794512
 30
0.0
 10
163.5944457803562
 20
96.8901275454519
 30
0.0
 10
163.677512901
 20
96.72460801818445
 30
0.0
 10
163.8911988591183
 20
96.42406828078063
 30
0.0
 10
164.0202058490424
 20
96.2901963594966
 30
0.0
 10
164.3198151285315
 20
96.05894959009228
 30
0.0
 10
164.4846578267927
 20
95.96569947343232
 30
0.0
 10
164.6646739945421
 20
95.89470766820806
 30
0.0
  0
SPLINE
  5
C2
330
1F
100
AcDbEntity
  8
0
  6
Continuous
 62
     7
370
    15
100
AcDbSpline
210
0.0
220
0.0
230
1.0
 70
     8
 71
     3
 72
     8
 73
     4
 74
     0
 42
0.000000001
 43
0.00000001
 40
0.0
 40
0.0
 40
0.0
 40
0.0
 40
0.0011901715795577
 40
0.0011901715795577
 40
0.0011901715795577
 40
0.0011901715795577
 10
166.6194635982457
 20
77.2837385117027
 30
0.0
 10
166.7702691794303
 20
77.09853510789176
 30
0.0
 10
166.9226644471029
 20
76.91365974736314
 30
0.0
 10
167.0765106365988
 20
76.72909450967956
 30
0.0
  0
SPLINE
  5
C3
330
1F
100
AcDbEntity
  8
0
  6
Continuous
 62
     7
370
    15
100
AcDbSpline
210
0.0
220
0.0
230
1.0
 70
     8
 71
     3
 72
     8
 73
     4
 74
     0
 42
0.000000001
 43
0.00000001
 40
0.0
 40
0.0
 40
0.0
 40
0.0
 40
1.0
 40
1.0
 40
1.0
 40
1.0
 10
166.6194635982457
 20
77.2837385117027
 30
0.0
 10
166.2337950196194
 20
77.97553280254688
 30
0.0
 10
165.8488087431265
 20
78.66771897687059
 30
0.0
 10
165.4646739945421
 20
79.36036039881476
 30
0.0
  0
LINE
  5
C4
330
1F
100
AcDbEntity
  8
0
  6
Continuous
 62
     7
370
    15
100
AcDbLine
 10
165.4646738732
 20
79.3603603807
 30
0.0
 11
165.4646738732
 21
95.4171811309
 31
0.0
  0
SPLINE
  5
C5
330
1F
100
AcDbEntity
  8
0
  6
Continuous
 62
     7
370
    15
100
AcDbSpline
210
0.0
220
0.0
230
1.0
 70
     8
 71
     3
 72
    12
 73
     8
 74
     0
 42
0.000000001
 43
0.00000001
 40
0.0
 40
0.0
 40
0.0
 40
0.0
 40
0.2500000000000015
 40
0.2500000000000015
 40
0.500000000000003
 40
0.500000000000003
 40
1.0
 40
1.0
 40
1.0
 40
1.0
 10
162.4446739945421
 20
80.3593290020295
 30
0.0
 10
162.3382721441846
 20
80.35932900202951
 30
0.0
 10
162.2309567327881
 20
80.33655823801101
 30
0.0
 10
162.0354851417609
 20
80.2503152913589
 30
0.0
 10
161.9453030258233
 20
80.18563897088836
 30
0.0
 10
161.7270815391025
 20
79.95270964683155
 30
0.0
 10
161.6446739945417
 20
79.73812440894054
 30
0.0
 10
161.6446739945421
 20
79.52510737050781
 30
0.0
  0
SPLINE
  5
C6
330
1F
100
AcDbEntity
  8
0
  6
Continuous
 62
     7
370
    15
100
AcDbSpline
210
0.0
220
0.0
230
1.0
 70
    24
 71
     3
 72
    14
 73
    10
 74
     0
 42
0.000000001
 43
0.00000001
 40
0.0
 40
0.0
 40
0.0
 40
0.0
 40
0.1250000000000018
 40
0.1250000000000018
 40
0.2500000000000037
 40
0.2500000000000037
 40
0.5000000000000004
 40
0.5000000000000004
 40
1.0
 40
1.0
 40
1.0
 40
1.0
 10
162.4446739945421
 20
125.5271868583162
 30
0.0
 10
162.3840566711245
 20
125.5271868583162
 30
0.0
 10
162.3219315229895
 20
125.5271868583162
 30
0.0
 10
162.2057138599681
 20
125.5271868583162
 30
0.0
 10
162.1510972202757
 20
125.5271868583162
 30
0.0
 10
161.9964208817675
 20
125.5271868583162
 30
0.0
 10
161.9103041329834
 20
125.5271868583162
 30
0.0
 10
161.7089965524428
 20
125.5271868583162
 30
0.0
 10
161.6446739945421
 20
125.5271868583162
 30
0.0
 10
161.6446739945421
 20
125.5271868583162
 30
0.0
  0
SPLINE
  5
C7
330
1F
100
AcDbEntity
  8
0
  6
Continuous
 62
     7
370
    15
100
AcDbSpline
210
0.0
220
0.0
230
1.0
 70
    24
 71
     3
 72
    14
 73
    10
 74
     0
 42
0.000000001
 43
0.00000001
 40
0.0
 40
0.0
 40
0.0
 40
0.0
 40
0.25
 40
0.25
 40
0.5
 40
0.5
 40
0.75
 40
0.75
 40
1.0
 40
1.0
 40
1.0
 40
1.0
 10
165.4646739945421
 20
125.5271868583162
 30
0.0
 10
165.4646739945421
 20
125.5271868583162
 30
0.0
 10
165.4485923930823
 20
125.5271868583162
 30
0.0
 10
165.3831008798154
 20
125.5271868583162
 30
0.0
 10
165.3337929066881
 20
125.5271868583162
 30
0.0
 10
165.1992233849911
 20
125.5271868583162
 30
0.0
 10
165.1137003089058
 20
125.5271868583162
 30
0.0
 10
164.9067048133508
 20
125.5271868583162
 30
0.0
 10
164.7860111794072
 20
125.5271868583162
 30
0.0
 10
164.6646739945421
 20
125.5271868583162
 30
0.0
  0
LINE
  5
C8
330
1F
100
AcDbEntity
  8
0
  6
Continuous
 62
     7
370
    15
100
AcDbLine
 10
164.6646743009
 20
80.3593286392
 30
0.0
 11
162.4446741605
 21
80.3593286392
 31
0.0
  0
LINE
  5
C9
330
1F
100
AcDbEntity
  8
0
  6
Continuous
 62
     7
370
    15
100
AcDbLine
 10
164.6646743009
 20
125.5271864202
 30
0.0
 11
162.4446741605
 21
125.5271864202
 31
0.0
  0
SPLINE
  5
CA
330
1F
100
AcDbEntity
  8
0
  6
Continuous
 62
     7
370
    15
100
AcDbSpline
210
0.0
220
0.0
230
1.0
 70
     8
 71
     3
 72
    12
 73
     8
 74
     0
 42
0.000000001
 43
0.00000001
 40
0.0
 40
0.0
 40
0.0
 40
0.0
 40
0.5
 40
0.5
 40
0.75
 40
0.75
 40
1.0
 40
1.0
 40
1.0
 40
1.0
 10
165.4646739945421
 20
79.52510737050918
 30
0.0
 10
165.4646739945421
 20
79.73792992944206
 30
0.0
 10
165.3827486367224
 20
79.95218643608003
 30
0.0
 10
165.163826833254
 20
80.18587606452991
 30
0.0
 10
165.0737795417629
 20
80.25036088937388
 30
0.0
 10
164.8783660737431
 20
80.33656050052947
 30
0.0
 10
164.7710831067593
 20
80.3593290020295
 30
0.0
 10
164.6646739945421
 20
80.3593290020295
 30
0.0
  0
SPLINE
  5
CB
330
1F
100
AcDbEntity
  8
0
  6
Continuous
 62
     7
370
    15
100
AcDbSpline
210
0.0
220
0.0
230
1.0
 70
    24
 71
     3
 72
    18
 73
    14
 74
     0
 42
0.000000001
 43
0.00000001
 40
0.0
 40
0.0
 40
0.0
 40
0.0
 40
0.0312500000000002
 40
0.0312500000000002
 40
0.0625000000000005
 40
0.0625000000000005
 40
0.1250000000000013
 40
0.1250000000000013
 40
0.2500000000000016
 40
0.2500000000000016
 40
0.500000000000001
 40
0.500000000000001
 40
1.0
 40
1.0
 40
1.0
 40
1.0
 10
172.5046739945421
 20
131.9771868583162
 30
0.0
 10
172.4678198887836
 20
131.9771868583162
 30
0.0
 10
172.4324174008235
 20
131.9771868583162
 30
0.0
 10
172.3744000071955
 20
131.9771868583162
 30
0.0
 10
172.3503260034071
 20
131.9771868583162
 30
0.0
 10
172.2853068782584
 20
131.9771868583162
 30
0.0
 10
172.2508823688462
 20
131.9771868583162
 30
0.0
 10
172.1583040718598
 20
131.9771868583162
 30
0.0
 10
172.1100943914791
 20
131.9771868583163
 30
0.0
 10
171.9777195677123
 20
131.9771868583162
 30
0.0
 10
171.9088219383819
 20
131.9771868583162
 30
0.0
 10
171.7255122615448
 20
131.9771868583162
 30
0.0
 10
171.6367534219235
 20
131.9771868583162
 30
0.0
 10
171.5776343849966
 20
131.9771868583162
 30
0.0
  0
SPLINE
  5
CC
330
1F
100
AcDbEntity
  8
0
  6
Continuous
 62
     7
370
    15
100
AcDbSpline
210
0.0
220
0.0
230
1.0
 70
     8
 71
     3
 72
    10
 73
     6
 74
     0
 42
0.000000001
 43
0.00000001
 40
0.0
 40
0.0
 40
0.0
 40
0.0
 40
0.5
 40
0.5
 40
1.0
 40
1.0
 40
1.0
 40
1.0
 10
172.5046739945421
 20
83.48757943227389
 30
0.0
 10
172.3272332426288
 20
83.49506966833911
 30
0.0
 10
172.1506140791163
 20
83.44928124378664
 30
0.0
 10
171.8471628548018
 20
83.2678109640128
 30
0.0
 10
171.7211398720813
 20
83.13232121117919
 30
0.0
 10
171.6366758151728
 20
82.97718685831643
 30
0.0
  0
SPLINE
  5
CD
330
1F
100
AcDbEntity
  8
0
  6
Continuous
 62
     7
370
    15
100
AcDbSpline
210
0.0
220
0.0
230
1.0
 70
     8
 71
     3
 72
     8
 73
     4
 74
     0
 42
0.000000001
 43
0.00000001
 40
0.0
 40
0.0
 40
0.0
 40
0.0
 40
1.0
 40
1.0
 40
1.0
 40
1.0
 10
171.5046739945421
 20
125.5966738218557
 30
0.0
 10
171.5046739945421
 20
125.5735349822688
 30
0.0
 10
171.5050768259607
 20
125.5503726926565
 30
0.0
 10
171.505884115351
 20
125.5271868583163
 30
0.0
  0
SPLINE
  5
CE
330
1F
100
AcDbEntity
  8
0
  6
Continuous
 62
     7
370
    15
100
AcDbSpline
210
0.0
220
0.0
230
1.0
 70
     8
 71
     3
 72
    14
 73
    10
 74
     0
 42
0.000000001
 43
0.00000001
 40
0.0
 40
0.0
 40
0.0
 40
0.0
 40
0.0632946074895864
 40
0.2483034408601601
 40
0.4246496233424851
 40
0.6058174355269424
 40
0.7878172561839285
 40
0.9747088455670364
 40
1.0
 40
1.0
 40
1.0
 40
1.0
 10
179.5306780675659
 20
82.18489969935017
 30
0.0
 10
179.5371223231274
 20
82.18282857322815
 30
0.0
 10
179.5624030048972
 20
82.17470358813145
 30
0.0
 10
179.3849705716554
 20
82.2318335331664
 30
0.0
 10
179.0056690796974
 20
82.34984092585901
 30
0.0
 10
178.4239636101544
 20
82.52090256628156
 30
0.0
 10
177.6545259502977
 20
82.72729371817306
 30
0.0
 10
176.9869633725222
 20
82.88505734297152
 30
0.0
 10
176.595402491414
 20
82.96737511060826
 30
0.0
 10
176.5487303326139
 20
82.97718698944645
 30
0.0
  0
SPLINE
  5
CF
330
1F
100
AcDbEntity
  8
0
  6
Continuous
 62
     7
370
    15
100
AcDbSpline
210
0.0
220
0.0
230
1.0
 70
     8
 71
     3
 72
    12
 73
     8
 74
     0
 42
0.000000001
 43
0.00000001
 40
0.0
 40
0.0
 40
0.0
 40
0.0
 40
0.4999999999999991
 40
0.4999999999999991
 40
0.7499999999999996
 40
0.7499999999999996
 40
1.0
 40
1.0
 40
1.0
 40
1.0
 10
176.5487299022418
 20
82.97718685831623
 30
0.0
 10
175.9718472496808
 20
83.09742769929555
 30
0.0
 10
175.3429663534669
 20
83.20904538279983
 30
0.0
 10
174.3186454582441
 20
83.34440712560404
 30
0.0
 10
173.9634175554795
 20
83.38402340373128
 30
0.0
 10
173.2442461961589
 20
83.44755730531259
 30
0.0
 10
172.8779478049844
 20
83.471822573001
 30
0.0
 10
172.5046739945421
 20
83.4875794322739
 30
0.0
  0
LINE
  5
D0
330
1F
100
AcDbEntity
  8
0
  6
Continuous
 62
     7
370
    15
100
AcDbLine
 10
178.9102458695
 20
131.9771875706
 30
0.0
 11
172.5046743939
 21
131.9771875706
 31
0.0
  0
SPLINE
  5
D1
330
1F
100
AcDbEntity
  8
0
  6
Continuous
 62
     7
370
    15
100
AcDbSpline
210
0.0
220
0.0
230
1.0
 70
     8
 71
     3
 72
    10
 73
     6
 74
     0
 42
0.000000001
 43
0.00000001
 40
0.0
 40
0.0
 40
0.0
 40
0.0
 40
0.2002212969593108
 40
0.6082979763038335
 40
1.0
 40
1.0
 40
1.0
 40
1.0
 10
179.5289122799644
 20
132.1689040478666
 30
0.0
 10
179.5334876352198
 20
132.1703894265535
 30
0.0
 10
179.5473881512235
 20
132.1749021974875
 30
0.0
 10
179.3538224699763
 20
132.11207562956
 30
0.0
 10
179.0560726950512
 20
132.0215323295834
 30
0.0
 10
178.9102458695183
 20
131.9771875705917
 30
0.0
  0
LINE
  5
D2
330
1F
100
AcDbEntity
  8
0
  6
Continuous
 62
     7
370
    15
100
AcDbLine
 10
152.4546739945
 20
84.9521868941
 30
0.0
 11
152.4546739945
 21
129.4021868226
 31
0.0
  0
SPLINE
  5
D3
330
1F
100
AcDbEntity
  8
0
  6
Continuous
 62
     7
370
    15
100
AcDbSpline
210
0.0
220
0.0
230
1.0
 70
     8
 71
     3
 72
    12
 73
     8
 74
     0
 42
0.000000001
 43
0.00000001
 40
0.0
 40
0.0
 40
0.0
 40
0.0
 40
0.5000000000000004
 40
0.5000000000000004
 40
0.7500000000000002
 40
0.7500000000000002
 40
1.0
 40
1.0
 40
1.0
 40
1.0
 10
171.5046739945421
 20
137.1877379917574
 30
0.0
 10
171.5046739945421
 20
137.3080650248106
 30
0.0
 10
171.4508791829491
 20
137.4261625982924
 30
0.0
 10
171.2899556129829
 20
137.5658053407313
 30
0.0
 10
171.2252041518803
 20
137.6040812941258
 30
0.0
 10
171.0729839685626
 20
137.6589211237603
 30
0.0
 10
170.9901764530377
 20
137.6735229375318
 30
0.0
 10
170.9046739945421
 20
137.6735229375318
 30
0.0
  0
LINE
  5
D4
330
1F
100
AcDbEntity
  8
0
  6
Continuous
 62
     7
370
    15
100
AcDbLine
 10
171.50467423
 20
132.3485990133
 30
0.0
 11
171.50467423
 21
137.1877380725
 31
0.0
  0
SPLINE
  5
D5
330
1F
100
AcDbEntity
  8
0
  6
Continuous
 62
     7
370
    15
100
AcDbSpline
210
0.0
220
0.0
230
1.0
 70
     8
 71
     3
 72
    14
 73
    10
 74
     0
 42
0.000000001
 43
0.00000001
 40
0.0
 40
0.0
 40
0.0
 40
0.0
 40
0.25
 40
0.25
 40
0.5
 40
0.5
 40
0.75
 40
0.75
 40
1.0
 40
1.0
 40
1.0
 40
1.0
 10
170.9046739945421
 20
133.0874164983638
 30
0.0
 10
170.9930965326646
 20
133.0874164983638
 30
0.0
 10
171.0811505223576
 20
133.0623441479044
 30
0.0
 10
171.232980286229
 20
132.9760020829331
 30
0.0
 10
171.2988232307928
 20
132.9144588284202
 30
0.0
 10
171.4026222913383
 20
132.7726310821693
 30
0.0
 10
171.441094400813
 20
132.6925824921992
 30
0.0
 10
171.4923170640876
 20
132.5235699955255
 30
0.0
 10
171.5046739945421
 20
132.4367906886559
 30
0.0
 10
171.5046739945421
 20
132.3485992143999
 30
0.0
  0
SPLINE
  5
D6
330
1F
100
AcDbEntity
  8
0
  6
Continuous
 62
     7
370
    15
100
AcDbSpline
210
0.0
220
0.0
230
1.0
 70
     8
 71
     3
 72
     8
 73
     4
 74
     0
 42
0.000000001
 43
0.00000001
 40
0.0
 40
0.0
 40
0.0
 40
0.0
 40
0.0012409313617635
 40
0.0012409313617635
 40
0.0012409313617635
 40
0.0012409313617635
 10
160.5907193082461
 20
136.8897250145807
 30
0.0
 10
160.4054954686901
 20
137.1512525580579
 30
0.0
 10
160.2195102807176
 20
137.4125110598332
 30
0.0
 10
160.0328373524854
 20
137.6735229375318
 30
0.0
  0
SPLINE
  5
D7
330
1F
100
AcDbEntity
  8
0
  6
Continuous
 62
     7
370
    15
100
AcDbSpline
210
0.0
220
0.0
230
1.0
 70
     8
 71
     3
 72
     8
 73
     4
 74
     0
 42
0.000000001
 43
0.00000001
 40
0.0
 40
0.0
 40
0.0
 40
0.0
 40
1.0
 40
1.0
 40
1.0
 40
1.0
 10
161.6446739945421
 20
134.9940133178177
 30
0.0
 10
161.2940217542145
 20
135.6262817268681
 30
0.0
 10
160.9426633311543
 20
136.2581636265669
 30
0.0
 10
160.5907193082461
 20
136.8897250145807
 30
0.0
  0
LINE
  5
D8
330
1F
100
AcDbEntity
  8
0
  6
Continuous
 62
     7
370
    15
100
AcDbLine
 10
161.6446736569
 20
129.5793262389
 30
0.0
 11
161.6446736569
 21
134.994013336
 31
0.0
  0
SPLINE
  5
D9
330
1F
100
AcDbEntity
  8
0
  6
Continuous
 62
     7
370
    15
100
AcDbSpline
210
0.0
220
0.0
230
1.0
 70
     8
 71
     3
 72
     8
 73
     4
 74
     0
 42
0.000000001
 43
0.00000001
 40
0.0
 40
0.0
 40
0.0
 40
0.0
 40
1.0
 40
1.0
 40
1.0
 40
1.0
 10
160.0328373524854
 20
133.0874164983638
 30
0.0
 10
160.5817821306823
 20
131.9223203860501
 30
0.0
 10
161.120392505199
 20
130.7531620692256
 30
0.0
 10
161.6446739945421
 20
129.5793259141747
 30
0.0
  0
LINE
  5
DA
330
1F
100
AcDbEntity
  8
0
  6
Continuous
 62
     7
370
    15
100
AcDbLine
 10
160.0328374023
 20
133.0874172118
 30
0.0
 11
160.0328374023
 21
137.673523378
 31
0.0
  0
SPLINE
  5
DB
330
1F
100
AcDbEntity
  8
0
  6
Continuous
 62
     7
370
    15
100
AcDbSpline
210
0.0
220
0.0
230
1.0
 70
     8
 71
     3
 72
    12
 73
     8
 74
     0
 42
0.000000001
 43
0.00000001
 40
0.0
 40
0.0
 40
0.0
 40
0.0
 40
0.5
 40
0.5
 40
0.75
 40
0.75
 40
1.0
 40
1.0
 40
1.0
 40
1.0
 10
165.4646739945421
 20
134.8292663461233
 30
0.0
 10
165.4646739945421
 20
134.6161289444718
 30
0.0
 10
165.3820315793942
 20
134.4011494197341
 30
0.0
 10
165.1634481685838
 20
134.1682303508483
 30
0.0
 10
165.0743582156031
 20
134.1043634410278
 30
0.0
 10
164.8789528977055
 20
134.0179772866461
 30
0.0
 10
164.7724288507622
 20
133.995044714603
 30
0.0
 10
164.6646739945421
 20
133.995044714603
 30
0.0
  0
SPLINE
  5
DC
330
1F
100
AcDbEntity
  8
0
  6
Continuous
 62
     7
370
    15
100
AcDbSpline
210
0.0
220
0.0
230
1.0
 70
     8
 71
     3
 72
    12
 73
     8
 74
     0
 42
0.000000001
 43
0.00000001
 40
0.0
 40
0.0
 40
0.0
 40
0.0
 40
0.2499999999999986
 40
0.2499999999999986
 40
0.4999999999999971
 40
0.4999999999999971
 40
1.0
 40
1.0
 40
1.0
 40
1.0
 10
164.6646739945421
 20
128.3261230017727
 30
0.0
 10
164.7867559920304
 20
128.3261230017727
 30
0.0
 10
164.9073465345161
 20
128.3648493579464
 30
0.0
 10
165.1128418182159
 20
128.4948129456927
 30
0.0
 10
165.1983583011684
 20
128.5840191822395
 30
0.0
 10
165.4017526527126
 20
128.8888957197851
 30
0.0
 10
165.4646739945421
 20
129.1316663338872
 30
0.0
 10
165.4646739945421
 20
129.3744276778415
 30
0.0
  0
LINE
  5
DD
330
1F
100
AcDbEntity
  8
0
  6
Continuous
 62
     7
370
    15
100
AcDbLine
 10
164.6646743009
 20
133.9950450775
 30
0.0
 11
162.4446741605
 21
133.9950450775
 31
0.0
  0
LINE
  5
DE
330
1F
100
AcDbEntity
  8
0
  6
Continuous
 62
     7
370
    15
100
AcDbLine
 10
162.4446741605
 20
128.3261236813
 30
0.0
 11
164.6646743009
 21
128.3261236813
 31
0.0
  0
SPLINE
  5
DF
330
1F
100
AcDbEntity
  8
0
  6
Continuous
 62
     7
370
    15
100
AcDbSpline
210
0.0
220
0.0
230
1.0
 70
     8
 71
     3
 72
    12
 73
     8
 74
     0
 42
0.000000001
 43
0.00000001
 40
0.0
 40
0.0
 40
0.0
 40
0.0
 40
0.5
 40
0.5
 40
0.75
 40
0.75
 40
1.0
 40
1.0
 40
1.0
 40
1.0
 10
155.6546739945421
 20
132.3485992143999
 30
0.0
 10
155.6546739945421
 20
132.5252156109216
 30
0.0
 10
155.7040146293639
 20
132.7002727822953
 30
0.0
 10
155.860230187652
 20
132.914222994788
 30
0.0
 10
155.9255327675527
 20
132.9755556376349
 30
0.0
 10
156.0793017855131
 20
133.0629437356062
 30
0.0
 10
156.1663148921236
 20
133.0874164983638
 30
0.0
 10
156.2546739945421
 20
133.0874164983638
 30
0.0
  0
LINE
  5
E0
330
1F
100
AcDbEntity
  8
0
  6
Continuous
 62
     7
370
    15
100
AcDbLine
 10
156.2546740586
 20
133.0874172118
 30
0.0
 11
160.0328374023
 21
133.0874172118
 31
0.0
  0
LINE
  5
E1
330
1F
100
AcDbEntity
  8
0
  6
Continuous
 62
     7
370
    15
100
AcDbLine
 10
161.6446736569
 20
129.5793262389
 30
0.0
 11
161.6446736569
 21
129.3744278219
 31
0.0
  0
SPLINE
  5
E2
330
1F
100
AcDbEntity
  8
0
  6
Continuous
 62
     7
370
    15
100
AcDbSpline
210
0.0
220
0.0
230
1.0
 70
     8
 71
     3
 72
    14
 73
    10
 74
     0
 42
0.000000001
 43
0.00000001
 40
0.0
 40
0.0
 40
0.0
 40
0.0
 40
0.25
 40
0.25
 40
0.5
 40
0.5
 40
0.75
 40
0.75
 40
1.0
 40
1.0
 40
1.0
 40
1.0
 10
161.6446739945421
 20
129.3744276778415
 30
0.0
 10
161.6446739945421
 20
129.25249234266
 30
0.0
 10
161.660718362082
 20
129.1329381021586
 30
0.0
 10
161.7264477042614
 20
128.8988221190153
 30
0.0
 10
161.7756550745097
 20
128.7868895788806
 30
0.0
 10
161.9106680554085
 20
128.5844897696437
 30
0.0
 10
161.9965881240149
 20
128.4946245760808
 30
0.0
 10
162.2031029260203
 20
128.3642900664705
 30
0.0
 10
162.3232416383914
 20
128.3261230017727
 30
0.0
 10
162.4446739945421
 20
128.3261230017727
 30
0.0
  0
SPLINE
  5
E3
330
1F
100
AcDbEntity
  8
0
  6
Continuous
 62
     7
370
    15
100
AcDbSpline
210
0.0
220
0.0
230
1.0
 70
     8
 71
     3
 72
     8
 73
     4
 74
     0
 42
0.000000001
 43
0.00000001
 40
0.0
 40
0.0
 40
0.0
 40
0.0
 40
1.0
 40
1.0
 40
1.0
 40
1.0
 10
165.4646739945421
 20
129.5793259141747
 30
0.0
 10
165.989465114038
 20
130.7543031018795
 30
0.0
 10
166.5279813652209
 20
131.9232022696176
 30
0.0
 10
167.0765106365988
 20
133.0874164983638
 30
0.0
  0
LINE
  5
E4
330
1F
100
AcDbEntity
  8
0
  6
Continuous
 62
     7
370
    15
100
AcDbLine
 10
167.0765110592
 20
133.0874172118
 30
0.0
 11
170.9046733866
 21
133.0874172118
 31
0.0
  0
LINE
  5
E5
330
1F
100
AcDbEntity
  8
0
  6
Continuous
 62
     7
370
    15
100
AcDbLine
 10
171.50467423
 20
132.3485990133
 30
0.0
 11
171.50467423
 21
125.5966742602
 31
0.0
  0
LINE
  5
E6
330
1F
100
AcDbEntity
  8
0
  6
Continuous
 62
     7
370
    15
100
AcDbLine
 10
165.4646738732
 20
129.3744278219
 30
0.0
 11
165.4646738732
 21
129.5793262389
 31
0.0
  0
LINE
  5
E7
330
1F
100
AcDbEntity
  8
0
  6
Continuous
 62
     7
370
    15
100
AcDbLine
 10
155.6546739137
 20
132.3485990133
 30
0.0
 11
155.6546739137
 21
125.5271864202
 31
0.0
  0
SPLINE
  5
E8
330
1F
100
AcDbEntity
  8
0
  6
Continuous
 62
     7
370
    15
100
AcDbSpline
210
0.0
220
0.0
230
1.0
 70
     8
 71
     3
 72
     8
 73
     4
 74
     0
 42
0.000000001
 43
0.00000001
 40
0.0
 40
0.0
 40
0.0
 40
0.0
 40
1.0
 40
1.0
 40
1.0
 40
1.0
 10
166.5186286808381
 20
136.8897250145807
 30
0.0
 10
166.1666846579299
 20
136.2581636265669
 30
0.0
 10
165.8153262348697
 20
135.6262817268681
 30
0.0
 10
165.4646739945421
 20
134.9940133178177
 30
0.0
  0
SPLINE
  5
E9
330
1F
100
AcDbEntity
  8
0
  6
Continuous
 62
     7
370
    15
100
AcDbSpline
210
0.0
220
0.0
230
1.0
 70
     8
 71
     3
 72
     8
 73
     4
 74
     0
 42
0.000000001
 43
0.00000001
 40
0.0
 40
0.0
 40
0.0
 40
0.0
 40
0.0012409313617635
 40
0.0012409313617635
 40
0.0012409313617635
 40
0.0012409313617635
 10
167.0765106365988
 20
137.6735229375318
 30
0.0
 10
166.8898377083666
 20
137.4125110598332
 30
0.0
 10
166.7038525203941
 20
137.1512525580579
 30
0.0
 10
166.5186286808381
 20
136.8897250145807
 30
0.0
  0
LINE
  5
EA
330
1F
100
AcDbEntity
  8
0
  6
Continuous
 62
     7
370
    15
100
AcDbLine
 10
167.0765110592
 20
133.0874172118
 30
0.0
 11
167.0765110592
 21
137.673523378
 31
0.0
  0
LINE
  5
EB
330
1F
100
AcDbEntity
  8
0
  6
Continuous
 62
     7
370
    15
100
AcDbLine
 10
165.4646738732
 20
129.5793262389
 30
0.0
 11
165.4646738732
 21
134.994013336
 31
0.0
  0
LINE
  5
EC
330
1F
100
AcDbEntity
  8
0
  6
Continuous
 62
     7
370
    15
100
AcDbLine
 10
170.9046733866
 20
137.673523378
 30
0.0
 11
167.0765110592
 21
137.673523378
 31
0.0
  0
LINE
  5
ED
330
1F
100
AcDbEntity
  8
0
  6
Continuous
 62
     7
370
    15
100
AcDbLine
 10
160.0328374023
 20
137.673523378
 30
0.0
 11
156.2546740586
 21
137.673523378
 31
0.0
  0
SPLINE
  5
EE
330
1F
100
AcDbEntity
  8
0
  6
Continuous
 62
     7
370
    15
100
AcDbSpline
210
0.0
220
0.0
230
1.0
 70
     8
 71
     3
 72
    10
 73
     6
 74
     0
 42
0.000000001
 43
0.00000001
 40
0.0
 40
0.0
 40
0.0
 40
0.0
 40
0.5
 40
0.5
 40
1.0
 40
1.0
 40
1.0
 40
1.0
 10
155.9419155958497
 20
137.6024834132732
 30
0.0
 10
155.8660760018462
 20
137.5324342269446
 30
0.0
 10
155.7987524841201
 20
137.4472154533709
 30
0.0
 10
155.6921088458151
 20
137.2369893267091
 30
0.0
 10
155.6546739945421
 20
137.1134801358418
 30
0.0
 10
155.6546739945421
 20
136.9835620153191
 30
0.0
  0
SPLINE
  5
EF
330
1F
100
AcDbEntity
  8
0
  6
Continuous
 62
     7
370
    15
100
AcDbSpline
210
0.0
220
0.0
230
1.0
 70
     8
 71
     3
 72
     8
 73
     4
 74
     0
 42
0.000000001
 43
0.00000001
 40
0.0
 40
0.0
 40
0.0
 40
0.0
 40
1.0
 40
1.0
 40
1.0
 40
1.0
 10
156.2546739945421
 20
137.6735229375318
 30
0.0
 10
156.1424957403624
 20
137.6735229375318
 30
0.0
 10
156.033826227634
 20
137.6478418722708
 30
0.0
 10
155.9419155958497
 20
137.6024834132732
 30
0.0
  0
LINE
  5
F0
330
1F
100
AcDbEntity
  8
0
  6
Continuous
 62
     7
370
    15
100
AcDbLine
 10
155.6546739137
 20
132.3485990133
 30
0.0
 11
155.6546739137
 21
136.9835623619
 31
0.0
  0
SPLINE
  5
F1
330
1F
100
AcDbEntity
  8
0
  6
Continuous
 62
     7
370
    15
100
AcDbSpline
210
0.0
220
0.0
230
1.0
 70
     8
 71
     3
 72
    14
 73
    10
 74
     0
 42
0.000000001
 43
0.00000001
 40
0.0
 40
0.0
 40
0.0
 40
0.0
 40
0.25
 40
0.25
 40
0.5
 40
0.5
 40
0.75
 40
0.75
 40
1.0
 40
1.0
 40
1.0
 40
1.0
 10
162.4446739945421
 20
133.995044714603
 30
0.0
 10
162.3373049500277
 20
133.995044714603
 30
0.0
 10
162.2304994582649
 20
134.0179697100079
 30
0.0
 10
162.0353580897481
 20
134.1041621438821
 30
0.0
 10
161.9461483721581
 20
134.1680061405461
 30
0.0
 10
161.8002215793418
 20
134.3234222484875
 30
0.0
 10
161.7422318355437
 20
134.4160768266952
 30
0.0
 10
161.6646379940212
 20
134.6153101667448
 30
0.0
 10
161.6446739945421
 20
134.7219152618
 30
0.0
 10
161.6446739945421
 20
134.8292663461233
 30
0.0
  0
LINE
  5
F2
330
1F
100
AcDbEntity
  8
0
  6
Continuous
 62
     7
370
    15
100
AcDbLine
 10
84.2046735177
 20
95.7700564605
 30
0.0
 11
84.2046735177
 21
118.5843172562
 31
0.0
  0
ARC
  5
F3
330
1F
100
AcDbEntity
  8
0
  6
Continuous
 62
     7
370
    15
100
AcDbCircle
 10
165.4670118604
 20
98.0204213098
 30
0.0
 40
2.015451189834121
100
AcDbArc
 50
183.1850437864
 51
333.5516226533
  0
ARC
  5
F4
330
1F
100
AcDbEntity
  8
0
  6
Continuous
 62
     7
370
    15
100
AcDbCircle
 10
165.4786773295
 20
97.9354075357
 30
0.0
 40
1.884878367853097
100
AcDbArc
 50
160.6900735687
 51
337.6763748752
  0
LWPOLYLINE
  5
F5
330
1F
100
AcDbEntity
  8
0
  6
Continuous
 62
     7
370
    15
100
AcDbPolyline
 90
       16
 70
   128
 43
0.0
 10
166.9388224671
 20
97.6698632431
 10
166.9154080862
 20
97.5538372141
 10
166.7255505288
 20
97.1255014729
 10
166.3979736457
 20
96.7783034858
 10
165.9681757281
 20
96.549866822
 10
165.482732218
 20
96.464946967
 10
164.9942479396
 20
96.5327453878
 10
164.5556583369
 20
96.7459148806
 10
164.2144906635
 20
97.0813567829
 10
164.0077156315
 20
97.5027187806
 10
163.9577417935
 20
97.9643418532
 10
164.0699838588
 20
98.4162000087
 10
164.3322778234
 20
98.8093289625
 10
164.716201585
 20
99.1011253637
 10
165.1801501701
 20
99.2599708107
 10
165.4525657485
 20
99.283776347
  0
CIRCLE
  5
F6
330
1F
100
AcDbEntity
  8
0
  6
HIDDEN
 62
     7
370
     0
100
AcDbCircle
 10
195.4046739945
 20
107.1771868583
 30
0.0
 40
4.080384757729357
  0
CIRCLE
  5
F7
330
1F
100
AcDbEntity
  8
0
  6
HIDDEN
 62
     7
370
     0
100
AcDbCircle
 10
195.4046739945
 20
107.1771868583
 30
0.0
 40
3.780384757729343
  0
SPLINE
  5
F8
330
1F
100
AcDbEntity
  8
0
  6
HIDDEN
 62
     7
370
     0
100
AcDbSpline
210
0.0
220
0.0
230
1.0
 70
     8
 71
     3
 72
    10
 73
     6
 74
     0
 42
0.000000001
 43
0.00000001
 40
0.0
 40
0.0
 40
0.0
 40
0.0
 40
0.5
 40
0.5
 40
1.0
 40
1.0
 40
1.0
 40
1.0
 10
163.4787832319017
 20
99.4306476888476
 30
0.0
 10
163.4631771809205
 20
99.32537548823903
 30
0.0
 10
163.4546727178919
 20
99.22143699044811
 30
0.0
 10
163.4546752714816
 20
99.02192371849199
 30
0.0
 10
163.4631728590821
 20
98.93071122382158
 30
0.0
 10
163.4787832319017
 20
98.84877929147841
 30
0.0
  0
LWPOLYLINE
  5
F9
330
1F
100
AcDbEntity
  8
0
  6
HIDDEN
 62
     7
370
     0
100
AcDbPolyline
 90
       22
 70
   128
 43
0.0
 10
163.4787830824
 20
98.8487788555
 10
163.645021368
 20
98.3395074573
 10
163.9566428328
 20
97.8945224624
 10
164.3886125947
 20
97.5495736193
 10
164.9062277118
 20
97.3323724311
 10
165.4679036999
 20
97.2603690889
 10
166.0285161177
 20
97.3393489685
 10
166.543028068
 20
97.5629651066
 10
166.970104661
 20
97.9132541534
 10
167.2754341105
 20
98.3620743346
 10
167.4344872425
 20
98.8733676341
 10
167.4344872425
 20
99.406059001
 10
167.2754341105
 20
99.9173527662
 10
166.970104661
 20
100.3661729474
 10
166.543028068
 20
100.7164619942
 10
166.0285161177
 20
100.9400785979
 10
165.4679036999
 20
101.0190575462
 10
164.9062277118
 20
100.9470546697
 10
164.3886125947
 20
100.7298534815
 10
163.9566428328
 20
100.3849046383
 10
163.645021368
 20
99.9399196435
 10
163.4787830824
 20
99.4306477797
  0
LWPOLYLINE
  5
FA
330
1F
100
AcDbEntity
  8
0
  6
HIDDEN
 62
     7
370
     0
100
AcDbPolyline
 90
       23
 70
   128
 43
0.0
 10
155.9048855977
 20
98.2790022236
 10
156.0486012439
 20
97.6988599714
 10
156.2741885262
 20
97.1657178443
 10
156.5633711705
 20
96.722766858
 10
156.8927217575
 20
96.4058927339
 10
157.235558361
 20
96.2407673788
 10
157.5641061479
 20
96.2407673788
 10
157.8517479191
 20
96.4058927339
 10
158.0751810523
 20
96.722766858
 10
158.216304362
 20
97.1657178443
 10
158.2636844667
 20
97.6988599714
 10
158.213483386
 20
98.2790022236
 10
158.0697677398
 20
98.8591444757
 10
157.8441804575
 20
99.3922870685
 10
157.5549978132
 20
99.8352380548
 10
157.2256472262
 20
100.1521117133
 10
156.8828106227
 20
100.317237534
 10
156.5542628357
 20
100.317237534
 10
156.2666208318
 20
100.1521117133
 10
156.0431876986
 20
99.8352380548
 10
155.9020646217
 20
99.3922870685
 10
155.8546842842
 20
98.8591444757
 10
155.9048855977
 20
98.2790022236
  0
LWPOLYLINE
  5
FB
330
1F
100
AcDbEntity
  8
0
  6
HIDDEN
 62
     7
370
     0
100
AcDbPolyline
 90
       21
 70
   128
 43
0.0
 10
156.2864014248
 20
98.3111328524
 10
156.4143502454
 20
97.8111625728
 10
156.6185529644
 20
97.3601323631
 10
156.8790210711
 20
97.0021934327
 10
157.1702577474
 20
96.7723821368
 10
157.4637547435
 20
96.6931945723
 10
157.7307830865
 20
96.7723821368
 10
157.9452033455
 20
97.0021934327
 10
158.086027235
 20
97.3601323631
 10
158.139469784
 20
97.8111625728
 10
158.1002997535
 20
98.3111328524
 10
157.9723509329
 20
98.8111040634
 10
157.7681482138
 20
99.2621333417
 10
157.5076805728
 20
99.6200732034
 10
157.2164438965
 20
99.8498844993
 10
156.9229464347
 20
99.9290720638
 10
156.6559185574
 20
99.8498844993
 10
156.4414978327
 20
99.6200732034
 10
156.3006739432
 20
99.2621333417
 10
156.2472313943
 20
98.8111040634
 10
156.2864014248
 20
98.3111328524
  0
ELLIPSE
  5
FC
330
1F
100
AcDbEntity
  8
0
  6
HIDDEN
 62
     7
370
     0
100
AcDbEllipse
 10
165.4546739945
 20
100.2895967978
 30
0.0
 11
1.383467579512143
 21
-1.091267719176599
 31
0.0
210
0.0
220
0.0
230
1.0
 40
0.8239737799
 41
2.147131942757423
 42
5.288724596347229
  0
ELLIPSE
  5
FD
330
1F
100
AcDbEntity
  8
0
  6
HIDDEN
 62
     7
370
     0
100
AcDbEllipse
 10
165.4546739945
 20
100.2895967978
 30
0.0
 11
1.383467579512143
 21
1.753907414218489
 31
0.0
210
0.0
220
0.0
230
1.0
 40
0.5126701559
 41
0.9944607108323741
 42
4.13605336442218
  0
SPLINE
  5
FE
330
1F
100
AcDbEntity
  8
0
  6
HIDDEN
 62
     7
370
     0
100
AcDbSpline
210
0.0
220
0.0
230
1.0
 70
     8
 71
     3
 72
    14
 73
    10
 74
     0
 42
0.000000001
 43
0.00000001
 40
0.0
 40
0.0
 40
0.0
 40
0.0
 40
0.25
 40
0.25
 40
0.5
 40
0.5
 40
0.75
 40
0.75
 40
1.0
 40
1.0
 40
1.0
 40
1.0
 10
163.4787832319017
 20
98.84877929147841
 30
0.0
 10
163.5151470599319
 20
98.89427392688025
 30
0.0
 10
163.5476247871421
 20
98.94266573309652
 30
0.0
 10
163.5963784165579
 20
99.04815087702609
 30
0.0
 10
163.6112821942324
 20
99.10473538526901
 30
0.0
 10
163.61129262789
 20
99.21362297921948
 30
0.0
 10
163.5964023320819
 20
99.2658076449821
 30
0.0
 10
163.5475134012043
 20
99.35708504392565
 30
0.0
 10
163.5151412229339
 20
99.39575174929983
 30
0.0
 10
163.4787832319017
 20
99.43064768884759
 30
0.0
  0
LWPOLYLINE
  5
FF
330
1F
100
AcDbEntity
  8
0
  6
HIDDEN
 62
     7
370
     0
100
AcDbPolyline
 90
       21
 70
   128
 43
0.0
 10
165.4546742628
 20
97.6327900853
 10
165.9645519519
 20
97.7086770427
 10
166.4245200644
 20
97.9289078232
 10
166.7895519475
 20
98.2719260346
 10
167.0239174107
 20
98.7041547042
 10
167.1046742538
 20
99.1832829159
 10
167.0239174107
 20
99.662412059
 10
166.7895519475
 20
100.0946402628
 10
166.4245200644
 20
100.4376584743
 10
165.9645519519
 20
100.6578897205
 10
165.4546742628
 20
100.7337762121
 10
164.9447956423
 20
100.6578897205
 10
164.4848284612
 20
100.4376584743
 10
164.1197956467
 20
100.0946402628
 10
163.8854311148
 20
99.662412059
 10
163.8046742717
 20
99.1832829159
 10
163.8854311148
 20
98.7041547042
 10
164.1197956467
 20
98.2719260346
 10
164.4848284612
 20
97.9289078232
 10
164.9447956423
 20
97.7086770427
 10
165.4546742628
 20
97.6327900853
  0
SPLINE
  5
100
330
1F
100
AcDbEntity
  8
0
  6
HIDDEN
 62
     7
370
     0
100
AcDbSpline
210
0.0
220
0.0
230
1.0
 70
    11
 71
     3
 72
    56
 73
    52
 74
     0
 42
0.000000001
 43
0.00000001
 40
0.0
 40
0.0
 40
0.0
 40
0.0
 40
0.0312499999999996
 40
0.0312499999999996
 40
0.0624999999999991
 40
0.0624999999999991
 40
0.0937499999999987
 40
0.0937499999999987
 40
0.1249999999999983
 40
0.1249999999999983
 40
0.1874999999999978
 40
0.1874999999999978
 40
0.2499999999999973
 40
0.2499999999999973
 40
0.281249999999997
 40
0.281249999999997
 40
0.3124999999999968
 40
0.3124999999999968
 40
0.3749999999999961
 40
0.3749999999999961
 40
0.4062499999999959
 40
0.4062499999999959
 40
0.4374999999999958
 40
0.4374999999999958
 40
0.4687499999999957
 40
0.4687499999999957
 40
0.4999999999999954
 40
0.4999999999999954
 40
0.5624999999999956
 40
0.5624999999999956
 40
0.5937499999999959
 40
0.5937499999999959
 40
0.6249999999999962
 40
0.6249999999999962
 40
0.6562499999999967
 40
0.6562499999999967
 40
0.687499999999997
 40
0.687499999999997
 40
0.7499999999999974
 40
0.7499999999999974
 40
0.7812499999999977
 40
0.7812499999999977
 40
0.8124999999999979
 40
0.8124999999999979
 40
0.8749999999999986
 40
0.8749999999999986
 40
0.9374999999999993
 40
0.9374999999999993
 40
0.9687499999999997
 40
0.9687499999999997
 40
1.0
 40
1.0
 40
1.0
 40
1.0
 10
165.4546739945421
 20
103.3000141802835
 30
0.0
 10
165.3452526861469
 20
103.3000141802835
 30
0.0
 10
165.2377398638752
 20
103.309237714237
 30
0.0
 10
165.0263495696349
 20
103.3454181837487
 30
0.0
 10
164.9213530328276
 20
103.3728388151211
 30
0.0
 10
164.721740947899
 20
103.4444530390414
 30
0.0
 10
164.6271288197796
 20
103.4883565699677
 30
0.0
 10
164.448071788435
 20
103.5926694326609
 30
0.0
 10
164.3636065452681
 20
103.6534333993992
 30
0.0
 10
164.1362173013615
 20
103.8540118171169
 30
0.0
 10
164.0134039060531
 20
104.0176673920399
 30
0.0
 10
163.84854453384
 20
104.3781760290726
 30
0.0
 10
163.8048069311318
 20
104.5790631670929
 30
0.0
 10
163.8046079924792
 20
104.8836096929128
 30
0.0
 10
163.815413927097
 20
104.9876418463352
 30
0.0
 10
163.8576848728747
 20
105.1901292822205
 30
0.0
 10
163.8889563071988
 20
105.2894152652418
 30
0.0
 10
164.0134921823605
 20
105.581005087136
 30
0.0
 10
164.1348646033687
 20
105.7601758242078
 30
0.0
 10
164.3643597856844
 20
105.9891319184364
 30
0.0
 10
164.4472366066559
 20
106.0573942489015
 30
0.0
 10
164.625565560425
 20
106.1778027639761
 30
0.0
 10
164.7221816697378
 20
106.2303285638874
 30
0.0
 10
164.9213834258872
 20
106.3143865401835
 30
0.0
 10
165.024229756279
 20
106.346392977118
 30
0.0
 10
165.2365461740846
 20
106.3898421628757
 30
0.0
 10
165.3460838862668
 20
106.4009531151328
 30
0.0
 10
165.6697652634141
 20
106.4010928056042
 30
0.0
 10
165.8876252836618
 20
106.3565415107449
 30
0.0
 10
166.1857271702007
 20
106.2310278074329
 30
0.0
 10
166.2822079251611
 20
106.1787618767856
 30
0.0
 10
166.4614707492243
 20
106.0579295288553
 30
0.0
 10
166.544294978321
 20
105.9896885070741
 30
0.0
 10
166.6965526995613
 20
105.8380565854303
 30
0.0
 10
166.7659920639442
 20
105.7542204587435
 30
0.0
 10
166.8853940634228
 20
105.5785897336877
 30
0.0
 10
166.9362618962352
 20
105.4860206036171
 30
0.0
 10
167.0614683988151
 20
105.1939802248295
 30
0.0
 10
167.1045486640779
 20
104.9885608331822
 30
0.0
 10
167.1047362515773
 20
104.6816241429323
 30
0.0
 10
167.0941270121445
 20
104.5815924007384
 30
0.0
 10
167.0520889618792
 20
104.3858786140778
 30
0.0
 10
167.020125206839
 20
104.2894147737523
 30
0.0
 10
166.8962533489757
 20
104.0179618901538
 30
0.0
 10
166.7735419416987
 20
103.8545180581605
 30
0.0
 10
166.4707428228982
 20
103.5871347496588
 30
0.0
 10
166.2874920040674
 20
103.4804466531156
 30
0.0
 10
165.9897239029977
 20
103.3733807124631
 30
0.0
 10
165.8847262039908
 20
103.3457760159025
 30
0.0
 10
165.6719786992748
 20
103.3092396358749
 30
0.0
 10
165.5640953029374
 20
103.3000141802835
 30
0.0
 10
165.4546739945421
 20
103.3000141802835
 30
0.0
  0
ELLIPSE
  5
101
330
1F
100
AcDbEntity
  8
0
  6
HIDDEN
 62
     7
370
     0
100
AcDbEllipse
 10
165.4546739945
 20
100.2895967978
 30
0.0
 11
1.383467579512143
 21
-1.091267719176599
 31
0.0
210
0.0
220
0.0
230
1.0
 40
0.8239737799
 41
5.28872459634722
 42
5.331125843621306
  0
SPLINE
  5
102
330
1F
100
AcDbEntity
  8
0
  6
HIDDEN
 62
     7
370
     0
100
AcDbSpline
210
0.0
220
0.0
230
1.0
 70
     8
 71
     3
 72
     8
 73
     4
 74
     0
 42
0.000000001
 43
0.00000001
 40
0.0
 40
0.0
 40
0.0
 40
0.0
 40
1.0
 40
1.0
 40
1.0
 40
1.0
 10
165.5246150906969
 20
98.72804493194721
 30
0.0
 10
165.5076303645948
 20
98.73516064199691
 30
0.0
 10
165.4906262200538
 20
98.7430357715185
 30
0.0
 10
165.4736273359745
 20
98.75165889097269
 30
0.0
  0
ELLIPSE
  5
103
330
1F
100
AcDbEntity
  8
0
  6
HIDDEN
 62
     7
370
     0
100
AcDbEllipse
 10
165.4546739945
 20
100.2895967978
 30
0.0
 11
1.383467579512143
 21
1.753907414218489
 31
0.0
210
0.0
220
0.0
230
1.0
 40
0.5126701559
 41
4.136053364422185
 42
4.147540490644765
  0
ELLIPSE
  5
104
330
1F
100
AcDbEntity
  8
0
  6
HIDDEN
 62
     7
370
     0
100
AcDbEllipse
 10
165.4546739945
 20
100.2895967978
 30
0.0
 11
1.383467579512143
 21
1.753907414218489
 31
0.0
210
0.0
220
0.0
230
1.0
 40
0.5126701559
 41
0.9829735846098846
 42
0.9944607108323794
  0
SPLINE
  5
105
330
1F
100
AcDbEntity
  8
0
  6
HIDDEN
 62
     7
370
     0
100
AcDbSpline
210
0.0
220
0.0
230
1.0
 70
     8
 71
     3
 72
     8
 73
     4
 74
     0
 42
0.000000001
 43
0.00000001
 40
0.0
 40
0.0
 40
0.0
 40
0.0
 40
1.0
 40
1.0
 40
1.0
 40
1.0
 10
165.4736273359744
 20
101.8524399479791
 30
0.0
 10
165.4906262200537
 20
101.8444566744657
 30
0.0
 10
165.5076303645948
 20
101.835720272018
 30
0.0
 10
165.5246150906971
 20
101.8262434201805
 30
0.0
  0
ELLIPSE
  5
106
330
1F
100
AcDbEntity
  8
0
  6
HIDDEN
 62
     7
370
     0
100
AcDbEllipse
 10
165.4546739945
 20
100.2895967978
 30
0.0
 11
1.383467579512143
 21
-1.091267719176599
 31
0.0
210
0.0
220
0.0
230
1.0
 40
0.8239737799
 41
2.104730695483399
 42
2.147131942757414
  0
SPLINE
  5
107
330
1F
100
AcDbEntity
  8
0
  6
HIDDEN
 62
     7
370
     0
100
AcDbSpline
210
0.0
220
0.0
230
1.0
 70
     8
 71
     3
 72
    18
 73
    14
 74
     0
 42
0.000000001
 43
0.00000001
 40
0.0
 40
0.0
 40
0.0
 40
0.0
 40
0.2500000000000002
 40
0.2500000000000002
 40
0.5000000000000004
 40
0.5000000000000004
 40
0.6250000000000003
 40
0.6250000000000003
 40
0.7500000000000002
 40
0.7500000000000002
 40
0.8750000000000001
 40
0.8750000000000001
 40
1.0
 40
1.0
 40
1.0
 40
1.0
 10
211.4546739945421
 20
124.1748881024253
 30
0.0
 10
211.4546739945421
 20
124.0795684374076
 30
0.0
 10
211.4494159313791
 20
123.9825390512398
 30
0.0
 10
211.4219109415122
 20
123.7829549107149
 30
0.0
 10
211.3994274480385
 20
123.6779507410119
 30
0.0
 10
211.341129095918
 20
123.5259419924276
 30
0.0
 10
211.3168023022104
 20
123.4748900922538
 30
0.0
 10
211.257958943027
 20
123.3823392011758
 30
0.0
 10
211.2228362225741
 20
123.3405172245429
 30
0.0
 10
211.1478575505819
 20
123.2760449679397
 30
0.0
 10
211.1078707329278
 20
123.2528870821854
 30
0.0
 10
211.0292628883807
 20
123.2229002363889
 30
0.0
 10
210.9914135453779
 20
123.2158622799034
 30
0.0
 10
210.9546344145277
 20
123.2136029729276
 30
0.0
  0
SPLINE
  5
108
330
1F
100
AcDbEntity
  8
0
  6
HIDDEN
 62
     7
370
     0
100
AcDbSpline
210
0.0
220
0.0
230
1.0
 70
     8
 71
     3
 72
    10
 73
     6
 74
     0
 42
0.000000001
 43
0.00000001
 40
0.0
 40
0.0
 40
0.0
 40
0.0
 40
0.5
 40
0.5
 40
1.0
 40
1.0
 40
1.0
 40
1.0
 10
210.9546344145277
 20
123.2136029729278
 30
0.0
 10
210.8898129567949
 20
123.1527353685533
 30
0.0
 10
210.8149695604927
 20
123.097763536933
 30
0.0
 10
210.6463589046414
 20
123.0179385286747
 30
0.0
 10
210.5520683526057
 20
122.9936317546476
 30
0.0
 10
210.4546739945421
 20
122.9936317546476
 30
0.0
  0
SPLINE
  5
109
330
1F
100
AcDbEntity
  8
0
  6
HIDDEN
 62
     7
370
     0
100
AcDbSpline
210
0.0
220
0.0
230
1.0
 70
     8
 71
     3
 72
    10
 73
     6
 74
     0
 42
0.000000001
 43
0.00000001
 40
0.0
 40
0.0
 40
0.0
 40
0.0
 40
0.5
 40
0.5
 40
1.0
 40
1.0
 40
1.0
 40
1.0
 10
210.9546241882373
 20
91.14078034610472
 30
0.0
 10
210.8898035020706
 20
91.20164561618664
 30
0.0
 10
210.8149612194131
 20
91.25661515843663
 30
0.0
 10
210.6463539456923
 20
91.33643650574555
 30
0.0
 10
210.5520657917874
 20
91.36074196198484
 30
0.0
 10
210.4546739945421
 20
91.36074196198484
 30
0.0
  0
SPLINE
  5
10A
330
1F
100
AcDbEntity
  8
0
  6
HIDDEN
 62
     7
370
     0
100
AcDbSpline
210
0.0
220
0.0
230
1.0
 70
     8
 71
     3
 72
    18
 73
    14
 74
     0
 42
0.000000001
 43
0.00000001
 40
0.0
 40
0.0
 40
0.0
 40
0.0
 40
0.1250000000000019
 40
0.1250000000000019
 40
0.2500000000000039
 40
0.2500000000000039
 40
0.3750000000000058
 40
0.3750000000000058
 40
0.5000000000000078
 40
0.5000000000000078
 40
0.7500000000000039
 40
0.7500000000000039
 40
1.0
 40
1.0
 40
1.0
 40
1.0
 10
210.9546241882372
 20
91.14078034610468
 30
0.0
 10
210.9911110683333
 20
91.1385463098183
 30
0.0
 10
211.0293667603613
 20
91.13140281936663
 30
0.0
 10
211.1069137973503
 20
91.10194093863439
 30
0.0
 10
211.1468612125577
 20
91.07896785755301
 30
0.0
 10
211.221206122793
 20
91.01554292169394
 30
0.0
 10
211.2563493677944
 20
90.97415292337114
 30
0.0
 10
211.3153323283654
 20
90.88224564813066
 30
0.0
 10
211.3397499508731
 20
90.83156912339298
 30
0.0
 10
211.3988262659327
 20
90.6789181070335
 30
0.0
 10
211.4213151345197
 20
90.57469890547328
 30
0.0
 10
211.44931939599
 20
90.37355766470739
 30
0.0
 10
211.4546739945421
 20
90.27506340600078
 30
0.0
 10
211.4546739945421
 20
90.17948561420712
 30
0.0
  0
LINE
  5
10B
330
1F
100
AcDbEntity
  8
0
  6
HIDDEN
 62
     7
370
     0
100
AcDbLine
 10
170.954674233
 20
107.1771868583
 30
0.0
 11
170.954674233
 21
89.6771867838
 31
0.0
  0
LINE
  5
10C
330
1F
100
AcDbEntity
  8
0
  6
HIDDEN
 62
     7
370
     0
100
AcDbLine
 10
170.954674233
 20
124.6771869328
 30
0.0
 11
170.954674233
 21
107.1771868583
 31
0.0
  0
LINE
  5
10D
330
1F
100
AcDbEntity
  8
0
  6
HIDDEN
 62
     7
370
     0
100
AcDbLine
 10
175.8206987122
 20
107.1771868583
 30
0.0
 11
175.8206987122
 21
89.1771876332
 31
0.0
  0
LINE
  5
10E
330
1F
100
AcDbEntity
  8
0
  6
HIDDEN
 62
     7
370
     0
100
AcDbLine
 10
175.8206987122
 20
125.1771860835
 30
0.0
 11
175.8206987122
 21
107.1771868583
 31
0.0
  0
LINE
  5
10F
330
1F
100
AcDbEntity
  8
0
  6
HIDDEN
 62
     7
370
     0
100
AcDbLine
 10
194.8546727488
 20
122.9936313894
 30
0.0
 11
210.4546723256
 21
122.9936313894
 31
0.0
  0
LINE
  5
110
330
1F
100
AcDbEntity
  8
0
  6
HIDDEN
 62
     7
370
     0
100
AcDbLine
 10
194.8546727488
 20
91.3607423272
 30
0.0
 11
210.4546723256
 21
91.3607423272
 31
0.0
  0
LINE
  5
111
330
1F
100
AcDbEntity
  8
0
  6
HIDDEN
 62
     7
370
     0
100
AcDbLine
 10
210.9546733389
 20
130.0771870729
 30
0.0
 11
210.9512423465
 21
130.8877599504
 31
0.0
  0
SPLINE
  5
112
330
1F
100
AcDbEntity
  8
0
  6
HIDDEN
 62
     7
370
     0
100
AcDbSpline
210
0.0
220
0.0
230
1.0
 70
     8
 71
     3
 72
    12
 73
     8
 74
     0
 42
0.000000001
 43
0.00000001
 40
0.0
 40
0.0
 40
0.0
 40
0.0
 40
0.2577412090527308
 40
0.5825791597539184
 40
0.7434372691528042
 40
0.9089306302297334
 40
1.0
 40
1.0
 40
1.0
 40
1.0
 10
210.8833936343202
 20
132.6281280335386
 30
0.0
 10
210.8787928369752
 20
132.606039833838
 30
0.0
 10
210.86839353505
 20
132.5561133014477
 30
0.0
 10
210.8953935877944
 20
131.9235101571947
 30
0.0
 10
210.9380719425985
 20
131.1769678140246
 30
0.0
 10
210.9755680518667
 20
130.6064493984281
 30
0.0
 10
210.964130981069
 20
130.2158382111049
 30
0.0
 10
210.9600712845335
 20
130.0771870728929
 30
0.0
  0
SPLINE
  5
113
330
1F
100
AcDbEntity
  8
0
  6
HIDDEN
 62
     7
370
     0
100
AcDbSpline
210
0.0
220
0.0
230
1.0
 70
     8
 71
     3
 72
    14
 73
    10
 74
     0
 42
0.000000001
 43
0.00000001
 40
0.0
 40
0.0
 40
0.0
 40
0.0
 40
0.25
 40
0.25
 40
0.5
 40
0.5
 40
0.75
 40
0.75
 40
1.0
 40
1.0
 40
1.0
 40
1.0
 10
210.9600707245255
 20
130.0771868583163
 30
0.0
 10
210.9322527838062
 20
129.505404064108
 30
0.0
 10
210.9493522271201
 20
128.9334291156192
 30
0.0
 10
210.962048308769
 20
127.7895128712001
 30
0.0
 10
210.9609448607211
 20
127.2175144176647
 30
0.0
 10
210.9561974322357
 20
126.073542369021
 30
0.0
 10
210.9534446037262
 20
125.5015569339311
 30
0.0
 10
210.9532856235158
 20
124.3575805641121
 30
0.0
 10
210.9544327825261
 20
123.7855917893777
 30
0.0
 10
210.9546344145277
 20
123.2136029729277
 30
0.0
  0
SPLINE
  5
114
330
1F
100
AcDbEntity
  8
0
  6
HIDDEN
 62
     7
370
     0
100
AcDbSpline
210
0.0
220
0.0
230
1.0
 70
     8
 71
     3
 72
    14
 73
    10
 74
     0
 42
0.000000001
 43
0.00000001
 40
0.0
 40
0.0
 40
0.0
 40
0.0
 40
0.25
 40
0.25
 40
0.5
 40
0.5
 40
0.75
 40
0.75
 40
1.0
 40
1.0
 40
1.0
 40
1.0
 10
210.9600597505085
 20
84.27718685831621
 30
0.0
 10
210.9323011267709
 20
84.84889463550563
 30
0.0
 10
210.9493093737109
 20
85.42088842937942
 30
0.0
 10
210.9621056412267
 20
86.56481002889477
 30
0.0
 10
210.9608941767577
 20
87.13682233370272
 30
0.0
 10
210.95610838516
 20
88.28080545449092
 30
0.0
 10
210.9535119411898
 20
88.85279669320431
 30
0.0
 10
210.9532342608096
 20
89.99678798462982
 30
0.0
 10
210.9543752838777
 20
90.5687842033908
 30
0.0
 10
210.9546241882372
 20
91.14078034610468
 30
0.0
  0
LINE
  5
115
330
1F
100
AcDbEntity
  8
0
  6
HIDDEN
 62
     7
370
     0
100
AcDbLine
 10
210.9546733389
 20
84.2771866437
 30
0.0
 11
210.9505643437
 21
83.4433530536
 31
0.0
  0
SPLINE
  5
116
330
1F
100
AcDbEntity
  8
0
  6
HIDDEN
 62
     7
370
     0
100
AcDbSpline
210
0.0
220
0.0
230
1.0
 70
     8
 71
     3
 72
    12
 73
     8
 74
     0
 42
0.000000001
 43
0.00000001
 40
0.0
 40
0.0
 40
0.0
 40
0.0
 40
0.2789052903132486
 40
0.6036526514252164
 40
0.764507574259752
 40
0.9299974386819675
 40
1.0
 40
1.0
 40
1.0
 40
1.0
 10
210.8826374003897
 20
81.71376782323914
 30
0.0
 10
210.8785046580432
 20
81.74734294665414
 30
0.0
 10
210.8695598980772
 20
81.82001174489972
 30
0.0
 10
210.8967346293236
 20
82.49219484407024
 30
0.0
 10
210.9446272007521
 20
83.25830242741284
 30
0.0
 10
210.9756857691801
 20
83.81047108024302
 30
0.0
 10
210.9636406461668
 20
84.1702412396059
 30
0.0
 10
210.9600601086626
 20
84.27718664373951
 30
0.0
  0
LINE
  5
117
330
1F
100
AcDbEntity
  8
0
  6
HIDDEN
 62
     7
370
     0
100
AcDbLine
 10
155.6546739137
 20
131.9771875706
 30
0.0
 11
155.9919323607
 21
131.9771875706
 31
0.0
  0
ELLIPSE
  5
118
330
1F
100
AcDbEntity
  8
0
  6
HIDDEN
 62
     7
370
     0
100
AcDbEllipse
 10
155.9919322947
 20
133.5771868583
 30
0.0
 11
0.0
 21
1.599999999999994
 31
0.0
210
0.0
220
0.0
230
1.0
 40
0.4142135624
 41
3.141592653589793
 42
4.712388980384695
  0
ELLIPSE
  5
119
330
1F
100
AcDbEntity
  8
0
  6
HIDDEN
 62
     7
370
     0
100
AcDbEllipse
 10
155.9919322947
 20
82.9771868583
 30
0.0
 11
0.0
 21
1.599999999999994
 31
0.0
210
0.0
220
0.0
230
1.0
 40
0.4142135624
 41
4.712388980384695
 42
6.283185307179586
  0
LINE
  5
11A
330
1F
100
AcDbEntity
  8
0
  6
HIDDEN
 62
     7
370
     0
100
AcDbLine
 10
155.9919323607
 20
84.5771861341
 30
0.0
 11
155.6546739137
 21
84.5771861341
 31
0.0
  0
LINE
  5
11B
330
1F
100
AcDbEntity
  8
0
  6
HIDDEN
 62
     7
370
     0
100
AcDbLine
 10
156.6546738448
 20
77.283738282
 30
0.0
 11
155.8708185164
 21
76.8254567948
 31
0.0
  0
LINE
  5
11C
330
1F
100
AcDbEntity
  8
0
  6
HIDDEN
 62
     7
370
     0
100
AcDbLine
 10
155.9419156818
 20
137.6024839547
 30
0.0
 11
156.6546738448
 21
136.8897241619
 31
0.0
  0
LINE
  5
11D
330
1F
100
AcDbEntity
  8
0
  6
HIDDEN
 62
     7
370
     0
100
AcDbLine
 10
91.2046728024
 20
98.6771863964
 30
0.0
 11
91.2046728024
 21
115.6771873203
 31
0.0
  0
LINE
  5
11E
330
1F
100
AcDbEntity
  8
0
  6
HIDDEN
 62
     7
370
     0
100
AcDbLine
 10
194.8546727488
 20
130.0771870729
 30
0.0
 11
194.8546727488
 21
122.9936313894
 31
0.0
  0
LINE
  5
11F
330
1F
100
AcDbEntity
  8
0
  6
HIDDEN
 62
     7
370
     0
100
AcDbLine
 10
194.8546727488
 20
84.2771866437
 30
0.0
 11
194.8546727488
 21
91.3607423272
 31
0.0
  0
LINE
  5
120
330
1F
100
AcDbEntity
  8
0
  6
HIDDEN
 62
     7
370
     0
100
AcDbLine
 10
94.2006034145
 20
100.1771866422
 30
0.0
 11
94.2006034145
 21
114.1771870744
 31
0.0
  0
LINE
  5
121
330
1F
100
AcDbEntity
  8
0
  6
HIDDEN
 62
     7
370
     0
100
AcDbLine
 10
160.4898839558
 20
77.283738282
 30
0.0
 11
156.6546738448
 21
77.283738282
 31
0.0
  0
LINE
  5
122
330
1F
100
AcDbEntity
  8
0
  6
HIDDEN
 62
     7
370
     0
100
AcDbLine
 10
171.50467423
 20
77.283738282
 30
0.0
 11
166.6194635744
 21
77.283738282
 31
0.0
  0
LINE
  5
123
330
1F
100
AcDbEntity
  8
0
  6
HIDDEN
 62
     7
370
     0
100
AcDbLine
 10
156.6546738448
 20
77.283738282
 30
0.0
 11
156.6546738448
 21
82.9771869894
 31
0.0
  0
LINE
  5
124
330
1F
100
AcDbEntity
  8
0
  6
HIDDEN
 62
     7
370
     0
100
AcDbLine
 10
171.50467423
 20
84.5771861341
 30
0.0
 11
155.9919323607
 21
84.5771861341
 31
0.0
  0
SPLINE
  5
125
330
1F
100
AcDbEntity
  8
0
  6
HIDDEN
 62
     7
370
     0
100
AcDbSpline
210
0.0
220
0.0
230
1.0
 70
    24
 71
     3
 72
    12
 73
     8
 74
     0
 42
0.000000001
 43
0.00000001
 40
0.0
 40
0.0
 40
0.0
 40
0.0
 40
0.25
 40
0.25
 40
0.5
 40
0.5
 40
1.0
 40
1.0
 40
1.0
 40
1.0
 10
172.2951062690903
 20
84.57718685831622
 30
0.0
 10
172.2383450197448
 20
84.57718685831624
 30
0.0
 10
172.1809302078022
 20
84.57718685831622
 30
0.0
 10
172.0669635959597
 20
84.57718685831624
 30
0.0
 10
172.0101246757884
 20
84.57718685831622
 30
0.0
 10
171.8393790704234
 20
84.57718685831622
 30
0.0
 10
171.7252605673198
 20
84.57718685831622
 30
0.0
 10
171.6104394284639
 20
84.57718685831622
 30
0.0
  0
LINE
  5
126
330
1F
100
AcDbEntity
  8
0
  6
HIDDEN
 62
     7
370
     0
100
AcDbLine
 10
171.6104389468
 20
84.5771861341
 30
0.0
 11
171.50467423
 21
84.5771861341
 31
0.0
  0
LINE
  5
127
330
1F
100
AcDbEntity
  8
0
  6
HIDDEN
 62
     7
370
     0
100
AcDbLine
 10
155.9919323607
 20
131.9771875706
 30
0.0
 11
171.5776340405
 21
131.9771875706
 31
0.0
  0
LINE
  5
128
330
1F
100
AcDbEntity
  8
0
  6
HIDDEN
 62
     7
370
     0
100
AcDbLine
 10
156.6546738448
 20
136.8897241619
 30
0.0
 11
160.5907191823
 21
136.8897241619
 31
0.0
  0
LINE
  5
129
330
1F
100
AcDbEntity
  8
0
  6
HIDDEN
 62
     7
370
     0
100
AcDbLine
 10
166.5186283479
 20
136.8897241619
 30
0.0
 11
171.50467423
 21
136.8897241619
 31
0.0
  0
LINE
  5
12A
330
1F
100
AcDbEntity
  8
0
  6
HIDDEN
 62
     7
370
     0
100
AcDbLine
 10
156.6546738448
 20
136.8897241619
 30
0.0
 11
156.6546738448
 21
133.5771867153
 31
0.0
  0
SPLINE
  5
12B
330
1F
100
AcDbEntity
  8
0
  6
HIDDEN
 62
     7
370
     0
100
AcDbSpline
210
0.0
220
0.0
230
1.0
 70
    11
 71
     3
 72
    56
 73
    52
 74
     0
 42
0.000000001
 43
0.00000001
 40
0.0
 40
0.0
 40
0.0
 40
0.0
 40
0.0312500000000002
 40
0.0312500000000002
 40
0.0625000000000003
 40
0.0625000000000003
 40
0.0937500000000005
 40
0.0937500000000005
 40
0.1250000000000007
 40
0.1250000000000007
 40
0.1875000000000011
 40
0.1875000000000011
 40
0.2500000000000014
 40
0.2500000000000014
 40
0.2812500000000015
 40
0.2812500000000015
 40
0.3125000000000016
 40
0.3125000000000016
 40
0.3750000000000016
 40
0.3750000000000016
 40
0.4062500000000016
 40
0.4062500000000016
 40
0.4375000000000016
 40
0.4375000000000016
 40
0.4687500000000016
 40
0.4687500000000016
 40
0.5000000000000016
 40
0.5000000000000016
 40
0.5625000000000011
 40
0.5625000000000011
 40
0.5937500000000011
 40
0.5937500000000011
 40
0.625000000000001
 40
0.625000000000001
 40
0.656250000000001
 40
0.656250000000001
 40
0.6875000000000009
 40
0.6875000000000009
 40
0.7500000000000008
 40
0.7500000000000008
 40
0.7812500000000008
 40
0.7812500000000008
 40
0.8125000000000008
 40
0.8125000000000008
 40
0.8750000000000006
 40
0.8750000000000006
 40
0.9375000000000003
 40
0.9375000000000003
 40
0.9687500000000001
 40
0.9687500000000001
 40
1.0
 40
1.0
 40
1.0
 40
1.0
 10
165.4546739945421
 20
107.9533738877554
 30
0.0
 10
165.5640953029374
 20
107.9533738877554
 30
0.0
 10
165.671608125209
 20
107.9644027100311
 30
0.0
 10
165.8829984194493
 20
108.0074332917414
 30
0.0
 10
165.9879949562566
 20
108.0399818553107
 30
0.0
 10
166.1876070411852
 20
108.1242493150329
 30
0.0
 10
166.2822191693046
 20
108.1756279595501
 30
0.0
 10
166.4612762006492
 20
108.2963045202138
 30
0.0
 10
166.5457414438162
 20
108.3659868239123
 30
0.0
 10
166.7731306877226
 20
108.592861269134
 30
0.0
 10
166.8959440830311
 20
108.7740002173021
 30
0.0
 10
167.0608034552442
 20
109.1591567779492
 30
0.0
 10
167.1045410579524
 20
109.3673237392172
 30
0.0
 10
167.104739996605
 20
109.6719023415153
 30
0.0
 10
167.0939340619873
 20
109.7741768266329
 30
0.0
 10
167.0516631162096
 20
109.9699731288582
 30
0.0
 10
167.0203916818854
 20
110.0643560735219
 30
0.0
 10
166.8958558067237
 20
110.3373208015182
 30
0.0
 10
166.7744833857155
 20
110.4991809516705
 30
0.0
 10
166.5449882033999
 20
110.701598613444
 30
0.0
 10
166.4621113824283
 20
110.761116197594
 30
0.0
 10
166.2837824286592
 20
110.8652066223638
 30
0.0
 10
166.1871663193464
 20
110.910094576816
 30
0.0
 10
165.987964563197
 20
110.9815299853815
 30
0.0
 10
165.8851182328052
 20
111.0084945405973
 30
0.0
 10
165.6728018149996
 20
111.0450283524747
 30
0.0
 10
165.5632641028174
 20
111.0543204013734
 30
0.0
 10
165.2395827256701
 20
111.0544374286696
 30
0.0
 10
165.0217227054224
 20
111.0173507373693
 30
0.0
 10
164.7236208188835
 20
110.9106908084797
 30
0.0
 10
164.627140063923
 20
110.8660314351786
 30
0.0
 10
164.4478772398599
 20
110.7615832002801
 30
0.0
 10
164.3650530107632
 20
110.7020828825755
 30
0.0
 10
164.2127952895229
 20
110.5680422058027
 30
0.0
 10
164.14335592514
 20
110.4930761077284
 30
0.0
 10
164.0239539256614
 20
110.3335817655998
 30
0.0
 10
163.973086092849
 20
110.2483827702684
 30
0.0
 10
163.8478795902691
 20
109.9750574598139
 30
0.0
 10
163.8047993250063
 20
109.7768226317029
 30
0.0
 10
163.8046117375069
 20
109.4699161876942
 30
0.0
 10
163.8152209769397
 20
109.3681585299456
 30
0.0
 10
163.8572590272051
 20
109.1657892708214
 30
0.0
 10
163.8892227822452
 20
109.064315555046
 30
0.0
 10
164.0130946401085
 20
108.7743374077324
 30
0.0
 10
164.1358060473855
 20
108.5934238977083
 30
0.0
 10
164.438605166186
 20
108.2910062975076
 30
0.0
 10
164.6218559850167
 20
108.1665978485005
 30
0.0
 10
164.9196240860865
 20
108.0406218031492
 30
0.0
 10
165.0246217850934
 20
108.0078583523862
 30
0.0
 10
165.2373692898094
 20
107.9644055108988
 30
0.0
 10
165.3452526861469
 20
107.9533738877554
 30
0.0
 10
165.4546739945421
 20
107.9533738877554
 30
0.0
  0
SPLINE
  5
12C
330
1F
100
AcDbEntity
  8
0
  6
HIDDEN
 62
     7
370
     0
100
AcDbSpline
210
0.0
220
0.0
230
1.0
 70
    24
 71
     3
 72
    12
 73
     8
 74
     0
 42
0.000000001
 43
0.00000001
 40
0.0
 40
0.0
 40
0.0
 40
0.0
 40
0.4999999999999989
 40
0.4999999999999989
 40
0.7499999999999994
 40
0.7499999999999994
 40
1.0
 40
1.0
 40
1.0
 40
1.0
 10
175.5461846286617
 20
84.57718685831622
 30
0.0
 10
175.074593492077
 20
84.57718685831622
 30
0.0
 10
174.5686680348294
 20
84.57718685831622
 30
0.0
 10
173.7530690190731
 20
84.57718685831624
 30
0.0
 10
173.4697360372456
 20
84.57718685831622
 30
0.0
 10
172.8903042810799
 20
84.57718685831622
 30
0.0
 10
172.5954663659277
 20
84.57718685831624
 30
0.0
 10
172.2951062690903
 20
84.57718685831622
 30
0.0
  0
LINE
  5
12D
330
1F
100
AcDbEntity
  8
0
  6
HIDDEN
 62
     7
370
     0
100
AcDbLine
 10
177.9546735177
 20
84.5771861341
 30
0.0
 11
175.5461839328
 21
84.5771861341
 31
0.0
  0
LINE
  5
12E
330
1F
100
AcDbEntity
  8
0
  6
HIDDEN
 62
     7
370
     0
100
AcDbLine
 10
194.8546727488
 20
132.6771863815
 30
0.0
 11
194.8546727488
 21
130.0771870729
 31
0.0
  0
LINE
  5
12F
330
1F
100
AcDbEntity
  8
0
  6
HIDDEN
 62
     7
370
     0
100
AcDbLine
 10
194.8546727488
 20
81.6771873352
 30
0.0
 11
194.8546727488
 21
84.2771866437
 31
0.0
  0
LINE
  5
130
330
1F
100
AcDbEntity
  8
0
  6
HIDDEN
 62
     7
370
     0
100
AcDbLine
 10
179.554674525
 20
131.9771875706
 30
0.0
 11
178.9102458695
 21
131.9771875706
 31
0.0
  0
LINE
  5
131
330
1F
100
AcDbEntity
  8
0
  6
HIDDEN
 62
     7
370
     0
100
AcDbLine
 10
171.50467423
 20
125.5966742602
 30
0.0
 11
171.50467423
 21
125.5271864202
 31
0.0
  0
ELLIPSE
  5
132
330
1F
100
AcDbEntity
  8
0
  6
HIDDEN
 62
     7
370
     0
100
AcDbEllipse
 10
165.4546739945
 20
114.0647769189
 30
0.0
 11
-1.383467579512114
 21
1.753907414218503
 31
0.0
210
0.0
220
0.0
230
1.0
 40
0.5126701559
 41
5.277237470115976
 42
5.28872459634724
  0
ELLIPSE
  5
133
330
1F
100
AcDbEntity
  8
0
  6
HIDDEN
 62
     7
370
     0
100
AcDbEllipse
 10
165.4546739945
 20
114.0647769189
 30
0.0
 11
1.383467579512143
 21
1.091267719176599
 31
0.0
210
0.0
220
0.0
230
1.0
 40
0.8239737799
 41
0.9944607108323701
 42
4.136053364422176
  0
ELLIPSE
  5
134
330
1F
100
AcDbEntity
  8
0
  6
HIDDEN
 62
     7
370
     0
100
AcDbEllipse
 10
165.4546739945
 20
114.0647769189
 30
0.0
 11
-1.383467579512114
 21
1.753907414218503
 31
0.0
210
0.0
220
0.0
230
1.0
 40
0.5126701559
 41
2.147131942757434
 42
2.158619068986681
  0
SPLINE
  5
135
330
1F
100
AcDbEntity
  8
0
  6
HIDDEN
 62
     7
370
     0
100
AcDbSpline
210
0.0
220
0.0
230
1.0
 70
     8
 71
     3
 72
     8
 73
     4
 74
     0
 42
0.000000001
 43
0.00000001
 40
0.0
 40
0.0
 40
0.0
 40
0.0
 40
1.0
 40
1.0
 40
1.0
 40
1.0
 10
165.4736273359439
 20
112.5019337686391
 30
0.0
 10
165.4906262200436
 20
112.5099170421612
 30
0.0
 10
165.507630364605
 20
112.5186534446193
 30
0.0
 10
165.5246150907276
 20
112.5281302964691
 30
0.0
  0
ELLIPSE
  5
136
330
1F
100
AcDbEntity
  8
0
  6
HIDDEN
 62
     7
370
     0
100
AcDbEllipse
 10
165.4546739945
 20
114.0647769189
 30
0.0
 11
1.383467579512143
 21
1.091267719176599
 31
0.0
210
0.0
220
0.0
230
1.0
 40
0.8239737799
 41
4.136053364422185
 42
4.178454611721457
  0
ELLIPSE
  5
137
330
1F
100
AcDbEntity
  8
0
  6
HIDDEN
 62
     7
370
     0
100
AcDbEllipse
 10
165.4546739945
 20
114.0647769189
 30
0.0
 11
-1.383467579512114
 21
1.753907414218503
 31
0.0
210
0.0
220
0.0
230
1.0
 40
0.5126701559
 41
5.288724596347235
 42
8.430317249937014
  0
ELLIPSE
  5
138
330
1F
100
AcDbEntity
  8
0
  6
HIDDEN
 62
     7
370
     0
100
AcDbEllipse
 10
165.4546739945
 20
114.0647769189
 30
0.0
 11
1.383467579512143
 21
1.091267719176599
 31
0.0
210
0.0
220
0.0
230
1.0
 40
0.8239737799
 41
0.9520594635254865
 42
0.9944607108323791
  0
SPLINE
  5
139
330
1F
100
AcDbEntity
  8
0
  6
HIDDEN
 62
     7
370
     0
100
AcDbSpline
210
0.0
220
0.0
230
1.0
 70
     8
 71
     3
 72
     8
 73
     4
 74
     0
 42
0.000000001
 43
0.00000001
 40
0.0
 40
0.0
 40
0.0
 40
0.0
 40
1.0
 40
1.0
 40
1.0
 40
1.0
 10
165.5246150907365
 20
115.626328784702
 30
0.0
 10
165.507630364608
 20
115.6192130746424
 30
0.0
 10
165.4906262200406
 20
115.6113379451085
 30
0.0
 10
165.4736273359349
 20
115.6027148256398
 30
0.0
  0
LWPOLYLINE
  5
13A
330
1F
100
AcDbEntity
  8
0
  6
HIDDEN
 62
     7
370
     0
100
AcDbPolyline
 90
       21
 70
   128
 43
0.0
 10
165.4546742628
 20
113.6205975045
 10
165.9645519519
 20
113.6964839962
 10
166.4245200644
 20
113.9167152424
 10
166.7895519475
 20
114.2597334538
 10
167.0239174107
 20
114.6919616577
 10
167.1046742538
 20
115.1710908007
 10
167.0239174107
 20
115.6502190125
 10
166.7895519475
 20
116.082447682
 10
166.4245200644
 20
116.4254658934
 10
165.9645519519
 20
116.6456966739
 10
165.4546742628
 20
116.7215836313
 10
164.9447956423
 20
116.6456966739
 10
164.4848284612
 20
116.4254658934
 10
164.1197956467
 20
116.082447682
 10
163.8854311148
 20
115.6502190125
 10
163.8046742717
 20
115.1710908007
 10
163.8854311148
 20
114.6919616577
 10
164.1197956467
 20
114.2597334538
 10
164.4848284612
 20
113.9167152424
 10
164.9447956423
 20
113.6964839962
 10
165.4546742628
 20
113.6205975045
  0
LINE
  5
13B
330
1F
100
AcDbEntity
  8
0
  6
HIDDEN
 62
     7
370
     0
100
AcDbLine
 10
161.6446736569
 20
129.3744278219
 30
0.0
 11
161.6446736569
 21
125.5271864202
 31
0.0
  0
SPLINE
  5
13C
330
1F
100
AcDbEntity
  8
0
  6
HIDDEN
 62
     7
370
     0
100
AcDbSpline
210
0.0
220
0.0
230
1.0
 70
     8
 71
     3
 72
    14
 73
    10
 74
     0
 42
0.000000001
 43
0.00000001
 40
0.0
 40
0.0
 40
0.0
 40
0.0
 40
0.25
 40
0.25
 40
0.5
 40
0.5
 40
0.75
 40
0.75
 40
1.0
 40
1.0
 40
1.0
 40
1.0
 10
164.664673994542
 20
118.4596660484244
 30
0.0
 10
164.762356245656
 20
118.4981883624568
 30
0.0
 10
164.8644697546933
 20
118.5358037219155
 30
0.0
 10
165.0566419258622
 20
118.6069124475024
 30
0.0
 10
165.148060599189
 20
118.6411184980065
 30
0.0
 10
165.2995765882033
 20
118.7080079763634
 30
0.0
 10
165.3607237907422
 20
118.7412784389244
 30
0.0
 10
165.4434304924306
 20
118.8106767890182
 30
0.0
 10
165.4646739945421
 20
118.8464538946142
 30
0.0
 10
165.4646739945421
 20
118.8829492268649
 30
0.0
  0
LINE
  5
13D
330
1F
100
AcDbEntity
  8
0
  6
HIDDEN
 62
     7
370
     0
100
AcDbLine
 10
165.4646738732
 20
129.3744278219
 30
0.0
 11
165.4646738732
 21
125.5271864202
 31
0.0
  0
SPLINE
  5
13E
330
1F
100
AcDbEntity
  8
0
  6
HIDDEN
 62
     7
370
     0
100
AcDbSpline
210
0.0
220
0.0
230
1.0
 70
     8
 71
     3
 72
    14
 73
    10
 74
     0
 42
0.000000001
 43
0.00000001
 40
0.0
 40
0.0
 40
0.0
 40
0.0
 40
0.2500000000000005
 40
0.2500000000000005
 40
0.5000000000000003
 40
0.5000000000000003
 40
0.7500000000000001
 40
0.7500000000000001
 40
1.0
 40
1.0
 40
1.0
 40
1.0
 10
165.4646739945421
 20
115.1242257286459
 30
0.0
 10
165.4646739945421
 20
115.0877367977386
 30
0.0
 10
165.4435046183698
 20
115.0512380060048
 30
0.0
 10
165.3607590005175
 20
114.9858626582679
 30
0.0
 10
165.2999053756897
 20
114.9579258239216
 30
0.0
 10
165.1483005089986
 20
114.9240347946749
 30
0.0
 10
165.0570781985314
 20
114.9186093420884
 30
0.0
 10
164.8647476488281
 20
114.939528665901
 30
0.0
 10
164.7624967643511
 20
114.9660848133414
 30
0.0
 10
164.664673994542
 20
115.0065545716472
 30
0.0
  0
LINE
  5
13F
330
1F
100
AcDbEntity
  8
0
  6
HIDDEN
 62
     7
370
     0
100
AcDbLine
 10
165.4646738732
 20
99.1759040472
 30
0.0
 11
165.4646738732
 21
95.4171811309
 31
0.0
  0
LINE
  5
140
330
1F
100
AcDbEntity
  8
0
  6
HIDDEN
 62
     7
370
     0
100
AcDbLine
 10
160.0328374023
 20
133.0874172118
 30
0.0
 11
160.0328374023
 21
125.5271864202
 31
0.0
  0
LINE
  5
141
330
1F
100
AcDbEntity
  8
0
  6
HIDDEN
 62
     7
370
     0
100
AcDbLine
 10
167.0765110592
 20
97.4251666185
 30
0.0
 11
167.0765110592
 21
95.2256872397
 31
0.0
  0
LINE
  5
142
330
1F
100
AcDbEntity
  8
0
  6
HIDDEN
 62
     7
370
     0
100
AcDbLine
 10
167.0765110592
 20
133.0874172118
 30
0.0
 11
167.0765110592
 21
125.5271864202
 31
0.0
  0
SPLINE
  5
143
330
1F
100
AcDbEntity
  8
0
  6
HIDDEN
 62
     7
370
     0
100
AcDbSpline
210
0.0
220
0.0
230
1.0
 70
     8
 71
     3
 72
    10
 73
     6
 74
     0
 42
0.000000001
 43
0.00000001
 40
0.0
 40
0.0
 40
0.0
 40
0.0
 40
0.5
 40
0.5
 40
1.0
 40
1.0
 40
1.0
 40
1.0
 10
163.4787832319017
 20
114.9237260277851
 30
0.0
 10
163.4631771809205
 20
115.0289982283936
 30
0.0
 10
163.4546727178919
 20
115.1329367261845
 30
0.0
 10
163.4546752714816
 20
115.3324499981405
 30
0.0
 10
163.4631728590821
 20
115.4236624928109
 30
0.0
 10
163.4787832319017
 20
115.505594425154
 30
0.0
  0
SPLINE
  5
144
330
1F
100
AcDbEntity
  8
0
  6
HIDDEN
 62
     7
370
     0
100
AcDbSpline
210
0.0
220
0.0
230
1.0
 70
     8
 71
     3
 72
    14
 73
    10
 74
     0
 42
0.000000001
 43
0.00000001
 40
0.0
 40
0.0
 40
0.0
 40
0.0
 40
0.25
 40
0.25
 40
0.5
 40
0.5
 40
0.75
 40
0.75
 40
1.0
 40
1.0
 40
1.0
 40
1.0
 10
163.4787832319017
 20
115.505594425154
 30
0.0
 10
163.5151470599319
 20
115.4600997897522
 30
0.0
 10
163.5476247871421
 20
115.4117079835359
 30
0.0
 10
163.5963784165578
 20
115.3062228396064
 30
0.0
 10
163.6112821942323
 20
115.2496383313635
 30
0.0
 10
163.6112926278899
 20
115.1407507374131
 30
0.0
 10
163.5964023320818
 20
115.0885660716505
 30
0.0
 10
163.5475134012042
 20
114.9972886727069
 30
0.0
 10
163.5151412229338
 20
114.9586219673328
 30
0.0
 10
163.4787832319017
 20
114.9237260277851
 30
0.0
  0
LWPOLYLINE
  5
145
330
1F
100
AcDbEntity
  8
0
  6
HIDDEN
 62
     7
370
     0
100
AcDbPolyline
 90
       21
 70
   128
 43
0.0
 10
156.2864014248
 20
115.1572327208
 10
156.4143502454
 20
114.7822561752
 10
156.6185529644
 20
114.5307138641
 10
156.8790210711
 20
114.4272285592
 10
157.1702577474
 20
114.481929325
 10
157.4637547435
 20
114.6894624535
 10
157.7307830865
 20
115.0295130056
 10
157.9452033455
 20
115.4687936496
 10
158.086027235
 20
115.9643056881
 10
158.139469784
 20
116.4675439787
 10
158.1002997535
 20
116.9292490077
 10
157.9723509329
 20
117.3042246219
 10
157.7681482138
 20
117.5557673987
 10
157.5076805728
 20
117.6592531693
 10
157.2164438965
 20
117.6045519378
 10
156.9229464347
 20
117.3970188093
 10
156.6559185574
 20
117.0569687229
 10
156.4414978327
 20
116.6176871475
 10
156.3006739432
 20
116.1221760404
 10
156.2472313943
 20
115.6189368185
 10
156.2864014248
 20
115.1572327208
  0
LWPOLYLINE
  5
146
330
1F
100
AcDbEntity
  8
0
  6
HIDDEN
 62
     7
370
     0
100
AcDbPolyline
 90
       22
 70
   128
 43
0.0
 10
163.4787830824
 20
114.923725937
 10
163.645021368
 20
114.4144540731
 10
163.9566428328
 20
113.9694690783
 10
164.3886125947
 20
113.6245202352
 10
164.9062277118
 20
113.407319047
 10
165.4679036999
 20
113.3353161704
 10
166.0285161177
 20
113.4142951187
 10
166.543028068
 20
113.6379117225
 10
166.970104661
 20
113.9882007692
 10
167.2754341105
 20
114.4370209504
 10
167.4344872425
 20
114.9483147156
 10
167.4344872425
 20
115.4810060826
 10
167.2754341105
 20
115.9922993821
 10
166.970104661
 20
116.4411195632
 10
166.543028068
 20
116.79140861
 10
166.0285161177
 20
117.0150247481
 10
165.4679036999
 20
117.0940046277
 10
164.9062277118
 20
117.0220012855
 10
164.3886125947
 20
116.8048000973
 10
163.9566428328
 20
116.4598512542
 10
163.645021368
 20
116.0148662594
 10
163.4787830824
 20
115.5055948612
  0
SPLINE
  5
147
330
1F
100
AcDbEntity
  8
0
  6
HIDDEN
 62
     7
370
     0
100
AcDbSpline
210
0.0
220
0.0
230
1.0
 70
     8
 71
     3
 72
    12
 73
     8
 74
     0
 42
0.000000001
 43
0.00000001
 40
0.0
 40
0.0
 40
0.0
 40
0.0
 40
0.2499999999999992
 40
0.2499999999999992
 40
0.4999999999999983
 40
0.4999999999999983
 40
1.0
 40
1.0
 40
1.0
 40
1.0
 10
167.0765106365988
 20
119.1286866565233
 30
0.0
 10
167.1994581303944
 20
118.9707298078282
 30
0.0
 10
167.2930023335032
 20
118.7988964408507
 30
0.0
 10
167.4219417226655
 20
118.4272237312048
 30
0.0
 10
167.4544944800506
 20
118.2340352850136
 30
0.0
 10
167.4550308217844
 20
117.6457387467373
 30
0.0
 10
167.3224071648164
 20
117.2537205088486
 30
0.0
 10
167.0765106365988
 20
116.9292069261399
 30
0.0
  0
SPLINE
  5
148
330
1F
100
AcDbEntity
  8
0
  6
HIDDEN
 62
     7
370
     0
100
AcDbSpline
210
0.0
220
0.0
230
1.0
 70
     8
 71
     3
 72
    12
 73
     8
 74
     0
 42
0.000000001
 43
0.00000001
 40
0.0
 40
0.0
 40
0.0
 40
0.0
 40
0.2499999999999997
 40
0.2499999999999997
 40
0.4999999999999993
 40
0.4999999999999993
 40
1.0
 40
1.0
 40
1.0
 40
1.0
 10
167.0765106365988
 20
116.9292069261399
 30
0.0
 10
166.9616145853382
 20
116.7094664910834
 30
0.0
 10
166.8348485688655
 20
116.5124981394616
 30
0.0
 10
166.574633635247
 20
116.1587805666227
 30
0.0
 10
166.4411261772847
 20
116.0019552727505
 30
0.0
 10
166.0327279086966
 20
115.5754127018428
 30
0.0
 10
165.749074773759
 20
115.3487205228876
 30
0.0
 10
165.4646739945422
 20
115.1784693784921
 30
0.0
  0
SPLINE
  5
149
330
1F
100
AcDbEntity
  8
0
  6
HIDDEN
 62
     7
370
     0
100
AcDbSpline
210
0.0
220
0.0
230
1.0
 70
     8
 71
     3
 72
    12
 73
     8
 74
     0
 42
0.000000001
 43
0.00000001
 40
0.0
 40
0.0
 40
0.0
 40
0.0
 40
0.5000000000000013
 40
0.5000000000000013
 40
0.7500000000000007
 40
0.7500000000000007
 40
1.0
 40
1.0
 40
1.0
 40
1.0
 10
165.4646739945421
 20
118.9371928767132
 30
0.0
 10
165.7488805291074
 20
119.1046570390069
 30
0.0
 10
166.0275762632112
 20
119.2162941385185
 30
0.0
 10
166.4369223064004
 20
119.2836074041579
 30
0.0
 10
166.57306164372
 20
119.2887584441718
 30
0.0
 10
166.834381692716
 20
119.2509925065524
 30
0.0
 10
166.9598028751478
 20
119.2094427482082
 30
0.0
 10
167.0765106365992
 20
119.1286866565254
 30
0.0
  0
SPLINE
  5
14A
330
1F
100
AcDbEntity
  8
0
  6
HIDDEN
 62
     7
370
     0
100
AcDbSpline
210
0.0
220
0.0
230
1.0
 70
     8
 71
     3
 72
    22
 73
    18
 74
     0
 42
0.000000001
 43
0.00000001
 40
0.0
 40
0.0
 40
0.0
 40
0.0
 40
0.125
 40
0.125
 40
0.25
 40
0.25
 40
0.375
 40
0.375
 40
0.5
 40
0.5
 40
0.625
 40
0.625
 40
0.75
 40
0.75
 40
0.875
 40
0.875
 40
1.0
 40
1.0
 40
1.0
 40
1.0
 10
164.6646739945421
 20
115.0065545716472
 30
0.0
 10
164.4846572999727
 20
115.0810283586237
 30
0.0
 10
164.3202254781024
 20
115.1784776206078
 30
0.0
 10
164.0218292443438
 20
115.4178470541721
 30
0.0
 10
163.891525516979
 20
115.5577436662426
 30
0.0
 10
163.6783067333599
 20
115.8659952563028
 30
0.0
 10
163.5946788762485
 20
116.036158474422
 30
0.0
 10
163.4835479993303
 20
116.3866532092125
 30
0.0
 10
163.4547120044766
 20
116.5717781703638
 30
0.0
 10
163.4546360618169
 20
116.9349850449811
 30
0.0
 10
163.4832946872442
 20
117.1183550586886
 30
0.0
 10
163.5944457803568
 20
117.464246171182
 30
0.0
 10
163.6775129010008
 20
117.6297656984494
 30
0.0
 10
163.8911988591195
 20
117.9303054358532
 30
0.0
 10
164.0202058490438
 20
118.0641773571372
 30
0.0
 10
164.3198151285333
 20
118.2954241265413
 30
0.0
 10
164.4846578267926
 20
118.3886742432001
 30
0.0
 10
164.6646739945421
 20
118.4596660484244
 30
0.0
  0
LWPOLYLINE
  5
14B
330
1F
100
AcDbEntity
  8
0
  6
HIDDEN
 62
     7
370
     0
100
AcDbPolyline
 90
       23
 70
   128
 43
0.0
 10
155.9048855977
 20
114.9477242571
 10
156.0486012439
 20
114.5079793487
 10
156.2741885262
 20
114.1952156168
 10
156.5633711705
 20
114.0347706233
 10
156.8927217575
 20
114.0396428373
 10
157.235558361
 20
114.2094378438
 10
157.5641061479
 20
114.5303995427
 10
157.8517479191
 20
114.9765258734
 10
158.0751810523
 20
115.5116736036
 10
158.216304362
 20
116.092489202
 10
158.2636844667
 20
116.671918061
 10
158.213483386
 20
117.2030187291
 10
158.0697677398
 20
117.6427631718
 10
157.8441804575
 20
117.9555273693
 10
157.5549978132
 20
118.1159718972
 10
157.2256472262
 20
118.1111001488
 10
156.8828106227
 20
117.9413051423
 10
156.5542628357
 20
117.6203434434
 10
156.2666208318
 20
117.1742166471
 10
156.0431876986
 20
116.6390684512
 10
155.9020646217
 20
116.0582528528
 10
155.8546842842
 20
115.4788249251
 10
155.9048855977
 20
114.9477242571
  0
LWPOLYLINE
  5
14C
330
1F
100
AcDbEntity
  8
0
  6
HIDDEN
 62
     7
370
     0
100
AcDbPolyline
 90
       26
 70
   128
 43
0.0
 10
164.5996232817
 20
113.4346300815
 10
164.0422565231
 20
113.7038027946
 10
163.573636424
 20
114.0947715458
 10
163.2232095415
 20
114.5829694424
 10
163.0129932726
 20
115.1377224442
 10
162.9561965654
 20
115.7241725441
 10
163.0563891793
 20
116.3054705676
 10
163.3072744424
 20
116.8450928372
 10
163.6930887887
 20
117.3091317606
 10
164.1895898918
 20
117.6684294906
 10
164.7655803079
 20
117.9004116994
 10
165.3848697732
 20
117.990501326
 10
166.0085448364
 20
117.9330368605
 10
166.597419169
 20
117.7316299718
 10
167.1144894624
 20
117.3989364025
 10
167.5272683913
 20
116.9558587563
 10
167.8098176906
 20
116.4302389216
 10
167.9443854207
 20
115.8551025283
 10
167.9225142414
 20
115.2665876862
 10
167.7455806474
 20
114.7016730238
 10
167.4247009048
 20
114.1958540384
 10
166.9800372163
 20
113.7809135098
 10
166.4395283276
 20
113.4829238136
 10
165.8371386418
 20
113.3206082587
 10
165.2107171083
 20
113.3041657586
 10
164.5996232817
 20
113.4346300815
  0
LWPOLYLINE
  5
14D
330
1F
100
AcDbEntity
  8
0
  6
HIDDEN
 62
     7
370
     0
100
AcDbPolyline
 90
       21
 70
   128
 43
0.0
 10
164.8561383898
 20
113.8403812502
 10
164.3772662917
 20
114.089816444
 10
164.0038580934
 20
114.4660987039
 10
163.7724663431
 20
114.9323951532
 10
163.7057398746
 20
115.4430612069
 10
163.8102119157
 20
115.9481090572
 10
164.0756556133
 20
116.3981027048
 10
164.4760861362
 20
116.7489915233
 10
164.9723087738
 20
116.9664283362
 10
165.5157485346
 20
117.0291305598
 10
166.0532092044
 20
116.9309589159
 10
166.5320813025
 20
116.6815237221
 10
166.9054895008
 20
116.3052414623
 10
167.1368821824
 20
115.8389459443
 10
167.2036077196
 20
115.3282794249
 10
167.0991356785
 20
114.8232311089
 10
166.8336929122
 20
114.3732383926
 10
166.433261458
 20
114.0223495741
 10
165.9370397518
 20
113.8049118299
 10
165.393599991
 20
113.7422100719
 10
164.8561383898
 20
113.8403812502
  0
LWPOLYLINE
  5
14E
330
1F
100
AcDbEntity
  8
0
  6
HIDDEN
 62
     7
370
     0
100
AcDbPolyline
 90
       26
 70
   128
 43
0.0
 10
164.5996232817
 20
114.4583230917
 10
164.0422565231
 20
114.7274962705
 10
163.573636424
 20
115.118464556
 10
163.2232095415
 20
115.6066629183
 10
163.0129932726
 20
116.1614154544
 10
162.9561965654
 20
116.7478655544
 10
163.0563891793
 20
117.3291645091
 10
163.3072744424
 20
117.8687858474
 10
163.6930887887
 20
118.3328247708
 10
164.1895898918
 20
118.6921234321
 10
164.7655803079
 20
118.9241047096
 10
165.3848697732
 20
119.0141943362
 10
166.0085448364
 20
118.956730802
 10
166.597419169
 20
118.7553239134
 10
167.1144894624
 20
118.4226294127
 10
167.5272683913
 20
117.9795526978
 10
167.8098176906
 20
117.4539319318
 10
167.9443854207
 20
116.8787955385
 10
167.9225142414
 20
116.2902806964
 10
167.7455806474
 20
115.7253664997
 10
167.4247009048
 20
115.2195475143
 10
166.9800372163
 20
114.8046069857
 10
166.4395283276
 20
114.5066168238
 10
165.8371386418
 20
114.3443012689
 10
165.2107171083
 20
114.3278592345
 10
164.5996232817
 20
114.4583230917
  0
LINE
  5
14F
330
1F
100
AcDbEntity
  8
0
  6
HIDDEN
 62
     7
370
     0
100
AcDbLine
 10
164.5268897826
 20
117.1087195244
 30
0.0
 11
165.9483376259
 21
117.3442435529
 31
0.0
  0
LINE
  5
150
330
1F
100
AcDbEntity
  8
0
  6
HIDDEN
 62
     7
370
     0
100
AcDbLine
 10
165.9483376259
 20
117.3442435529
 30
0.0
 11
165.9483376259
 21
118.0282832202
 31
0.0
  0
LINE
  5
151
330
1F
100
AcDbEntity
  8
0
  6
HIDDEN
 62
     7
370
     0
100
AcDbLine
 10
166.8761211748
 20
116.305234943
 30
0.0
 11
165.9483376259
 21
117.3442435529
 31
0.0
  0
LINE
  5
152
330
1F
100
AcDbEntity
  8
0
  6
HIDDEN
 62
     7
370
     0
100
AcDbLine
 10
164.5268897826
 20
117.1087195244
 30
0.0
 11
164.5268897826
 21
117.7927591917
 31
0.0
  0
LINE
  5
153
330
1F
100
AcDbEntity
  8
0
  6
HIDDEN
 62
     7
370
     0
100
AcDbLine
 10
164.0332264194
 20
115.8341868859
 30
0.0
 11
164.5268897826
 21
117.1087195244
 31
0.0
  0
LINE
  5
154
330
1F
100
AcDbEntity
  8
0
  6
HIDDEN
 62
     7
370
     0
100
AcDbLine
 10
166.3824578116
 20
115.0307023045
 30
0.0
 11
166.3824578116
 21
115.7147419718
 31
0.0
  0
LINE
  5
155
330
1F
100
AcDbEntity
  8
0
  6
HIDDEN
 62
     7
370
     0
100
AcDbLine
 10
166.3824578116
 20
115.7147419718
 30
0.0
 11
166.8761211748
 21
116.9892746102
 31
0.0
  0
LINE
  5
156
330
1F
100
AcDbEntity
  8
0
  6
HIDDEN
 62
     7
370
     0
100
AcDbLine
 10
166.8761211748
 20
116.305234943
 30
0.0
 11
166.8761211748
 21
116.9892746102
 31
0.0
  0
LINE
  5
157
330
1F
100
AcDbEntity
  8
0
  6
HIDDEN
 62
     7
370
     0
100
AcDbLine
 10
166.3824578116
 20
115.0307023045
 30
0.0
 11
166.8761211748
 21
116.305234943
 31
0.0
  0
LINE
  5
158
330
1F
100
AcDbEntity
  8
0
  6
HIDDEN
 62
     7
370
     0
100
AcDbLine
 10
164.9610108996
 20
114.7951778103
 30
0.0
 11
164.9610108996
 21
115.4792179432
 31
0.0
  0
LINE
  5
159
330
1F
100
AcDbEntity
  8
0
  6
HIDDEN
 62
     7
370
     0
100
AcDbLine
 10
164.0332264194
 20
116.5182265532
 30
0.0
 11
164.9610108996
 21
115.4792179432
 31
0.0
  0
LINE
  5
15A
330
1F
100
AcDbEntity
  8
0
  6
HIDDEN
 62
     7
370
     0
100
AcDbLine
 10
164.0332264194
 20
115.8341868859
 30
0.0
 11
164.0332264194
 21
116.5182265532
 31
0.0
  0
LINE
  5
15B
330
1F
100
AcDbEntity
  8
0
  6
HIDDEN
 62
     7
370
     0
100
AcDbLine
 10
164.0332264194
 20
115.8341868859
 30
0.0
 11
164.9610108996
 21
114.7951778103
 31
0.0
  0
LINE
  5
15C
330
1F
100
AcDbEntity
  8
0
  6
HIDDEN
 62
     7
370
     0
100
AcDbLine
 10
166.3824578116
 20
115.7147419718
 30
0.0
 11
164.9610108996
 21
115.4792179432
 31
0.0
  0
LINE
  5
15D
330
1F
100
AcDbEntity
  8
0
  6
HIDDEN
 62
     7
370
     0
100
AcDbLine
 10
166.3824578116
 20
115.0307023045
 30
0.0
 11
164.9610108996
 21
114.7951778103
 31
0.0
  0
LWPOLYLINE
  5
15E
330
1F
100
AcDbEntity
  8
0
  6
HIDDEN
 62
     7
370
     0
100
AcDbPolyline
 90
       23
 70
   128
 43
0.0
 10
164.7518228108
 20
114.9391402569
 10
164.2362482215
 20
115.1987194162
 10
163.8193835804
 20
115.5842767176
 10
163.535000507
 20
116.0645793271
 10
163.4061371276
 20
116.6007137936
 10
163.4432354311
 20
117.1492469576
 10
163.6432872454
 20
117.6657388997
 10
163.9900875578
 20
118.1083471593
 10
164.4555392975
 20
118.4412139546
 10
165.0019360075
 20
118.6373728406
 10
165.5850100631
 20
118.6809317287
 10
166.1575257147
 20
118.5683618378
 10
166.6730993727
 20
118.3087826785
 10
167.0899649451
 20
117.9232244458
 10
167.3743480185
 20
117.4429227677
 10
167.5032104666
 20
116.9067883011
 10
167.4661130944
 20
116.3582551372
 10
167.2660603488
 20
115.8417631951
 10
166.9192609677
 20
115.3991549354
 10
166.4538082967
 20
115.0662881401
 10
165.907412518
 20
114.8701292541
 10
165.3243375311
 20
114.826570366
 10
164.7518228108
 20
114.9391402569
  0
LINE
  5
15F
330
1F
100
AcDbEntity
  8
0
  6
HIDDEN
 62
     7
370
     0
100
AcDbLine
 10
164.0332264194
 20
116.5182265532
 30
0.0
 11
164.5268897826
 21
117.7927591917
 31
0.0
  0
LINE
  5
160
330
1F
100
AcDbEntity
  8
0
  6
HIDDEN
 62
     7
370
     0
100
AcDbLine
 10
166.8761211748
 20
116.9892746102
 30
0.0
 11
165.9483376259
 21
118.0282832202
 31
0.0
  0
LINE
  5
161
330
1F
100
AcDbEntity
  8
0
  6
HIDDEN
 62
     7
370
     0
100
AcDbLine
 10
164.5268897826
 20
117.7927591917
 30
0.0
 11
165.9483376259
 21
118.0282832202
 31
0.0
  0
LWPOLYLINE
  5
162
330
1F
100
AcDbEntity
  8
0
  6
HIDDEN
 62
     7
370
     0
100
AcDbPolyline
 90
       21
 70
   128
 43
0.0
 10
157.4485173749
 20
99.6404985044
 10
157.1617743301
 20
99.8385773119
 10
156.8781223448
 20
99.8871387992
 10
156.6253274048
 20
99.7814304274
 10
156.4281342851
 20
99.5317987245
 10
156.3058458103
 20
99.1626801979
 10
156.2704325022
 20
98.7102055069
 10
156.3253609764
 20
98.2186674219
 10
156.4652544746
 20
97.736180861
 10
156.6764188299
 20
97.3099741232
 10
156.938184269
 20
96.981767666
 10
157.2249268482
 20
96.7836893242
 10
157.5085788334
 20
96.7351273712
 10
157.7613742391
 20
96.8408362087
 10
157.9585668931
 20
97.0904669803
 10
158.0808556007
 20
97.4595864382
 10
158.116268676
 20
97.9120601979
 10
158.0613402019
 20
98.4035982829
 10
157.9214471692
 20
98.8860857752
 10
157.7102823483
 20
99.3122925129
 10
157.4485173749
 20
99.6404985044
  0
LWPOLYLINE
  5
163
330
1F
100
AcDbEntity
  8
0
  6
HIDDEN
 62
     7
370
     0
100
AcDbPolyline
 90
       23
 70
   128
 43
0.0
 10
157.6947734991
 20
100.0066908155
 10
157.3713261003
 20
100.2378208641
 10
157.0484030361
 20
100.3164407876
 10
156.7521656232
 20
100.2361812707
 10
156.5066126475
 20
100.0035443422
 10
156.3316380905
 20
99.6373767112
 10
156.2414171474
 20
99.16734333
 10
156.243258605
 20
98.6315236505
 10
156.3370139173
 20
98.0733261522
 10
156.5150867516
 20
97.5379730653
 10
156.7630518528
 20
97.0688351509
 10
157.0608194286
 20
96.7039196831
 10
157.3842663618
 20
96.4727896344
 10
157.707189426
 20
96.3941692453
 10
158.0034273045
 20
96.4744287622
 10
158.2489798146
 20
96.7070656907
 10
158.4239543716
 20
97.0732337874
 10
158.5141757803
 20
97.5432667029
 10
158.5123340899
 20
98.0790863823
 10
158.4185787777
 20
98.6372838807
 10
158.2405057105
 20
99.1726369676
 10
157.992541075
 20
99.641774882
 10
157.6947734991
 20
100.0066908155
  0
LWPOLYLINE
  5
164
330
1F
100
AcDbEntity
  8
0
  6
HIDDEN
 62
     7
370
     0
100
AcDbPolyline
 90
       23
 70
   128
 43
0.0
 10
160.1725716444
 20
100.6000862535
 10
159.8491247112
 20
100.8312167678
 10
159.526201647
 20
100.9098366913
 10
159.2299637685
 20
100.8295771744
 10
158.9844112585
 20
100.5969402459
 10
158.8094367014
 20
100.2307726149
 10
158.7192157584
 20
99.7607392338
 10
158.7210569831
 20
99.2249195543
 10
158.8148122953
 20
98.6667220559
 10
158.9928853626
 20
98.131368969
 10
159.2408499981
 20
97.6622310546
 10
159.5386175739
 20
97.2973155868
 10
159.8620649727
 20
97.0661855381
 10
160.184988037
 20
96.987565149
 10
160.4812254498
 20
97.0678246659
 10
160.7267779598
 20
97.3004615944
 10
160.9017529825
 20
97.6666287598
 10
160.9919739256
 20
98.1366626066
 10
160.9901327009
 20
98.6724822861
 10
160.8963773886
 20
99.2306797844
 10
160.7183038557
 20
99.7660328713
 10
160.4703392202
 20
100.2351707857
 10
160.1725716444
 20
100.6000862535
  0
LINE
  5
165
330
1F
100
AcDbEntity
  8
0
  6
HIDDEN
 62
     7
370
     0
100
AcDbLine
 10
156.5506018067
 20
98.3633306887
 30
0.0
 11
157.0103440734
 21
97.3577053365
 31
0.0
  0
LINE
  5
166
330
1F
100
AcDbEntity
  8
0
  6
HIDDEN
 62
     7
370
     0
100
AcDbLine
 10
157.653092623
 20
97.3055084315
 30
0.0
 11
157.0103440734
 21
97.3577053365
 31
0.0
  0
LINE
  5
167
330
1F
100
AcDbEntity
  8
0
  6
HIDDEN
 62
     7
370
     0
100
AcDbLine
 10
157.8360993715
 20
98.2589359474
 30
0.0
 11
157.653092623
 21
97.3055084315
 31
0.0
  0
LINE
  5
168
330
1F
100
AcDbEntity
  8
0
  6
HIDDEN
 62
     7
370
     0
100
AcDbLine
 10
157.8360993715
 20
98.2589359474
 30
0.0
 11
157.3763575705
 21
99.2645612996
 31
0.0
  0
LINE
  5
169
330
1F
100
AcDbEntity
  8
0
  6
HIDDEN
 62
     7
370
     0
100
AcDbLine
 10
156.7336085553
 20
99.3167582047
 30
0.0
 11
157.3763575705
 21
99.2645612996
 31
0.0
  0
LINE
  5
16A
330
1F
100
AcDbEntity
  8
0
  6
HIDDEN
 62
     7
370
     0
100
AcDbLine
 10
156.7336085553
 20
99.3167582047
 30
0.0
 11
156.5506018067
 21
98.3633306887
 31
0.0
  0
LINE
  5
16B
330
1F
100
AcDbEntity
  8
0
  6
HIDDEN
 62
     7
370
     0
100
AcDbLine
 10
159.0648272375
 20
98.5531975594
 30
0.0
 11
157.8360993715
 21
98.2589359474
 31
0.0
  0
LINE
  5
16C
330
1F
100
AcDbEntity
  8
0
  6
HIDDEN
 62
     7
370
     0
100
AcDbLine
 10
158.6050854365
 20
99.5588229116
 30
0.0
 11
157.3763575705
 21
99.2645612996
 31
0.0
  0
LWPOLYLINE
  5
16D
330
1F
100
AcDbEntity
  8
0
  6
HIDDEN
 62
     7
370
     0
100
AcDbPolyline
 90
       18
 70
   128
 43
0.0
 10
160.6680692474
 20
100.1279476177
 10
160.4057752827
 20
100.2970823165
 10
160.1521500686
 20
100.3039810885
 10
159.9414462524
 20
100.1477126111
 10
159.8021208609
 20
99.8493820507
 10
159.7529908011
 20
99.4492802848
 10
159.8006912807
 20
99.0014431145
 10
159.9387803415
 20
98.5663543534
 10
160.1486077832
 20
98.2027734708
 10
160.4018348569
 20
97.959805381
 10
160.664262932
 20
97.8702643033
 10
160.9004491309
 20
97.9462425303
 10
161.0784956554
 20
98.177479681
 10
161.1743557567
 20
98.5327447843
 10
161.1750821883
 20
98.9640579637
 10
161.080579024
 20
99.4131682519
 10
160.9036072457
 20
99.8194204722
 10
160.6680692474
 20
100.1279476177
  0
LINE
  5
16E
330
1F
100
AcDbEntity
  8
0
  6
HIDDEN
 62
     7
370
     0
100
AcDbLine
 10
158.8818204889
 20
97.5997700435
 30
0.0
 11
158.2390719394
 21
97.6519669485
 31
0.0
  0
LINE
  5
16F
330
1F
100
AcDbEntity
  8
0
  6
HIDDEN
 62
     7
370
     0
100
AcDbLine
 10
157.7793301383
 20
98.6575923007
 30
0.0
 11
158.2390719394
 21
97.6519669485
 31
0.0
  0
LINE
  5
170
330
1F
100
AcDbEntity
  8
0
  6
HIDDEN
 62
     7
370
     0
100
AcDbLine
 10
157.9623368869
 20
99.6110202823
 30
0.0
 11
157.7793301383
 21
98.6575923007
 31
0.0
  0
LINE
  5
171
330
1F
100
AcDbEntity
  8
0
  6
HIDDEN
 62
     7
370
     0
100
AcDbLine
 10
157.9623368869
 20
99.6110202823
 30
0.0
 11
158.6050854365
 21
99.5588229116
 31
0.0
  0
LINE
  5
172
330
1F
100
AcDbEntity
  8
0
  6
HIDDEN
 62
     7
370
     0
100
AcDbLine
 10
159.0648272375
 20
98.5531975594
 30
0.0
 11
158.8818204889
 21
97.5997700435
 31
0.0
  0
LINE
  5
173
330
1F
100
AcDbEntity
  8
0
  6
HIDDEN
 62
     7
370
     0
100
AcDbLine
 10
159.0648272375
 20
98.5531975594
 30
0.0
 11
158.6050854365
 21
99.5588229116
 31
0.0
  0
LINE
  5
174
330
1F
100
AcDbEntity
  8
0
  6
HIDDEN
 62
     7
370
     0
100
AcDbLine
 10
158.2390719394
 20
97.6519669485
 30
0.0
 11
157.0103440734
 21
97.3577053365
 31
0.0
  0
LINE
  5
175
330
1F
100
AcDbEntity
  8
0
  6
HIDDEN
 62
     7
370
     0
100
AcDbLine
 10
158.8818204889
 20
97.5997700435
 30
0.0
 11
157.653092623
 21
97.3055084315
 31
0.0
  0
LINE
  5
176
330
1F
100
AcDbEntity
  8
0
  6
HIDDEN
 62
     7
370
     0
100
AcDbLine
 10
157.7793301383
 20
98.6575923007
 30
0.0
 11
156.5506018067
 21
98.3633306887
 31
0.0
  0
LINE
  5
177
330
1F
100
AcDbEntity
  8
0
  6
HIDDEN
 62
     7
370
     0
100
AcDbLine
 10
157.9623368869
 20
99.6110202823
 30
0.0
 11
156.7336085553
 21
99.3167582047
 31
0.0
  0
LWPOLYLINE
  5
178
330
1F
100
AcDbEntity
  8
0
  6
HIDDEN
 62
     7
370
     0
100
AcDbPolyline
 90
       23
 70
   128
 43
0.0
 10
158.7852004284
 20
115.5587519598
 10
158.9447941931
 20
116.1033819508
 10
159.1781752484
 20
116.5914871808
 10
159.4664368147
 20
116.983525556
 10
159.7862259785
 20
117.2477352511
 10
160.1116347427
 20
117.3627116796
 10
160.4163010905
 20
117.3191416156
 10
160.6755412484
 20
117.120552909
 10
160.868355755
 20
116.7830341574
 10
160.9791207427
 20
116.3339308542
 10
160.9988657126
 20
115.8096251157
 10
160.9259887899
 20
115.2525936332
 10
160.7663954908
 20
114.7079636421
 10
160.5330144355
 20
114.2198584121
 10
160.2447524036
 20
113.827820037
 10
159.9249637055
 20
113.5636103418
 10
159.5995549413
 20
113.4486339134
 10
159.2948890591
 20
113.492204443
 10
159.0356479699
 20
113.6907931496
 10
158.8428343946
 20
114.0283114355
 10
158.7320684755
 20
114.4774147388
 10
158.7123239713
 20
115.0017204773
 10
158.7852004284
 20
115.5587519598
  0
LWPOLYLINE
  5
179
330
1F
100
AcDbEntity
  8
0
  6
HIDDEN
 62
     7
370
     0
100
AcDbPolyline
 90
       18
 70
   128
 43
0.0
 10
159.8009622956
 20
115.3542167586
 10
159.9392874466
 20
115.7891825851
 10
160.1492820608
 20
116.1524831396
 10
160.4025864342
 20
116.3950516921
 10
160.6649893636
 20
116.4841280397
 10
160.9010526279
 20
116.4076832202
 10
161.0788942615
 20
116.1760390815
 10
161.1744954551
 20
115.8204824742
 10
161.1749452839
 20
115.3890333217
 10
161.0801832119
 20
114.9399598208
 10
160.9030065427
 20
114.5339124915
 10
160.6673446784
 20
114.2257308666
 10
160.4050246367
 20
114.057035752
 10
160.1514739285
 20
114.0506105576
 10
159.9409368189
 20
114.2073237416
 10
159.801847052
 20
114.5060091358
 10
159.7529894041
 20
114.9063288313
 10
159.8009622956
 20
115.3542167586
  0
LWPOLYLINE
  5
17A
330
1F
100
AcDbEntity
  8
0
  6
HIDDEN
 62
     7
370
     0
100
AcDbPolyline
 90
       23
 70
   128
 43
0.0
 10
156.3074020503
 20
116.1521478635
 10
156.4669955822
 20
116.6967778545
 10
156.7003766375
 20
117.1848830846
 10
156.9886386695
 20
117.5769214597
 10
157.3084273676
 20
117.8411311549
 10
157.6338361318
 20
117.9561075833
 10
157.9385024796
 20
117.912536588
 10
158.1977431031
 20
117.7139478814
 10
158.3905566784
 20
117.3764300611
 10
158.5013225975
 20
116.9273267579
 10
158.5210671017
 20
116.4030210194
 10
158.4481906446
 20
115.8459895369
 10
158.2885968799
 20
115.3013595458
 10
158.0552158246
 20
114.8132538502
 10
157.7669542583
 20
114.4212159407
 10
157.4471650945
 20
114.1570062455
 10
157.1217563303
 20
114.0420293514
 10
156.8170904482
 20
114.0856003467
 10
156.557849359
 20
114.2841890533
 10
156.3650357837
 20
114.6217068736
 10
156.2542698646
 20
115.0708106425
 10
156.2345255932
 20
115.595116381
 10
156.3074020503
 20
116.1521478635
  0
LINE
  5
17B
330
1F
100
AcDbEntity
  8
0
  6
HIDDEN
 62
     7
370
     0
100
AcDbLine
 10
158.3193687091
 20
116.7707462874
 30
0.0
 11
157.8040860893
 21
115.8373589706
 31
0.0
  0
LINE
  5
17C
330
1F
100
AcDbEntity
  8
0
  6
HIDDEN
 62
     7
370
     0
100
AcDbLine
 10
157.9067965338
 20
114.8155914698
 30
0.0
 11
157.8040860893
 21
115.8373589706
 31
0.0
  0
LINE
  5
17D
330
1F
100
AcDbEntity
  8
0
  6
HIDDEN
 62
     7
370
     0
100
AcDbLine
 10
157.8040860893
 20
115.8373589706
 30
0.0
 11
156.5753582234
 21
116.1316205826
 31
0.0
  0
LINE
  5
17E
330
1F
100
AcDbEntity
  8
0
  6
HIDDEN
 62
     7
370
     0
100
AcDbLine
 10
156.6780682022
 20
115.1098535475
 30
0.0
 11
156.5753582234
 21
116.1316205826
 31
0.0
  0
LINE
  5
17F
330
1F
100
AcDbEntity
  8
0
  6
HIDDEN
 62
     7
370
     0
100
AcDbLine
 10
157.0906408431
 20
117.0650078994
 30
0.0
 11
156.5753582234
 21
116.1316205826
 31
0.0
  0
LWPOLYLINE
  5
180
330
1F
100
AcDbEntity
  8
0
  6
HIDDEN
 62
     7
370
     0
100
AcDbPolyline
 90
       21
 70
   128
 43
0.0
 10
156.3316832597
 20
116.166469742
 10
156.4764871562
 20
116.6467993599
 10
156.6914629491
 20
117.0680495989
 10
156.9555664735
 20
117.3889842894
 10
157.242946543
 20
117.5781871271
 10
157.5254711623
 20
117.6171396938
 10
157.7754861044
 20
117.5020282235
 10
157.9685171435
 20
117.2441198569
 10
158.0856696071
 20
116.8686608862
 10
158.1154761205
 20
116.4124050256
 10
158.0550179186
 20
115.9200119865
 10
157.910214022
 20
115.4396814373
 10
157.6952386948
 20
115.0184321296
 10
157.4311347047
 20
114.697497439
 10
157.1437551009
 20
114.5082936701
 10
156.861230016
 20
114.4693411034
 10
156.6112150738
 20
114.5844530393
 10
156.4181840347
 20
114.8423614059
 10
156.3010313383
 20
115.2178199109
 10
156.2712252906
 20
115.6740767029
 10
156.3316832597
 20
116.166469742
  0
LINE
  5
181
330
1F
100
AcDbEntity
  8
0
  6
HIDDEN
 62
     7
370
     0
100
AcDbLine
 10
157.0906408431
 20
117.0650078994
 30
0.0
 11
157.708632976
 21
116.9766272497
 31
0.0
  0
LINE
  5
182
330
1F
100
AcDbEntity
  8
0
  6
HIDDEN
 62
     7
370
     0
100
AcDbLine
 10
158.3193687091
 20
116.7707462874
 30
0.0
 11
158.9373613077
 21
116.6823656377
 31
0.0
  0
LINE
  5
183
330
1F
100
AcDbEntity
  8
0
  6
HIDDEN
 62
     7
370
     0
100
AcDbLine
 10
158.3193687091
 20
116.7707462874
 30
0.0
 11
157.0906408431
 21
117.0650078994
 31
0.0
  0
LINE
  5
184
330
1F
100
AcDbEntity
  8
0
  6
HIDDEN
 62
     7
370
     0
100
AcDbLine
 10
158.5247886667
 20
114.7272112858
 30
0.0
 11
157.2960608008
 21
115.0214728978
 31
0.0
  0
LINE
  5
185
330
1F
100
AcDbEntity
  8
0
  6
HIDDEN
 62
     7
370
     0
100
AcDbLine
 10
156.6780682022
 20
115.1098535475
 30
0.0
 11
157.2960608008
 21
115.0214728978
 31
0.0
  0
LINE
  5
186
330
1F
100
AcDbEntity
  8
0
  6
HIDDEN
 62
     7
370
     0
100
AcDbLine
 10
157.9067965338
 20
114.8155914698
 30
0.0
 11
156.6780682022
 21
115.1098535475
 31
0.0
  0
LINE
  5
187
330
1F
100
AcDbEntity
  8
0
  6
HIDDEN
 62
     7
370
     0
100
AcDbLine
 10
157.9067965338
 20
114.8155914698
 30
0.0
 11
158.5247886667
 21
114.7272112858
 31
0.0
  0
LINE
  5
188
330
1F
100
AcDbEntity
  8
0
  6
HIDDEN
 62
     7
370
     0
100
AcDbLine
 10
159.0400712865
 20
115.6605986026
 30
0.0
 11
157.8113429548
 21
115.9548602146
 31
0.0
  0
LINE
  5
189
330
1F
100
AcDbEntity
  8
0
  6
HIDDEN
 62
     7
370
     0
100
AcDbLine
 10
158.9373613077
 20
116.6823656377
 30
0.0
 11
157.708632976
 21
116.9766272497
 31
0.0
  0
LINE
  5
18A
330
1F
100
AcDbEntity
  8
0
  6
HIDDEN
 62
     7
370
     0
100
AcDbLine
 10
157.708632976
 20
116.9766272497
 30
0.0
 11
157.8113429548
 21
115.9548602146
 31
0.0
  0
LINE
  5
18B
330
1F
100
AcDbEntity
  8
0
  6
HIDDEN
 62
     7
370
     0
100
AcDbLine
 10
158.9373613077
 20
116.6823656377
 30
0.0
 11
159.0400712865
 21
115.6605986026
 31
0.0
  0
LINE
  5
18C
330
1F
100
AcDbEntity
  8
0
  6
HIDDEN
 62
     7
370
     0
100
AcDbLine
 10
157.2960608008
 20
115.0214728978
 30
0.0
 11
157.8113429548
 21
115.9548602146
 31
0.0
  0
LINE
  5
18D
330
1F
100
AcDbEntity
  8
0
  6
HIDDEN
 62
     7
370
     0
100
AcDbLine
 10
158.5247886667
 20
114.7272112858
 30
0.0
 11
159.0400712865
 21
115.6605986026
 31
0.0
  0
ARC
  5
18E
330
1F
100
AcDbEntity
  8
0
  6
HIDDEN
 62
     7
370
     0
100
AcDbCircle
 10
165.6180797437
 20
97.9096847946
 30
0.0
 40
1.831150812938614
100
AcDbArc
 50
334.5486209033
 51
65.6355868705
  0
ARC
  5
18F
330
1F
100
AcDbEntity
  8
0
  6
HIDDEN
 62
     7
370
     0
100
AcDbCircle
 10
165.4421616046
 20
97.8197483859
 30
0.0
 40
1.989465664614795
100
AcDbArc
 50
62.0866889564
 51
177.4448406688
  0
ARC
  5
190
330
1F
100
AcDbEntity
  8
0
  6
HIDDEN
 62
     7
370
     0
100
AcDbCircle
 10
165.6089930163
 20
97.8741909632
 30
0.0
 40
1.741091668653895
100
AcDbArc
 50
337.9110021912
 51
65.6248066313
  0
ARC
  5
191
330
1F
100
AcDbEntity
  8
0
  6
HIDDEN
 62
     7
370
     0
100
AcDbCircle
 10
165.4530636887
 20
97.7285545798
 30
0.0
 40
1.939830713495028
100
AcDbArc
 50
63.2043232585
 51
154.6627938784
  0
ARC
  5
192
330
1F
100
AcDbEntity
  8
0
  6
HIDDEN
 62
     7
370
     0
100
AcDbCircle
 10
165.5646455725
 20
97.8648820965
 30
0.0
 40
1.387946141211048
100
AcDbArc
 50
351.9227020123
 51
65.3376717469
  0
LWPOLYLINE
  5
193
330
1F
100
AcDbEntity
  8
0
  6
HIDDEN
 62
     7
370
     0
100
AcDbPolyline
 90
        3
 70
   128
 43
0.0
 10
165.4525657485
 20
99.283776347
 10
165.6738470609
 20
99.2686498057
 10
166.1437933633
 20
99.1262235757
  0
LWPOLYLINE
  5
194
330
1F
100
AcDbEntity
  8
0
  6
HIDDEN
 62
     7
370
     0
100
AcDbPolyline
 90
       23
 70
   128
 43
0.0
 10
166.3735003511
 20
99.7145614665
 10
166.8367634828
 20
99.4036906477
 10
167.1880583579
 20
98.982767303
 10
167.3989246899
 20
98.4858908769
 10
167.4522801602
 20
97.9533168566
 10
167.3438006381
 20
97.4281906229
 10
167.0822750146
 20
96.953054991
 10
166.6888908783
 20
96.5664024543
 10
166.1955180878
 20
96.2995571163
 10
165.6421271453
 20
96.1741368365
 10
165.0735491256
 20
96.2003032755
 10
164.5358472431
 20
96.3759367433
 10
164.0725841115
 20
96.6868075621
 10
163.7212892363
 20
97.1077309069
 10
163.5104229043
 20
97.6046064016
 10
163.4570683653
 20
98.1371804219
 10
163.5655478874
 20
98.6623066556
 10
163.8270725796
 20
99.1374432188
 10
164.2204567159
 20
99.5240957555
 10
164.7138295064
 20
99.7909410935
 10
165.2672213802
 20
99.9163613733
 10
165.8357984687
 20
99.8901944686
 10
166.3735003511
 20
99.7145614665
  0
LWPOLYLINE
  5
195
330
1F
100
AcDbEntity
  8
0
  6
HIDDEN
 62
     7
370
     0
100
AcDbPolyline
 90
       20
 70
   128
 43
0.0
 10
166.1437933633
 20
100.1297017638
 10
166.5390634278
 20
99.8516032551
 10
166.8168229351
 20
99.4679691349
 10
166.9469724709
 20
99.0203722459
 10
166.9154080862
 20
98.5573158678
 10
166.7255505288
 20
98.1289801266
 10
166.3979736457
 20
97.7817821395
 10
165.9681757281
 20
97.5533454758
 10
165.482732218
 20
97.4684246894
 10
164.9942479396
 20
97.5362231102
 10
164.5556583369
 20
97.7493935343
 10
164.2144906635
 20
98.0848345053
 10
164.0077156315
 20
98.5061974343
 10
163.9577417935
 20
98.9678195756
 10
164.0699838588
 20
99.4196781967
 10
164.3322778234
 20
99.8128071506
 10
164.716201585
 20
100.1046040174
 10
165.1801501701
 20
100.2634489987
 10
165.6738470609
 20
100.2721284595
 10
166.1437933633
 20
100.1297017638
  0
LWPOLYLINE
  5
196
330
1F
100
AcDbEntity
  8
0
  6
HIDDEN
 62
     7
370
     0
100
AcDbPolyline
 90
       23
 70
   128
 43
0.0
 10
166.3735003511
 20
99.9069480304
 10
166.8367634828
 20
99.5960772116
 10
167.1880583579
 20
99.1751534012
 10
167.3989246899
 20
98.6782779064
 10
167.4522801602
 20
98.1457038861
 10
167.3438006381
 20
97.6205776524
 10
167.0822750146
 20
97.1454410892
 10
166.6888908783
 20
96.7587885525
 10
166.1955180878
 20
96.4919432145
 10
165.6421271453
 20
96.3665229347
 10
165.0735491256
 20
96.3926893738
 10
164.5358472431
 20
96.5683228415
 10
164.0725841115
 20
96.8791936603
 10
163.7212892363
 20
97.3001170051
 10
163.5104229043
 20
97.7969934311
 10
163.4570683653
 20
98.3295674514
 10
163.5655478874
 20
98.8546936851
 10
163.8270725796
 20
99.329829317
 10
164.2204567159
 20
99.7164823193
 10
164.7138295064
 20
99.9833276574
 10
165.2672213802
 20
100.1087474715
 10
165.8357984687
 20
100.0825810325
 10
166.3735003511
 20
99.9069480304
  0
LWPOLYLINE
  5
197
330
1F
100
AcDbEntity
  8
0
  6
HIDDEN
 62
     7
370
     0
100
AcDbPolyline
 90
       22
 70
   128
 43
0.0
 10
166.2999938542
 20
99.7253066007
 10
166.7441658044
 20
99.422940154
 10
167.0737608636
 20
99.010980789
 10
167.259492662
 20
98.5260336738
 10
167.284859095
 20
98.0111864474
 10
167.1476044992
 20
97.5121866059
 10
166.8599264065
 20
97.0733725544
 10
166.4473849649
 20
96.733735044
 10
165.9466370309
 20
96.5234526512
 10
165.4021756092
 20
96.4612086382
 10
164.8623791823
 20
96.5525341299
 10
164.3752108628
 20
96.7893145126
 10
163.9839575926
 20
97.1505121407
 10
163.7233837808
 20
97.6040308442
 10
163.6166430379
 20
98.1095741582
 10
163.6732190216
 20
98.6222234633
 10
163.8880853841
 20
99.0964268413
 10
164.2421490813
 20
99.4900489305
 10
164.7039518992
 20
99.7681153085
 10
165.2324597651
 20
99.9059179876
 10
165.7807116697
 20
99.8912128698
 10
166.2999938542
 20
99.7253066007
  0
LWPOLYLINE
  5
198
330
1F
100
AcDbEntity
  8
0
  6
HIDDEN
 62
     7
370
     0
100
AcDbPolyline
 90
       23
 70
   128
 43
0.0
 10
166.3735003511
 20
100.0993341286
 10
166.8367634828
 20
99.7884633098
 10
167.1880583579
 20
99.367539965
 10
167.3989246899
 20
98.8706640046
 10
167.4522801602
 20
98.3380899843
 10
167.3438006381
 20
97.8129637506
 10
167.0822750146
 20
97.3378281188
 10
166.6888908783
 20
96.9511746507
 10
166.1955180878
 20
96.6843293127
 10
165.6421271453
 20
96.5589099642
 10
165.0735491256
 20
96.5850764033
 10
164.5358472431
 20
96.7607089397
 10
164.0725841115
 20
97.0715797585
 10
163.7212892363
 20
97.4925040346
 10
163.5104229043
 20
97.9893795293
 10
163.4570683653
 20
98.5219535496
 10
163.5655478874
 20
99.0470797833
 10
163.8270725796
 20
99.5222158809
 10
164.2204567159
 20
99.9088684176
 10
164.7138295064
 20
100.1757137556
 10
165.2672213802
 20
100.3011340354
 10
165.8357984687
 20
100.2749671307
 10
166.3735003511
 20
100.0993341286
  0
LWPOLYLINE
  5
199
330
1F
100
AcDbEntity
  8
0
  6
HIDDEN
 62
     7
370
     0
100
AcDbPolyline
 90
       22
 70
   128
 43
0.0
 10
166.2999938542
 20
99.9176926989
 10
166.7441658044
 20
99.6153267179
 10
167.0737608636
 20
99.2033678186
 10
167.259492662
 20
98.718419772
 10
167.284859095
 20
98.2035725456
 10
167.1476044992
 20
97.7045727041
 10
166.8599264065
 20
97.265759584
 10
166.4473849649
 20
96.9261220735
 10
165.9466370309
 20
96.7158387494
 10
165.4021756092
 20
96.6535947364
 10
164.8623791823
 20
96.7449202281
 10
164.3752108628
 20
96.9817015421
 10
163.9839575926
 20
97.3428982389
 10
163.7233837808
 20
97.7964169424
 10
163.6166430379
 20
98.3019611877
 10
163.6732190216
 20
98.8146104928
 10
163.8880853841
 20
99.2888129395
 10
164.2421490813
 20
99.6824354943
 10
164.7039518992
 20
99.9605014067
 10
165.2324597651
 20
100.0983040858
 10
165.7807116697
 20
100.083598968
 10
166.2999938542
 20
99.9176926989
  0
LWPOLYLINE
  5
19A
330
1F
100
AcDbEntity
  8
0
  6
HIDDEN
 62
     7
370
     0
100
AcDbPolyline
 90
       23
 70
   128
 43
0.0
 10
166.3735003511
 20
100.2917206925
 10
166.8367634828
 20
99.9808498737
 10
167.1880583579
 20
99.5599260632
 10
167.3989246899
 20
99.0630501028
 10
167.4522801602
 20
98.5304760825
 10
167.3438006381
 20
98.0053498488
 10
167.0822750146
 20
97.530214217
 10
166.6888908783
 20
97.143560749
 10
166.1955180878
 20
96.8767154109
 10
165.6421271453
 20
96.7512960624
 10
165.0735491256
 20
96.7774625015
 10
164.5358472431
 20
96.9530950379
 10
164.0725841115
 20
97.2639658567
 10
163.7212892363
 20
97.6848901328
 10
163.5104229043
 20
98.1817656275
 10
163.4570683653
 20
98.7143396478
 10
163.5655478874
 20
99.2394658815
 10
163.8270725796
 20
99.7146019791
 10
164.2204567159
 20
100.1012549814
 10
164.7138295064
 20
100.3681003195
 10
165.2672213802
 20
100.4935201336
 10
165.8357984687
 20
100.4673536945
 10
166.3735003511
 20
100.2917206925
  0
LWPOLYLINE
  5
19B
330
1F
100
AcDbEntity
  8
0
  6
HIDDEN
 62
     7
370
     0
100
AcDbPolyline
 90
       22
 70
   128
 43
0.0
 10
166.2999938542
 20
100.1100792628
 10
166.7441658044
 20
99.8077128161
 10
167.0737608636
 20
99.3957539168
 10
167.259492662
 20
98.9108058703
 10
167.284859095
 20
98.3959586438
 10
167.1476044992
 20
97.8969597336
 10
166.8599264065
 20
97.4581456822
 10
166.4473849649
 20
97.1185081717
 10
165.9466370309
 20
96.9082248476
 10
165.4021756092
 20
96.8459808346
 10
164.8623791823
 20
96.9373063263
 10
164.3752108628
 20
97.1740876403
 10
163.9839575926
 20
97.5352843371
 10
163.7233837808
 20
97.9888030406
 10
163.6166430379
 20
98.4943472859
 10
163.6732190216
 20
99.0069965911
 10
163.8880853841
 20
99.4811995034
 10
164.2421490813
 20
99.8748215925
 10
164.7039518992
 20
100.1528879706
 10
165.2324597651
 20
100.2906906497
 10
165.7807116697
 20
100.2759855319
 10
166.2999938542
 20
100.1100792628
  0
LWPOLYLINE
  5
19C
330
1F
100
AcDbEntity
  8
0
  6
HIDDEN
 62
     7
370
     0
100
AcDbPolyline
 90
       23
 70
   128
 43
0.0
 10
166.3735003511
 20
100.4841067907
 10
166.8367634828
 20
100.1732359719
 10
167.1880583579
 20
99.7523126271
 10
167.3989246899
 20
99.2554362011
 10
167.4522801602
 20
98.7228621807
 10
167.3438006381
 20
98.197735947
 10
167.0822750146
 20
97.7226003152
 10
166.6888908783
 20
97.3359477785
 10
166.1955180878
 20
97.0691024404
 10
165.6421271453
 20
96.9436821606
 10
165.0735491256
 20
96.9698485997
 10
164.5358472431
 20
97.1454820674
 10
164.0725841115
 20
97.4563528862
 10
163.7212892363
 20
97.877276231
 10
163.5104229043
 20
98.3741517257
 10
163.4570683653
 20
98.9067257461
 10
163.5655478874
 20
99.4318524454
 10
163.8270725796
 20
99.9069885429
 10
164.2204567159
 20
100.2936410796
 10
164.7138295064
 20
100.5604864177
 10
165.2672213802
 20
100.6859066975
 10
165.8357984687
 20
100.6597397928
 10
166.3735003511
 20
100.4841067907
  0
LWPOLYLINE
  5
19D
330
1F
100
AcDbEntity
  8
0
  6
HIDDEN
 62
     7
370
     0
100
AcDbPolyline
 90
       22
 70
   128
 43
0.0
 10
166.2999938542
 20
100.302465361
 10
166.7441658044
 20
100.00009938
 10
167.0737608636
 20
99.588140015
 10
167.259492662
 20
99.1031919685
 10
167.284859095
 20
98.5883456733
 10
167.1476044992
 20
98.0893458318
 10
166.8599264065
 20
97.6505317804
 10
166.4473849649
 20
97.3108942699
 10
165.9466370309
 20
97.1006109458
 10
165.4021756092
 20
97.0383669328
 10
164.8623791823
 20
97.1296933558
 10
164.3752108628
 20
97.3664737385
 10
163.9839575926
 20
97.7276704353
 10
163.7233837808
 20
98.1811900702
 10
163.6166430379
 20
98.6867333841
 10
163.6732190216
 20
99.1993826893
 10
163.8880853841
 20
99.6735860672
 10
164.2421490813
 20
100.0672081564
 10
164.7039518992
 20
100.3452740688
 10
165.2324597651
 20
100.4830767479
 10
165.7807116697
 20
100.4683716301
 10
166.2999938542
 20
100.302465361
  0
LWPOLYLINE
  5
19E
330
1F
100
AcDbEntity
  8
0
  6
HIDDEN
 62
     7
370
     0
100
AcDbPolyline
 90
       23
 70
   128
 43
0.0
 10
166.3735003511
 20
100.8090261449
 10
166.8367634828
 20
100.4981553261
 10
167.1880583579
 20
100.0772315156
 10
167.3989246899
 20
99.5803555552
 10
167.4522801602
 20
99.0477820006
 10
167.3438006381
 20
98.5226557669
 10
167.0822750146
 20
98.0475192037
 10
166.6888908783
 20
97.660866667
 10
166.1955180878
 20
97.3940213289
 10
165.6421271453
 20
97.2686010491
 10
165.0735491256
 20
97.2947674882
 10
164.5358472431
 20
97.4704009559
 10
164.0725841115
 20
97.7812717747
 10
163.7212892363
 20
98.2021951195
 10
163.5104229043
 20
98.6990715456
 10
163.4570683653
 20
99.2316455659
 10
163.5655478874
 20
99.7567713339
 10
163.8270725796
 20
100.2319074314
 10
164.2204567159
 20
100.6185604338
 10
164.7138295064
 20
100.8854057718
 10
165.2672213802
 20
101.010825586
 10
165.8357984687
 20
100.9846591469
 10
166.3735003511
 20
100.8090261449
  0
LWPOLYLINE
  5
19F
330
1F
100
AcDbEntity
  8
0
  6
HIDDEN
 62
     7
370
     0
100
AcDbPolyline
 90
       20
 70
   128
 43
0.0
 10
166.1347818861
 20
100.477932122
 10
166.5248831103
 20
100.2034699623
 10
166.7990104595
 20
99.8248524111
 10
166.9274575377
 20
99.3831084188
 10
166.8963057289
 20
98.9261075002
 10
166.7089310775
 20
98.5033736643
 10
166.3856382782
 20
98.1607158747
 10
165.9614608923
 20
97.9352659624
 10
165.4823652769
 20
97.851456244
 10
165.0002689401
 20
97.9183680456
 10
164.5674144218
 20
98.12875009
 10
164.2307077835
 20
98.4598054629
 10
164.0266373122
 20
98.8756577563
 10
163.9773172627
 20
99.331243996
 10
164.0880906323
 20
99.7771933753
 10
164.3469554672
 20
100.1651809629
 10
164.7258584688
 20
100.4531626668
 10
165.1837394873
 20
100.6099303332
 10
165.6709813813
 20
100.6184961725
 10
166.1347818861
 20
100.477932122
  0
LWPOLYLINE
  5
1A0
330
1F
100
AcDbEntity
  8
0
  6
HIDDEN
 62
     7
370
     0
100
AcDbPolyline
 90
       20
 70
   128
 43
0.0
 10
166.933492508
 20
115.0480733332
 10
166.8754729742
 20
115.5027543273
 10
166.6634890551
 20
115.9150955346
 10
166.3205108905
 20
116.2404158231
 10
165.8837057019
 20
116.4434599769
 10
165.400407959
 20
116.5022255
 10
164.9229915181
 20
116.4103449401
 10
164.5031904171
 20
116.1777741354
 10
164.1864979008
 20
115.8297165376
 10
164.0072313437
 20
115.4038888481
 10
163.9848181347
 20
114.9464357723
 10
164.1216862316
 20
114.5069302138
 10
164.4030043224
 20
114.1329995435
 10
164.7982874254
 20
113.8651646752
 10
165.26470029
 20
113.7324493457
 10
165.7516991088
 20
113.7492359694
 10
166.2065114195
 20
113.9137047422
 10
166.5798497686
 20
114.2080334094
 10
166.831258435
 20
114.6003265012
 10
166.933492508
 20
115.0480733332
  0
LWPOLYLINE
  5
1A1
330
1F
100
AcDbEntity
  8
0
  6
HIDDEN
 62
     7
370
     0
100
AcDbPolyline
 90
       23
 70
   128
 43
0.0
 10
167.4525576944
 20
115.1282229539
 10
167.3975444699
 20
115.6606479626
 10
167.185131211
 20
116.1569413808
 10
166.8325268964
 20
116.5768970814
 10
166.3682970518
 20
116.8864929196
 10
165.830051277
 20
117.0606465157
 10
165.2613940949
 20
117.0852492642
 10
164.7083961705
 20
116.9583072033
 10
164.2158559824
 20
116.6901067909
 10
163.8236779088
 20
116.3023729887
 10
163.5636340196
 20
115.8265202385
 10
163.4567908311
 20
115.3010978442
 10
163.5118031243
 20
114.7686728355
 10
163.7242163832
 20
114.2723789517
 10
164.0768206978
 20
113.8524232511
 10
164.5410505424
 20
113.5428278786
 10
165.0792963172
 20
113.3686742824
 10
165.6479534993
 20
113.3440715339
 10
166.200952355
 20
113.4710126635
 10
166.6934916118
 20
113.7392140072
 10
167.0856696854
 20
114.1269468781
 10
167.345714506
 20
114.602800094
 10
167.4525576944
 20
115.1282229539
  0
LWPOLYLINE
  5
1A2
330
1F
100
AcDbEntity
  8
0
  6
HIDDEN
 62
     7
370
     0
100
AcDbPolyline
 90
       23
 70
   128
 43
0.0
 10
167.4525576944
 20
115.4531418424
 10
167.3975444699
 20
115.9855668512
 10
167.185131211
 20
116.4818602693
 10
166.8325268964
 20
116.9018159699
 10
166.3682970518
 20
117.2114118081
 10
165.830051277
 20
117.3855654043
 10
165.2613940949
 20
117.4101681527
 10
164.7083961705
 20
117.2832270231
 10
164.2158559824
 20
117.0150256794
 10
163.8236779088
 20
116.6272928086
 10
163.5636340196
 20
116.151439127
 10
163.4567908311
 20
115.6260167327
 10
163.5118031243
 20
115.093591724
 10
163.7242163832
 20
114.5972983059
 10
164.0768206978
 20
114.1773426053
 10
164.5410505424
 20
113.8677472327
 10
165.0792963172
 20
113.6935936366
 10
165.6479534993
 20
113.6689908881
 10
166.200952355
 20
113.7959320177
 10
166.6934916118
 20
114.0641333614
 10
167.0856696854
 20
114.4518662323
 10
167.345714506
 20
114.9277194482
 10
167.4525576944
 20
115.4531418424
  0
LWPOLYLINE
  5
1A3
330
1F
100
AcDbEntity
  8
0
  6
HIDDEN
 62
     7
370
     0
100
AcDbPolyline
 90
       20
 70
   128
 43
0.0
 10
166.9530866036
 20
116.4153060954
 10
166.8942987288
 20
116.876010884
 10
166.6795059407
 20
117.2938170921
 10
166.331982922
 20
117.6234475416
 10
165.8893904949
 20
117.8291813549
 10
165.399688978
 20
117.888726395
 10
164.9159469942
 20
117.7956285965
 10
164.4905831034
 20
117.5599760454
 10
164.1696940476
 20
117.2073056069
 10
163.988052618
 20
116.7758359652
 10
163.965342317
 20
116.3123223078
 10
164.1040246302
 20
115.8669927236
 10
164.389069874
 20
115.4881074172
 10
164.7895907352
 20
115.2167237442
 10
165.2621829251
 20
115.0822500777
 10
165.755634878
 20
115.0992588219
 10
166.2164728457
 20
115.2659068894
 10
166.5947583804
 20
115.5641359356
 10
166.8494974563
 20
115.9616272044
 10
166.9530866036
 20
116.4153060954
  0
LWPOLYLINE
  5
1A4
330
1F
100
AcDbEntity
  8
0
  6
HIDDEN
 62
     7
370
     0
100
AcDbPolyline
 90
       20
 70
   128
 43
0.0
 10
166.9530866036
 20
115.411828373
 10
166.8942987288
 20
115.8725331616
 10
166.6795059407
 20
116.2903384384
 10
166.331982922
 20
116.6199688878
 10
165.8893904949
 20
116.8257036325
 10
165.399688978
 20
116.8852477413
 10
164.9159469942
 20
116.7921499428
 10
164.4905831034
 20
116.5564973917
 10
164.1696940476
 20
116.2038278845
 10
163.988052618
 20
115.7723573115
 10
163.965342317
 20
115.3088436541
 10
164.1040246302
 20
114.8635145355
 10
164.389069874
 20
114.4846292291
 10
164.7895907352
 20
114.2132455562
 10
165.2621829251
 20
114.0787718896
 10
165.755634878
 20
114.0957806338
 10
166.2164728457
 20
114.2624287013
 10
166.5947583804
 20
114.5606572818
 10
166.8494974563
 20
114.9581485506
 10
166.9530866036
 20
115.411828373
  0
LWPOLYLINE
  5
1A5
330
1F
100
AcDbEntity
  8
0
  6
HIDDEN
 62
     7
370
     0
100
AcDbPolyline
 90
       23
 70
   128
 43
0.0
 10
167.4525576944
 20
115.6455279407
 10
167.3975444699
 20
116.1779529494
 10
167.185131211
 20
116.6742463675
 10
166.8325268964
 20
117.0942029994
 10
166.3682970518
 20
117.4037979063
 10
165.830051277
 20
117.5779515025
 10
165.2613940949
 20
117.6025542509
 10
164.7083961705
 20
117.4756131214
 10
164.2158559824
 20
117.2074117776
 10
163.8236779088
 20
116.8196789068
 10
163.5636340196
 20
116.3438261565
 10
163.4567908311
 20
115.8184037622
 10
163.5118031243
 20
115.2859787535
 10
163.7242163832
 20
114.7896844041
 10
164.0768206978
 20
114.3697287035
 10
164.5410505424
 20
114.0601333309
 10
165.0792963172
 20
113.8859797348
 10
165.6479534993
 20
113.8613769863
 10
166.200952355
 20
113.9883181159
 10
166.6934916118
 20
114.2565194596
 10
167.0856696854
 20
114.6442523305
 10
167.345714506
 20
115.1201055464
 10
167.4525576944
 20
115.6455279407
  0
LWPOLYLINE
  5
1A6
330
1F
100
AcDbEntity
  8
0
  6
HIDDEN
 62
     7
370
     0
100
AcDbPolyline
 90
       22
 70
   128
 43
0.0
 10
167.2927269081
 20
115.5081532043
 10
167.2360112259
 20
116.0207885396
 10
167.0210163409
 20
116.4949406948
 10
166.6668446103
 20
116.888477568
 10
166.2049663553
 20
117.166432653
 10
165.6764212365
 20
117.3041082066
 10
165.1281730572
 20
117.2892713067
 10
164.6089365075
 20
117.123240706
 10
164.1648465136
 20
116.8207676228
 10
163.8353632132
 20
116.4087290954
 10
163.6497636626
 20
115.9237372768
 10
163.6245378593
 20
115.4088835311
 10
163.7619274969
 20
114.9099172172
 10
164.0497257302
 20
114.4711725492
 10
164.4623593727
 20
114.1316342246
 10
164.9631641174
 20
113.9214715068
 10
165.5076423029
 20
113.859357879
 10
166.0474135841
 20
113.9508132901
 10
166.5345176423
 20
114.1877114851
 10
166.9256731237
 20
114.5490022455
 10
167.1861230696
 20
115.0025838133
 10
167.2927269081
 20
115.5081532043
  0
LWPOLYLINE
  5
1A7
330
1F
100
AcDbEntity
  8
0
  6
HIDDEN
 62
     7
370
     0
100
AcDbPolyline
 90
       23
 70
   128
 43
0.0
 10
167.4525576944
 20
115.8379140389
 10
167.3975444699
 20
116.3703390476
 10
167.185131211
 20
116.866633397
 10
166.8325268964
 20
117.2865890976
 10
166.3682970518
 20
117.5961840045
 10
165.830051277
 20
117.7703376007
 10
165.2613940949
 20
117.7949403491
 10
164.7083961705
 20
117.6679992196
 10
164.2158559824
 20
117.3997978758
 10
163.8236779088
 20
117.012065005
 10
163.5636340196
 20
116.5362122547
 10
163.4567908311
 20
116.0107898604
 10
163.5118031243
 20
115.4783648517
 10
163.7242163832
 20
114.982070968
 10
164.0768206978
 20
114.5621152673
 10
164.5410505424
 20
114.2525198948
 10
165.0792963172
 20
114.0783662986
 10
165.6479534993
 20
114.0537635502
 10
166.200952355
 20
114.1807046797
 10
166.6934916118
 20
114.4489060235
 10
167.0856696854
 20
114.8366388943
 10
167.345714506
 20
115.3124916446
 10
167.4525576944
 20
115.8379140389
  0
LWPOLYLINE
  5
1A8
330
1F
100
AcDbEntity
  8
0
  6
HIDDEN
 62
     7
370
     0
100
AcDbPolyline
 90
       22
 70
   128
 43
0.0
 10
167.2927269081
 20
115.7005393025
 10
167.2360112259
 20
116.2131746378
 10
167.0210163409
 20
116.687326793
 10
166.6668446103
 20
117.0808636662
 10
166.2049663553
 20
117.3588187512
 10
165.6764212365
 20
117.4964943048
 10
165.1281730572
 20
117.4816574049
 10
164.6089365075
 20
117.3156268042
 10
164.1648465136
 20
117.0131537211
 10
163.8353632132
 20
116.6011161249
 10
163.6497636626
 20
116.116123375
 10
163.6245378593
 20
115.6012705606
 10
163.7619274969
 20
115.1023033154
 10
164.0497257302
 20
114.6635591131
 10
164.4623593727
 20
114.3240203228
 10
164.9631641174
 20
114.113857605
 10
165.5076423029
 20
114.0517444428
 10
166.0474135841
 20
114.143199854
 10
166.5345176423
 20
114.3800975833
 10
166.9256731237
 20
114.7413883437
 10
167.1861230696
 20
115.1949699115
 10
167.2927269081
 20
115.7005393025
  0
LWPOLYLINE
  5
1A9
330
1F
100
AcDbEntity
  8
0
  6
HIDDEN
 62
     7
370
     0
100
AcDbPolyline
 90
       23
 70
   128
 43
0.0
 10
167.4525576944
 20
116.0303010684
 10
167.3975444699
 20
116.5627260771
 10
167.185131211
 20
117.0590194952
 10
166.8325268964
 20
117.4789751958
 10
166.3682970518
 20
117.788571034
 10
165.830051277
 20
117.9627246302
 10
165.2613940949
 20
117.9873273787
 10
164.7083961705
 20
117.8603853178
 10
164.2158559824
 20
117.5921849054
 10
163.8236779088
 20
117.2044511032
 10
163.5636340196
 20
116.7285983529
 10
163.4567908311
 20
116.2031759587
 10
163.5118031243
 20
115.6707509499
 10
163.7242163832
 20
115.1744575318
 10
164.0768206978
 20
114.7545013655
 10
164.5410505424
 20
114.444905993
 10
165.0792963172
 20
114.2707523968
 10
165.6479534993
 20
114.2461496484
 10
166.200952355
 20
114.373090778
 10
166.6934916118
 20
114.6412921217
 10
167.0856696854
 20
115.0290249925
 10
167.345714506
 20
115.5048786741
 10
167.4525576944
 20
116.0303010684
  0
LWPOLYLINE
  5
1AA
330
1F
100
AcDbEntity
  8
0
  6
HIDDEN
 62
     7
370
     0
100
AcDbPolyline
 90
       22
 70
   128
 43
0.0
 10
167.2927269081
 20
115.892926332
 10
167.2360112259
 20
116.4055616673
 10
167.0210163409
 20
116.8797128912
 10
166.6668446103
 20
117.2732497644
 10
166.2049663553
 20
117.5512048494
 10
165.6764212365
 20
117.6888813343
 10
165.1281730572
 20
117.6740444344
 10
164.6089365075
 20
117.5080129024
 10
164.1648465136
 20
117.2055407506
 10
163.8353632132
 20
116.7935022232
 10
163.6497636626
 20
116.3085094732
 10
163.6245378593
 20
115.7936566588
 10
163.7619274969
 20
115.2946903449
 10
164.0497257302
 20
114.8559452113
 10
164.4623593727
 20
114.5164068867
 10
164.9631641174
 20
114.3062441688
 10
165.5076423029
 20
114.244130541
 10
166.0474135841
 20
114.3355859522
 10
166.5345176423
 20
114.5724841472
 10
166.9256731237
 20
114.9337749075
 10
167.1861230696
 20
115.3873560097
 10
167.2927269081
 20
115.892926332
  0
LWPOLYLINE
  5
1AB
330
1F
100
AcDbEntity
  8
0
  6
HIDDEN
 62
     7
370
     0
100
AcDbPolyline
 90
       23
 70
   128
 43
0.0
 10
167.4525576944
 20
116.2226871666
 10
167.3975444699
 20
116.7551121753
 10
167.185131211
 20
117.2514055934
 10
166.8325268964
 20
117.6713612941
 10
166.3682970518
 20
117.9809571322
 10
165.830051277
 20
118.1551107284
 10
165.2613940949
 20
118.1797134769
 10
164.7083961705
 20
118.0527723473
 10
164.2158559824
 20
117.7845710036
 10
163.8236779088
 20
117.3968381327
 10
163.5636340196
 20
116.9209844511
 10
163.4567908311
 20
116.3955620569
 10
163.5118031243
 20
115.8631370481
 10
163.7242163832
 20
115.36684363
 10
164.0768206978
 20
114.9468879294
 10
164.5410505424
 20
114.6372925569
 10
165.0792963172
 20
114.4631389607
 10
165.6479534993
 20
114.4385362123
 10
166.200952355
 20
114.5654773418
 10
166.6934916118
 20
114.8336786855
 10
167.0856696854
 20
115.2214110908
 10
167.345714506
 20
115.6972647723
 10
167.4525576944
 20
116.2226871666
  0
LWPOLYLINE
  5
1AC
330
1F
100
AcDbEntity
  8
0
  6
HIDDEN
 62
     7
370
     0
100
AcDbPolyline
 90
       22
 70
   128
 43
0.0
 10
167.2927269081
 20
116.0853124302
 10
167.2360112259
 20
116.5979477655
 10
167.0210163409
 20
117.0720989894
 10
166.6668446103
 20
117.4656367939
 10
166.2049663553
 20
117.743591879
 10
165.6764212365
 20
117.8812674325
 10
165.1281730572
 20
117.8664305326
 10
164.6089365075
 20
117.7003990006
 10
164.1648465136
 20
117.3979268488
 10
163.8353632132
 20
116.9858883214
 10
163.6497636626
 20
116.5008955714
 10
163.6245378593
 20
115.986042757
 10
163.7619274969
 20
115.4870764431
 10
164.0497257302
 20
115.0483313095
 10
164.4623593727
 20
114.7087929849
 10
164.9631641174
 20
114.498630267
 10
165.5076423029
 20
114.4365171049
 10
166.0474135841
 20
114.5279725161
 10
166.5345176423
 20
114.7648702454
 10
166.9256731237
 20
115.1261610058
 10
167.1861230696
 20
115.5797430393
 10
167.2927269081
 20
116.0853124302
  0
LWPOLYLINE
  5
1AD
330
1F
100
AcDbEntity
  8
0
  6
HIDDEN
 62
     7
370
     0
100
AcDbPolyline
 90
       23
 70
   128
 43
0.0
 10
167.4525576944
 20
116.3594947275
 10
167.3975444699
 20
116.8919197362
 10
167.185131211
 20
117.3882140857
 10
166.8325268964
 20
117.8081697863
 10
166.3682970518
 20
118.1177646932
 10
165.830051277
 20
118.2919182893
 10
165.2613940949
 20
118.3165210378
 10
164.7083961705
 20
118.1895799082
 10
164.2158559824
 20
117.9213785645
 10
163.8236779088
 20
117.5336456936
 10
163.5636340196
 20
117.0577929434
 10
163.4567908311
 20
116.5323705491
 10
163.5118031243
 20
115.9999455404
 10
163.7242163832
 20
115.503651191
 10
164.0768206978
 20
115.0836954903
 10
164.5410505424
 20
114.7741005835
 10
165.0792963172
 20
114.5999469873
 10
165.6479534993
 20
114.5753442388
 10
166.200952355
 20
114.7022853684
 10
166.6934916118
 20
114.9704867121
 10
167.0856696854
 20
115.358219583
 10
167.345714506
 20
115.8340723332
 10
167.4525576944
 20
116.3594947275
  0
LWPOLYLINE
  5
1AE
330
1F
100
AcDbEntity
  8
0
  6
HIDDEN
 62
     7
370
     0
100
AcDbPolyline
 90
       22
 70
   128
 43
0.0
 10
167.3526631037
 20
116.3980188858
 10
167.2940987462
 20
116.92737053
 10
167.0720928649
 20
117.4169835713
 10
166.706371803
 20
117.8233540696
 10
166.2294321994
 20
118.1103727859
 10
165.6836520249
 20
118.2525373143
 10
165.1175261775
 20
118.2372170579
 10
164.5813572521
 20
118.0657717478
 10
164.1227870548
 20
117.7534359586
 10
163.7825600172
 20
117.3279621717
 10
163.5909078012
 20
116.8271546331
 10
163.5648596401
 20
116.2955128666
 10
163.7067289392
 20
115.780275416
 10
164.0039121101
 20
115.3272233051
 10
164.4300005699
 20
114.9766134177
 10
164.9471369872
 20
114.7595975627
 10
165.5093699062
 20
114.6954587739
 10
166.0667422528
 20
114.78989628
 10
166.5697300175
 20
115.0345188644
 10
166.9736399615
 20
115.4075908553
 10
167.2425835693
 20
115.8759632226
 10
167.3526631037
 20
116.3980188858
  0
LINE
  5
1AF
330
1F
100
AcDbEntity
  8
0
  6
HIDDEN
 62
     7
370
     0
100
AcDbLine
 10
167.4546736593
 20
96.3183437553
 30
0.0
 11
167.4546736593
 21
99.1397137832
 31
0.0
  0
LINE
  5
1B0
330
1F
100
AcDbEntity
  8
0
  6
HIDDEN
 62
     7
370
     0
100
AcDbLine
 10
163.4546739349
 20
99.1227590558
 30
0.0
 11
163.4546739349
 21
97.6013030004
 31
0.0
  0
LINE
  5
1B1
330
1F
100
AcDbEntity
  8
0
  6
HIDDEN
 62
     7
370
     0
100
AcDbLine
 10
155.6546739137
 20
95.7832616832
 30
0.0
 11
157.5482731985
 21
96.2367505845
 31
0.0
  0
LINE
  5
1B2
330
1F
100
AcDbEntity
  8
0
  6
HIDDEN
 62
     7
370
     0
100
AcDbLine
 10
156.5700957852
 20
100.3212538626
 30
0.0
 11
155.6546739137
 21
100.1020242539
 31
0.0
  0
LINE
  5
1B3
330
1F
100
AcDbEntity
  8
0
  6
HIDDEN
 62
     7
370
     0
100
AcDbLine
 10
157.5776345397
 20
96.7065068972
 30
0.0
 11
164.7846947724
 21
98.4324897718
 31
0.0
  0
LINE
  5
1B4
330
1F
100
AcDbEntity
  8
0
  6
HIDDEN
 62
     7
370
     0
100
AcDbLine
 10
164.7846947724
 20
101.8258036193
 30
0.0
 11
156.8090666386
 21
99.9157592733
 31
0.0
  0
LINE
  5
1B5
330
1F
100
AcDbEntity
  8
0
  6
HIDDEN
 62
     7
370
     0
100
AcDbLine
 10
167.1046742538
 20
99.1832829159
 30
0.0
 11
167.1046742538
 21
104.7836713106
 31
0.0
  0
LINE
  5
1B6
330
1F
100
AcDbEntity
  8
0
  6
HIDDEN
 62
     7
370
     0
100
AcDbLine
 10
163.8046742717
 20
99.205522899
 30
0.0
 11
163.8046742717
 21
99.1832829159
 31
0.0
  0
LINE
  5
1B7
330
1F
100
AcDbEntity
  8
0
  6
HIDDEN
 62
     7
370
     0
100
AcDbLine
 10
163.8046742717
 20
104.7846140419
 30
0.0
 11
163.8046742717
 21
100.5833699447
 31
0.0
  0
LINE
  5
1B8
330
1F
100
AcDbEntity
  8
0
  6
HIDDEN
 62
     7
370
     0
100
AcDbLine
 10
173.8230211029
 20
125.6771870967
 30
0.0
 11
171.9546743969
 21
125.6771870967
 31
0.0
  0
LINE
  5
1B9
330
1F
100
AcDbEntity
  8
0
  6
HIDDEN
 62
     7
370
     0
100
AcDbLine
 10
171.9546743969
 20
88.6771866199
 30
0.0
 11
173.8230211029
 21
88.6771866199
 31
0.0
  0
ARC
  5
1BA
330
1F
100
AcDbEntity
  8
0
  6
HIDDEN
 62
     7
370
     0
100
AcDbCircle
 10
171.9546739945
 20
124.6771868583
 30
0.0
 40
1.000000000000014
100
AcDbArc
 50
90.0
 51
180.0
  0
ARC
  5
1BB
330
1F
100
AcDbEntity
  8
0
  6
HIDDEN
 62
     7
370
     0
100
AcDbCircle
 10
171.9546739945
 20
89.6771868583
 30
0.0
 40
1.000000000000014
100
AcDbArc
 50
180.0
 51
270.0
  0
ARC
  5
1BC
330
1F
100
AcDbEntity
  8
0
  6
HIDDEN
 62
     7
370
     0
100
AcDbCircle
 10
173.823021497
 20
124.6771868583
 30
0.0
 40
1.000000000000014
100
AcDbArc
 50
75.0
 51
90.0
  0
ARC
  5
1BD
330
1F
100
AcDbEntity
  8
0
  6
HIDDEN
 62
     7
370
     0
100
AcDbCircle
 10
173.823021497
 20
89.6771868583
 30
0.0
 40
1.000000000000017
100
AcDbArc
 50
270.0
 51
285.0
  0
LINE
  5
1BE
330
1F
100
AcDbEntity
  8
0
  6
HIDDEN
 62
     7
370
     0
100
AcDbLine
 10
174.0818412343
 20
88.7112618503
 30
0.0
 11
175.8206987122
 21
89.1771876332
 31
0.0
  0
LINE
  5
1BF
330
1F
100
AcDbEntity
  8
0
  6
HIDDEN
 62
     7
370
     0
100
AcDbLine
 10
175.8206987122
 20
125.1771860835
 30
0.0
 11
174.0818412343
 21
125.6431118664
 31
0.0
  0
LINE
  5
1C0
330
1F
100
AcDbEntity
  8
0
  6
HIDDEN
 62
     7
370
     0
100
AcDbLine
 10
194.8546727488
 20
125.1771860835
 30
0.0
 11
175.8206987122
 21
125.1771860835
 31
0.0
  0
LINE
  5
1C1
330
1F
100
AcDbEntity
  8
0
  6
HIDDEN
 62
     7
370
     0
100
AcDbLine
 10
175.8206987122
 20
89.1771876332
 30
0.0
 11
194.8546727488
 21
89.1771876332
 31
0.0
  0
LINE
  5
1C2
330
1F
100
AcDbEntity
  8
0
  6
HIDDEN
 62
     7
370
     0
100
AcDbLine
 10
211.4546743522
 20
133.2512685176
 30
0.0
 11
210.8679150531
 21
132.6645166692
 31
0.0
  0
LINE
  5
1C3
330
1F
100
AcDbEntity
  8
0
  6
HIDDEN
 62
     7
370
     0
100
AcDbLine
 10
210.8677138875
 20
81.6900526252
 30
0.0
 11
211.4546743522
 21
81.103105199
 31
0.0
  0
ARC
  5
1C4
330
1F
100
AcDbEntity
  8
0
  6
HIDDEN
 62
     7
370
     0
100
AcDbCircle
 10
85.0046739945
 20
97.8771868583
 30
0.0
 40
0.7999999999999972
100
AcDbArc
 50
90.0
 51
180.0
  0
ARC
  5
1C5
330
1F
100
AcDbEntity
  8
0
  6
HIDDEN
 62
     7
370
     0
100
AcDbCircle
 10
85.0046739945
 20
116.4771868583
 30
0.0
 40
0.7999999999999972
100
AcDbArc
 50
180.0
 51
270.0
  0
LINE
  5
1C6
330
1F
100
AcDbEntity
  8
0
  6
HIDDEN
 62
     7
370
     0
100
AcDbLine
 10
92.097047467
 20
98.4521872443
 30
0.0
 11
92.9737349341
 21
98.4521872443
 31
0.0
  0
LINE
  5
1C7
330
1F
100
AcDbEntity
  8
0
  6
HIDDEN
 62
     7
370
     0
100
AcDbLine
 10
92.9737349341
 20
115.9021864724
 30
0.0
 11
92.097047467
 21
115.9021864724
 31
0.0
  0
ARC
  5
1C8
330
1F
100
AcDbEntity
  8
0
  6
HIDDEN
 62
     7
370
     0
100
AcDbCircle
 10
92.9737338869
 20
98.8521868583
 30
0.0
 40
0.4000000000000057
100
AcDbArc
 50
270.0
 51
330.0
  0
ARC
  5
1C9
330
1F
100
AcDbEntity
  8
0
  6
HIDDEN
 62
     7
370
     0
100
AcDbCircle
 10
92.9737338869
 20
115.5021868583
 30
0.0
 40
0.4000000000000057
100
AcDbArc
 50
30.0
 51
90.0
  0
ARC
  5
1CA
330
1F
100
AcDbEntity
  8
0
  6
HIDDEN
 62
     7
370
     0
100
AcDbCircle
 10
92.0970464253
 20
98.8521868583
 30
0.0
 40
0.3999999999999915
100
AcDbArc
 50
255.0
 51
270.0
  0
ARC
  5
1CB
330
1F
100
AcDbEntity
  8
0
  6
HIDDEN
 62
     7
370
     0
100
AcDbCircle
 10
92.0970464253
 20
115.5021868583
 30
0.0
 40
0.3999999999999915
100
AcDbArc
 50
90.0
 51
105.0
  0
LINE
  5
1CC
330
1F
100
AcDbEntity
  8
0
  6
HIDDEN
 62
     7
370
     0
100
AcDbLine
 10
91.9935179243
 20
115.8885574978
 30
0.0
 11
91.2046728024
 21
115.6771873203
 31
0.0
  0
LINE
  5
1CD
330
1F
100
AcDbEntity
  8
0
  6
HIDDEN
 62
     7
370
     0
100
AcDbLine
 10
91.2046728024
 20
98.6771863964
 30
0.0
 11
91.9935179243
 21
98.4658162188
 31
0.0
  0
LINE
  5
1CE
330
1F
100
AcDbEntity
  8
0
  6
HIDDEN
 62
     7
370
     0
100
AcDbLine
 10
93.3201422284
 20
98.6521869045
 30
0.0
 11
94.2006034145
 21
100.1771866422
 31
0.0
  0
LINE
  5
1CF
330
1F
100
AcDbEntity
  8
0
  6
HIDDEN
 62
     7
370
     0
100
AcDbLine
 10
94.2006034145
 20
114.1771870744
 30
0.0
 11
93.3201422284
 21
115.7021868121
 31
0.0
  0
LINE
  5
1D0
330
1F
100
AcDbEntity
  8
0
  6
HIDDEN
 62
     7
370
     0
100
AcDbLine
 10
85.0046721587
 20
98.6771863964
 30
0.0
 11
91.2046728024
 21
98.6771863964
 31
0.0
  0
LINE
  5
1D1
330
1F
100
AcDbEntity
  8
0
  6
HIDDEN
 62
     7
370
     0
100
AcDbLine
 10
91.2046728024
 20
115.6771873203
 30
0.0
 11
85.0046721587
 21
115.6771873203
 31
0.0
  0
LINE
  5
1D2
330
1F
100
AcDbEntity
  8
0
  6
HIDDEN
 62
     7
370
     0
100
AcDbLine
 10
94.2006034145
 20
100.1771866422
 30
0.0
 11
170.954674233
 21
100.1771866422
 31
0.0
  0
LINE
  5
1D3
330
1F
100
AcDbEntity
  8
0
  6
HIDDEN
 62
     7
370
     0
100
AcDbLine
 10
170.954674233
 20
114.1771870744
 30
0.0
 11
94.2006034145
 21
114.1771870744
 31
0.0
  0
ARC
  5
1D4
330
1F
100
AcDbEntity
  8
0
  6
HIDDEN
 62
     7
370
     0
100
AcDbCircle
 10
177.9546739945
 20
82.9771868583
 30
0.0
 40
1.599999999999994
100
AcDbArc
 50
0.0
 51
90.0
  0
LINE
  5
1D5
330
1F
100
AcDbEntity
  8
0
  6
HIDDEN
 62
     7
370
     0
100
AcDbLine
 10
179.554674525
 20
82.1771864858
 30
0.0
 11
179.554674525
 21
82.9771869894
 31
0.0
  0
LINE
  5
1D6
330
1F
100
AcDbEntity
  8
0
  6
HIDDEN
 62
     7
370
     0
100
AcDbLine
 10
210.8837736139
 20
132.6771863815
 30
0.0
 11
194.8546727488
 21
132.6771863815
 31
0.0
  0
LINE
  5
1D7
330
1F
100
AcDbEntity
  8
0
  6
HIDDEN
 62
     7
370
     0
100
AcDbLine
 10
194.8546727488
 20
81.6771873352
 30
0.0
 11
210.8829056213
 21
81.6771873352
 31
0.0
  0
LINE
  5
1D8
330
1F
100
AcDbEntity
  8
0
  6
HIDDEN
 62
     7
370
     0
100
AcDbLine
 10
179.554674525
 20
131.9771875706
 30
0.0
 11
179.554674525
 21
132.1771872308
 31
0.0
  0
LINE
  5
1D9
330
1F
100
AcDbEntity
  8
0
  6
HIDDEN
 62
     7
370
     0
100
AcDbLine
 10
167.1046742538
 20
109.5697596748
 30
0.0
 11
167.1046742538
 21
115.1710908007
 31
0.0
  0
LINE
  5
1DA
330
1F
100
AcDbEntity
  8
0
  6
HIDDEN
 62
     7
370
     0
100
AcDbLine
 10
163.8046742717
 20
113.771003772
 30
0.0
 11
163.8046742717
 21
109.5707024061
 31
0.0
  0
LINE
  5
1DB
330
1F
100
AcDbEntity
  8
0
  6
HIDDEN
 62
     7
370
     0
100
AcDbLine
 10
163.8046742717
 20
115.1710908007
 30
0.0
 11
163.8046742717
 21
115.1488508176
 31
0.0
  0
LINE
  5
1DC
330
1F
100
AcDbEntity
  8
0
  6
HIDDEN
 62
     7
370
     0
100
AcDbLine
 10
156.8090666386
 20
114.4386144434
 30
0.0
 11
164.7846947724
 21
112.5285700973
 31
0.0
  0
LINE
  5
1DD
330
1F
100
AcDbEntity
  8
0
  6
HIDDEN
 62
     7
370
     0
100
AcDbLine
 10
164.7846947724
 20
115.9218839448
 30
0.0
 11
157.5776345397
 21
117.6478668195
 31
0.0
  0
LINE
  5
1DE
330
1F
100
AcDbEntity
  8
0
  6
HIDDEN
 62
     7
370
     0
100
AcDbLine
 10
167.4546736593
 20
115.2146599334
 30
0.0
 11
167.4546736593
 21
118.0360299614
 31
0.0
  0
LINE
  5
1DF
330
1F
100
AcDbEntity
  8
0
  6
HIDDEN
 62
     7
370
     0
100
AcDbLine
 10
163.4546739349
 20
116.7530707162
 30
0.0
 11
163.4546739349
 21
115.2316146609
 31
0.0
  0
LINE
  5
1E0
330
1F
100
AcDbEntity
  8
0
  6
HIDDEN
 62
     7
370
     0
100
AcDbLine
 10
155.6546739137
 20
114.2523494628
 30
0.0
 11
156.5700957852
 21
114.033119854
 31
0.0
  0
LINE
  5
1E1
330
1F
100
AcDbEntity
  8
0
  6
HIDDEN
 62
     7
370
     0
100
AcDbLine
 10
157.5482731985
 20
118.1176231321
 30
0.0
 11
155.6546739137
 21
118.5711120334
 31
0.0
  0
LINE
  5
1E2
330
1F
100
AcDbEntity
  8
0
  6
HIDDEN
 62
     7
370
     0
100
AcDbLine
 10
162.954673853
 20
116.6658784341
 30
0.0
 11
162.954673853
 21
115.6421854239
 31
0.0
  0
LINE
  5
1E3
330
1F
100
AcDbEntity
  8
0
  6
HIDDEN
 62
     7
370
     0
100
AcDbLine
 10
167.9546737412
 20
115.6421854239
 30
0.0
 11
167.9546737412
 21
116.6658784341
 31
0.0
  0
LINE
  5
1E4
330
1F
100
AcDbEntity
  8
0
  6
HIDDEN
 62
     7
370
     0
100
AcDbLine
 10
157.8435951213
 20
96.4103034776
 30
0.0
 11
160.3213937322
 21
97.0036993813
 31
0.0
  0
LINE
  5
1E5
330
1F
100
AcDbEntity
  8
0
  6
HIDDEN
 62
     7
370
     0
100
AcDbLine
 10
159.3897959518
 20
100.893702459
 30
0.0
 11
156.9119973408
 21
100.3003065553
 31
0.0
  0
LINE
  5
1E6
330
1F
100
AcDbEntity
  8
0
  6
HIDDEN
 62
     7
370
     0
100
AcDbLine
 10
160.8843577394
 20
97.6146749299
 30
0.0
 11
161.1129350329
 21
98.2620651912
 31
0.0
  0
LINE
  5
1E7
330
1F
100
AcDbEntity
  8
0
  6
HIDDEN
 62
     7
370
     0
100
AcDbLine
 10
160.6654950718
 20
100.130409569
 30
0.0
 11
160.1684524046
 21
100.6040252824
 31
0.0
  0
LINE
  5
1E8
330
1F
100
AcDbEntity
  8
0
  6
HIDDEN
 62
     7
370
     0
100
AcDbLine
 10
160.1684524046
 20
113.7503484343
 30
0.0
 11
160.6654950718
 21
114.2239641477
 31
0.0
  0
LINE
  5
1E9
330
1F
100
AcDbEntity
  8
0
  6
HIDDEN
 62
     7
370
     0
100
AcDbLine
 10
161.1129350329
 20
116.0923085254
 30
0.0
 11
160.8843577394
 21
116.7396987867
 31
0.0
  0
LINE
  5
1EA
330
1F
100
AcDbEntity
  8
0
  6
HIDDEN
 62
     7
370
     0
100
AcDbLine
 10
156.9119973408
 20
114.0540671613
 30
0.0
 11
159.3897959518
 21
113.4606712576
 31
0.0
  0
LINE
  5
1EB
330
1F
100
AcDbEntity
  8
0
  6
HIDDEN
 62
     7
370
     0
100
AcDbLine
 10
160.3213937322
 20
117.3506743353
 30
0.0
 11
157.8435951213
 21
117.944070239
 31
0.0
  0
LINE
  5
1EC
330
1F
100
AcDbEntity
  8
0
  6
HIDDEN
 62
     7
370
     0
100
AcDbLine
 10
163.4546739349
 20
98.0452486392
 30
0.0
 11
163.4546739349
 21
97.9084410783
 31
0.0
  0
LINE
  5
1ED
330
1F
100
AcDbEntity
  8
0
  6
HIDDEN
 62
     7
370
     0
100
AcDbLine
 10
167.4546736593
 20
97.9084410783
 30
0.0
 11
167.4546736593
 21
98.0452486392
 31
0.0
  0
LINE
  5
1EE
330
1F
100
AcDbEntity
  8
0
  6
HIDDEN
 62
     7
370
     0
100
AcDbLine
 10
163.9546740169
 20
98.8777169105
 30
0.0
 11
163.9546740169
 21
97.8742391881
 31
0.0
  0
LINE
  5
1EF
330
1F
100
AcDbEntity
  8
0
  6
HIDDEN
 62
     7
370
     0
100
AcDbLine
 10
166.9546735773
 20
97.8742391881
 30
0.0
 11
166.9546735773
 21
98.8777169105
 31
0.0
  0
LINE
  5
1F0
330
1F
100
AcDbEntity
  8
0
  6
HIDDEN
 62
     7
370
     0
100
AcDbLine
 10
163.4546739349
 20
99.1397137832
 30
0.0
 11
163.4546739349
 21
98.8147939634
 31
0.0
  0
LINE
  5
1F1
330
1F
100
AcDbEntity
  8
0
  6
HIDDEN
 62
     7
370
     0
100
AcDbLine
 10
167.4546736593
 20
98.8147939634
 30
0.0
 11
167.4546736593
 21
99.1397137832
 31
0.0
  0
LINE
  5
1F2
330
1F
100
AcDbEntity
  8
0
  6
HIDDEN
 62
     7
370
     0
100
AcDbLine
 10
167.4546736593
 20
115.2146599334
 30
0.0
 11
167.4546736593
 21
115.5395797532
 31
0.0
  0
LINE
  5
1F3
330
1F
100
AcDbEntity
  8
0
  6
HIDDEN
 62
     7
370
     0
100
AcDbLine
 10
163.4546739349
 20
115.5395797532
 30
0.0
 11
163.4546739349
 21
115.2146599334
 31
0.0
  0
LINE
  5
1F4
330
1F
100
AcDbEntity
  8
0
  6
HIDDEN
 62
     7
370
     0
100
AcDbLine
 10
166.9546735773
 20
115.4766568061
 30
0.0
 11
166.9546735773
 21
116.4801345285
 31
0.0
  0
LINE
  5
1F5
330
1F
100
AcDbEntity
  8
0
  6
HIDDEN
 62
     7
370
     0
100
AcDbLine
 10
163.9546740169
 20
116.4801345285
 30
0.0
 11
163.9546740169
 21
115.4766568061
 31
0.0
  0
LINE
  5
1F6
330
1F
100
AcDbEntity
  8
0
  6
HIDDEN
 62
     7
370
     0
100
AcDbLine
 10
167.4546736593
 20
116.3091250774
 30
0.0
 11
167.4546736593
 21
116.4459326383
 31
0.0
  0
LINE
  5
1F7
330
1F
100
AcDbEntity
  8
0
  6
HIDDEN
 62
     7
370
     0
100
AcDbLine
 10
163.4546739349
 20
116.4459326383
 30
0.0
 11
163.4546739349
 21
116.3091250774
 31
0.0
  0
ARC
  5
1F8
330
1F
100
AcDbEntity
  8
0
  6
HIDDEN
 62
     7
370
     0
100
AcDbCircle
 10
165.4546739945
 20
98.4556732035
 30
0.0
 40
1.500000000000004
100
AcDbArc
 50
336.0523279712
 51
191.527441716
  0
CIRCLE
  5
1F9
330
1F
100
AcDbEntity
  8
0
  6
HIDDEN
 62
     7
370
     0
100
AcDbCircle
 10
165.4546739945
 20
115.8987005131
 30
0.0
 40
1.499999999999994
  0
DIMENSION
  5
1FA
330
1F
100
AcDbEntity
  8
VERMASSUNG
100
AcDbDimension
  2
_D
 10
78.5571731397
 20
138.9271868583
 30
0.0
 11
78.5571731397
 21
107.1771868583
 31
0.0
 70
   160
  1
ISO 40 %%c<>
 71
     2
 42
-1.0
  3
SLDDIMSTYLE0
100
AcDbAlignedDimension
 13
170.9046739945
 23
75.4271868583
 33
0.0
 14
170.9046739945
 24
138.9271868583
 34
0.0
 50
90.0
100
AcDbRotatedDimension
  0
DIMENSION
  5
207
330
1F
100
AcDbEntity
  8
VERMASSUNG
100
AcDbDimension
  2
_D_1
 10
218.9846548416
 20
89.1771868583
 30
0.0
 11
218.9846548416
 21
107.1771868583
 31
0.0
 70
   160
  1
%%c<>
 71
     2
 42
-1.0
  3
SLDDIMSTYLE0
100
AcDbAlignedDimension
 13
194.8546739944
 23
125.1771868583
 33
0.0
 14
194.8546739944
 24
89.1771868583
 34
0.0
 50
90.0
100
AcDbRotatedDimension
  0
DIMENSION
  5
212
330
1F
100
AcDbEntity
  8
VERMASSUNG
100
AcDbDimension
  2
_D_2
 10
211.4546739945
 20
146.8733427086
 30
0.0
 11
191.4796739945
 21
146.8733427086
 31
0.0
 70
   160
  1
(<>)
 71
     2
 42
-1.0
  3
SLDDIMSTYLE0
100
AcDbAlignedDimension
 13
171.5046739945
 23
137.1877379918
 33
0.0
 14
211.4546739945
 24
138.5771868583
 34
0.0
100
AcDbRotatedDimension
  0
DIMENSION
  5
21E
330
1F
100
AcDbEntity
  8
VERMASSUNG
100
AcDbDimension
  2
_D_3
 10
211.4546739945
 20
152.8733427086
 30
0.0
 11
181.9546739945
 21
152.8733427086
 31
0.0
 70
   160
  1
<>
 71
     2
 42
-1.0
  3
SLDDIMSTYLE0
100
AcDbAlignedDimension
 13
152.4546739945
 23
129.4021868583
 33
0.0
 14
211.4546739945
 24
138.5771868583
 34
0.0
100
AcDbRotatedDimension
  0
DIMENSION
  5
228
330
1F
100
AcDbEntity
  8
VERMASSUNG
100
AcDbDimension
  2
_D_4
 10
211.4546739945
 20
158.8733427086
 30
0.0
 11
147.8296739945
 21
158.8733427086
 31
0.0
 70
   160
  1
(<>)
 71
     2
 42
-1.0
  3
SLDDIMSTYLE0
100
AcDbAlignedDimension
 13
84.2046739945
 23
118.5843174553
 33
0.0
 14
211.4546739945
 24
138.5771868583
 34
0.0
100
AcDbRotatedDimension
  0
DIMENSION
  5
234
330
1F
100
AcDbEntity
  8
VERMASSUNG
100
AcDbDimension
  2
_D_5
 10
224.1002728087
 20
75.1771868583
 30
0.0
 11
224.1002728087
 21
107.1771868583
 31
0.0
 70
   160
  1
ST6 %%c<>
 71
     2
 42
-1.0
  3
SLDDIMSTYLE0
100
AcDbAlignedDimension
 13
210.8546739945
 23
139.1771868583
 33
0.0
 14
210.8546739945
 24
75.1771868583
 34
0.0
 50
90.0
100
AcDbRotatedDimension
  0
LINE
  5
240
330
1F
100
AcDbEntity
  8
VERMASSUNG
  6
CENTERX2
 62
     7
370
     0
100
AcDbLine
 10
213.5512192293
 20
107.1771868583
 30
0.0
 11
82.2046739945
 21
107.1771868583
 31
0.0
  0
OLE2FRAME
  5
241
330
1F
100
AcDbEntity
  8
0
100
AcDbOle2Frame
 70
     2
  3
Paintbrush-Bild
 10
13.8511154363
 20
38.264191557
 30
0.0
 11
51.6290888628
 21
31.9806341108
 31
0.0
 71
     2
 72
     0
 73
     1
 90
    12928
310
80552BED0767C5B32B40DDAF6807D121434000000000000000006FFBDDFB85D0
310
4940DDAF6807D121434000000000000000006FFBDDFB85D04940416F4BD60AFB
310
3F4000000000000000002BED0767C5B32B40416F4BD60AFB3F40000000000000
310
0000000000000100000000010000010000000100000000000100000000320000
310
D0CF11E0A1B11AE1000000000000000000000000000000003E000300FEFF0900
310
0600000000000000000000000100000001000000000000000010000002000000
310
01000000FEFFFFFF0000000000000000FFFFFFFFFFFFFFFFFFFFFFFFFFFFFFFF
310
FFFFFFFFFFFFFFFFFFFFFFFFFFFFFFFFFFFFFFFFFFFFFFFFFFFFFFFFFFFFFFFF
310
FFFFFFFFFFFFFFFFFFFFFFFFFFFFFFFFFFFFFFFFFFFFFFFFFFFFFFFFFFFFFFFF
310
FFFFFFFFFFFFFFFFFFFFFFFFFFFFFFFFFFFFFFFFFFFFFFFFFFFFFFFFFFFFFFFF
310
FFFFFFFFFFFFFFFFFFFFFFFFFFFFFFFFFFFFFFFFFFFFFFFFFFFFFFFFFFFFFFFF
310
FFFFFFFFFFFFFFFFFFFFFFFFFFFFFFFFFFFFFFFFFFFFFFFFFFFFFFFFFFFFFFFF
310
FFFFFFFFFFFFFFFFFFFFFFFFFFFFFFFFFFFFFFFFFFFFFFFFFFFFFFFFFFFFFFFF
310
FFFFFFFFFFFFFFFFFFFFFFFFFFFFFFFFFFFFFFFFFFFFFFFFFFFFFFFFFFFFFFFF
310
FFFFFFFFFFFFFFFFFFFFFFFFFFFFFFFFFFFFFFFFFFFFFFFFFFFFFFFFFFFFFFFF
310
FFFFFFFFFFFFFFFFFFFFFFFFFFFFFFFFFFFFFFFFFFFFFFFFFFFFFFFFFFFFFFFF
310
FFFFFFFFFFFFFFFFFFFFFFFFFFFFFFFFFFFFFFFFFFFFFFFFFFFFFFFFFFFFFFFF
310
FFFFFFFFFFFFFFFFFFFFFFFFFFFFFFFFFFFFFFFFFFFFFFFFFFFFFFFFFFFFFFFF
310
FFFFFFFFFFFFFFFFFFFFFFFFFFFFFFFFFFFFFFFFFFFFFFFFFFFFFFFFFFFFFFFF
310
FFFFFFFFFFFFFFFFFFFFFFFFFFFFFFFFFFFFFFFFFFFFFFFFFFFFFFFFFFFFFFFF
310
FDFFFFFFFEFFFFFFFEFFFFFFFEFFFFFF05000000060000000700000008000000
310
090000000A0000000B0000000C0000000D0000000E0000000F00000010000000
310
11000000120000001300000014000000150000001600000017000000FEFFFFFF
310
FFFFFFFFFFFFFFFFFFFFFFFFFFFFFFFFFFFFFFFFFFFFFFFFFFFFFFFFFFFFFFFF
310
FFFFFFFFFFFFFFFFFFFFFFFFFFFFFFFFFFFFFFFFFFFFFFFFFFFFFFFFFFFFFFFF
310
FFFFFFFFFFFFFFFFFFFFFFFFFFFFFFFFFFFFFFFFFFFFFFFFFFFFFFFFFFFFFFFF
310
FFFFFFFFFFFFFFFFFFFFFFFFFFFFFFFFFFFFFFFFFFFFFFFFFFFFFFFFFFFFFFFF
310
FFFFFFFFFFFFFFFFFFFFFFFFFFFFFFFFFFFFFFFFFFFFFFFFFFFFFFFFFFFFFFFF
310
FFFFFFFFFFFFFFFFFFFFFFFFFFFFFFFFFFFFFFFFFFFFFFFFFFFFFFFFFFFFFFFF
310
FFFFFFFFFFFFFFFFFFFFFFFFFFFFFFFFFFFFFFFFFFFFFFFFFFFFFFFFFFFFFFFF
310
FFFFFFFFFFFFFFFFFFFFFFFFFFFFFFFFFFFFFFFFFFFFFFFFFFFFFFFFFFFFFFFF
310
FFFFFFFFFFFFFFFFFFFFFFFFFFFFFFFFFFFFFFFFFFFFFFFFFFFFFFFFFFFFFFFF
310
FFFFFFFFFFFFFFFFFFFFFFFFFFFFFFFFFFFFFFFFFFFFFFFFFFFFFFFFFFFFFFFF
310
FFFFFFFFFFFFFFFFFFFFFFFFFFFFFFFFFFFFFFFFFFFFFFFFFFFFFFFFFFFFFFFF
310
FFFFFFFFFFFFFFFFFFFFFFFFFFFFFFFFFFFFFFFFFFFFFFFFFFFFFFFFFFFFFFFF
310
FFFFFFFFFFFFFFFFFFFFFFFFFFFFFFFFFFFFFFFFFFFFFFFFFFFFFFFFFFFFFFFF
310
52006F006F007400200045006E00740072007900000000000000000000000000
310
0000000000000000000000000000000000000000000000000000000000000000
310
16000500FFFFFFFFFFFFFFFF020000000A00030000000000C000000000000046
310
0000000000000000000000007048029F991FD20103000000C000000000000000
310
01004F006C006500000000000000000000000000000000000000000000000000
310
0000000000000000000000000000000000000000000000000000000000000000
310
0A000200FFFFFFFFFFFFFFFFFFFFFFFF00000000000000000000000000000000
310
0000000000000000000000000000000000000000000000001400000000000000
310
010043006F006D0070004F0062006A0000000000000000000000000000000000
310
0000000000000000000000000000000000000000000000000000000000000000
310
120002010100000003000000FFFFFFFF00000000000000000000000000000000
310
0000000000000000000000000000000000000000010000004D00000000000000
310
01004F006C006500310030004E00610074006900760065000000000000000000
310
0000000000000000000000000000000000000000000000000000000000000000
310
1A000200FFFFFFFFFFFFFFFFFFFFFFFF00000000000000000000000000000000
310
0000000000000000000000000000000000000000040000002426000000000000
310
FEFFFFFF02000000FEFFFFFFFFFFFFFFFFFFFFFFFFFFFFFFFFFFFFFFFFFFFFFF
310
FFFFFFFFFFFFFFFFFFFFFFFFFFFFFFFFFFFFFFFFFFFFFFFFFFFFFFFFFFFFFFFF
310
FFFFFFFFFFFFFFFFFFFFFFFFFFFFFFFFFFFFFFFFFFFFFFFFFFFFFFFFFFFFFFFF
310
FFFFFFFFFFFFFFFFFFFFFFFFFFFFFFFFFFFFFFFFFFFFFFFFFFFFFFFFFFFFFFFF
310
FFFFFFFFFFFFFFFFFFFFFFFFFFFFFFFFFFFFFFFFFFFFFFFFFFFFFFFFFFFFFFFF
310
FFFFFFFFFFFFFFFFFFFFFFFFFFFFFFFFFFFFFFFFFFFFFFFFFFFFFFFFFFFFFFFF
310
FFFFFFFFFFFFFFFFFFFFFFFFFFFFFFFFFFFFFFFFFFFFFFFFFFFFFFFFFFFFFFFF
310
FFFFFFFFFFFFFFFFFFFFFFFFFFFFFFFFFFFFFFFFFFFFFFFFFFFFFFFFFFFFFFFF
310
FFFFFFFFFFFFFFFFFFFFFFFFFFFFFFFFFFFFFFFFFFFFFFFFFFFFFFFFFFFFFFFF
310
FFFFFFFFFFFFFFFFFFFFFFFFFFFFFFFFFFFFFFFFFFFFFFFFFFFFFFFFFFFFFFFF
310
FFFFFFFFFFFFFFFFFFFFFFFFFFFFFFFFFFFFFFFFFFFFFFFFFFFFFFFFFFFFFFFF
310
FFFFFFFFFFFFFFFFFFFFFFFFFFFFFFFFFFFFFFFFFFFFFFFFFFFFFFFFFFFFFFFF
310
FFFFFFFFFFFFFFFFFFFFFFFFFFFFFFFFFFFFFFFFFFFFFFFFFFFFFFFFFFFFFFFF
310
FFFFFFFFFFFFFFFFFFFFFFFFFFFFFFFFFFFFFFFFFFFFFFFFFFFFFFFFFFFFFFFF
310
FFFFFFFFFFFFFFFFFFFFFFFFFFFFFFFFFFFFFFFFFFFFFFFFFFFFFFFFFFFFFFFF
310
FFFFFFFFFFFFFFFFFFFFFFFFFFFFFFFFFFFFFFFFFFFFFFFFFFFFFFFFFFFFFFFF
310
0100000200000000000000000000000000000000000000000000000000000000
310
0000000000000000000000000000000000000000000000000000000000000000
310
0100FEFF030A0000FFFFFFFF0A00030000000000C00000000000004607000000
310
5042727573680007000000504272757368000700000050427275736800F439B2
310
7100000000000000000000000000000000000000000000000000000000000000
310
0000000000000000000000000000000000000000000000000000000000000000
310
0000000000000000000000000000000000000000000000000000000000000000
310
0000000000000000000000000000000000000000000000000000000000000000
310
0000000000000000000000000000000000000000000000000000000000000000
310
0000000000000000000000000000000000000000000000000000000000000000
310
0000000000000000000000000000000000000000000000000000000000000000
310
0000000000000000000000000000000000000000000000000000000000000000
310
0000000000000000000000000000000000000000000000000000000000000000
310
0000000000000000000000000000000000000000000000000000000000000000
310
0000000000000000000000000000000000000000000000000000000000000000
310
0000000000000000000000000000000000000000000000000000000000000000
310
20260000424D0E260000000000003E00000028000000B40200006E0000000100
310
01000000000000000000130B0000130B00000200000002000000000000FFFFFF
310
FFFFFFFFFFFFFFFFFFFFFFFFFFFFFFFFFFFFFFFFFFFFFFFFFFFFFFFFFFFFFFFF
310
FFFFFFFFFFFFFFFFFFFFFFFFFFFFFFFFFFFFFFFFFFFFFFFFFFFFFFFFFFFFFFFF
310
FFFFFFFFFFFFFFFFFFFFFFFFFFFFFFFFFFFFFFFFFFFFFFFFF000FFFFFFFFFFFF
310
FFFFFFFFFFFFFFFFFFFFFFFFFFFFFFFFFFFFFFFFFFFFFFFFFFFFFFFFFFFFFFFF
310
FFFFFFFFFFFFFFFFFFFFFFFFFFFFFFFFFFFFFFFFFFFFFFFFFFFFFFFFFFFFFFFF
310
FFFFFFFFFFFFFFFFFFFFFFFFFFFFFFFFF000FFFFFFFFFFFFFFFFFFFFFFFFFFFF
310
FFFFFFFFFFFFFFFFFFFFFFFFFFFFFFFFFFFFFFFFFFFFFFFFFFFFFFFFFFFFFFFF
310
FFFFFFFFFFFFFFFFFFFFFFFFFFFFFFFFFFFFFFFFFFFFFFFFFFFFFFFFFFFFFFFF
310
FFFFFFFFFFFFFFFFF000FFFFFFFFFFFFFFFFFFFFFFFFFFFFFFFFFFFFFFFFFFFF
310
FFFFFFFFFFFFFFFFFFFFFFFFFFFFFFFFFFFFFFFFFFFFFFFFFFFFFFFFFFFFFFFF
310
FFFFFFFFFFFFFFFFFFFFFFFFFFFFFFFFFFFFFFFFFFFFFFFFFFFFFFFFFFFFFFFF
310
F000FFFFFFFFFFFFFFFFFFFFFFFFFFFFFFFFFFFFFFFFFFFFFFFFFFFFFFFFFFFF
310
FFFFFFFFFFFFFFFFFFFFFFFFFFFFFFFFFFFFFFFFFFFFFFFFFFFFFFFFFFFFFFFF
310
FFFFFFFFFFFFFFFFFFFFFFFFFFFFFFFFFFFFFFFFFFFFFFFFF000FFFFFFFFFFFF
310
FFFFFFFFFFFFFFFFFFFFFFFFFFFFFFFFFFFFFFFFFFFFFFFFFFFFFFFFFFFFFFFF
310
FFFFFFFFFFFFFFFFFFFFFFFFFFFFFFFFFFFFFFFFFFFFFFFFFFFFFFFFFFFFFFFF
310
FFFFFFFFFFFFFFFFFFFFFFFFFFFFFFFFF000FFFFFFFFFFFFFFFFFFFFFFFFFFFF
310
FFFFFFFFFFFFFFFFFFFFFFFFFFFFFFFFFFFFFFFFFFFFFFFFFFFFFFFFFFFFFFFF
310
FFFFFFFFFFFFFFFFFFFFFFFFFFFFFFFFFFFFFFFFFFFFFFFFFFFFFFFFFFFFFFFF
310
FFFFFFFFFFFFFFFFF000FFFFFFFFFFFFFFFFFFFFFFFFFFFFFFFFFFFFFFFFFFFF
310
FFFFFFFFFFFFFFFFFFFFFFFFFFFFFFFFFFFFFFFFFFFFFFFFFFFFFFFFFFFFFFFF
310
FFFFFFFFFFFFFFFFFFFFFFFFFFFFFFFFFFFFFFFFFFFFFFFFFFFFFFFFFFFFFFFF
310
F000FFFFFFFFFFFFFFFFFFFFFFFFFFFFFFFFFFFFFFFFFFFFFFFFFFFFFFFFFFFF
310
FFFFFFFFFFFFFFFFFFFFFFFFFFFFFFFFFFFFFFFFFFFFFFFFFFFFFFFFFFFFFFFF
310
FFFFFFFFFFFFFFFFFFFFFFFFFFFFFFFFFFFFFFFFFFFFFFFFF000FFFFFFFFFFFF
310
FFFFFFFFFFFFFFFFFFFFFFFFFFFFFFFFFFFFFFFFFFFFFFFFFFFFFFFFFFFFFFFF
310
FFFFFFFFFFFFFFFFFFFFFFFFFFFFFFFFFFFFFFFFFFFFFFFFFFFFFFFFFFFFFFFF
310
FFFFFFFFFFFFFFFFFFFFFFFFFFFFFFFFF000FFFFFFFFFFFFFFFFFFFFFFFFFFFF
310
FFFFFFFFFFFFFFFFFFFFFFFFFFFFFFFFFFFFFFFFFFFFFFFFFFFFFFFFFFFFFFFF
310
FFFFFFFFFFFFFFFFFFFFFFFFFFFFFFFFFFFFFFFFFFFFFFFFFFFFFFFFFFFFFFFF
310
FFFFFFFFFFFFFFFFF000FFFFFFFFFFFFFFFFFFFFFFFFFFFFFFFFFFFFFFFFFFFF
310
FFFFFFFFFFFFFFFFFFFFFFFFFFFFFFFFFFFFFFFFFFFFFFFFFFFFFFFFFFFFFFFF
310
FFFFFFFFFFFFFFFFFFFFFFFFFFFFFFFFFFFFFFFFFFFFFFFFFFFFFFFFFFFFFFFF
310
F000FFFFFFFFFFFFFFFFFFFFFFFFFFFFFFFFFFFFFFFFFFFFFFFFFFFFFFFFFFFF
310
FFFFFFFFFFFFFFFFFFFFFFFFFFFFFFFFFFFFFFFFFFFFFFFFFFFFFFFFFFFFFFFF
310
FFFFFFFFFFFFFFFFFFFFFFFFFFFFFFFFFFFFFFFFFFFFFFFFF000FFFFFFFFFFFF
310
FFFFFFFFFFFFFFFFFFFFFFFFFFFFFFFFFFFFFFFFFFFFFFFFFFFFFFFFFFFFFFFF
310
FFFFFFFFFFFFFFFFFFFFFFFFFFFFFFFFFFFFFFFFFFFFFFFFFFFFFFFFFFFFFFFF
310
FFFFFFFFFFFFFFFFFFFFFFFFFFFFFFFFF000FFFFFFFFFFFFFFFFFFFFFFFFFFFF
310
FFFFFFFFFFFFFFFFFFFFFFFFFFFFFFFFFFFFFFFFFFFFFFFFFFFFFFFFFFFFFFFF
310
FFFFFFFFFFFFFFFFFFFFFFFFFFFFFFFFFFFFFFFFFFFFFFFFFFFFFFFFFFFFFFFF
310
FFFFFFFFFFFFFFFFF000FFFFFFFFFFFFFFFFFFFFFFFFFFFFFFFFFFFFFFFFFFFF
310
FFFFFFFFFFFFFFFFFFFFFFFFFFFFFFFFFFFFFFFFFFFFFFFFFFFFFFFFFFFFFFFF
310
FFFFFFFFFFFFFFFFFFFFFFFFFFFFFFFFFFFFFFFFFFFFFFFFFFFFFFFFFFFFFFFF
310
F000FFFFFFFFFFFFFFFFFFFFFFFFFFFFFFFFFFFFFFFFFFFFFFFFFFFFFFFFFFFF
310
FFFFFFFFFFFFFFFFFFFFFFFFFFFFFFFFFFFFFFFFFFFFFFFFFFFFFFFFFFFFFFFF
310
FFFFFFFFFFFFFFFFFFFFFFFFFFFFFFFFFFFFFFFFFFFFFFFFF000FFFFFFFFFFFF
310
FFFFFFFFFFFFFFFFFFFFFFFFFFFFFFFFFFFFFFFFFFFFFFFFFFFFFFFFFFFFFFFF
310
FFFFFFFFFFFFFFFFFFFFFFFFFFFFFFFFFFFFFFFFFFFFFFFFFFFFFFFFFFFFFFFF
310
FFFFFFFFFFFFFFFFFFFFFFFFFFFFFFFFF000FFFFFFFFFFFFFFFFFFFFFFFFFFFF
310
FFFFFFFFFFFFFFFFFFFFFFFFFFFFFFFFFFFFFFFFFFFFFFFFFFFFFFFFFFFFFFFF
310
FFFFFFFFFFFFFFFFFFFFFFFFFFFFFFFFFFFFFFFFFFFFFFFFFFFFFFFFFFFFFFFF
310
FFFFFFFFFFFFFFFFF000FFFFF80003FFFFFFFFFFFFFFFFFFFFFFFFFFFFFFFFFF
310
FFFFF00007FFFFFFFFFF00007FFFFFF800000000000000007FFFFFFFFFFFFFFF
310
FFFFFFFC001FFFFFFFFFFFFFFC001FFFFFFFFFFFFFFFFFFFFFFFFFFE0007FFFF
310
F000FFFF8000007FFFFFFFF8000FFFFFC0007FFFFF80007FFFFF0000007FFFFF
310
FFF8000007FFFFF800000000000000007FFFFFF0001FFFFFFFFFFFC00001FFFF
310
FFFFFFFFC00001FFFFFFFF000000000003FFFFE000007FFFF000FFFE0000000F
310
FFFFFFF0000FFFFF80007FFFFF80007FFFFC0000001FFFFFFFC0000001FFFFF8
310
00000000000000007FFFFFF0001FFFFFFFFFFE0000003FFFFFFFFFFE0000003F
310
FFFFFF000000000003FFFF0000000FFFF000FFF800000003FFFFFFF00007FFFF
310
80007FFFFF80007FFFF000000007FFFFFF000000003FFFF80000000000000000
310
7FFFFFF0001FFFFFFFFFF80000000FFFFFFFFFF80000000FFFFFFF0000000000
310
03FFFC00000003FFF000FFE000000000FFFFFFF00007FFFF80003FFFFF80007F
310
FFC000000001FFFFFC000000001FFFF800000000000000007FFFFFF0001FFFFF
310
FFFFE000000003FFFFFFFFE000000003FFFFFF000000000003FFF000000000FF
310
F000FF80000000007FFFFFF00007FFFF80003FFFFF80007FFF8000000000FFFF
310
F80000000007FFF800000000000000007FFFFFF0001FFFFFFFFFC000000001FF
310
FFFFFFC000000001FFFFFF000000000003FFC0000000007FF000FF0000000000
310
3FFFFFE00007FFFF00003FFFFF80007FFE00000000003FFFF00000000003FFF8
310
00000000000000007FFFFFF0001FFFFFFFFF8000000000FFFFFFFF8000000000
310
FFFFFF000000000003FF80000000003FF000FE00000000001FFFFFE00003FFFF
310
00003FFFFF80007FFC00000000001FFFE00000000001FFF8000001FFFE000000
310
7FFFFFF0001FFFFFFFFE00000000003FFFFFFE00000000003FFFFF0000000000
310
03FF00000000001FF000FC00000000000FFFFFE00003FFFF00001FFFFF80007F
310
F800000000001FFFC00000000000FFF8000001FFFE0000007FFFFFF0001FFFFF
310
FFFC00000000001FFFFFFC00000000001FFFFF000000000003FE00000000000F
310
F000F8000000000007FFFFE00003FFFF00001FFFFF80007FF800000000000FFF
310
800000000000FFF8000001FFFE0000007FFFFFF0001FFFFFFFF800000000000F
310
FFFFF800000000000FFFFF000000000003FC000000000007F000F80000000000
310
03FFFFC00003FFFE00001FFFFF80007FF0000000000007FF0000000000007FF8
310
000001FFFE0000007FFFFFF0001FFFFFFFF0000000000007FFFFF00000000000
310
07FFFF000000000003F8000000000003F000F0000000000003FFFFC00001FFFE
310
00001FFFFF80007FE0000000000007FE0000000000003FF8000001FFFE000000
310
7FFFFFF0001FFFFFFFF0000000000007FFFFF0000000000007FFFF0000000000
310
03F800001F800003F000E00001FFF00001FFFFC00001FFFE00000FFFFF80007F
310
E00001FFE00003FE00001FFF00003FF8000001FFFE0000007FFFFFF0001FFFFF
310
FFE000003E000003FFFFE000003E000003FFFF000000000003F00001FFF80001
310
F000E00007FFFC0001FFFFC00001FFFE00000FFFFF80007FC0000FFFFC0003FC
310
0000FFFFC0001FF8000001FFFE0000007FFFFFF0001FFFFFFFC00003FFE00001
310
FFFFC00003FFE00001FFFF0001FFFFFFFFF00007FFFE0001F000E0000FFFFF00
310
00FFFF800001FFFC00000FFFFF80007FC0001FFFFE0001FC0001FFFFE0001FF8
310
000001FFFE0000007FFFFFF0001FFFFFFF80000FFFF80000FFFF80000FFFF800
310
00FFFF0003FFFFFFFFE0000FFFFF8000F000C0003FFFFF8000FFFF800000FFFC
310
000007FFFF80007F80003FFFFF0001FC0003FFFFF0001FF8000001FFFE000000
310
7FFFFFF0001FFFFFFF80003FFFFE0000FFFF80003FFFFE0000FFFF0003FFFFFF
310
FFE0003FFFFF8000F000C0003FFFFF8000FFFF800000FFFC000007FFFF80007F
310
80007FFFFF8001F80007FFFFF8000FF8000001FFFE0000007FFFFFF0001FFFFF
310
FF00007FFFFF00007FFF00007FFFFF00007FFF0003FFFFFFFFE0003FFFFFC000
310
F000C0007FFFFFC000FFFF000000FFFC000007FFFF80007F8000FFFFFF8000F8
310
000FFFFFF8000FF8000001FFFE0000007FFFFFF0001FFFFFFF0000FFFFFF8000
310
7FFF0000FFFFFF80007FFF0003FFFFFFFFC0007FFFFFC00070008000FFFFFFC0
310
00FFFF000000FFF8000007FFFF80007F8000FFFFFF8000F8000FFFFFF8000FF8
310
000001FFFE0000007FFFFFF0001FFFFFFE0001FFFFFFC0003FFE0001FFFFFFC0
310
003FFF0003FFFFFFFFC0007FFFFFE00070008000FFFFFFC0007FFF0000007FF8
310
000003FFFF80007F0001FFFFFF8000F8000FFFFFF8000FF8000001FFFE000000
310
7FFFFFF0001FFFFFFE0001FFFFFFC0003FFE0001FFFFFFC0003FFF0003FFFFFF
310
FFC000FFFFFFE00070008000FFFFFFC0007FFF0000007FF8000003FFFF80007F
310
0001FFFFFF8000F8001FFFFFF8000FF8000001FFFE0000007FFFFFF0001FFFFF
310
FE0003FFFFFFE0003FFE0003FFFFFFE0003FFF0003FFFFFFFFC000FFFFFFE000
310
70008000FFFFFFC0007FFE0000007FF8000003FFFF80007F0001FFFFFF8000F0
310
001FFFFFF8000FF8000001FFFE0000007FFFFFF0001FFFFFFC0003FFFFFFE000
310
1FFC0003FFFFFFE0001FFF0003FFFFFFFFC000FFFFFFC00070008000FFFFFF80
310
007FFE0000007FF0000003FFFF80007F0001FFFFFF0000F0001FFFFFF8000FF8
310
000001FFFE0000007FFFFFF0001FFFFFFC0007FFFFFFF0001FFC0007FFFFFFF0
310
001FFF0003FFFFFFFFC000FFFFFFC00070008001FFFFFF0000FFFE0000003FF0
310
000001FFFF80007F0001FFFFFF0000F8001FFFFFF0000FF8000001FFFE000000
310
7FFFFFF0001FFFFFFC0007FFFFFFF0001FFC0007FFFFFFF0001FFF0003FFFFFF
310
FFC001FFFFFF80007000FFFFFFFFFE0000FFFE0008003FF0008001FFFF80007F
310
FFFFFFFFFC0000FFFFFFFFFFE0000FF8000001FFFE0000007FFFFFF0001FFFFF
310
F8000FFFFFFFF8000FF8000FFFFFFFF8000FFF0003FFFFFFFFFFFFFFFFFF0000
310
7000FFFFFFFFFC0000FFFC0008003FF0008001FFFF80007FFFFFFFFFF80001FF
310
FFFFFFFF80000FF8000001FFFE0000007FFFFFF0001FFFFFF8000FFFFFFFF800
310
0FF8000FFFFFFFF8000FFF0003FFFFFFFFFFFFFFFFFE0000F000FFFFFFFFE000
310
00FFFC000C003FE000C001FFFF80007FFFFFFFFFC00001FFFFFFFFFE00001FF8
310
000001FFFE0000007FFFFFF0001FFFFFF8000FFFFFFFF8000FF8000FFFFFFFF8
310
000FFF0003FFFFFFFFFFFFFFFFF00000F000FFFFFFFE000001FFFC000C001FE0
310
00C000FFFF80007FFFFFFFFE000001FFFFFFFFE000001FF80FFFFFFFFFFFFFC0
310
7FFFFFF0001FFFFFF8000FFFFFFFF8000FF8000FFFFFFFF8000FFF0003FFFFFF
310
FFFFFFFFFF800000F000FFFFFFC0000001FFFC001C001FE001C000FFFF80007F
310
FFFFFF80000003FFFFFFF80000001FF80FFFFFFFFFFFFFC07FFFFFF0001FFFFF
310
F8001FFFFFFFFC000FF8001FFFFFFFFC000FFF0003FFFFFFFFFFFFFFF0000001
310
F000FFFFF800000001FFF8001C001FE001C000FFFF80007FFFFFF800000003FF
310
FFFF800000003FF80FFFFFFFFFFFFFC07FFFFFF0001FFFFFF8001FFFFFFFFC00
310
0FF8001FFFFFFFFC000FFF0003FFFFFFFFFFFFFE00000001F000FFFFC0000000
310
03FFF8001E001FC001E000FFFF80007FFFFF8000000007FFFFFC000000003FF8
310
0FFFFFFFFFFFFFC07FFFFFF0001FFFFFF8001FFFFFFFFC000FF8001FFFFFFFFC
310
000FFF0003FFFFFFFFFFFFE000000003F000FFFE0000000007FFF8001E000FC0
310
01E0007FFF80007FFFFE0000000007FFFFE0000000007FF80FFFFFFFFFFFFFC0
310
7FFFFFF0001FFFFFF0001FFFFFFFFC0007F0001FFFFFFFFC0007FF0003FFFFFF
310
FFFFFF0000000003F000FFF80000000007FFF8001E000FC003E0007FFF80007F
310
FFF0000000000FFFFF8000000000FFF80FFFFFFFFFFFFFC07FFFFFF0001FFFFF
310
F0001FFFFFFFFC0007F0001FFFFFFFFC0007FF0003FFFFFFFFFFFC0000000007
310
F000FFE0000000000FFFF0003E000FC003E0007FFF80007FFFC0000000001FFF
310
FE0000000001FFF80FFFFFFFFFFFFFC07FFFFFF0001FFFFFF0001FFFFFFFFC00
310
07F0001FFFFFFFFC0007FF0003FFFFFFFFFFF0000000000FF000FFC000000000
310
1FFFF0003F000F8003F0003FFF80007FFF80000000003FFFF80000000003FFF8
310
0FFFFFFFFFFFFFC07FFFFFF0001FFFFFF0001FFFFFFFFC0007F0001FFFFFFFFC
310
0007FF0003FFFFFFFFFFE0000000001FF000FF00000000007FFFF0003F000780
310
03F0003FFF80007FFF00000000007FFFF00000000007FFF80FFFFFFFFFFFFFC0
310
7FFFFFF0001FFFFFF0001FFFFFFFFC0007F0001FFFFFFFFC0007FF0003FFFFFF
310
FFFF80000000007FF000FE0000000000FFFFE0003F00078007F0003FFF80007F
310
FE0000000001FFFFE0000000001FFFF80FFFFFFFFFFFFFC07FFFFFF0001FFFFF
310
F0001FFFFFFFFC0007F0001FFFFFFFFC0007FF0003FFFFFFFFFF0000000000FF
310
F000FC0000000003FFFFE0007F00078007F0003FFF80007FFC0000000007FFFF
310
C0000000007FFFF80FFFFFFFFFFFFFC07FFFFFF0001FFFFFF8001FFFFFFFFC00
310
0FF8001FFFFFFFFC000FFF0003FFFFFFFFFE0000000003FFF000FC000000000F
310
FFFFE0007F80070007F8001FFF80007FF8000000001FFFFF8000000001FFFFF8
310
0FFFFFFFFFFFFFC07FFFFFF0001FFFFFF8001FFFFFFFFC000FF8001FFFFFFFFC
310
000FFF0003FFFFFFFFFC000000000FFFF000F8000000007FFFFFE0007F800700
310
07F8001FFF80007FF000000000FFFFFF800000000FFFFFF80FFFFFFFFFFFFFC0
310
7FFFFFF0001FFFFFF8000FFFFFFFF8000FF8000FFFFFFFF8000FFF0003FFFFFF
310
FFFC000000007FFFF000F800000007FFFFFFC0007F8003000FF8001FFF80007F
310
F000000007FFFFFF000000007FFFFFF80FFFFFFFFFFFFFC07FFFFFF0001FFFFF
310
F8000FFFFFFFF8000FF8000FFFFFFFF8000FFF0003FFFFFFFFF80000000FFFFF
310
F000F0000000FFFFFFFFC000FF8003000FF8001FFF80007FE0000000FFFFFFFF
310
0000000FFFFFFFF8000001FFFE0000007FFFFFF0001FFFFFF8000FFFFFFFF800
310
0FF8000FFFFFFFF8000FFF0003FFFFFFFFF8000000FFFFFFF000F000000FFFFF
310
FFFFC000FFC002000FF8000FFF80007FE000001FFFFFFFFE000001FFFFFFFFF8
310
000001FFFE0000007FFFFFF0001FFFFFF8000FFFFFFFF8000FF8000FFFFFFFF8
310
000FFF0003FFFFFFFFF000001FFFFFFFF000E00000FFFFFFFFFFC000FFC00200
310
0FFC000FFF80007FE00001FFFFFFFFFE00001FFFFFFFFFF8000001FFFE000000
310
7FFFFFF0001FFFFFFC000FFFFFFFF8001FFC000FFFFFFFF8001FFF0003FFFFFF
310
FFF00001FFFFFFFFF000E00007FFFFFFFFFF8000FFC000001FFC000FFF80007F
310
C0000FFFFFFFFFFE0000FFFFFFFFFFF8000001FFFE0000007FFFFFF0001FFFFF
310
FC0007FFFFFFF0001FFC0007FFFFFFF0001FFF0003FFFFFFFFF00007FFFFFFFF
310
F000E0001FFFFFFFFFFF8000FFC000001FFC000FFF80007FC0003FFFFFFFFFFE
310
0001FFFFFFFFFFF8000001FFFE0000007FFFFFF0001FFFFFFC0007FFFFFFF000
310
1FFC0007FFFFFFF0001FFF0003FFFFFFFFF0001FFFFFFFFFF000E0003FFFFF00
310
03FF8001FFE000001FFC0007FF80007FC0007FFFFF0007FC0003FFFFF0003FF8
310
000001FFFE0000007FFFFFF0001FFFFFFC0003FFFFFFE0001FFC0003FFFFFFE0
310
001FFF0003FFFFFFFFF0003FFFFFFFFFF000E0003FFFFF0001FF8001FFE00000
310
1FFE0007FF80007FC0007FFFFE0003FC0007FFFFE0003FF8000001FFFE000000
310
7FFFFFF0001FFFFFFE0003FFFFFFE0003FFE0003FFFFFFE0003FFF0003FFFFFF
310
FFF0003FFFFF8001F000E0003FFFFF0001FF0001FFE000001FFE0007FF80007F
310
C0007FFFFE0003FC0007FFFFE0003FF8000001FFFE0000007FFFFFF0001FFFFF
310
FE0001FFFFFFC0003FFE0001FFFFFFC0003FFF0003FFFFFFFFF0003FFFFF0001
310
F000E0003FFFFF0003FF0001FFE000003FFE0007FF80007FC0007FFFFE0003FC
310
0007FFFFE0003FF8000001FFFE0000007FFFFFF0001FFFFFFF0001FFFFFFC000
310
7FFF0001FFFFFFC0007FFF0003FFFFFFFFF0003FFFFF0001F000E0003FFFFE00
310
03FF0003FFF000003FFE0003FF80007FC0007FFFFC0003FE0007FFFFE0003FF8
310
000001FFFE0000007FFFFFF0001FFFFFFF0000FFFFFF80007FFF0000FFFFFF80
310
007FFF0003FFFFFFFFF0003FFFFF0001F000E0003FFFFE0003FF0003FFF00000
310
3FFF0003FF80007FC0007FFFFC0007FE0007FFFFC0003FF8000001FFFE000000
310
7FFFFFF0001FFFFFFF80007FFFFF0000FFFF80007FFFFF0000FFFF0003FFFFFF
310
FFF0003FFFFF0003F000E0003FFFFC0003FE0003FFF000003FFF0003FF80007F
310
E0003FFFF80007FE0003FFFFC0007FF8000001FFFE0000007FFFFFF0001FFFFF
310
FF80003FFFFE0000FFFF80003FFFFE0000FFFF0003FFFFFFFFF0001FFFFE0003
310
F000F0001FFFF80003FE0003FFF000007FFF0001FF80007FE0003FFFF00007FE
310
0001FFFF80007FF8000001FFFE0000007FFFFFF0001FFFFFFFC0000FFFF80001
310
FFFFC0000FFFF80001FFFF0003FFFFFFFFF0001FFFFC0003F000F0000FFFF000
310
07FE0007FFF800007FFF0001FF80007FE0001FFFE00007FF0000FFFE00007FF8
310
000001FFFE0000007FFFFFF0001FFFFFFFC00003FFE00001FFFFC00003FFE000
310
01FFFF0003FFFFFFFFF8000FFFF80003F000F00003FFC00007FC0007FFF80000
310
7FFF8001FF80007FF00007FF80000FFF00007FF80000FFF8000001FFFE000000
310
7F80000000000001FFE000003E000003FFFFE000003E000003FFFF0003FFFFFF
310
FFF80003FFE00007F000F800000000000FFC0007FFF800007FFF8001FF80007F
310
F000000000000FFF000000000000FFF8000001FFFE0000007F80000000000001
310
FFF0000000000007FFFFF0000000000007FFFF0003FFFFFFFFFC00007E000007
310
F000F800000000000FFC0007FFF80000FFFF8000FF80007FF800000000001FFF
310
800000000001FFF8000001FFFE0000007F80000000000001FFF800000000000F
310
FFFFF800000000000FFFFF0003FFFFFFFFFC00000000000FF000FC0000000000
310
1FFC0007FFFC0000FFFF8000FF80007FF800000000003FFFC00000000001FFF8
310
000001FFFE0000007F80000000000001FFF800000000000FFFFFF80000000000
310
0FFFFF0003FFFFFFFFFE00000000001FF000FE00000000003FF8000FFFFC0000
310
FFFF8000FF80007FFC00000000003FFFC00000000003FFF8000001FFFE000000
310
7F80000000000001FFFC00000000001FFFFFFC00000000001FFFFF0003FFFFFF
310
FFFF00000000001FF000FF00000000003FF8000FFFFC0000FFFFC000FF80007F
310
FE00000000007FFFE00000000007FFF8000001FFFE0000007F80000000000001
310
FFFE00000000003FFFFFFE00000000003FFFFF0003FFFFFFFFFF80000000003F
310
F000FF80000000007FF8000FFFFC0001FFFFC0007F80007FFF0000000000FFFF
310
F0000000000FFFF800000000000000007F80000000000001FFFF8000000000FF
310
FFFFFF8000000000FFFFFF0003FFFFFFFFFFC0000000007FF000FFC000000000
310
FFF8000FFFFE0001FFFFC0007F80007FFF8000000001FFFFF8000000001FFFF8
310
00000000000000007F80000000000001FFFFC000000001FFFFFFFFC000000001
310
FFFFFF0003FFFFFFFFFFE000000000FFF000FFE000000003FFF0001FFFFE0001
310
FFFFC0007F80007FFFC000000007FFFFFE000000003FFFF80000000000000000
310
7F80000000000001FFFFE000000003FFFFFFFFE000000003FFFFFF0003FFFFFF
310
FFFFF000000003FFF000FFF80000000FFFF0001FFFFE0001FFFFE0007F80007F
310
FFF00000000FFFFFFF00000000FFFFF800000000000000007F80000000000001
310
FFFFF80000000FFFFFFFFFF80000000FFFFFFF0003FFFFFFFFFFFC0000000FFF
310
F000FFFE0000003FFFF0001FFFFE0003FFFFE0003F80007FFFFC0000003FFFFF
310
FFC0000003FFFFF800000000000000007F80000000000001FFFFFE0000003FFF
310
FFFFFFFE0000003FFFFFFF0003FFFFFFFFFFFF0000003FFFF000FFFF800000FF
310
FFF0001FFFFF0003FFFFE0003F80007FFFFF000001FFFFFFFFF800001FFFFFF8
310
00000000000000007F80000000000001FFFFFFC00001FFFFFFFFFFFFC00001FF
310
FFFFFF0003FFFFFFFFFFFFC00000FFFFF000FFFFF8000FFFFFFFFFFFFFFFFFFF
310
FFFFFFFFFFFFFFFFFFFFF0001FFFFFFFFFFF0000FFFFFFF80000000000000000
310
7FFFFFFFFFFFFFFFFFFFFFFC001FFFFFFFFFFFFFFC001FFFFFFFFFFFFFFFFFFF
310
FFFFFFFC001FFFFFF000FFFFFFFFFFFFFFFFFFFFFFFFFFFFFFFFFFFFFFFFFFFF
310
FFFFFFFFFFFFFFFFFFFFFFFFFFFFFFFFFFFFFFFFFFFFFFFFFFFFFFFFFFFFFFFF
310
FFFFFFFFFFFFFFFFFFFFFFFFFFFFFFFFFFFFFFFFFFFFFFFFFFFFFFFFFFFFFFFF
310
F000FFFFFFFFFFFFFFFFFFFFFFFFFFFFFFFFFFFFFFFFFFFFFFFFFFFFFFFFFFFF
310
FFFFFFFFFFFFFFFFFFFFFFFFFFFFFFFFFFFFFFFFFFFFFFFFFFFFFFFFFFFFFFFF
310
FFFFFFFFFFFFFFFFFFFFFFFFFFFFFFFFFFFFFFFFFFFFFFFFF000FFFFFFFFFFFF
310
FFFFFFFFFFFFFFFFFFFFFFFFFFFFFFFFFFFFFFFFFFFFFFFFFFFFFFFFFFFFFFFF
310
FFFFFFFFFFFFFFFFFFFFFFFFFFFFFFFFFFFFFFFFFFFFFFFFFFFFFFFFFFFFFFFF
310
FFFFFFFFFFFFFFFFFFFFFFFFFFFFFFFFF000FFFFFFFFFFFFFFFFFFFFFFFFFFFF
310
FFFFFFFFFFFFFFFFFFFFFFFFFFFFFFFFFFFFFFFFFFFFFFFFFFFFFFFFFFFFFFFF
310
FFFFFFFFFFFFFFFFFFFFFFFFFFFFFFFFFFFFFFFFFFFFFFFFFFFFFFFFFFFFFFFF
310
FFFFFFFFFFFFFFFFF000FFFFFFFFFFFFFFFFFFFFFFFFFFFFFFFFFFFFFFFFFFFF
310
FFFFFFFFFFFFFFFFFFFFFFFFFFFFFFFFFFFFFFFFFFFFFFFFFFFFFFFFFFFFFFFF
310
FFFFFFFFFFFFFFFFFFFFFFFFFFFFFFFFFFFFFFFFFFFFFFFFFFFFFFFFFFFFFFFF
310
F000FFFFFFFFFFFFFFFFFFFFFFFFFFFFFFFFFFFFFFFFFFFFFFFFFFFFFFFFFFFF
310
FFFFFFFFFFFFFFFFFFFFFFFFFFFFFFFFFFFFFFFFFFFFFFFFFFFFFFFFFFFFFFFF
310
FFFFFFFFFFFFFFFFFFFFFFFFFFFFFFFFFFFFFFFFFFFFFFFFF000FFFFFFFFFFFF
310
FFFFFFFFFFFFFFFFFFFFFFFFFFFFFFFFFFFFFFFFFFFFFFFFFFFFFFFFFFFFFFFF
310
FFFFFFFFFFFFFFFFFFFFFFFFFFFFFFFFFFFFFFFFFFFFFFFFFFFFFFFFFFFFFFFF
310
FFFFFFFFFFFFFFFFFFFFFFFFFFFFFFFFF000FFFFFFFFFFFFFFFFFFFFFFFFFFFF
310
FFFFFFFFFFFFFFFFFFFFFFFFFFFFFFFFFFFFFFFFFFFFFFFFFFFFFFFFFFFFFFFF
310
FFFFFFFFFFFFFFFFFFFFFFFFFFFFFFFFFFFFFFFFFFFFFFFFFFFFFFFFFFFFFFFF
310
FFFFFFFFFFFFFFFFF000FFFFFFFFFFFFFFFFFFFFFFFFFFFFFFFFFFFFFFFFFFFF
310
FFFFFFFFFFFFFFFFFFFFFFFFFFFFFFFFFFFFFFFFFFFFFFFFFFFFFFFFFFFFFFFF
310
FFFFFFFFFFFFFFFFFFFFFFFFFFFFFFFFFFFFFFFFFFFFFFFFFFFFFFFFFFFFFFFF
310
F000FFFFFFFFFFFFFFFFFFFFFFFFFFFFFFFFFFFFFFFFFFFFFFFFFFFFFFFFFFFF
310
FFFFFFFFFFFFFFFFFFFFFFFFFFFFFFFFFFFFFFFFFFFFFFFFFFFFFFFFFFFFFFFF
310
FFFFFFFFFFFFFFFFFFFFFFFFFFFFFFFFFFFFFFFFFFFFFFFFF000FFFFFFFFFFFF
310
FFFFFFFFFFFFFFFFFFFFFFFFFFFFFFFFFFFFFFFFFFFFFFFFFFFFFFFFFFFFFFFF
310
FFFFFFFFFFFFFFFFFFFFFFFFFFFFFFFFFFFFFFFFFFFFFFFFFFFFFFFFFFFFFFFF
310
FFFFFFFFFFFFFFFFFFFFFFFFFFFFFFFFF000FFFFFFFFFFFFFFFFFFFFFFFFFFFF
310
FFFFFFFFFFFFFFFFFFFFFFFFFFFFFFFFFFFFFFFFFFFFFFFFFFFFFFFFFFFFFFFF
310
FFFFFFFFFFFFFFFFFFFFFFFFFFFFFFFFFFFFFFFFFFFFFFFFFFFFFFFFFFFFFFFF
310
FFFFFFFFFFFFFFFFF000FFFFFFFFFFFFFFFFFFFFFFFFFFFFFFFFFFFFFFFFFFFF
310
FFFFFFFFFFFFFFFFFFFFFFFFFFFFFFFFFFFFFFFFFFFFFFFFFFFFFFFFFFFFFFFF
310
FFFFFFFFFFFFFFFFFFFFFFFFFFFFFFFFFFFFFFFFFFFFFFFFFFFFFFFFFFFFFFFF
310
F000FFFFFFFFFFFFFFFFFFFFFFFFFFFFFFFFFFFFFFFFFFFFFFFFFFFFFFFFFFFF
310
FFFFFFFFFFFFFFFFFFFFFFFFFFFFFFFFFFFFFFFFFFFFFFFFFFFFFFFFFFFFFFFF
310
FFFFFFFFFFFFFFFFFFFFFFFFFFFFFFFFFFFFFFFFFFFFFFFFF000FFFFFFFFFFFF
310
FFFFFFFFFFFFFFFFFFFFFFFFFFFFFFFFFFFFFFFFFFFFFFFFFFFFFFFFFFFFFFFF
310
FFFFFFFFFFFFFFFFFFFFFFFFFFFFFFFFFFFFFFFFFFFFFFFFFFFFFFFFFFFFFFFF
310
FFFFFFFFFFFFFFFFFFFFFFFFFFFFFFFFF000FFFFFFFFFFFFFFFFFFFFFFFFFFFF
310
FFFFFFFFFFFFFFFFFFFFFFFFFFFFFFFFFFFFFFFFFFFFFFFFFFFFFFFFFFFFFFFF
310
FFFFFFFFFFFFFFFFFFFFFFFFFFFFFFFFFFFFFFFFFFFFFFFFFFFFFFFFFFFFFFFF
310
FFFFFFFFFFFFFFFFF000FFFFFFFFFFFFFFFFFFFFFFFFFFFFFFFFFFFFFFFFFFFF
310
FFFFFFFFFFFFFFFFFFFFFFFFFFFFFFFFFFFFFFFFFFFFFFFFFFFFFFFFFFFFFFFF
310
FFFFFFFFFFFFFFFFFFFFFFFFFFFFFFFFFFFFFFFFFFFFFFFFFFFFFFFFFFFFFFFF
310
F000FFFFFFFFFFFFFFFFFFFFFFFFFFFFFFFFFFFFFFFFFFFFFFFFFFFFFFFFFFFF
310
FFFFFFFFFFFFFFFFFFFFFFFFFFFFFFFFFFFFFFFFFFFFFFFFFFFFFFFFFFFFFFFF
310
FFFFFFFFFFFFFFFFFFFFFFFFFFFFFFFFFFFFFFFFFFFFFFFFF000FFFFFFFFFFFF
310
FFFFFFFFFFFFFFFFFFFFFFFFFFFFFFFFFFFFFFFFFFFFFFFFFFFFFFFFFFFFFFFF
310
FFFFFFFFFFFFFFFFFFFFFFFFFFFFFFFFFFFFFFFFFFFFFFFFFFFFFFFFFFFFFFFF
310
FFFFFFFFFFFFFFFFFFFFFFFFFFFFFFFFF000FFFFFFFFFFFFFFFFFFFFFFFFFFFF
310
FFFFFFFFFFFFFFFFFFFFFFFFFFFFFFFFFFFFFFFFFFFFFFFFFFFFFFFFFFFFFFFF
310
FFFFFFFFFFFFFFFFFFFFFFFFFFFFFFFFFFFFFFFFFFFFFFFFFFFFFFFFFFFFFFFF
310
FFFFFFFFFFFFFFFFF000FFFFFFFFFFFFFFFFFFFFFFFFFFFFFFFFFFFFFFFFFFFF
310
FFFFFFFFFFFFFFFFFFFFFFFFFFFFFFFFFFFFFFFFFFFFFFFFFFFFFFFFFFFFFFFF
310
FFFFFFFFFFFFFFFFFFFFFFFFFFFFFFFFFFFFFFFFFFFFFFFFFFFFFFFFFFFFFFFF
310
F000FFFFFFFFFFFFFFFFFFFFFFFFFFFFFFFFFFFFFFFFFFFFFFFFFFFFFFFFFFFF
310
FFFFFFFFFFFFFFFFFFFFFFFFFFFFFFFFFFFFFFFFFFFFFFFFFFFFFFFFFFFFFFFF
310
FFFFFFFFFFFFFFFFFFFFFFFFFFFFFFFFFFFFFFFFFFFFFFFFF000FFFFFFFFFFFF
310
FFFFFFFFFFFFFFFFFFFFFFFFFFFFFFFFFFFFFFFFFFFFFFFFFFFFFFFFFFFFFFFF
310
FFFFFFFFFFFFFFFFFFFFFFFFFFFFFFFFFFFFFFFFFFFFFFFFFFFFFFFFFFFFFFFF
310
FFFFFFFFFFFFFFFFFFFFFFFFFFFFFFFFF0000000000000000000000000000000
310
0000000000000000000000000000000000000000000000000000000000000000
310
0000000000000000000000000000000000000000000000000000000000000000
310
0000000000000000000000000000000000000000000000000000000000000000
310
0000000000000000000000000000000000000000000000000000000000000000
310
0000000000000000000000000000000000000000000000000000000000000000
310
0000000000000000000000000000000000000000000000000000000000000000
310
0000000000000000000000000000000000000000000000000000000000000000
310
0000000000000000000000000000000000000000000000000000000000000000
310
0000000000000000000000000000000000000000000000000000000000000000
310
0000000000000000000000000000000000000000000000000000000000000000
310
0000000000000000000000000000000000000000000000000000000000000000
310
0000000000000000000000000000000000000000000000000000000000000000
310
0000000000000000000000000000000000000000000000000000000000000000
310
0000000000000000000000000000000000000000000000000000000000000000
310
0000000000000000000000000000000000000000000000000000000000000000
  1
OLE
  0
ENDSEC
  0
SECTION
  2
OBJECTS
  0
DICTIONARY
  5
C
330
0
100
AcDbDictionary
281
     1
  3
ACAD_GROUP
350
D
  3
ACAD_LAYOUT
350
1A
  3
ACAD_MLINESTYLE
350
17
  3
ACAD_PLOTSETTINGS
350
19
  3
ACAD_PLOTSTYLENAME
350
E
  3
ACAD_SCALELIST
350
47
  0
DICTIONARY
  5
D
102
{ACAD_REACTORS
330
C
102
}
330
C
100
AcDbDictionary
281
     1
  0
DICTIONARY
  5
1A
102
{ACAD_REACTORS
330
C
102
}
330
C
100
AcDbDictionary
281
     1
  3
Layout1
350
1E
  3
Layout2
350
26
  3
Model
350
22
  0
DICTIONARY
  5
17
102
{ACAD_REACTORS
330
C
102
}
330
C
100
AcDbDictionary
281
     1
  3
Standard
350
18
  0
DICTIONARY
  5
19
102
{ACAD_REACTORS
330
C
102
}
330
C
100
AcDbDictionary
281
     1
  0
ACDBDICTIONARYWDFLT
  5
E
102
{ACAD_REACTORS
330
C
102
}
330
C
100
AcDbDictionary
281
     1
  3
Normal
350
F
100
AcDbDictionaryWithDefault
340
F
  0
DICTIONARY
  5
47
102
{ACAD_REACTORS
330
C
102
}
330
C
100
AcDbDictionary
281
     1
  3
A0
350
48
  3
A1
350
49
  3
A2
350
4A
  3
A3
350
4B
  3
A4
350
4C
  3
A5
350
4D
  3
A6
350
4E
  3
A7
350
4F
  3
A8
350
50
  3
A9
350
51
  3
B0
350
52
  3
B1
350
53
  3
B2
350
54
  3
B3
350
55
  3
B4
350
56
  3
B5
350
57
  3
B6
350
58
  3
B7
350
59
  3
B8
350
5A
  3
B9
350
5B
  3
C0
350
5C
  3
C1
350
5D
  3
C2
350
5E
  3
C3
350
5F
  3
C4
350
60
  3
C5
350
61
  3
C6
350
62
  3
C7
350
63
  3
C8
350
64
  3
C9
350
65
  3
D0
350
66
  3
D1
350
67
  3
D2
350
68
  0
LAYOUT
  5
1E
102
{ACAD_REACTORS
330
1A
102
}
330
1A
100
AcDbPlotSettings
  1

  2
none_device
  4

  6

 40
0.0
 41
0.0
 42
0.0
 43
0.0
 44
0.0
 45
0.0
 46
0.0
 47
0.0
 48
0.0
 49
0.0
140
0.0
141
0.0
142
1.0
143
1.0
 70
   688
 72
     1
 73
     0
 74
     5
  7

 75
    16
147
1.0
148
0.0
149
0.0
100
AcDbLayout
  1
Layout1
 70
     1
 71
     1
 10
0.0
 20
0.0
 11
420.0
 21
297.0
 12
0.0
 22
0.0
 32
0.0
 14
1.0000000000E+20
 24
1.0000000000E+20
 34
1.0000000000E+20
 15
-1.0000000000E+20
 25
-1.0000000000E+20
 35
-1.0000000000E+20
146
0.0
 13
0.0
 23
0.0
 33
0.0
 16
1.0
 26
0.0
 36
0.0
 17
0.0
 27
1.0
 37
0.0
 76
     0
330
1B
  0
LAYOUT
  5
26
102
{ACAD_REACTORS
330
1A
102
}
330
1A
100
AcDbPlotSettings
  1

  2
none_device
  4

  6

 40
0.0
 41
0.0
 42
0.0
 43
0.0
 44
0.0
 45
0.0
 46
0.0
 47
0.0
 48
0.0
 49
0.0
140
0.0
141
0.0
142
1.0
143
1.0
 70
   688
 72
     1
 73
     0
 74
     5
  7

 75
    16
147
1.0
148
0.0
149
0.0
100
AcDbLayout
  1
Layout2
 70
     1
 71
     2
 10
0.0
 20
0.0
 11
0.0
 21
0.0
 12
0.0
 22
0.0
 32
0.0
 14
0.0
 24
0.0
 34
0.0
 15
0.0
 25
0.0
 35
0.0
146
0.0
 13
0.0
 23
0.0
 33
0.0
 16
1.0
 26
0.0
 36
0.0
 17
0.0
 27
1.0
 37
0.0
 76
     0
330
23
  0
LAYOUT
  5
22
102
{ACAD_REACTORS
330
1A
102
}
330
1A
100
AcDbPlotSettings
  1

  2
none_device
  4
Letter_(8.50_x_11.00_Inches)
  6

 40
6.35
 41
6.35
 42
6.35000508
 43
6.35000508
 44
215.9
 45
279.4
 46
0.0
 47
0.0
 48
0.0
 49
0.0
140
0.0
141
0.0
142
1.0
143
1.0
 70
  1712
 72
     1
 73
     0
 74
     0
  7

 75
     0
147
1.0
148
0.0
149
0.0
100
AcDbLayout
  1
Model
 70
     1
 71
     0
 10
0.0
 20
0.0
 11
297.0
 21
210.0
 12
0.0
 22
0.0
 32
0.0
 14
0.0
 24
0.0
 34
0.0
 15
297.0
 25
210.0
 35
0.0
146
0.0
 13
0.0
 23
0.0
 33
0.0
 16
1.0
 26
0.0
 36
0.0
 17
0.0
 27
1.0
 37
0.0
 76
     0
330
1F
331
29
  0
MLINESTYLE
  5
18
102
{ACAD_REACTORS
330
17
102
}
330
17
100
AcDbMlineStyle
  2
Standard
 70
     0
  3

 62
   256
 51
90.0
 52
90.0
 71
     2
 49
0.5
 62
   256
  6
BYLAYER
 49
-0.5
 62
   256
  6
BYLAYER
  0
ACDBPLACEHOLDER
  5
F
102
{ACAD_REACTORS
330
E
102
}
330
E
  0
SCALE
  5
48
102
{ACAD_REACTORS
330
47
102
}
330
47
100
AcDbScale
 70
     0
300
1:1
140
1.0
141
1.0
290
     1
  0
SCALE
  5
49
102
{ACAD_REACTORS
330
47
102
}
330
47
100
AcDbScale
 70
     0
300
1:2
140
1.0
141
2.0
290
     0
  0
SCALE
  5
4A
102
{ACAD_REACTORS
330
47
102
}
330
47
100
AcDbScale
 70
     0
300
1:4
140
1.0
141
4.0
290
     0
  0
SCALE
  5
4B
102
{ACAD_REACTORS
330
47
102
}
330
47
100
AcDbScale
 70
     0
300
1:5
140
1.0
141
5.0
290
     0
  0
SCALE
  5
4C
102
{ACAD_REACTORS
330
47
102
}
330
47
100
AcDbScale
 70
     0
300
1:8
140
1.0
141
8.0
290
     0
  0
SCALE
  5
4D
102
{ACAD_REACTORS
330
47
102
}
330
47
100
AcDbScale
 70
     0
300
1:10
140
1.0
141
10.0
290
     0
  0
SCALE
  5
4E
102
{ACAD_REACTORS
330
47
102
}
330
47
100
AcDbScale
 70
     0
300
1:16
140
1.0
141
16.0
290
     0
  0
SCALE
  5
4F
102
{ACAD_REACTORS
330
47
102
}
330
47
100
AcDbScale
 70
     0
300
1:20
140
1.0
141
20.0
290
     0
  0
SCALE
  5
50
102
{ACAD_REACTORS
330
47
102
}
330
47
100
AcDbScale
 70
     0
300
1:30
140
1.0
141
30.0
290
     0
  0
SCALE
  5
51
102
{ACAD_REACTORS
330
47
102
}
330
47
100
AcDbScale
 70
     0
300
1:40
140
1.0
141
40.0
290
     0
  0
SCALE
  5
52
102
{ACAD_REACTORS
330
47
102
}
330
47
100
AcDbScale
 70
     0
300
1:50
140
1.0
141
50.0
290
     0
  0
SCALE
  5
53
102
{ACAD_REACTORS
330
47
102
}
330
47
100
AcDbScale
 70
     0
300
1:100
140
1.0
141
100.0
290
     0
  0
SCALE
  5
54
102
{ACAD_REACTORS
330
47
102
}
330
47
100
AcDbScale
 70
     0
300
2:1
140
2.0
141
1.0
290
     0
  0
SCALE
  5
55
102
{ACAD_REACTORS
330
47
102
}
330
47
100
AcDbScale
 70
     0
300
4:1
140
4.0
141
1.0
290
     0
  0
SCALE
  5
56
102
{ACAD_REACTORS
330
47
102
}
330
47
100
AcDbScale
 70
     0
300
8:1
140
8.0
141
1.0
290
     0
  0
SCALE
  5
57
102
{ACAD_REACTORS
330
47
102
}
330
47
100
AcDbScale
 70
     0
300
10:1
140
10.0
141
1.0
290
     0
  0
SCALE
  5
58
102
{ACAD_REACTORS
330
47
102
}
330
47
100
AcDbScale
 70
     0
300
100:1
140
100.0
141
1.0
290
     0
  0
SCALE
  5
59
102
{ACAD_REACTORS
330
47
102
}
330
47
100
AcDbScale
 70
     0
300
1/128" = 1'-0"
140
0.0078125
141
12.0
290
     0
  0
SCALE
  5
5A
102
{ACAD_REACTORS
330
47
102
}
330
47
100
AcDbScale
 70
     0
300
1/64" = 1'-0"
140
0.015625
141
12.0
290
     0
  0
SCALE
  5
5B
102
{ACAD_REACTORS
330
47
102
}
330
47
100
AcDbScale
 70
     0
300
1/32" = 1'-0"
140
0.03125
141
12.0
290
     0
  0
SCALE
  5
5C
102
{ACAD_REACTORS
330
47
102
}
330
47
100
AcDbScale
 70
     0
300
1/16" = 1'-0"
140
0.0625
141
12.0
290
     0
  0
SCALE
  5
5D
102
{ACAD_REACTORS
330
47
102
}
330
47
100
AcDbScale
 70
     0
300
3/32" = 1'-0"
140
0.09375
141
12.0
290
     0
  0
SCALE
  5
5E
102
{ACAD_REACTORS
330
47
102
}
330
47
100
AcDbScale
 70
     0
300
1/8" = 1'-0"
140
0.125
141
12.0
290
     0
  0
SCALE
  5
5F
102
{ACAD_REACTORS
330
47
102
}
330
47
100
AcDbScale
 70
     0
300
3/16" = 1'-0"
140
0.1875
141
12.0
290
     0
  0
SCALE
  5
60
102
{ACAD_REACTORS
330
47
102
}
330
47
100
AcDbScale
 70
     0
300
1/4" = 1'-0"
140
0.25
141
12.0
290
     0
  0
SCALE
  5
61
102
{ACAD_REACTORS
330
47
102
}
330
47
100
AcDbScale
 70
     0
300
3/8" = 1'-0"
140
0.375
141
12.0
290
     0
  0
SCALE
  5
62
102
{ACAD_REACTORS
330
47
102
}
330
47
100
AcDbScale
 70
     0
300
1/2" = 1'-0"
140
0.5
141
12.0
290
     0
  0
SCALE
  5
63
102
{ACAD_REACTORS
330
47
102
}
330
47
100
AcDbScale
 70
     0
300
3/4" = 1'-0"
140
0.75
141
12.0
290
     0
  0
SCALE
  5
64
102
{ACAD_REACTORS
330
47
102
}
330
47
100
AcDbScale
 70
     0
300
1" = 1'-0"
140
1.0
141
12.0
290
     0
  0
SCALE
  5
65
102
{ACAD_REACTORS
330
47
102
}
330
47
100
AcDbScale
 70
     0
300
1-1/2" = 1'-0"
140
1.5
141
12.0
290
     0
  0
SCALE
  5
66
102
{ACAD_REACTORS
330
47
102
}
330
47
100
AcDbScale
 70
     0
300
3" = 1'-0"
140
3.0
141
12.0
290
     0
  0
SCALE
  5
67
102
{ACAD_REACTORS
330
47
102
}
330
47
100
AcDbScale
 70
     0
300
6" = 1'-0"
140
6.0
141
12.0
290
     0
  0
SCALE
  5
68
102
{ACAD_REACTORS
330
47
102
}
330
47
100
AcDbScale
 70
     0
300
1'-0" = 1'-0"
140
12.0
141
12.0
290
     0
  0
ENDSEC
  0
EOF
