  0
SECTION
  2
HEADER
  9
$ACADVER
  1
AC1015
  9
$ACADMAINTVER
 70
     6
  9
$DWGCODEPAGE
  3
ANSI_1252
  9
$INSBASE
 10
0.0
 20
0.0
 30
0.0
  9
$EXTMIN
 10
0.0
 20
0.0
 30
0.0
  9
$EXTMAX
 10
297.0
 20
210.0
 30
0.0
  9
$LIMMIN
 10
0.0
 20
0.0
  9
$LIMMAX
 10
297.0
 20
210.0
  9
$ORTHOMODE
 70
     0
  9
$REGENMODE
 70
     1
  9
$FILLMODE
 70
     1
  9
$QTEXTMODE
 70
     0
  9
$MIRRTEXT
 70
     1
  9
$LTSCALE
 40
1.0
  9
$ATTMODE
 70
     1
  9
$TEXTSIZE
 40
2.0
  9
$TRACEWID
 40
1.0
  9
$TEXTSTYLE
  7
Standard
  9
$CLAYER
  8
0
  9
$CELTYPE
  6
ByLayer
  9
$CECOLOR
 62
   256
  9
$CELTSCALE
 40
1.0
  9
$DISPSILH
 70
     0
  9
$DIMSCALE
 40
1.0
  9
$DIMASZ
 40
3.0
  9
$DIMEXO
 40
0.0
  9
$DIMDLI
 40
3.75
  9
$DIMRND
 40
0.0
  9
$DIMDLE
 40
0.0
  9
$DIMEXE
 40
1.0
  9
$DIMTP
 40
0.0
  9
$DIMTM
 40
0.0
  9
$DIMTXT
 40
2.0
  9
$DIMCEN
 40
2.5
  9
$DIMTSZ
 40
0.0
  9
$DIMTOL
 70
     0
  9
$DIMLIM
 70
     0
  9
$DIMTIH
 70
     1
  9
$DIMTOH
 70
     1
  9
$DIMSE1
 70
     0
  9
$DIMSE2
 70
     0
  9
$DIMTAD
 70
     1
  9
$DIMZIN
 70
     0
  9
$DIMBLK
  1

  9
$DIMASO
 70
     1
  9
$DIMSHO
 70
     1
  9
$DIMPOST
  1

  9
$DIMAPOST
  1

  9
$DIMALT
 70
     0
  9
$DIMALTD
 70
     3
  9
$DIMALTF
 40
0.0393700787
  9
$DIMLFAC
 40
1.0
  9
$DIMTOFL
 70
     1
  9
$DIMTVP
 40
0.0
  9
$DIMTIX
 70
     0
  9
$DIMSOXD
 70
     0
  9
$DIMSAH
 70
     0
  9
$DIMBLK1
  1

  9
$DIMBLK2
  1

  9
$DIMSTYLE
  2
ISO-25
  9
$DIMCLRD
 70
     0
  9
$DIMCLRE
 70
     0
  9
$DIMCLRT
 70
     0
  9
$DIMTFAC
 40
1.0
  9
$DIMGAP
 40
1.524
  9
$DIMJUST
 70
     0
  9
$DIMSD1
 70
     0
  9
$DIMSD2
 70
     0
  9
$DIMTOLJ
 70
     0
  9
$DIMTZIN
 70
     0
  9
$DIMALTZ
 70
     0
  9
$DIMALTTZ
 70
     0
  9
$DIMUPT
 70
     0
  9
$DIMDEC
 70
     2
  9
$DIMTDEC
 70
     3
  9
$DIMALTU
 70
     2
  9
$DIMALTTD
 70
     3
  9
$DIMTXSTY
  7
Standard
  9
$DIMAUNIT
 70
     0
  9
$DIMADEC
 70
     2
  9
$DIMALTRND
 40
0.0
  9
$DIMAZIN
 70
     0
  9
$DIMDSEP
 70
    44
  9
$DIMATFIT
 70
     3
  9
$DIMFRAC
 70
     0
  9
$DIMLDRBLK
  1

  9
$DIMLUNIT
 70
     2
  9
$DIMLWD
 70
    -2
  9
$DIMLWE
 70
    -2
  9
$DIMTMOVE
 70
     0
  9
$LUNITS
 70
     2
  9
$LUPREC
 70
     2
  9
$SKETCHINC
 40
1.0
  9
$FILLETRAD
 40
10.0
  9
$AUNITS
 70
     0
  9
$AUPREC
 70
     2
  9
$MENU
  1
.
  9
$ELEVATION
 40
0.0
  9
$PELEVATION
 40
0.0
  9
$THICKNESS
 40
0.0
  9
$LIMCHECK
 70
     0
  9
$CHAMFERA
 40
0.0
  9
$CHAMFERB
 40
0.0
  9
$CHAMFERC
 40
0.0
  9
$CHAMFERD
 40
0.0
  9
$SKPOLY
 70
     0
  9
$TDCREATE
 40
2457668.347178356
  9
$TDUCREATE
 40
2457668.263845023
  9
$TDUPDATE
 40
2457668.347179456
  9
$TDUUPDATE
 40
2457668.263846123
  9
$TDINDWG
 40
0.0000000116
  9
$TDUSRTIMER
 40
0.0000000116
  9
$USRTIMER
 70
     1
  9
$ANGBASE
 50
0.0
  9
$ANGDIR
 70
     0
  9
$PDMODE
 70
     0
  9
$PDSIZE
 40
-1.0
  9
$PLINEWID
 40
0.0
  9
$SPLFRAME
 70
     0
  9
$SPLINETYPE
 70
     6
  9
$SPLINESEGS
 70
     8
  9
$HANDSEED
  5
226
  9
$SURFTAB1
 70
     6
  9
$SURFTAB2
 70
     6
  9
$SURFTYPE
 70
     6
  9
$SURFU
 70
     6
  9
$SURFV
 70
     6
  9
$UCSBASE
  2

  9
$UCSNAME
  2

  9
$UCSORG
 10
0.0
 20
0.0
 30
0.0
  9
$UCSXDIR
 10
1.0
 20
0.0
 30
0.0
  9
$UCSYDIR
 10
0.0
 20
1.0
 30
0.0
  9
$UCSORTHOREF
  2

  9
$UCSORTHOVIEW
 70
     0
  9
$UCSORGTOP
 10
0.0
 20
0.0
 30
0.0
  9
$UCSORGBOTTOM
 10
0.0
 20
0.0
 30
0.0
  9
$UCSORGLEFT
 10
0.0
 20
0.0
 30
0.0
  9
$UCSORGRIGHT
 10
0.0
 20
0.0
 30
0.0
  9
$UCSORGFRONT
 10
0.0
 20
0.0
 30
0.0
  9
$UCSORGBACK
 10
0.0
 20
0.0
 30
0.0
  9
$PUCSBASE
  2

  9
$PUCSNAME
  2

  9
$PUCSORG
 10
0.0
 20
0.0
 30
0.0
  9
$PUCSXDIR
 10
1.0
 20
0.0
 30
0.0
  9
$PUCSYDIR
 10
0.0
 20
1.0
 30
0.0
  9
$PUCSORTHOREF
  2

  9
$PUCSORTHOVIEW
 70
     0
  9
$PUCSORGTOP
 10
0.0
 20
0.0
 30
0.0
  9
$PUCSORGBOTTOM
 10
0.0
 20
0.0
 30
0.0
  9
$PUCSORGLEFT
 10
0.0
 20
0.0
 30
0.0
  9
$PUCSORGRIGHT
 10
0.0
 20
0.0
 30
0.0
  9
$PUCSORGFRONT
 10
0.0
 20
0.0
 30
0.0
  9
$PUCSORGBACK
 10
0.0
 20
0.0
 30
0.0
  9
$USERI1
 70
     0
  9
$USERI2
 70
     0
  9
$USERI3
 70
     0
  9
$USERI4
 70
     0
  9
$USERI5
 70
     0
  9
$USERR1
 40
0.0
  9
$USERR2
 40
0.0
  9
$USERR3
 40
0.0
  9
$USERR4
 40
0.0
  9
$USERR5
 40
0.0
  9
$WORLDVIEW
 70
     1
  9
$SHADEDGE
 70
     3
  9
$SHADEDIF
 70
    70
  9
$TILEMODE
 70
     1
  9
$MAXACTVP
 70
    64
  9
$PINSBASE
 10
0.0
 20
0.0
 30
0.0
  9
$PLIMCHECK
 70
     0
  9
$PEXTMIN
 10
1.0000000000E+20
 20
1.0000000000E+20
 30
1.0000000000E+20
  9
$PEXTMAX
 10
-1.0000000000E+20
 20
-1.0000000000E+20
 30
-1.0000000000E+20
  9
$PLIMMIN
 10
0.0
 20
0.0
  9
$PLIMMAX
 10
420.0
 20
297.0
  9
$UNITMODE
 70
     0
  9
$VISRETAIN
 70
     1
  9
$PLINEGEN
 70
     0
  9
$PSLTSCALE
 70
     1
  9
$TREEDEPTH
 70
  3020
  9
$CMLSTYLE
  2
Standard
  9
$CMLJUST
 70
     0
  9
$CMLSCALE
 40
20.0
  9
$PROXYGRAPHICS
 70
     1
  9
$MEASUREMENT
 70
     1
  9
$CELWEIGHT
370
    -1
  9
$ENDCAPS
280
     0
  9
$JOINSTYLE
280
     0
  9
$LWDISPLAY
290
     1
  9
$INSUNITS
 70
     4
  9
$HYPERLINKBASE
  1

  9
$STYLESHEET
  1

  9
$XEDIT
290
     1
  9
$CEPSNTYPE
380
     0
  9
$PSTYLEMODE
290
     1
  9
$FINGERPRINTGUID
  2
{BEDCD1B2-A882-49C7-8B68-5A18209B0969}
  9
$VERSIONGUID
  2
{FAEB1C32-E019-11D5-929B-00C0DF256EC4}
  9
$EXTNAMES
290
     1
  9
$PSVPSCALE
 40
0.0
  9
$OLESTARTUP
290
     0
  0
ENDSEC
  0
SECTION
  2
CLASSES
  0
CLASS
  1
ACDBDICTIONARYWDFLT
  2
AcDbDictionaryWithDefault
  3
ObjectDBX Classes
 90
        0
280
     0
281
     0
  0
CLASS
  1
VISUALSTYLE
  2
AcDbVisualStyle
  3
ObjectDBX Classes
 90
     4095
280
     0
281
     0
  0
CLASS
  1
MATERIAL
  2
AcDbMaterial
  3
ObjectDBX Classes
 90
     1153
280
     0
281
     0
  0
CLASS
  1
SCALE
  2
AcDbScale
  3
ObjectDBX Classes
 90
     1153
280
     0
281
     0
  0
CLASS
  1
TABLESTYLE
  2
AcDbTableStyle
  3
ObjectDBX Classes
 90
     4095
280
     0
281
     0
  0
CLASS
  1
MLEADERSTYLE
  2
AcDbMLeaderStyle
  3
ACDB_MLEADERSTYLE_CLASS
 90
     4095
280
     0
281
     0
  0
CLASS
  1
SUN
  2
AcDbSun
  3
SCENEOE
 90
     1153
280
     0
281
     0
  0
CLASS
  1
ACDBPLACEHOLDER
  2
AcDbPlaceHolder
  3
ObjectDBX Classes
 90
        0
280
     0
281
     0
  0
CLASS
  1
LAYOUT
  2
AcDbLayout
  3
ObjectDBX Classes
 90
        0
280
     0
281
     0
  0
ENDSEC
  0
SECTION
  2
TABLES
  0
TABLE
  2
VPORT
  5
8
330
0
100
AcDbSymbolTable
 70
     1
  0
VPORT
  5
29
330
8
100
AcDbSymbolTableRecord
100
AcDbViewportTableRecord
  2
*Active
 70
     0
 10
0.0
 20
0.0
 11
1.0
 21
1.0
 12
148.5
 22
105.0
 13
0.0
 23
0.0
 14
10.0
 24
10.0
 15
10.0
 25
10.0
 16
0.0
 26
0.0
 36
1.0
 17
0.0
 27
0.0
 37
0.0
 40
210.0
 41
1.4142857143
 42
50.0
 43
0.0
 44
0.0
 50
0.0
 51
0.0
 71
     0
 72
  2000
 73
     1
 74
     3
 75
     0
 76
     0
 77
     0
 78
     0
281
     0
 65
     1
110
0.0
120
0.0
130
0.0
111
1.0
121
0.0
131
0.0
112
0.0
122
1.0
132
0.0
 79
     0
146
0.0
  0
ENDTAB
  0
TABLE
  2
LTYPE
  5
5
330
0
100
AcDbSymbolTable
 70
     6
  0
LTYPE
  5
14
330
5
100
AcDbSymbolTableRecord
100
AcDbLinetypeTableRecord
  2
ByBlock
 70
     0
  3

 72
    65
 73
     0
 40
0.0
  0
LTYPE
  5
15
330
5
100
AcDbSymbolTableRecord
100
AcDbLinetypeTableRecord
  2
ByLayer
 70
     0
  3

 72
    65
 73
     0
 40
0.0
  0
LTYPE
  5
16
330
5
100
AcDbSymbolTableRecord
100
AcDbLinetypeTableRecord
  2
Continuous
 70
     0
  3
Solid line
 72
    65
 73
     0
 40
0.0
  0
LTYPE
  5
6E
330
5
100
AcDbSymbolTableRecord
100
AcDbLinetypeTableRecord
  2
HIDDEN
 70
     0
  3
Hidden __ __ __ __ __ __ __ __ __ __ __ __ __ __
 72
    65
 73
     2
 40
1.905
 49
1.27
 74
     0
 49
-0.635
 74
     0
  0
LTYPE
  5
6F
330
5
100
AcDbSymbolTableRecord
100
AcDbLinetypeTableRecord
  2
PHANTOM
 70
     0
  3
Phantom ______  __  __  ______  __  __  ______
 72
    65
 73
     6
 40
12.7
 49
6.35
 74
     0
 49
-1.27
 74
     0
 49
1.27
 74
     0
 49
-1.27
 74
     0
 49
1.27
 74
     0
 49
-1.27
 74
     0
  0
LTYPE
  5
70
330
5
100
AcDbSymbolTableRecord
100
AcDbLinetypeTableRecord
  2
CENTER
 70
     0
  3
Center ____ _ ____ _ ____ _ ____ _ ____ _ ____
 72
    65
 73
     4
 40
10.16
 49
6.35
 74
     0
 49
-1.27
 74
     0
 49
1.27
 74
     0
 49
-1.27
 74
     0
  0
LTYPE
  5
71
330
5
100
AcDbSymbolTableRecord
100
AcDbLinetypeTableRecord
  2
CENTERX2
 70
     0
  3
Center (2x) ________  __  ________  __  _____
 72
    65
 73
     4
 40
20.32
 49
12.7
 74
     0
 49
-2.54
 74
     0
 49
2.54
 74
     0
 49
-2.54
 74
     0
  0
LTYPE
  5
72
330
5
100
AcDbSymbolTableRecord
100
AcDbLinetypeTableRecord
  2
DOT2
 70
     0
  3
Dot (.5x) ........................................
 72
    65
 73
     2
 40
0.635
 49
0.0
 74
     0
 49
-0.635
 74
     0
  0
ENDTAB
  0
TABLE
  2
LAYER
  5
2
330
0
100
AcDbSymbolTable
 70
     5
  0
LAYER
  5
10
330
2
100
AcDbSymbolTableRecord
100
AcDbLayerTableRecord
  2
0
 70
     0
 62
     7
  6
Continuous
370
    -3
390
F
  0
LAYER
  5
73
330
2
100
AcDbSymbolTableRecord
100
AcDbLayerTableRecord
  2
FORMAT
 70
     0
 62
     7
  6
Continuous
370
    -3
390
F
  0
LAYER
  5
74
330
2
100
AcDbSymbolTableRecord
100
AcDbLayerTableRecord
  2
VERMASSUNG
 70
     0
 62
     7
  6
Continuous
370
    -3
390
F
  0
LAYER
  5
75
330
2
100
AcDbSymbolTableRecord
100
AcDbLayerTableRecord
  2
KOPF_DÜNN
 70
     0
 62
     7
  6
Continuous
370
    -3
390
F
  0
LAYER
  5
76
330
2
100
AcDbSymbolTableRecord
100
AcDbLayerTableRecord
  2
KOPF_DICK
 70
     0
 62
     7
  6
Continuous
370
    15
390
F
  0
ENDTAB
  0
TABLE
  2
STYLE
  5
3
330
0
100
AcDbSymbolTable
 70
     2
  0
STYLE
  5
11
330
3
100
AcDbSymbolTableRecord
100
AcDbTextStyleTableRecord
  2
Standard
 70
     0
 40
0.0
 41
1.0
 50
0.0
 71
     0
 42
2.0
  3
txt
  4

  0
STYLE
  5
77
330
3
100
AcDbSymbolTableRecord
100
AcDbTextStyleTableRecord
  2
SLDTEXTSTYLE0
 70
     0
 40
0.0
 41
0.7
 50
0.0
 71
     0
 42
2.0
  3
TXT
  4

  0
ENDTAB
  0
TABLE
  2
VIEW
  5
6
330
0
100
AcDbSymbolTable
 70
     0
  0
ENDTAB
  0
TABLE
  2
UCS
  5
7
330
0
100
AcDbSymbolTable
 70
     0
  0
ENDTAB
  0
TABLE
  2
APPID
  5
9
330
0
100
AcDbSymbolTable
 70
     1
  0
APPID
  5
12
330
9
100
AcDbSymbolTableRecord
100
AcDbRegAppTableRecord
  2
ACAD
 70
     0
  0
ENDTAB
  0
TABLE
  2
DIMSTYLE
  5
A
330
0
100
AcDbSymbolTable
 70
     2
100
AcDbDimStyleTable
  0
DIMSTYLE
105
27
330
A
100
AcDbSymbolTableRecord
100
AcDbDimStyleTableRecord
  2
ISO-25
 70
     0
 41
2.5
 42
0.625
 43
3.75
 44
1.25
 73
     0
 74
     0
 77
     1
 78
     8
140
2.5
141
2.5
143
0.0393700787
147
0.625
171
     3
172
     1
178
     0
271
     2
272
     2
274
     3
278
    44
283
     0
284
     8
340
11
  0
DIMSTYLE
105
1DD
102
{ACAD_REACTORS
330
1DC
330
1E9
330
1F4
330
200
330
20C
330
216
102
}
330
A
100
AcDbSymbolTableRecord
100
AcDbDimStyleTableRecord
  2
SLDDIMSTYLE0
 70
     0
 41
3.0
 44
0.0
 45
0.000000001
 73
     0
 74
     0
 77
     1
 78
    12
 79
     3
140
2.0
147
0.5
173
     1
178
     0
271
     2
272
     3
276
     2
284
    12
340
77
  0
ENDTAB
  0
TABLE
  2
BLOCK_RECORD
  5
1
330
0
100
AcDbSymbolTable
 70
     7
  0
BLOCK_RECORD
  5
1F
330
1
100
AcDbSymbolTableRecord
100
AcDbBlockTableRecord
  2
*Model_Space
340
22
  0
BLOCK_RECORD
  5
1B
330
1
100
AcDbSymbolTableRecord
100
AcDbBlockTableRecord
  2
*Paper_Space
340
1E
  0
BLOCK_RECORD
  5
23
330
1
100
AcDbSymbolTableRecord
100
AcDbBlockTableRecord
  2
*Paper_Space0
340
26
  0
BLOCK_RECORD
  5
1DE
330
1
100
AcDbSymbolTableRecord
100
AcDbBlockTableRecord
  2
_D
340
0
  0
BLOCK_RECORD
  5
1EA
330
1
100
AcDbSymbolTableRecord
100
AcDbBlockTableRecord
  2
_D_1
340
0
  0
BLOCK_RECORD
  5
1F5
330
1
100
AcDbSymbolTableRecord
100
AcDbBlockTableRecord
  2
_D_2
340
0
  0
BLOCK_RECORD
  5
201
330
1
100
AcDbSymbolTableRecord
100
AcDbBlockTableRecord
  2
_D_3
340
0
  0
BLOCK_RECORD
  5
20D
330
1
100
AcDbSymbolTableRecord
100
AcDbBlockTableRecord
  2
_D_4
340
0
  0
BLOCK_RECORD
  5
217
330
1
100
AcDbSymbolTableRecord
100
AcDbBlockTableRecord
  2
_D_5
340
0
  0
ENDTAB
  0
ENDSEC
  0
SECTION
  2
BLOCKS
  0
BLOCK
  5
20
330
1F
100
AcDbEntity
  8
0
100
AcDbBlockBegin
  2
*Model_Space
 70
     0
 10
0.0
 20
0.0
 30
0.0
  3
*Model_Space
  1

  0
ENDBLK
  5
21
330
1F
100
AcDbEntity
  8
0
100
AcDbBlockEnd
  0
BLOCK
  5
1C
330
1B
100
AcDbEntity
 67
     1
  8
0
100
AcDbBlockBegin
  2
*Paper_Space
 70
     0
 10
0.0
 20
0.0
 30
0.0
  3
*Paper_Space
  1

  0
ENDBLK
  5
1D
330
1B
100
AcDbEntity
 67
     1
  8
0
100
AcDbBlockEnd
  0
BLOCK
  5
24
330
23
100
AcDbEntity
  8
0
100
AcDbBlockBegin
  2
*Paper_Space0
 70
     0
 10
0.0
 20
0.0
 30
0.0
  3
*Paper_Space0
  1

  0
ENDBLK
  5
25
330
23
100
AcDbEntity
  8
0
100
AcDbBlockEnd
  0
BLOCK
  5
1DF
330
1DE
100
AcDbEntity
  8
0
100
AcDbBlockBegin
  2
_D
 70
     0
 10
0.0
 20
0.0
 30
0.0
  3
_D
  1

  0
SOLID
  5
1E1
330
1DE
100
AcDbEntity
  8
VERMASSUNG
100
AcDbTrace
 10
83.9280754002
 20
77.899997007
 30
0.0
 11
84.3780754002
 21
80.899997007
 31
0.0
 12
83.4780754002
 22
80.899997007
 32
0.0
 13
83.4780754002
 23
80.899997007
 33
0.0
  0
SOLID
  5
1E2
330
1DE
100
AcDbEntity
  8
VERMASSUNG
100
AcDbTrace
 10
83.9280754002
 20
141.399997007
 30
0.0
 11
83.4780754002
 21
138.399997007
 31
0.0
 12
84.3780754002
 22
138.399997007
 32
0.0
 13
84.3780754002
 23
138.399997007
 33
0.0
  0
LINE
  5
1E3
330
1DE
100
AcDbEntity
  8
VERMASSUNG
100
AcDbLine
 10
177.0521826861
 20
77.899997007
 30
0.0
 11
82.9280754002
 21
77.899997007
 31
0.0
  0
LINE
  5
1E4
330
1DE
100
AcDbEntity
  8
VERMASSUNG
100
AcDbLine
 10
177.0521826861
 20
141.399997007
 30
0.0
 11
82.9280754002
 21
141.399997007
 31
0.0
  0
LINE
  5
1E5
330
1DE
100
AcDbEntity
  8
VERMASSUNG
100
AcDbLine
 10
83.9280754002
 20
77.899997007
 30
0.0
 11
83.9280754002
 21
141.399997007
 31
0.0
  0
MTEXT
  5
1E6
330
1DE
100
AcDbEntity
  8
VERMASSUNG
100
AcDbMText
 10
81.149940144
 20
100.8470608587
 30
0.0
 40
2.0
 41
0.0
 71
     1
 72
     1
  1
ISO 40
  7
SLDTEXTSTYLE0
 11
3.391901413832837E-15
 21
1.0
 31
0.0
 73
     1
 44
1.0
  0
MTEXT
  5
1E7
330
1DE
100
AcDbEntity
  8
VERMASSUNG
100
AcDbMText
 10
81.3499400953
 20
110.0470610628
 30
0.0
 40
2.0
 41
0.0
 71
     1
 72
     1
  1
%%c
  7
SLDTEXTSTYLE0
 11
3.391901413832837E-15
 21
1.0
 31
0.0
 73
     1
 44
1.0
  0
MTEXT
  5
1E8
330
1DE
100
AcDbEntity
  8
VERMASSUNG
100
AcDbMText
 10
81.3499398043
 20
113.6549413942
 30
0.0
 40
2.0
 41
0.0
 71
     1
 72
     1
  1
63.5
  7
SLDTEXTSTYLE0
 11
3.391901413832837E-15
 21
1.0
 31
0.0
 73
     1
 44
1.0
  0
ENDBLK
  5
1E0
330
1DE
100
AcDbEntity
  8
0
100
AcDbBlockEnd
  0
BLOCK
  5
1EB
330
1EA
100
AcDbEntity
  8
0
100
AcDbBlockBegin
  2
_D_1
 70
     0
 10
0.0
 20
0.0
 30
0.0
  3
_D_1
  1

  0
SOLID
  5
1ED
330
1EA
100
AcDbEntity
  8
VERMASSUNG
100
AcDbTrace
 10
208.9256165923
 20
123.649997007
 30
0.0
 11
208.4756165923
 21
120.649997007
 31
0.0
 12
209.3756165923
 22
120.649997007
 32
0.0
 13
209.3756165923
 23
120.649997007
 33
0.0
  0
SOLID
  5
1EE
330
1EA
100
AcDbEntity
  8
VERMASSUNG
100
AcDbTrace
 10
208.9256165923
 20
95.649997007
 30
0.0
 11
209.3756165923
 21
98.649997007
 31
0.0
 12
208.4756165923
 22
98.649997007
 32
0.0
 13
208.4756165923
 23
98.649997007
 33
0.0
  0
LINE
  5
1EF
330
1EA
100
AcDbEntity
  8
VERMASSUNG
100
AcDbLine
 10
188.0021826861
 20
123.649997007
 30
0.0
 11
209.9256165923
 21
123.649997007
 31
0.0
  0
LINE
  5
1F0
330
1EA
100
AcDbEntity
  8
VERMASSUNG
100
AcDbLine
 10
188.0021826861
 20
95.649997007
 30
0.0
 11
209.9256165923
 21
95.649997007
 31
0.0
  0
LINE
  5
1F1
330
1EA
100
AcDbEntity
  8
VERMASSUNG
100
AcDbLine
 10
208.9256165923
 20
123.649997007
 30
0.0
 11
208.9256165923
 21
95.649997007
 31
0.0
  0
MTEXT
  5
1F2
330
1EA
100
AcDbEntity
  8
VERMASSUNG
100
AcDbMText
 10
206.3474810545
 20
106.4458208999
 30
0.0
 40
2.0
 41
0.0
 71
     1
 72
     1
  1
%%c
  7
SLDTEXTSTYLE0
 11
-7.044195017643634E-15
 21
1.0
 31
0.0
 73
     1
 44
1.0
  0
MTEXT
  5
1F3
330
1EA
100
AcDbEntity
  8
VERMASSUNG
100
AcDbMText
 10
206.3474809963
 20
110.0547930935
 30
0.0
 40
2.0
 41
0.0
 71
     1
 72
     1
  1
28
  7
SLDTEXTSTYLE0
 11
-7.044195017643634E-15
 21
1.0
 31
0.0
 73
     1
 44
1.0
  0
ENDBLK
  5
1EC
330
1EA
100
AcDbEntity
  8
0
100
AcDbBlockEnd
  0
BLOCK
  5
1F6
330
1F5
100
AcDbEntity
  8
0
100
AcDbBlockBegin
  2
_D_2
 70
     0
 10
0.0
 20
0.0
 30
0.0
  3
_D_2
  1

  0
SOLID
  5
1F8
330
1F5
100
AcDbEntity
  8
VERMASSUNG
100
AcDbTrace
 10
214.9256165923
 20
134.649997007
 30
0.0
 11
214.4756165923
 21
131.649997007
 31
0.0
 12
215.3756165923
 22
131.649997007
 32
0.0
 13
215.3756165923
 23
131.649997007
 33
0.0
  0
SOLID
  5
1F9
330
1F5
100
AcDbEntity
  8
VERMASSUNG
100
AcDbTrace
 10
214.9256165923
 20
84.649997007
 30
0.0
 11
215.3756165923
 21
87.649997007
 31
0.0
 12
214.4756165923
 22
87.649997007
 32
0.0
 13
214.4756165923
 23
87.649997007
 33
0.0
  0
LINE
  5
1FA
330
1F5
100
AcDbEntity
  8
VERMASSUNG
100
AcDbLine
 10
201.1021826861
 20
134.649997007
 30
0.0
 11
215.9256165923
 21
134.649997007
 31
0.0
  0
LINE
  5
1FB
330
1F5
100
AcDbEntity
  8
VERMASSUNG
100
AcDbLine
 10
201.1021826861
 20
84.649997007
 30
0.0
 11
215.9256165923
 21
84.649997007
 31
0.0
  0
LINE
  5
1FC
330
1F5
100
AcDbEntity
  8
VERMASSUNG
100
AcDbLine
 10
214.9256165923
 20
134.649997007
 30
0.0
 11
214.9256165923
 21
84.649997007
 31
0.0
  0
MTEXT
  5
1FD
330
1F5
100
AcDbEntity
  8
VERMASSUNG
100
AcDbMText
 10
212.147481336
 20
103.5460690976
 30
0.0
 40
2.0
 41
0.0
 71
     1
 72
     1
  1
ST5
  7
SLDTEXTSTYLE0
 11
-7.044195017643634E-15
 21
1.0
 31
0.0
 73
     1
 44
1.0
  0
MTEXT
  5
1FE
330
1F5
100
AcDbEntity
  8
VERMASSUNG
100
AcDbMText
 10
212.3474812873
 20
109.3460690239
 30
0.0
 40
2.0
 41
0.0
 71
     1
 72
     1
  1
%%c
  7
SLDTEXTSTYLE0
 11
-7.044195017643634E-15
 21
1.0
 31
0.0
 73
     1
 44
1.0
  0
MTEXT
  5
1FF
330
1F5
100
AcDbEntity
  8
VERMASSUNG
100
AcDbMText
 10
212.3474809963
 20
112.9545448958
 30
0.0
 40
2.0
 41
0.0
 71
     1
 72
     1
  1
50
  7
SLDTEXTSTYLE0
 11
-7.044195017643634E-15
 21
1.0
 31
0.0
 73
     1
 44
1.0
  0
ENDBLK
  5
1F7
330
1F5
100
AcDbEntity
  8
0
100
AcDbBlockEnd
  0
BLOCK
  5
202
330
201
100
AcDbEntity
  8
0
100
AcDbBlockBegin
  2
_D_3
 70
     0
 10
0.0
 20
0.0
 30
0.0
  3
_D_3
  1

  0
ARC
  5
204
330
201
100
AcDbEntity
  8
VERMASSUNG
100
AcDbCircle
 10
188.738976198
 20
145.8136109996
 30
0.0
 40
4.247059938537297
100
AcDbArc
 50
153.4349488229
 51
206.5650511771
  0
ARC
  5
205
330
201
100
AcDbEntity
  8
VERMASSUNG
100
AcDbCircle
 10
190.5153891743
 20
145.8136109996
 30
0.0
 40
4.247059938537297
100
AcDbArc
 50
333.4349488229
 51
26.5650511771
  0
SOLID
  5
206
330
201
100
AcDbEntity
  8
VERMASSUNG
100
AcDbTrace
 10
177.6521826861
 20
143.9142680542
 30
0.0
 11
180.6521826861
 21
143.4642680542
 31
0.0
 12
180.6521826861
 22
144.3642680542
 32
0.0
 13
180.6521826861
 23
144.3642680542
 33
0.0
  0
SOLID
  5
207
330
201
100
AcDbEntity
  8
VERMASSUNG
100
AcDbTrace
 10
201.6021826861
 20
143.9142680542
 30
0.0
 11
198.6021826861
 21
144.3642680542
 31
0.0
 12
198.6021826861
 22
143.4642680542
 32
0.0
 13
198.6021826861
 23
143.4642680542
 33
0.0
  0
LINE
  5
208
330
201
100
AcDbEntity
  8
VERMASSUNG
100
AcDbLine
 10
177.6521826861
 20
134.8214093631
 30
0.0
 11
177.6521826861
 21
144.9142680542
 31
0.0
  0
LINE
  5
209
330
201
100
AcDbEntity
  8
VERMASSUNG
100
AcDbLine
 10
201.6021826861
 20
134.149997007
 30
0.0
 11
201.6021826861
 21
144.9142680542
 31
0.0
  0
LINE
  5
20A
330
201
100
AcDbEntity
  8
VERMASSUNG
100
AcDbLine
 10
177.6521826861
 20
143.9142680542
 30
0.0
 11
201.6021826861
 21
143.9142680542
 31
0.0
  0
MTEXT
  5
20B
330
201
100
AcDbEntity
  8
VERMASSUNG
100
AcDbMText
 10
186.5277903071
 20
146.4924036502
 30
0.0
 40
2.0
 41
0.0
 71
     1
 72
     1
  1
23.95
  7
SLDTEXTSTYLE0
 73
     1
 44
1.0
  0
ENDBLK
  5
203
330
201
100
AcDbEntity
  8
0
100
AcDbBlockEnd
  0
BLOCK
  5
20E
330
20D
100
AcDbEntity
  8
0
100
AcDbBlockBegin
  2
_D_4
 70
     0
 10
0.0
 20
0.0
 30
0.0
  3
_D_4
  1

  0
SOLID
  5
210
330
20D
100
AcDbEntity
  8
VERMASSUNG
100
AcDbTrace
 10
158.6021826861
 20
149.9142680542
 30
0.0
 11
161.6021826861
 21
149.4642680542
 31
0.0
 12
161.6021826861
 22
150.3642680542
 32
0.0
 13
161.6021826861
 23
150.3642680542
 33
0.0
  0
SOLID
  5
211
330
20D
100
AcDbEntity
  8
VERMASSUNG
100
AcDbTrace
 10
201.6021826861
 20
149.9142680542
 30
0.0
 11
198.6021826861
 21
150.3642680542
 31
0.0
 12
198.6021826861
 22
149.4642680542
 32
0.0
 13
198.6021826861
 23
149.4642680542
 33
0.0
  0
LINE
  5
212
330
20D
100
AcDbEntity
  8
VERMASSUNG
100
AcDbLine
 10
158.6021826861
 20
131.874997007
 30
0.0
 11
158.6021826861
 21
150.9142680542
 31
0.0
  0
LINE
  5
213
330
20D
100
AcDbEntity
  8
VERMASSUNG
100
AcDbLine
 10
201.6021826861
 20
134.149997007
 30
0.0
 11
201.6021826861
 21
150.9142680542
 31
0.0
  0
LINE
  5
214
330
20D
100
AcDbEntity
  8
VERMASSUNG
100
AcDbLine
 10
158.6021826861
 20
149.9142680542
 30
0.0
 11
201.6021826861
 21
149.9142680542
 31
0.0
  0
MTEXT
  5
215
330
20D
100
AcDbEntity
  8
VERMASSUNG
100
AcDbMText
 10
178.6032238808
 20
152.4924036502
 30
0.0
 40
2.0
 41
0.0
 71
     1
 72
     1
  1
43
  7
SLDTEXTSTYLE0
 73
     1
 44
1.0
  0
ENDBLK
  5
20F
330
20D
100
AcDbEntity
  8
0
100
AcDbBlockEnd
  0
BLOCK
  5
218
330
217
100
AcDbEntity
  8
0
100
AcDbBlockBegin
  2
_D_5
 70
     0
 10
0.0
 20
0.0
 30
0.0
  3
_D_5
  1

  0
ARC
  5
21A
330
217
100
AcDbEntity
  8
VERMASSUNG
100
AcDbCircle
 10
144.9886044163
 20
157.8136109996
 30
0.0
 40
4.247059938537221
100
AcDbArc
 50
153.4349488229
 51
206.5650511771
  0
ARC
  5
21B
330
217
100
AcDbEntity
  8
VERMASSUNG
100
AcDbCircle
 10
146.9657609559
 20
157.8136109996
 30
0.0
 40
4.247059938537221
100
AcDbArc
 50
333.4349488229
 51
26.5650511771
  0
SOLID
  5
21C
330
217
100
AcDbEntity
  8
VERMASSUNG
100
AcDbTrace
 10
90.3521826861
 20
155.9142680542
 30
0.0
 11
93.3521826861
 21
155.4642680542
 31
0.0
 12
93.3521826861
 22
156.3642680542
 32
0.0
 13
93.3521826861
 23
156.3642680542
 33
0.0
  0
SOLID
  5
21D
330
217
100
AcDbEntity
  8
VERMASSUNG
100
AcDbTrace
 10
201.6021826861
 20
155.9142680542
 30
0.0
 11
198.6021826861
 21
156.3642680542
 31
0.0
 12
198.6021826861
 22
155.4642680542
 32
0.0
 13
198.6021826861
 23
155.4642680542
 33
0.0
  0
LINE
  5
21E
330
217
100
AcDbEntity
  8
VERMASSUNG
100
AcDbLine
 10
90.3521826861
 20
121.057127604
 30
0.0
 11
90.3521826861
 21
156.9142680542
 31
0.0
  0
LINE
  5
21F
330
217
100
AcDbEntity
  8
VERMASSUNG
100
AcDbLine
 10
201.6021826861
 20
134.149997007
 30
0.0
 11
201.6021826861
 21
156.9142680542
 31
0.0
  0
LINE
  5
220
330
217
100
AcDbEntity
  8
VERMASSUNG
100
AcDbLine
 10
90.3521826861
 20
155.9142680542
 30
0.0
 11
201.6021826861
 21
155.9142680542
 31
0.0
  0
MTEXT
  5
221
330
217
100
AcDbEntity
  8
VERMASSUNG
100
AcDbMText
 10
142.7774185255
 20
158.4924036502
 30
0.0
 40
2.0
 41
0.0
 71
     1
 72
     1
  1
111.25
  7
SLDTEXTSTYLE0
 73
     1
 44
1.0
  0
ENDBLK
  5
219
330
217
100
AcDbEntity
  8
0
100
AcDbBlockEnd
  0
ENDSEC
  0
SECTION
  2
ENTITIES
  0
MTEXT
  5
78
330
1F
100
AcDbEntity
  8
KOPF_DÜNN
100
AcDbMText
 10
13.8892156294
 20
23.8442973028
 30
0.0
 40
3.0
 41
0.0
 71
     1
 72
     1
  1
124.440.050.043
  7
SLDTEXTSTYLE0
 73
     1
 44
1.0
  0
MTEXT
  5
79
330
1F
100
AcDbEntity
  8
VERMASSUNG
100
AcDbMText
 10
13.9329988022
 20
28.8834360957
 30
0.0
 40
3.0
 41
0.0
 71
     1
 72
     1
  1
Aufnahme_Master shank ST5
  7
SLDTEXTSTYLE0
 73
     1
 44
1.0
  0
MTEXT
  5
7A
330
1F
100
AcDbEntity
  8
VERMASSUNG
100
AcDbMText
 10
98.8601118557
 20
13.8365368761
 30
0.0
 40
2.0
 41
0.0
 71
     1
 72
     1
  1
Datum: 14.05.2008
  7
SLDTEXTSTYLE0
 73
     1
 44
1.0
  0
MTEXT
  5
7B
330
1F
100
AcDbEntity
  8
VERMASSUNG
100
AcDbMText
 10
13.933048693
 20
18.0482802738
 30
0.0
 40
2.0
 41
0.0
 71
     1
 72
     1
  1
DIN 69871 B ISO 40
  7
SLDTEXTSTYLE0
 73
     1
 44
1.0
  0
MTEXT
  5
7C
330
1F
100
AcDbEntity
  8
VERMASSUNG
100
AcDbMText
 10
13.9808475933
 20
13.9090974274
 30
0.0
 40
2.0
 41
0.0
 71
     1
 72
     1
  1
Gewicht: 1008g
  7
SLDTEXTSTYLE0
 73
     1
 44
1.0
  0
LINE
  5
7D
330
1F
100
AcDbEntity
  8
0
  6
Continuous
 62
     7
370
    15
100
AcDbLine
 10
201.1021831331
 20
134.6499973795
 30
0.0
 11
185.6764209715
 21
134.6499973795
 31
0.0
  0
LINE
  5
7E
330
1F
100
AcDbEntity
  8
0
  6
Continuous
 62
     7
370
    15
100
AcDbLine
 10
185.6733308432
 20
84.6499966345
 30
0.0
 11
201.1021831331
 21
84.6499966345
 31
0.0
  0
ARC
  5
7F
330
1F
100
AcDbEntity
  8
0
  6
Continuous
 62
     7
370
    15
100
AcDbCircle
 10
201.1021826861
 20
134.149997007
 30
0.0
 40
0.5
100
AcDbArc
 50
0.0
 51
90.0
  0
ARC
  5
80
330
1F
100
AcDbEntity
  8
0
  6
Continuous
 62
     7
370
    15
100
AcDbCircle
 10
201.1021826861
 20
85.149997007
 30
0.0
 40
0.5000000000000142
100
AcDbArc
 50
270.0
 51
0.0
  0
ARC
  5
81
330
1F
100
AcDbEntity
  8
0
  6
Continuous
 62
     7
370
    15
100
AcDbCircle
 10
161.2021826861
 20
86.824997007
 30
0.0
 40
0.5999999999999943
100
AcDbArc
 50
0.0
 51
90.0
  0
ARC
  5
82
330
1F
100
AcDbEntity
  8
0
  6
Continuous
 62
     7
370
    15
100
AcDbCircle
 10
161.2021826861
 20
132.474997007
 30
0.0
 40
0.5999999999999943
100
AcDbArc
 50
270.0
 51
0.0
  0
LINE
  5
83
330
1F
100
AcDbEntity
  8
0
  6
Continuous
 62
     7
370
    15
100
AcDbLine
 10
158.6021826861
 20
131.8749969712
 30
0.0
 11
91.2078739402
 21
122.0466604343
 31
0.0
  0
LINE
  5
84
330
1F
100
AcDbEntity
  8
0
  6
Continuous
 62
     7
370
    15
100
AcDbLine
 10
91.2078739402
 20
97.2533335796
 30
0.0
 11
158.6021826861
 21
87.4249970427
 31
0.0
  0
LINE
  5
85
330
1F
100
AcDbEntity
  8
0
  6
Continuous
 62
     7
370
    15
100
AcDbLine
 10
158.6021826861
 20
87.4249970427
 30
0.0
 11
161.2021826932
 21
87.4249970427
 31
0.0
  0
LINE
  5
86
330
1F
100
AcDbEntity
  8
0
  6
Continuous
 62
     7
370
    15
100
AcDbLine
 10
161.2021826932
 20
131.8749969712
 30
0.0
 11
158.6021826861
 21
131.8749969712
 31
0.0
  0
ARC
  5
87
330
1F
100
AcDbEntity
  8
0
  6
Continuous
 62
     7
370
    15
100
AcDbCircle
 10
91.3521826861
 20
98.24286641
 30
0.0
 40
0.9999999999999959
100
AcDbArc
 50
180.0
 51
261.7028550302
  0
ARC
  5
88
330
1F
100
AcDbEntity
  8
0
  6
Continuous
 62
     7
370
    15
100
AcDbCircle
 10
91.3521826861
 20
121.057127604
 30
0.0
 40
0.9999999999999959
100
AcDbArc
 50
98.2971449698
 51
180.0
  0
ARC
  5
89
330
1F
100
AcDbEntity
  8
0
  6
Continuous
 62
     7
370
    15
100
AcDbCircle
 10
171.6021826861
 20
100.9284833522
 30
0.0
 40
1.500000000000013
100
AcDbArc
 50
191.5274417158
 51
336.6722113243
  0
SPLINE
  5
8A
330
1F
100
AcDbEntity
  8
0
  6
Continuous
 62
     7
370
    15
100
AcDbSpline
210
0.0
220
0.0
230
1.0
 70
     8
 71
     3
 72
    11
 73
     7
 74
     0
 42
0.000000001
 43
0.00000001
 40
0.0
 40
0.0
 40
0.0
 40
0.0
 40
0.1285560491239245
 40
0.4801535504066041
 40
0.8150691319714267
 40
0.9999999999999999
 40
0.9999999999999999
 40
0.9999999999999999
 40
0.9999999999999999
 10
186.7549632934519
 20
107.3909399918039
 30
0.0
 10
186.712363462987
 20
107.4991117416444
 30
0.0
 10
186.5532541874313
 20
107.9031304563883
 30
0.0
 10
186.2548824827445
 20
108.6607544243398
 30
0.0
 10
185.9318116309408
 20
109.481102842173
 30
0.0
 10
185.7587410573795
 20
109.9205690551384
 30
0.0
 10
185.6971727011391
 20
110.076905350782
 30
0.0
  0
SPLINE
  5
8B
330
1F
100
AcDbEntity
  8
0
  6
Continuous
 62
     7
370
    15
100
AcDbSpline
210
0.0
220
0.0
230
1.0
 70
     8
 71
     3
 72
    11
 73
     7
 74
     0
 42
0.000000001
 43
0.00000001
 40
0.0
 40
0.0
 40
0.0
 40
0.0
 40
0.2164542769001022
 40
0.4403087244918344
 40
0.7518986701172018
 40
1.0
 40
1.0
 40
1.0
 40
1.0
 10
189.6099736241289
 20
106.9640315024872
 30
0.0
 10
189.4144038337066
 20
106.9932750401125
 30
0.0
 10
189.0165780840692
 20
107.0527618977334
 30
0.0
 10
188.2783164688118
 20
107.1631537003612
 30
0.0
 10
187.4863951265243
 20
107.2815691937256
 30
0.0
 10
186.9796115624417
 20
107.3573483987731
 30
0.0
 10
186.7549632934519
 20
107.3909399918039
 30
0.0
  0
SPLINE
  5
8C
330
1F
100
AcDbEntity
  8
0
  6
Continuous
 62
     7
370
    15
100
AcDbSpline
210
0.0
220
0.0
230
1.0
 70
     8
 71
     3
 72
    11
 73
     7
 74
     0
 42
0.000000001
 43
0.00000001
 40
0.0
 40
0.0
 40
0.0
 40
0.0
 40
0.2164547331440509
 40
0.4403090955886624
 40
0.7518984023253427
 40
0.9999999999999999
 40
0.9999999999999999
 40
0.9999999999999999
 40
0.9999999999999999
 10
191.4071933624931
 20
109.2230886631869
 30
0.0
 10
191.2840819978921
 20
109.068341996837
 30
0.0
 10
191.0336506360237
 20
108.7535585605212
 30
0.0
 10
190.5689188125809
 20
108.1694006230643
 30
0.0
 10
190.0704091488006
 20
107.5427834858681
 30
0.0
 10
189.7513896300985
 20
107.1417866702603
 30
0.0
 10
189.6099736241289
 20
106.9640315024872
 30
0.0
  0
SPLINE
  5
8D
330
1F
100
AcDbEntity
  8
0
  6
Continuous
 62
     7
370
    15
100
AcDbSpline
210
0.0
220
0.0
230
1.0
 70
     8
 71
     3
 72
    11
 73
     7
 74
     0
 42
0.000000001
 43
0.00000001
 40
0.0
 40
0.0
 40
0.0
 40
0.0
 40
0.184930810711999
 40
0.519846539576973
 40
0.8714437542808489
 40
1.0
 40
1.0
 40
1.0
 40
1.0
 10
190.3494009075352
 20
111.9090540221651
 30
0.0
 10
190.4109691558004
 20
111.7527177078633
 30
0.0
 10
190.5840395094385
 20
111.3132512301733
 30
0.0
 10
190.9071141864231
 20
110.4929042236996
 30
0.0
 10
191.2054809774905
 20
109.7352783022069
 30
0.0
 10
191.3645927818397
 20
109.3312603851494
 30
0.0
 10
191.4071933624931
 20
109.2230886631869
 30
0.0
  0
SPLINE
  5
8E
330
1F
100
AcDbEntity
  8
0
  6
Continuous
 62
     7
370
    15
100
AcDbSpline
210
0.0
220
0.0
230
1.0
 70
     8
 71
     3
 72
    11
 73
     7
 74
     0
 42
0.000000001
 43
0.00000001
 40
0.0
 40
0.0
 40
0.0
 40
0.0
 40
0.2164542786337533
 40
0.4403093286769477
 40
0.7518986681300794
 40
1.0
 40
1.0
 40
1.0
 40
1.0
 10
187.4943905768581
 20
112.3359625114818
 30
0.0
 10
187.689960358739
 20
112.3067189414948
 30
0.0
 10
188.0877866337056
 20
112.2472319368933
 30
0.0
 10
188.8260484728589
 20
112.1368406970322
 30
0.0
 10
189.6179696056131
 20
112.0184246332635
 30
0.0
 10
190.1247526324088
 20
111.9426455830789
 30
0.0
 10
190.3494009075352
 20
111.9090540221651
 30
0.0
  0
SPLINE
  5
8F
330
1F
100
AcDbEntity
  8
0
  6
Continuous
 62
     7
370
    15
100
AcDbSpline
210
0.0
220
0.0
230
1.0
 70
     8
 71
     3
 72
    11
 73
     7
 74
     0
 42
0.000000001
 43
0.00000001
 40
0.0
 40
0.0
 40
0.0
 40
0.0
 40
0.2164544485774
 40
0.4403088851513711
 40
0.7518986782247696
 40
0.9999999999999999
 40
0.9999999999999999
 40
0.9999999999999999
 40
0.9999999999999999
 10
185.6971727011391
 20
110.076905350782
 30
0.0
 10
185.8202833669864
 20
110.2316520704777
 30
0.0
 10
186.0707135170051
 20
110.5464358787006
 30
0.0
 10
186.5354453764768
 20
111.1305938919474
 30
0.0
 10
187.0339571881676
 20
111.7572094701614
 30
0.0
 10
187.3529753727235
 20
112.1582072020447
 30
0.0
 10
187.4943905768581
 20
112.3359625114818
 30
0.0
  0
CIRCLE
  5
90
330
1F
100
AcDbEntity
  8
0
  6
Continuous
 62
     7
370
    15
100
AcDbCircle
 10
188.5521826861
 20
109.649997007
 30
0.0
 40
3.00000000000002
  0
CIRCLE
  5
91
330
1F
100
AcDbEntity
  8
0
  6
Continuous
 62
     7
370
    15
100
AcDbCircle
 10
188.5521826861
 20
109.649997007
 30
0.0
 40
4.499999999999973
  0
CIRCLE
  5
92
330
1F
100
AcDbEntity
  8
0
  6
Continuous
 62
     7
370
    15
100
AcDbCircle
 10
188.5521826861
 20
109.649997007
 30
0.0
 40
4.999999999999994
  0
ARC
  5
93
330
1F
100
AcDbEntity
  8
0
  6
Continuous
 62
     7
370
    15
100
AcDbCircle
 10
188.5521826861
 20
109.649997007
 30
0.0
 40
2.500000000000018
100
AcDbArc
 50
261.4955985705
 51
321.4955985705
  0
ARC
  5
94
330
1F
100
AcDbEntity
  8
0
  6
Continuous
 62
     7
370
    15
100
AcDbCircle
 10
188.5521826861
 20
109.649997007
 30
0.0
 40
2.500000000000026
100
AcDbArc
 50
321.4955985705
 51
21.4955985705
  0
ARC
  5
95
330
1F
100
AcDbEntity
  8
0
  6
Continuous
 62
     7
370
    15
100
AcDbCircle
 10
188.5521826861
 20
109.649997007
 30
0.0
 40
2.499999999999994
100
AcDbArc
 50
141.4955985705
 51
201.4955985705
  0
ARC
  5
96
330
1F
100
AcDbEntity
  8
0
  6
Continuous
 62
     7
370
    15
100
AcDbCircle
 10
188.5521826861
 20
109.649997007
 30
0.0
 40
2.499999999999999
100
AcDbArc
 50
81.4955985705
 51
141.4955985705
  0
ARC
  5
97
330
1F
100
AcDbEntity
  8
0
  6
Continuous
 62
     7
370
    15
100
AcDbCircle
 10
188.5521826861
 20
109.649997007
 30
0.0
 40
2.499999999999995
100
AcDbArc
 50
201.4955985705
 51
261.4955985705
  0
ARC
  5
98
330
1F
100
AcDbEntity
  8
0
  6
Continuous
 62
     7
370
    15
100
AcDbCircle
 10
188.5521826861
 20
109.649997007
 30
0.0
 40
2.500000000000026
100
AcDbArc
 50
21.4955985705
 51
81.4955985705
  0
LINE
  5
99
330
1F
100
AcDbEntity
  8
0
  6
Continuous
 62
     7
370
    15
100
AcDbLine
 10
173.2240197507
 20
99.8979767672
 30
0.0
 11
173.2240197507
 21
127.9999965689
 31
0.0
  0
LINE
  5
9A
330
1F
100
AcDbEntity
  8
0
  6
Continuous
 62
     7
370
    15
100
AcDbLine
 10
177.0521820781
 20
127.9999965689
 30
0.0
 11
173.2240197507
 21
127.9999965689
 31
0.0
  0
LINE
  5
9B
330
1F
100
AcDbEntity
  8
0
  6
Continuous
 62
     7
370
    15
100
AcDbLine
 10
173.2240197507
 20
79.2019048593
 30
0.0
 11
177.0521820781
 21
79.2019048593
 31
0.0
  0
LINE
  5
9C
330
1F
100
AcDbEntity
  8
0
  6
Continuous
 62
     7
370
    15
100
AcDbLine
 10
173.2240197507
 20
79.2019048593
 30
0.0
 11
173.2240197507
 21
97.6984973884
 31
0.0
  0
SPLINE
  5
9D
330
1F
100
AcDbEntity
  8
0
  6
Continuous
 62
     7
370
    15
100
AcDbSpline
210
0.0
220
0.0
230
1.0
 70
     8
 71
     3
 72
    12
 73
     8
 74
     0
 42
0.000000001
 43
0.00000001
 40
0.0
 40
0.0
 40
0.0
 40
0.0
 40
0.2500000000000003
 40
0.2500000000000003
 40
0.5000000000000007
 40
0.5000000000000007
 40
1.0
 40
1.0
 40
1.0
 40
1.0
 10
173.2240193281659
 20
97.69849720877747
 30
0.0
 10
173.3469668219614
 20
97.85645405747255
 30
0.0
 10
173.4405110250703
 20
98.02828742445008
 30
0.0
 10
173.5694504142325
 20
98.3999601340959
 30
0.0
 10
173.6020031716176
 20
98.59314858028716
 30
0.0
 10
173.6025395133514
 20
99.18144511856339
 30
0.0
 10
173.4699158563835
 20
99.57346335645211
 30
0.0
 10
173.2240193281659
 20
99.89797693916078
 30
0.0
  0
LINE
  5
9E
330
1F
100
AcDbEntity
  8
0
  6
Continuous
 62
     7
370
    15
100
AcDbLine
 10
162.4021827502
 20
79.2019048593
 30
0.0
 11
166.1803460939
 21
79.2019048593
 31
0.0
  0
LINE
  5
9F
330
1F
100
AcDbEntity
  8
0
  6
Continuous
 62
     7
370
    15
100
AcDbLine
 10
166.1803460939
 20
127.9999965689
 30
0.0
 11
162.4021827502
 21
127.9999965689
 31
0.0
  0
LINE
  5
A0
330
1F
100
AcDbEntity
  8
0
  6
Continuous
 62
     7
370
    15
100
AcDbLine
 10
166.1803460939
 20
79.2019048593
 30
0.0
 11
166.1803460939
 21
127.9999965689
 31
0.0
  0
SPLINE
  5
A1
330
1F
100
AcDbEntity
  8
0
  6
Continuous
 62
     7
370
    15
100
AcDbSpline
210
0.0
220
0.0
230
1.0
 70
     8
 71
     3
 72
     8
 73
     4
 74
     0
 42
0.000000001
 43
0.00000001
 40
0.0
 40
0.0
 40
0.0
 40
0.0
 40
1.0
 40
1.0
 40
1.0
 40
1.0
 10
167.7921826861092
 20
81.83317054748304
 30
0.0
 10
167.4080479375248
 20
81.14052912553883
 30
0.0
 10
167.0230616610319
 20
80.44834295121512
 30
0.0
 10
166.6373930824055
 20
79.75654866037094
 30
0.0
  0
SPLINE
  5
A2
330
1F
100
AcDbEntity
  8
0
  6
Continuous
 62
     7
370
    15
100
AcDbSpline
210
0.0
220
0.0
230
1.0
 70
     8
 71
     3
 72
     8
 73
     4
 74
     0
 42
0.000000001
 43
0.00000001
 40
0.0
 40
0.0
 40
0.0
 40
0.0
 40
0.0011901715795577
 40
0.0011901715795577
 40
0.0011901715795577
 40
0.0011901715795577
 10
166.1803460440525
 20
79.20190465834781
 30
0.0
 10
166.3341922335484
 20
79.38646989603139
 30
0.0
 10
166.486587501221
 20
79.57134525656001
 30
0.0
 10
166.6373930824055
 20
79.75654866037094
 30
0.0
  0
SPLINE
  5
A3
330
1F
100
AcDbEntity
  8
0
  6
Continuous
 62
     7
370
    15
100
AcDbSpline
210
0.0
220
0.0
230
1.0
 70
    24
 71
     3
 72
     8
 73
     4
 74
     0
 42
0.000000001
 43
0.00000001
 40
0.0
 40
0.0
 40
0.0
 40
0.0
 40
1.0
 40
1.0
 40
1.0
 40
1.0
 10
167.7921826861092
 20
127.9999970069845
 30
0.0
 10
167.2674501977473
 20
127.9999970069845
 30
0.0
 10
166.7287747135285
 20
127.9999970069845
 30
0.0
 10
166.1803460440525
 20
127.9999970069845
 30
0.0
  0
LINE
  5
A4
330
1F
100
AcDbEntity
  8
0
  6
Continuous
 62
     7
370
    15
100
AcDbLine
 10
167.7921823484
 20
81.8331705293
 30
0.0
 11
167.7921823484
 21
127.9999965689
 31
0.0
  0
SPLINE
  5
A5
330
1F
100
AcDbEntity
  8
0
  6
Continuous
 62
     7
370
    15
100
AcDbSpline
210
0.0
220
0.0
230
1.0
 70
     8
 71
     3
 72
    12
 73
     8
 74
     0
 42
0.000000001
 43
0.00000001
 40
0.0
 40
0.0
 40
0.0
 40
0.0
 40
0.2499999999999997
 40
0.2499999999999997
 40
0.4999999999999993
 40
0.4999999999999993
 40
1.0
 40
1.0
 40
1.0
 40
1.0
 10
177.0521826861092
 20
79.20190465834781
 30
0.0
 10
177.1477245962452
 20
79.20190465834781
 30
0.0
 10
177.2398695381079
 20
79.21815832754402
 30
0.0
 10
177.3961958147178
 20
79.2717667484575
 30
0.0
 10
177.4598639573378
 20
79.30817787373917
 30
0.0
 10
177.6087318027682
 20
79.43030151342566
 30
0.0
 10
177.6521826861092
 20
79.5254541888627
 30
0.0
 10
177.6521826861092
 20
79.62108064448238
 30
0.0
  0
SPLINE
  5
A6
330
1F
100
AcDbEntity
  8
0
  6
Continuous
 62
     7
370
    15
100
AcDbSpline
210
0.0
220
0.0
230
1.0
 70
    24
 71
     3
 72
    12
 73
     8
 74
     0
 42
0.000000001
 43
0.00000001
 40
0.0
 40
0.0
 40
0.0
 40
0.0
 40
0.5
 40
0.5
 40
0.75
 40
0.75
 40
1.0
 40
1.0
 40
1.0
 40
1.0
 10
177.6521826861092
 20
127.9999970069845
 30
0.0
 10
177.6521826861092
 20
127.9999970069845
 30
0.0
 10
177.6018970189375
 20
127.9999970069845
 30
0.0
 10
177.4467748845622
 20
127.9999970069845
 30
0.0
 10
177.3813176092202
 20
127.9999970069845
 30
0.0
 10
177.2273463855779
 20
127.9999970069845
 30
0.0
 10
177.1401240968621
 20
127.9999970069845
 30
0.0
 10
177.052182686109
 20
127.9999970069845
 30
0.0
  0
LINE
  5
A7
330
1F
100
AcDbEntity
  8
0
  6
Continuous
 62
     7
370
    15
100
AcDbLine
 10
177.6521829215
 20
79.6210801116
 30
0.0
 11
177.6521829215
 21
127.9999965689
 31
0.0
  0
SPLINE
  5
A8
330
1F
100
AcDbEntity
  8
0
  6
Continuous
 62
     7
370
    15
100
AcDbSpline
210
0.0
220
0.0
230
1.0
 70
     8
 71
     3
 72
    10
 73
     6
 74
     0
 42
0.000000001
 43
0.00000001
 40
0.0
 40
0.0
 40
0.0
 40
0.0
 40
0.5
 40
0.5
 40
1.0
 40
1.0
 40
1.0
 40
1.0
 10
162.0183272274564
 20
79.29826715751626
 30
0.0
 10
162.0670972004377
 20
79.27003915030825
 30
0.0
 10
162.12454932374
 20
79.24594454606665
 30
0.0
 10
162.2551462267288
 20
79.2116810729741
 30
0.0
 10
162.3276359065709
 20
79.20190465834781
 30
0.0
 10
162.4021826861091
 20
79.20190465834781
 30
0.0
  0
SPLINE
  5
A9
330
1F
100
AcDbEntity
  8
0
  6
Continuous
 62
     7
370
    15
100
AcDbSpline
210
0.0
220
0.0
230
1.0
 70
     8
 71
     3
 72
    10
 73
     6
 74
     0
 42
0.000000001
 43
0.00000001
 40
0.0
 40
0.0
 40
0.0
 40
0.0
 40
0.5
 40
0.5
 40
1.0
 40
1.0
 40
1.0
 40
1.0
 10
162.0183272274564
 20
79.29826715751625
 30
0.0
 10
161.9602045673803
 20
79.36557231737807
 30
0.0
 10
161.9078014013768
 20
79.44565770441173
 30
0.0
 10
161.8288983798304
 20
79.62967714610049
 30
0.0
 10
161.8021826861091
 20
79.73488850352095
 30
0.0
 10
161.8021826861091
 20
79.84362184998159
 30
0.0
  0
LINE
  5
AA
330
1F
100
AcDbEntity
  8
0
  6
Continuous
 62
     7
370
    15
100
AcDbLine
 10
161.8021826053
 20
79.8436215034
 30
0.0
 11
161.8021826053
 21
127.9999965689
 31
0.0
  0
SPLINE
  5
AB
330
1F
100
AcDbEntity
  8
0
  6
Continuous
 62
     7
370
    15
100
AcDbSpline
210
0.0
220
0.0
230
1.0
 70
    24
 71
     3
 72
    12
 73
     8
 74
     0
 42
0.000000001
 43
0.00000001
 40
0.0
 40
0.0
 40
0.0
 40
0.0
 40
0.25
 40
0.25
 40
0.5
 40
0.5
 40
1.0
 40
1.0
 40
1.0
 40
1.0
 10
162.4021826861091
 20
127.9999970069845
 30
0.0
 10
162.3146983164564
 20
127.9999970069845
 30
0.0
 10
162.2273654390357
 20
127.9999970069845
 30
0.0
 10
162.0735290255969
 20
127.9999970069845
 30
0.0
 10
162.0079068566234
 20
127.9999970069845
 30
0.0
 10
161.8524886512809
 20
127.9999970069845
 30
0.0
 10
161.8021826861091
 20
127.9999970069845
 30
0.0
 10
161.8021826861091
 20
127.9999970069845
 30
0.0
  0
LINE
  5
AC
330
1F
100
AcDbEntity
  8
0
  6
Continuous
 62
     7
370
    15
100
AcDbLine
 10
171.6121825648
 20
101.6487141958
 30
0.0
 11
171.6121825648
 21
127.9999965689
 31
0.0
  0
SPLINE
  5
AD
330
1F
100
AcDbEntity
  8
0
  6
Continuous
 62
     7
370
    15
100
AcDbSpline
210
0.0
220
0.0
230
1.0
 70
    24
 71
     3
 72
     8
 73
     4
 74
     0
 42
0.000000001
 43
0.00000001
 40
0.0
 40
0.0
 40
0.0
 40
0.0
 40
1.0
 40
1.0
 40
1.0
 40
1.0
 10
173.2240193281659
 20
127.9999970069845
 30
0.0
 10
172.6755906586899
 20
127.9999970069845
 30
0.0
 10
172.1369151744711
 20
127.9999970069845
 30
0.0
 10
171.6121826861092
 20
127.9999970069845
 30
0.0
  0
SPLINE
  5
AE
330
1F
100
AcDbEntity
  8
0
  6
Continuous
 62
     7
370
    15
100
AcDbSpline
210
0.0
220
0.0
230
1.0
 70
     8
 71
     3
 72
    12
 73
     8
 74
     0
 42
0.000000001
 43
0.00000001
 40
0.0
 40
0.0
 40
0.0
 40
0.0
 40
0.2499999999999992
 40
0.2499999999999992
 40
0.4999999999999984
 40
0.4999999999999984
 40
1.0
 40
1.0
 40
1.0
 40
1.0
 10
173.2240193281659
 20
99.89797693916078
 30
0.0
 10
173.1091232769052
 20
100.1177173742173
 30
0.0
 10
172.9823572604326
 20
100.3146857258391
 30
0.0
 10
172.722142326814
 20
100.668403298678
 30
0.0
 10
172.5886348688518
 20
100.8252285925502
 30
0.0
 10
172.1802366002636
 20
101.2517711634579
 30
0.0
 10
171.896583465326
 20
101.4784633424131
 30
0.0
 10
171.6121826861093
 20
101.6487144868086
 30
0.0
  0
SPLINE
  5
AF
330
1F
100
AcDbEntity
  8
0
  6
Continuous
 62
     7
370
    15
100
AcDbSpline
210
0.0
220
0.0
230
1.0
 70
     8
 71
     3
 72
    14
 73
    10
 74
     0
 42
0.000000001
 43
0.00000001
 40
0.0
 40
0.0
 40
0.0
 40
0.0
 40
0.2499999999999995
 40
0.2499999999999995
 40
0.4999999999999997
 40
0.4999999999999997
 40
0.7499999999999998
 40
0.7499999999999998
 40
1.0
 40
1.0
 40
1.0
 40
1.0
 10
171.6121826861092
 20
101.7029581366558
 30
0.0
 10
171.6121826861092
 20
101.7392177263309
 30
0.0
 10
171.5910625986109
 20
101.7758457801193
 30
0.0
 10
171.5085949434623
 20
101.8411235125326
 30
0.0
 10
171.4481635891211
 20
101.8690498238608
 30
0.0
 10
171.2956987229734
 20
101.9032142607552
 30
0.0
 10
171.2051178360226
 20
101.9085937576842
 30
0.0
 10
171.0124759200541
 20
101.8877174480051
 30
0.0
 10
170.9106637774466
 20
101.8613714027966
 30
0.0
 10
170.812182686109
 20
101.8206292936548
 30
0.0
  0
SPLINE
  5
B0
330
1F
100
AcDbEntity
  8
0
  6
Continuous
 62
     7
370
    15
100
AcDbSpline
210
0.0
220
0.0
230
1.0
 70
     8
 71
     3
 72
    12
 73
     8
 74
     0
 42
0.000000001
 43
0.00000001
 40
0.0
 40
0.0
 40
0.0
 40
0.0
 40
0.5000000000000017
 40
0.5000000000000017
 40
0.7500000000000008
 40
0.7500000000000008
 40
1.0
 40
1.0
 40
1.0
 40
1.0
 10
171.6121826861092
 20
97.88999098858756
 30
0.0
 10
171.8963892206745
 20
97.72252682629382
 30
0.0
 10
172.1750849547783
 20
97.61088972678222
 30
0.0
 10
172.5844309979675
 20
97.54357646114285
 30
0.0
 10
172.7205703352871
 20
97.53842542112889
 30
0.0
 10
172.9818903842831
 20
97.57619135874828
 30
0.0
 10
173.1073115667149
 20
97.61774111709254
 30
0.0
 10
173.2240193281663
 20
97.69849720877535
 30
0.0
  0
LINE
  5
B1
330
1F
100
AcDbEntity
  8
0
  6
Continuous
 62
     7
370
    15
100
AcDbLine
 10
171.6121825648
 20
97.9442343003
 30
0.0
 11
171.6121825648
 21
97.8899912796
 31
0.0
  0
SPLINE
  5
B2
330
1F
100
AcDbEntity
  8
0
  6
Continuous
 62
     7
370
    15
100
AcDbSpline
210
0.0
220
0.0
230
1.0
 70
     8
 71
     3
 72
    14
 73
    10
 74
     0
 42
0.000000001
 43
0.00000001
 40
0.0
 40
0.0
 40
0.0
 40
0.0
 40
0.25
 40
0.25
 40
0.5
 40
0.5
 40
0.75
 40
0.75
 40
1.0
 40
1.0
 40
1.0
 40
1.0
 10
170.8121826861091
 20
98.36751781687632
 30
0.0
 10
170.9106619597233
 20
98.32868118626448
 30
0.0
 10
171.0119593184218
 20
98.29138835816894
 30
0.0
 10
171.2049430186641
 20
98.21997706709402
 30
0.0
 10
171.2960383890785
 20
98.18587730423698
 30
0.0
 10
171.447330912396
 20
98.11904833100674
 30
0.0
 10
171.5085966354246
 20
98.08562892526538
 30
0.0
 10
171.5907802363441
 20
98.01661131897123
 30
0.0
 10
171.6121826861092
 20
97.98081503712994
 30
0.0
 10
171.6121826861092
 20
97.9442346384359
 30
0.0
  0
SPLINE
  5
B3
330
1F
100
AcDbEntity
  8
0
  6
Continuous
 62
     7
370
    15
100
AcDbSpline
210
0.0
220
0.0
230
1.0
 70
     8
 71
     3
 72
    22
 73
    18
 74
     0
 42
0.000000001
 43
0.00000001
 40
0.0
 40
0.0
 40
0.0
 40
0.0
 40
0.125
 40
0.125
 40
0.25
 40
0.25
 40
0.375
 40
0.375
 40
0.5
 40
0.5
 40
0.625
 40
0.625
 40
0.75
 40
0.75
 40
0.875
 40
0.875
 40
1.0
 40
1.0
 40
1.0
 40
1.0
 10
170.8121826861091
 20
101.8206292936536
 30
0.0
 10
170.6321659915398
 20
101.746155506677
 30
0.0
 10
170.4677341696695
 20
101.648706244693
 30
0.0
 10
170.1693379359109
 20
101.4093368111287
 30
0.0
 10
170.039034208546
 20
101.2694401990582
 30
0.0
 10
169.825815424927
 20
100.9611886089979
 30
0.0
 10
169.7421875678155
 20
100.7910253908787
 30
0.0
 10
169.6310566908973
 20
100.4405306560882
 30
0.0
 10
169.6022206960436
 20
100.2554056949369
 30
0.0
 10
169.602144753384
 20
99.89219882031963
 30
0.0
 10
169.6308033788112
 20
99.70882880661206
 30
0.0
 10
169.7419544719239
 20
99.36293769411876
 30
0.0
 10
169.8250215925679
 20
99.19741816685126
 30
0.0
 10
170.0387075506866
 20
98.89687842944751
 30
0.0
 10
170.1677145406109
 20
98.7630065081635
 30
0.0
 10
170.4673238201004
 20
98.53175973875938
 30
0.0
 10
170.6321665183596
 20
98.43850962210063
 30
0.0
 10
170.8121826861091
 20
98.36751781687633
 30
0.0
  0
SPLINE
  5
B4
330
1F
100
AcDbEntity
  8
0
  6
Continuous
 62
     7
370
    15
100
AcDbSpline
210
0.0
220
0.0
230
1.0
 70
     8
 71
     3
 72
     8
 73
     4
 74
     0
 42
0.000000001
 43
0.00000001
 40
0.0
 40
0.0
 40
0.0
 40
0.0
 40
0.0011901715795577
 40
0.0011901715795577
 40
0.0011901715795577
 40
0.0011901715795577
 10
172.7669722898128
 20
79.75654866037094
 30
0.0
 10
172.9177778709973
 20
79.57134525656001
 30
0.0
 10
173.07017313867
 20
79.38646989603139
 30
0.0
 10
173.2240193281659
 20
79.20190465834781
 30
0.0
  0
SPLINE
  5
B5
330
1F
100
AcDbEntity
  8
0
  6
Continuous
 62
     7
370
    15
100
AcDbSpline
210
0.0
220
0.0
230
1.0
 70
     8
 71
     3
 72
     8
 73
     4
 74
     0
 42
0.000000001
 43
0.00000001
 40
0.0
 40
0.0
 40
0.0
 40
0.0
 40
1.0
 40
1.0
 40
1.0
 40
1.0
 10
172.7669722898128
 20
79.75654866037094
 30
0.0
 10
172.3813037111865
 20
80.44834295121512
 30
0.0
 10
171.9963174346935
 20
81.14052912553883
 30
0.0
 10
171.6121826861092
 20
81.83317054748302
 30
0.0
  0
LINE
  5
B6
330
1F
100
AcDbEntity
  8
0
  6
Continuous
 62
     7
370
    15
100
AcDbLine
 10
171.6121825648
 20
81.8331705293
 30
0.0
 11
171.6121825648
 21
97.8899912796
 31
0.0
  0
SPLINE
  5
B7
330
1F
100
AcDbEntity
  8
0
  6
Continuous
 62
     7
370
    15
100
AcDbSpline
210
0.0
220
0.0
230
1.0
 70
     8
 71
     3
 72
    12
 73
     8
 74
     0
 42
0.000000001
 43
0.00000001
 40
0.0
 40
0.0
 40
0.0
 40
0.0
 40
0.2499999999999986
 40
0.2499999999999986
 40
0.4999999999999971
 40
0.4999999999999971
 40
1.0
 40
1.0
 40
1.0
 40
1.0
 10
168.5921826861091
 20
82.83213915069776
 30
0.0
 10
168.484596085147
 20
82.83213915069776
 30
0.0
 10
168.3785913311776
 20
82.80949777181068
 30
0.0
 10
168.1819662848288
 20
82.72259790721695
 30
0.0
 10
168.0940811116068
 20
82.65966569210899
 30
0.0
 10
167.8735285185024
 20
82.42466189354963
 30
0.0
 10
167.7921826861092
 20
82.21144420527877
 30
0.0
 10
167.7921826861092
 20
81.99791751917745
 30
0.0
  0
SPLINE
  5
B8
330
1F
100
AcDbEntity
  8
0
  6
Continuous
 62
     7
370
    15
100
AcDbSpline
210
0.0
220
0.0
230
1.0
 70
    24
 71
     3
 72
    12
 73
     8
 74
     0
 42
0.000000001
 43
0.00000001
 40
0.0
 40
0.0
 40
0.0
 40
0.0
 40
0.2499999999999995
 40
0.2499999999999995
 40
0.499999999999999
 40
0.499999999999999
 40
1.0
 40
1.0
 40
1.0
 40
1.0
 10
168.5921826861091
 20
127.9999970069845
 30
0.0
 10
168.4707049143047
 20
127.9999970069845
 30
0.0
 10
168.3481514426427
 20
127.9999970069845
 30
0.0
 10
168.1440982891044
 20
127.9999970069845
 30
0.0
 10
168.0579392258786
 20
127.9999970069845
 30
0.0
 10
167.8558986591828
 20
127.9999970069845
 30
0.0
 10
167.7921826861092
 20
127.9999970069845
 30
0.0
 10
167.7921826861092
 20
127.9999970069845
 30
0.0
  0
SPLINE
  5
B9
330
1F
100
AcDbEntity
  8
0
  6
Continuous
 62
     7
370
    15
100
AcDbSpline
210
0.0
220
0.0
230
1.0
 70
    24
 71
     3
 72
    14
 73
    10
 74
     0
 42
0.000000001
 43
0.00000001
 40
0.0
 40
0.0
 40
0.0
 40
0.0
 40
0.25
 40
0.25
 40
0.5
 40
0.5
 40
0.75
 40
0.75
 40
1.0
 40
1.0
 40
1.0
 40
1.0
 10
171.6121826861092
 20
127.9999970069845
 30
0.0
 10
171.6121826861092
 20
127.9999970069845
 30
0.0
 10
171.5961010846494
 20
127.9999970069845
 30
0.0
 10
171.5306095713825
 20
127.9999970069845
 30
0.0
 10
171.4813015982551
 20
127.9999970069845
 30
0.0
 10
171.3467320765581
 20
127.9999970069845
 30
0.0
 10
171.2612090004729
 20
127.9999970069845
 30
0.0
 10
171.0542135049179
 20
127.9999970069845
 30
0.0
 10
170.9335198709743
 20
127.9999970069845
 30
0.0
 10
170.8121826861092
 20
127.9999970069845
 30
0.0
  0
LINE
  5
BA
330
1F
100
AcDbEntity
  8
0
  6
Continuous
 62
     7
370
    15
100
AcDbLine
 10
170.8121829925
 20
82.8321387878
 30
0.0
 11
168.5921828521
 21
82.8321387878
 31
0.0
  0
LINE
  5
BB
330
1F
100
AcDbEntity
  8
0
  6
Continuous
 62
     7
370
    15
100
AcDbLine
 10
170.8121829925
 20
127.9999965689
 30
0.0
 11
168.5921828521
 21
127.9999965689
 31
0.0
  0
SPLINE
  5
BC
330
1F
100
AcDbEntity
  8
0
  6
Continuous
 62
     7
370
    15
100
AcDbSpline
210
0.0
220
0.0
230
1.0
 70
     8
 71
     3
 72
    12
 73
     8
 74
     0
 42
0.000000001
 43
0.00000001
 40
0.0
 40
0.0
 40
0.0
 40
0.0
 40
0.5000000000000013
 40
0.5000000000000013
 40
0.7500000000000007
 40
0.7500000000000007
 40
1.0
 40
1.0
 40
1.0
 40
1.0
 10
171.6121826861092
 20
81.99791751917743
 30
0.0
 10
171.6121826861092
 20
82.21074007811033
 30
0.0
 10
171.5302573282894
 20
82.42499658474829
 30
0.0
 10
171.311335524821
 20
82.65868621319818
 30
0.0
 10
171.22128823333
 20
82.72317103804215
 30
0.0
 10
171.0258747653102
 20
82.80937064919773
 30
0.0
 10
170.9185917983264
 20
82.83213915069777
 30
0.0
 10
170.8121826861091
 20
82.83213915069776
 30
0.0
  0
SPLINE
  5
BD
330
1F
100
AcDbEntity
  8
0
  6
Continuous
 62
     7
370
    15
100
AcDbSpline
210
0.0
220
0.0
230
1.0
 70
     8
 71
     3
 72
     8
 73
     4
 74
     0
 42
0.000000001
 43
0.00000001
 40
0.0
 40
0.0
 40
0.0
 40
0.0
 40
0.0000694974999696
 40
0.0000694974999696
 40
0.0000694974999696
 40
0.0000694974999696
 10
177.6533928101056
 20
127.9999970069845
 30
0.0
 10
177.6525867002861
 20
128.0231488108131
 30
0.0
 10
177.6521826861092
 20
128.0463181372008
 30
0.0
 10
177.6521826861092
 20
128.069483970524
 30
0.0
  0
SPLINE
  5
BE
330
1F
100
AcDbEntity
  8
0
  6
Continuous
 62
     7
370
    15
100
AcDbSpline
210
0.0
220
0.0
230
1.0
 70
     8
 71
     3
 72
    10
 73
     6
 74
     0
 42
0.000000001
 43
0.00000001
 40
0.0
 40
0.0
 40
0.0
 40
0.0
 40
0.5
 40
0.5
 40
1.0
 40
1.0
 40
1.0
 40
1.0
 10
177.6521826861092
 20
134.634417443684
 30
0.0
 10
177.6521826861092
 20
134.5733029989199
 30
0.0
 10
177.6641567811172
 20
134.5278294807815
 30
0.0
 10
177.6939486380307
 20
134.4659671554729
 30
0.0
 10
177.7118954443592
 20
134.4499970069845
 30
0.0
 10
177.7251430765637
 20
134.4499970069845
 30
0.0
  0
SPLINE
  5
BF
330
1F
100
AcDbEntity
  8
0
  6
Continuous
 62
     7
370
    15
100
AcDbSpline
210
0.0
220
0.0
230
1.0
 70
    24
 71
     3
 72
    18
 73
    14
 74
     0
 42
0.000000001
 43
0.00000001
 40
0.0
 40
0.0
 40
0.0
 40
0.0
 40
0.4999999999999996
 40
0.4999999999999996
 40
0.749999999999999
 40
0.749999999999999
 40
0.8749999999999984
 40
0.8749999999999984
 40
0.9374999999999984
 40
0.9374999999999984
 40
0.9687499999999992
 40
0.9687499999999992
 40
1.0
 40
1.0
 40
1.0
 40
1.0
 10
177.7251430765637
 20
134.4499970069845
 30
0.0
 10
177.7842816001622
 20
134.4499970069845
 30
0.0
 10
177.8730730345242
 20
134.4499970069845
 30
0.0
 10
178.0569733117618
 20
134.4499970069845
 30
0.0
 10
178.126188135704
 20
134.4499970069845
 30
0.0
 10
178.2585631098338
 20
134.4499970069845
 30
0.0
 10
178.3069940534838
 20
134.4499970069845
 30
0.0
 10
178.3999582906675
 20
134.4499970069845
 30
0.0
 10
178.434227525249
 20
134.4499970069845
 30
0.0
 10
178.4989643163672
 20
134.4499970069845
 30
0.0
 10
178.5231199693522
 20
134.4499970069845
 30
0.0
 10
178.5805153919957
 20
134.4499970069845
 30
0.0
 10
178.6151768141052
 20
134.4499970069845
 30
0.0
 10
178.6521826861092
 20
134.4499970069845
 30
0.0
  0
SPLINE
  5
C0
330
1F
100
AcDbEntity
  8
0
  6
Continuous
 62
     7
370
    15
100
AcDbSpline
210
0.0
220
0.0
230
1.0
 70
     8
 71
     3
 72
    12
 73
     8
 74
     0
 42
0.000000001
 43
0.00000001
 40
0.0
 40
0.0
 40
0.0
 40
0.0
 40
0.25
 40
0.25
 40
0.5
 40
0.5
 40
1.0
 40
1.0
 40
1.0
 40
1.0
 10
178.6521826861092
 20
85.95396192982696
 30
0.0
 10
178.5631653431156
 20
85.95396192982696
 30
0.0
 10
178.476129011004
 20
85.94291677560246
 30
0.0
 10
178.305911404
 20
85.89888934759526
 30
0.0
 10
178.2233542554673
 20
85.86563830783483
 30
0.0
 10
177.9962829036737
 20
85.73608157205297
 30
0.0
 10
177.8689657064612
 20
85.6066812605577
 30
0.0
 10
177.7839891675443
 20
85.44999700698449
 30
0.0
  0
SPLINE
  5
C1
330
1F
100
AcDbEntity
  8
0
  6
Continuous
 62
     7
370
    15
100
AcDbSpline
210
0.0
220
0.0
230
1.0
 70
    11
 71
     3
 72
    82
 73
    78
 74
     0
 42
0.000000001
 43
0.00000001
 40
0.0
 40
0.0
 40
0.0
 40
0.0
 40
0.0312499999999998
 40
0.0312499999999998
 40
0.0624999999999995
 40
0.0624999999999995
 40
0.0937499999999993
 40
0.0937499999999993
 40
0.124999999999999
 40
0.124999999999999
 40
0.1562499999999988
 40
0.1562499999999988
 40
0.1874999999999988
 40
0.1874999999999988
 40
0.2187499999999989
 40
0.2187499999999989
 40
0.2499999999999989
 40
0.2499999999999989
 40
0.2812499999999989
 40
0.2812499999999989
 40
0.3124999999999989
 40
0.3124999999999989
 40
0.328124999999999
 40
0.328124999999999
 40
0.343749999999999
 40
0.343749999999999
 40
0.3749999999999991
 40
0.3749999999999991
 40
0.3906249999999991
 40
0.3906249999999991
 40
0.4062499999999991
 40
0.4062499999999991
 40
0.4218749999999992
 40
0.4218749999999992
 40
0.4374999999999992
 40
0.4374999999999992
 40
0.4687499999999993
 40
0.4687499999999993
 40
0.4999999999999993
 40
0.4999999999999993
 40
0.5312499999999994
 40
0.5312499999999994
 40
0.5624999999999994
 40
0.5624999999999994
 40
0.5937499999999996
 40
0.5937499999999996
 40
0.6249999999999997
 40
0.6249999999999997
 40
0.6562499999999998
 40
0.6562499999999998
 40
0.6874999999999998
 40
0.6874999999999998
 40
0.7187499999999999
 40
0.7187499999999999
 40
0.75
 40
0.75
 40
0.7812500000000001
 40
0.7812500000000001
 40
0.8125000000000001
 40
0.8125000000000001
 40
0.8281250000000001
 40
0.8281250000000001
 40
0.8437500000000001
 40
0.8437500000000001
 40
0.8593750000000001
 40
0.8593750000000001
 40
0.8750000000000001
 40
0.8750000000000001
 40
0.9062500000000001
 40
0.9062500000000001
 40
0.9218750000000001
 40
0.9218750000000001
 40
0.9375
 40
0.9375
 40
0.96875
 40
0.96875
 40
1.0
 40
1.0
 40
1.0
 40
1.0
 10
184.8264498381591
 20
113.3193306480946
 30
0.0
 10
185.0913537484872
 20
113.5413565868397
 30
0.0
 10
185.3739738027736
 20
113.7351469711824
 30
0.0
 10
185.9724084172204
 20
114.0703839299039
 30
0.0
 10
186.2906420235747
 20
114.2121896207654
 30
0.0
 10
186.9389541491394
 20
114.4350326430604
 30
0.0
 10
187.2710130991894
 20
114.5175989592059
 30
0.0
 10
187.9508825474831
 20
114.6255525237884
 30
0.0
 10
188.2986626572972
 20
114.6501711633428
 30
0.0
 10
188.9837574381605
 20
114.640029204112
 30
0.0
 10
189.3244110424067
 20
114.6059656947626
 30
0.0
 10
190.0018364478553
 20
114.478261669279
 30
0.0
 10
190.3361473334257
 20
114.3844403702671
 30
0.0
 10
190.9748601484706
 20
114.1430741826544
 30
0.0
 10
191.2824349683646
 20
113.9950485305172
 30
0.0
 10
191.872675230291
 20
113.6406478007033
 30
0.0
 10
192.1508496534046
 20
113.4363125778641
 30
0.0
 10
192.6582747702874
 20
112.9832197572679
 30
0.0
 10
192.8899873885425
 20
112.7331160606737
 30
0.0
 10
193.3047725087694
 20
112.1802888458953
 30
0.0
 10
193.4811103460916
 20
111.8860547851472
 30
0.0
 10
193.6957221766811
 20
111.422099592215
 30
0.0
 10
193.7590605513761
 20
111.2634164092762
 30
0.0
 10
193.8685335669346
 20
110.9375653374031
 30
0.0
 10
193.914862146124
 20
110.769193835268
 30
0.0
 10
194.0235602477314
 20
110.2628354815871
 30
0.0
 10
194.0570951627456
 20
109.9220723079488
 30
0.0
 10
194.0488665768733
 20
109.4061223912354
 30
0.0
 10
194.0361130993735
 20
109.2321857170373
 30
0.0
 10
193.9909049977583
 20
108.8888228348665
 30
0.0
 10
193.9586708323725
 20
108.7198207034643
 30
0.0
 10
193.8757150142984
 20
108.3869521715899
 30
0.0
 10
193.8249910977368
 20
108.223086409594
 30
0.0
 10
193.7052159647788
 20
107.9004338760441
 30
0.0
 10
193.6356688600534
 20
107.7407565520817
 30
0.0
 10
193.4035408885856
 20
107.2781345735339
 30
0.0
 10
193.2179330642179
 20
106.9904502810042
 30
0.0
 10
192.7889721954434
 20
106.4535432021758
 30
0.0
 10
192.5454178260855
 20
106.2054942998931
 30
0.0
 10
192.0218496681421
 20
105.7654312580674
 30
0.0
 10
191.7383488865227
 20
105.5697995112711
 30
0.0
 10
191.1361767503009
 20
105.2314890125708
 30
0.0
 10
190.8234473563041
 20
105.0918191666491
 30
0.0
 10
190.1759003827178
 20
104.8679150865223
 30
0.0
 10
189.8377354170851
 20
104.78333794497
 30
0.0
 10
189.1574055626933
 20
104.6748204514249
 30
0.0
 10
188.8156711281297
 20
104.6502096148225
 30
0.0
 10
188.1291087049994
 20
104.6593188163123
 30
0.0
 10
187.7811891092884
 20
104.6939327703542
 30
0.0
 10
187.1058774931496
 20
104.8209647974566
 30
0.0
 10
186.7766223399112
 20
104.9128534068967
 30
0.0
 10
186.1350910469916
 20
105.1543435390868
 30
0.0
 10
185.8206599845529
 20
105.3057650702728
 30
0.0
 10
185.2343263065609
 20
105.6577067176836
 30
0.0
 10
184.9595239324508
 20
105.8588018544522
 30
0.0
 10
184.4484163291542
 20
106.3142201033982
 30
0.0
 10
184.2116807539801
 20
106.5704676030676
 30
0.0
 10
183.8022346261706
 20
107.1161894456078
 30
0.0
 10
183.6261965870669
 20
107.408056208265
 30
0.0
 10
183.4089033827531
 20
107.8770967021982
 30
0.0
 10
183.3442726068469
 20
108.0392873096725
 30
0.0
 10
183.2348609013812
 20
108.3656880320912
 30
0.0
 10
183.1895380094968
 20
108.5309038889066
 30
0.0
 10
183.1176261402576
 20
108.8653683610729
 30
0.0
 10
183.0910359632642
 20
109.0346167092837
 30
0.0
 10
183.0571531487468
 20
109.3772727258923
 30
0.0
 10
183.049923771493
 20
109.5519236164246
 30
0.0
 10
183.0585763474433
 20
110.071392339087
 30
0.0
 10
183.1037403727779
 20
110.4116791850846
 30
0.0
 10
183.2287148680517
 20
110.9133749540284
 30
0.0
 10
183.2804087530579
 20
111.0801249278626
 30
0.0
 10
183.4009748739188
 20
111.4040366387682
 30
0.0
 10
183.4697844011485
 20
111.561522160662
 30
0.0
 10
183.7006228147027
 20
112.0212228627199
 30
0.0
 10
183.888800566691
 20
112.3131111919496
 30
0.0
 10
184.3199931343065
 20
112.8515952562434
 30
0.0
 10
184.5615459278311
 20
113.0973047093496
 30
0.0
 10
184.8264498381591
 20
113.3193306480946
 30
0.0
  0
SPLINE
  5
C2
330
1F
100
AcDbEntity
  8
0
  6
Continuous
 62
     7
370
    15
100
AcDbSpline
210
0.0
220
0.0
230
1.0
 70
     8
 71
     3
 72
    13
 73
     9
 74
     0
 42
0.000000001
 43
0.00000001
 40
0.0
 40
0.0
 40
0.0
 40
0.0
 40
0.1708597596604557
 40
0.3457095482211253
 40
0.5349507459031768
 40
0.7300349557396818
 40
0.9130209585365112
 40
1.0
 40
1.0
 40
1.0
 40
1.0
 10
182.696239024181
 20
85.44999713811471
 30
0.0
 10
183.0023755457345
 20
85.38272402314006
 30
0.0
 10
183.6217976891964
 20
85.24660678739342
 30
0.0
 10
184.4029942173818
 20
85.04029703860691
 30
0.0
 10
185.054490901412
 20
84.85300411866764
 30
0.0
 10
185.4879383403229
 20
84.7187624272724
 30
0.0
 10
185.6992664404802
 20
84.65094921155995
 30
0.0
 10
185.6796507501245
 20
84.65724438772021
 30
0.0
 10
185.6733308432289
 20
84.65927260729863
 30
0.0
  0
SPLINE
  5
C3
330
1F
100
AcDbEntity
  8
0
  6
Continuous
 62
     7
370
    15
100
AcDbSpline
210
0.0
220
0.0
230
1.0
 70
     8
 71
     3
 72
    11
 73
     7
 74
     0
 42
0.000000001
 43
0.00000001
 40
0.0
 40
0.0
 40
0.0
 40
0.0
 40
0.1188040072716459
 40
0.4274545369453316
 40
0.7093441413891832
 40
1.0
 40
1.0
 40
1.0
 40
1.0
 10
178.484064459581
 20
85.9321335217674
 30
0.0
 10
178.6665944792655
 20
85.92851815997598
 30
0.0
 10
179.3233339852358
 20
85.91551015767095
 30
0.0
 10
180.3796286606138
 20
85.81913512937969
 30
0.0
 10
181.6291483681033
 20
85.65815892404571
 30
0.0
 10
182.336929853686
 20
85.52008906348735
 30
0.0
 10
182.696239024181
 20
85.44999713811471
 30
0.0
  0
LINE
  5
C4
330
1F
100
AcDbEntity
  8
0
  6
Continuous
 62
     7
370
    15
100
AcDbLine
 10
178.6521830855
 20
134.4499977193
 30
0.0
 11
185.0577545611
 21
134.4499977193
 31
0.0
  0
SPLINE
  5
C5
330
1F
100
AcDbEntity
  8
0
  6
Continuous
 62
     7
370
    15
100
AcDbSpline
210
0.0
220
0.0
230
1.0
 70
     8
 71
     3
 72
    10
 73
     6
 74
     0
 42
0.000000001
 43
0.00000001
 40
0.0
 40
0.0
 40
0.0
 40
0.0
 40
0.3962846266939921
 40
0.8038560553470675
 40
1.0
 40
1.0
 40
1.0
 40
1.0
 10
185.0577545610853
 20
134.44999771926
 30
0.0
 10
185.2050543654413
 20
134.494798513864
 30
0.0
 10
185.5038493014719
 20
134.5856760993189
 30
0.0
 10
185.6958758909627
 20
134.6480267243751
 30
0.0
 10
185.6811917662881
 20
134.6432621738898
 30
0.0
 10
185.6764209715315
 20
134.6417141965349
 30
0.0
  0
LINE
  5
C6
330
1F
100
AcDbEntity
  8
0
  6
Continuous
 62
     7
370
    15
100
AcDbLine
 10
201.6021841464
 20
109.649997007
 30
0.0
 11
201.6021841464
 21
85.1499976477
 31
0.0
  0
LINE
  5
C7
330
1F
100
AcDbEntity
  8
0
  6
Continuous
 62
     7
370
    15
100
AcDbLine
 10
201.6021841464
 20
134.1499963662
 30
0.0
 11
201.6021841464
 21
109.649997007
 31
0.0
  0
LINE
  5
C8
330
1F
100
AcDbEntity
  8
0
  6
Continuous
 62
     7
370
    15
100
AcDbLine
 10
158.6021826861
 20
87.4249970427
 30
0.0
 11
158.6021826861
 21
131.8749969712
 31
0.0
  0
SPLINE
  5
C9
330
1F
100
AcDbEntity
  8
0
  6
Continuous
 62
     7
370
    15
100
AcDbSpline
210
0.0
220
0.0
230
1.0
 70
     8
 71
     3
 72
    12
 73
     8
 74
     0
 42
0.000000001
 43
0.00000001
 40
0.0
 40
0.0
 40
0.0
 40
0.0
 40
0.5000000000000003
 40
0.5000000000000003
 40
0.7500000000000001
 40
0.7500000000000001
 40
1.0
 40
1.0
 40
1.0
 40
1.0
 10
161.8021826861091
 20
134.8214093630681
 30
0.0
 10
161.8021826861091
 20
134.9961695384023
 30
0.0
 10
161.8521028874274
 20
135.1738746421876
 30
0.0
 10
162.0074447853392
 20
135.3866313840328
 30
0.0
 10
162.0732954838635
 20
135.4484247567579
 30
0.0
 10
162.225741551702
 20
135.5352313444389
 30
0.0
 10
162.3147516518216
 20
135.5602266470322
 30
0.0
 10
162.4021826861091
 20
135.5602266470322
 30
0.0
  0
LINE
  5
CA
330
1F
100
AcDbEntity
  8
0
  6
Continuous
 62
     7
370
    15
100
AcDbLine
 10
162.4021827502
 20
135.5602273605
 30
0.0
 11
166.1803460939
 21
135.5602273605
 31
0.0
  0
SPLINE
  5
CB
330
1F
100
AcDbEntity
  8
0
  6
Continuous
 62
     7
370
    15
100
AcDbSpline
210
0.0
220
0.0
230
1.0
 70
     8
 71
     3
 72
     8
 73
     4
 74
     0
 42
0.000000001
 43
0.00000001
 40
0.0
 40
0.0
 40
0.0
 40
0.0
 40
1.0
 40
1.0
 40
1.0
 40
1.0
 10
166.1803460440525
 20
135.5602266470321
 30
0.0
 10
166.7292908222493
 20
134.3951305347184
 30
0.0
 10
167.2679011967661
 20
133.2259722178939
 30
0.0
 10
167.7921826861092
 20
132.052136062843
 30
0.0
  0
LINE
  5
CC
330
1F
100
AcDbEntity
  8
0
  6
Continuous
 62
     7
370
    15
100
AcDbLine
 10
167.7921823484
 20
132.0521363876
 30
0.0
 11
167.7921823484
 21
131.8472379706
 31
0.0
  0
SPLINE
  5
CD
330
1F
100
AcDbEntity
  8
0
  6
Continuous
 62
     7
370
    15
100
AcDbSpline
210
0.0
220
0.0
230
1.0
 70
     8
 71
     3
 72
    14
 73
    10
 74
     0
 42
0.000000001
 43
0.00000001
 40
0.0
 40
0.0
 40
0.0
 40
0.0
 40
0.25
 40
0.25
 40
0.5
 40
0.5
 40
0.75
 40
0.75
 40
1.0
 40
1.0
 40
1.0
 40
1.0
 10
167.7921826861092
 20
131.8472378265098
 30
0.0
 10
167.7921826861092
 20
131.7263457684213
 30
0.0
 10
167.8086781585024
 20
131.6038804933334
 30
0.0
 10
167.8739102252242
 20
131.3720593497816
 30
0.0
 10
167.923528059643
 20
131.2590854744742
 30
0.0
 10
168.0581688956467
 20
131.0573800045987
 30
0.0
 10
168.1444907607944
 20
130.9672481575207
 30
0.0
 10
168.3496784138963
 20
130.8376272791399
 30
0.0
 10
168.4696464365114
 20
130.798933150441
 30
0.0
 10
168.5921826861092
 20
130.798933150441
 30
0.0
  0
LINE
  5
CE
330
1F
100
AcDbEntity
  8
0
  6
Continuous
 62
     7
370
    15
100
AcDbLine
 10
168.5921828521
 20
130.79893383
 30
0.0
 11
170.8121829925
 21
130.79893383
 31
0.0
  0
SPLINE
  5
CF
330
1F
100
AcDbEntity
  8
0
  6
Continuous
 62
     7
370
    15
100
AcDbSpline
210
0.0
220
0.0
230
1.0
 70
     8
 71
     3
 72
    12
 73
     8
 74
     0
 42
0.000000001
 43
0.00000001
 40
0.0
 40
0.0
 40
0.0
 40
0.0
 40
0.2499999999999986
 40
0.2499999999999986
 40
0.4999999999999971
 40
0.4999999999999971
 40
1.0
 40
1.0
 40
1.0
 40
1.0
 10
170.8121826861091
 20
130.798933150441
 30
0.0
 10
170.9342646835975
 20
130.798933150441
 30
0.0
 10
171.0548552260832
 20
130.8376595066147
 30
0.0
 10
171.260350509783
 20
130.967623094361
 30
0.0
 10
171.3458669927355
 20
131.0568293309077
 30
0.0
 10
171.5492613442797
 20
131.3617058684533
 30
0.0
 10
171.6121826861092
 20
131.6044764825554
 30
0.0
 10
171.6121826861092
 20
131.8472378265098
 30
0.0
  0
LINE
  5
D0
330
1F
100
AcDbEntity
  8
0
  6
Continuous
 62
     7
370
    15
100
AcDbLine
 10
171.6121825648
 20
131.8472379706
 30
0.0
 11
171.6121825648
 21
132.0521363876
 31
0.0
  0
SPLINE
  5
D1
330
1F
100
AcDbEntity
  8
0
  6
Continuous
 62
     7
370
    15
100
AcDbSpline
210
0.0
220
0.0
230
1.0
 70
     8
 71
     3
 72
     8
 73
     4
 74
     0
 42
0.000000001
 43
0.00000001
 40
0.0
 40
0.0
 40
0.0
 40
0.0
 40
1.0
 40
1.0
 40
1.0
 40
1.0
 10
171.6121826861092
 20
132.052136062843
 30
0.0
 10
172.1369738056051
 20
133.2271132505477
 30
0.0
 10
172.675490056788
 20
134.3960124182859
 30
0.0
 10
173.2240193281659
 20
135.5602266470321
 30
0.0
  0
LINE
  5
D2
330
1F
100
AcDbEntity
  8
0
  6
Continuous
 62
     7
370
    15
100
AcDbLine
 10
173.2240197507
 20
135.5602273605
 30
0.0
 11
177.0521820781
 21
135.5602273605
 31
0.0
  0
SPLINE
  5
D3
330
1F
100
AcDbEntity
  8
0
  6
Continuous
 62
     7
370
    15
100
AcDbSpline
210
0.0
220
0.0
230
1.0
 70
     8
 71
     3
 72
    14
 73
    10
 74
     0
 42
0.000000001
 43
0.00000001
 40
0.0
 40
0.0
 40
0.0
 40
0.0
 40
0.25
 40
0.25
 40
0.5
 40
0.5
 40
0.75
 40
0.75
 40
1.0
 40
1.0
 40
1.0
 40
1.0
 10
177.0521826861092
 20
135.5602266470321
 30
0.0
 10
177.1406052242317
 20
135.5602266470321
 30
0.0
 10
177.2286592139247
 20
135.5351542965727
 30
0.0
 10
177.3804889777961
 20
135.4488122316014
 30
0.0
 10
177.4463319223598
 20
135.3872689770885
 30
0.0
 10
177.5501309829053
 20
135.2454412308376
 30
0.0
 10
177.58860309238
 20
135.1653926408675
 30
0.0
 10
177.6398257556546
 20
134.9963801441938
 30
0.0
 10
177.6521826861092
 20
134.9096008373242
 30
0.0
 10
177.6521826861092
 20
134.8214093630681
 30
0.0
  0
LINE
  5
D4
330
1F
100
AcDbEntity
  8
0
  6
Continuous
 62
     7
370
    15
100
AcDbLine
 10
177.6521829215
 20
134.821409162
 30
0.0
 11
177.6521829215
 21
128.0694844088
 31
0.0
  0
LINE
  5
D5
330
1F
100
AcDbEntity
  8
0
  6
Continuous
 62
     7
370
    15
100
AcDbLine
 10
161.8021826053
 20
134.821409162
 30
0.0
 11
161.8021826053
 21
127.9999965689
 31
0.0
  0
SPLINE
  5
D6
330
1F
100
AcDbEntity
  8
0
  6
Continuous
 62
     7
370
    15
100
AcDbSpline
210
0.0
220
0.0
230
1.0
 70
     8
 71
     3
 72
     8
 73
     4
 74
     0
 42
0.000000001
 43
0.00000001
 40
0.0
 40
0.0
 40
0.0
 40
0.0
 40
1.0
 40
1.0
 40
1.0
 40
1.0
 10
172.6661373724052
 20
139.362535163249
 30
0.0
 10
172.3141933494969
 20
138.7309737752352
 30
0.0
 10
171.9628349264368
 20
138.0990918755363
 30
0.0
 10
171.6121826861092
 20
137.466823466486
 30
0.0
  0
SPLINE
  5
D7
330
1F
100
AcDbEntity
  8
0
  6
Continuous
 62
     7
370
    15
100
AcDbSpline
210
0.0
220
0.0
230
1.0
 70
     8
 71
     3
 72
     8
 73
     4
 74
     0
 42
0.000000001
 43
0.00000001
 40
0.0
 40
0.0
 40
0.0
 40
0.0
 40
0.0012409313617635
 40
0.0012409313617635
 40
0.0012409313617635
 40
0.0012409313617635
 10
173.2240193281659
 20
140.1463330862001
 30
0.0
 10
173.0373463999337
 20
139.8853212085015
 30
0.0
 10
172.8513612119612
 20
139.6240627067262
 30
0.0
 10
172.6661373724052
 20
139.362535163249
 30
0.0
  0
LINE
  5
D8
330
1F
100
AcDbEntity
  8
0
  6
Continuous
 62
     7
370
    15
100
AcDbLine
 10
173.2240197507
 20
135.5602273605
 30
0.0
 11
173.2240197507
 21
140.1463335267
 31
0.0
  0
LINE
  5
D9
330
1F
100
AcDbEntity
  8
0
  6
Continuous
 62
     7
370
    15
100
AcDbLine
 10
171.6121825648
 20
132.0521363876
 30
0.0
 11
171.6121825648
 21
137.4668234846
 31
0.0
  0
LINE
  5
DA
330
1F
100
AcDbEntity
  8
0
  6
Continuous
 62
     7
370
    15
100
AcDbLine
 10
170.8121829925
 20
136.4678552261
 30
0.0
 11
168.5921828521
 21
136.4678552261
 31
0.0
  0
SPLINE
  5
DB
330
1F
100
AcDbEntity
  8
0
  6
Continuous
 62
     7
370
    15
100
AcDbSpline
210
0.0
220
0.0
230
1.0
 70
     8
 71
     3
 72
    12
 73
     8
 74
     0
 42
0.000000001
 43
0.00000001
 40
0.0
 40
0.0
 40
0.0
 40
0.0
 40
0.5000000000000004
 40
0.5000000000000004
 40
0.7500000000000002
 40
0.7500000000000002
 40
1.0
 40
1.0
 40
1.0
 40
1.0
 10
177.6521826861092
 20
139.6605481404257
 30
0.0
 10
177.6521826861092
 20
139.7808751734788
 30
0.0
 10
177.5983878745162
 20
139.8989727469606
 30
0.0
 10
177.4374643045499
 20
140.0386154893996
 30
0.0
 10
177.3727128434474
 20
140.0768914427941
 30
0.0
 10
177.2204926601297
 20
140.1317312724285
 30
0.0
 10
177.1376851446047
 20
140.1463330862001
 30
0.0
 10
177.0521826861092
 20
140.1463330862001
 30
0.0
  0
LINE
  5
DC
330
1F
100
AcDbEntity
  8
0
  6
Continuous
 62
     7
370
    15
100
AcDbLine
 10
177.6521829215
 20
134.821409162
 30
0.0
 11
177.6521829215
 21
139.6605482212
 31
0.0
  0
LINE
  5
DD
330
1F
100
AcDbEntity
  8
0
  6
Continuous
 62
     7
370
    15
100
AcDbLine
 10
177.0521820781
 20
140.1463335267
 30
0.0
 11
173.2240197507
 21
140.1463335267
 31
0.0
  0
SPLINE
  5
DE
330
1F
100
AcDbEntity
  8
0
  6
Continuous
 62
     7
370
    15
100
AcDbSpline
210
0.0
220
0.0
230
1.0
 70
     8
 71
     3
 72
    12
 73
     8
 74
     0
 42
0.000000001
 43
0.00000001
 40
0.0
 40
0.0
 40
0.0
 40
0.0
 40
0.5
 40
0.5
 40
0.75
 40
0.75
 40
1.0
 40
1.0
 40
1.0
 40
1.0
 10
171.6121826861092
 20
137.3020764947916
 30
0.0
 10
171.6121826861092
 20
137.0889390931401
 30
0.0
 10
171.5295402709612
 20
136.8739595684024
 30
0.0
 10
171.3109568601509
 20
136.6410404995166
 30
0.0
 10
171.2218669071701
 20
136.5771735896961
 30
0.0
 10
171.0264615892726
 20
136.4907874353143
 30
0.0
 10
170.9199375423293
 20
136.4678548632712
 30
0.0
 10
170.8121826861091
 20
136.4678548632712
 30
0.0
  0
SPLINE
  5
DF
330
1F
100
AcDbEntity
  8
0
  6
Continuous
 62
     7
370
    15
100
AcDbSpline
210
0.0
220
0.0
230
1.0
 70
     8
 71
     3
 72
     8
 73
     4
 74
     0
 42
0.000000001
 43
0.00000001
 40
0.0
 40
0.0
 40
0.0
 40
0.0
 40
0.0012409313617635
 40
0.0012409313617635
 40
0.0012409313617635
 40
0.0012409313617635
 10
166.7382279998131
 20
139.362535163249
 30
0.0
 10
166.5530041602571
 20
139.6240627067262
 30
0.0
 10
166.3670189722846
 20
139.8853212085015
 30
0.0
 10
166.1803460440525
 20
140.1463330862001
 30
0.0
  0
SPLINE
  5
E0
330
1F
100
AcDbEntity
  8
0
  6
Continuous
 62
     7
370
    15
100
AcDbSpline
210
0.0
220
0.0
230
1.0
 70
     8
 71
     3
 72
     8
 73
     4
 74
     0
 42
0.000000001
 43
0.00000001
 40
0.0
 40
0.0
 40
0.0
 40
0.0
 40
1.0
 40
1.0
 40
1.0
 40
1.0
 10
167.7921826861092
 20
137.4668234664859
 30
0.0
 10
167.4415304457816
 20
138.0990918755363
 30
0.0
 10
167.0901720227214
 20
138.7309737752352
 30
0.0
 10
166.7382279998131
 20
139.362535163249
 30
0.0
  0
LINE
  5
E1
330
1F
100
AcDbEntity
  8
0
  6
Continuous
 62
     7
370
    15
100
AcDbLine
 10
166.1803460939
 20
135.5602273605
 30
0.0
 11
166.1803460939
 21
140.1463335267
 31
0.0
  0
LINE
  5
E2
330
1F
100
AcDbEntity
  8
0
  6
Continuous
 62
     7
370
    15
100
AcDbLine
 10
167.7921823484
 20
132.0521363876
 30
0.0
 11
167.7921823484
 21
137.4668234846
 31
0.0
  0
LINE
  5
E3
330
1F
100
AcDbEntity
  8
0
  6
Continuous
 62
     7
370
    15
100
AcDbLine
 10
166.1803460939
 20
140.1463335267
 30
0.0
 11
162.4021827502
 21
140.1463335267
 31
0.0
  0
SPLINE
  5
E4
330
1F
100
AcDbEntity
  8
0
  6
Continuous
 62
     7
370
    15
100
AcDbSpline
210
0.0
220
0.0
230
1.0
 70
     8
 71
     3
 72
    12
 73
     8
 74
     0
 42
0.000000001
 43
0.00000001
 40
0.0
 40
0.0
 40
0.0
 40
0.0
 40
0.2499999999999993
 40
0.2499999999999993
 40
0.4999999999999987
 40
0.4999999999999987
 40
1.0
 40
1.0
 40
1.0
 40
1.0
 10
168.5921826861091
 20
136.4678548632712
 30
0.0
 10
168.4857044736312
 20
136.4678548632712
 30
0.0
 10
168.3786985251726
 20
136.4905040608807
 30
0.0
 10
168.1825319060804
 20
136.577091121453
 30
0.0
 10
168.0940632205255
 20
136.6403355698397
 30
0.0
 10
167.8734376070425
 20
136.8754526295729
 30
0.0
 10
167.7921826861092
 20
137.0892204616651
 30
0.0
 10
167.7921826861092
 20
137.3020764947916
 30
0.0
  0
SPLINE
  5
E5
330
1F
100
AcDbEntity
  8
0
  6
Continuous
 62
     7
370
    15
100
AcDbSpline
210
0.0
220
0.0
230
1.0
 70
     8
 71
     3
 72
    10
 73
     6
 74
     0
 42
0.000000001
 43
0.00000001
 40
0.0
 40
0.0
 40
0.0
 40
0.0
 40
0.5
 40
0.5
 40
1.0
 40
1.0
 40
1.0
 40
1.0
 10
162.0894242874167
 20
140.0752935619415
 30
0.0
 10
162.0135846934132
 20
140.0052443756128
 30
0.0
 10
161.9462611756872
 20
139.9200256020391
 30
0.0
 10
161.8396175373821
 20
139.7097994753773
 30
0.0
 10
161.8021826861091
 20
139.5862902845101
 30
0.0
 10
161.8021826861091
 20
139.4563721639874
 30
0.0
  0
SPLINE
  5
E6
330
1F
100
AcDbEntity
  8
0
  6
Continuous
 62
     7
370
    15
100
AcDbSpline
210
0.0
220
0.0
230
1.0
 70
     8
 71
     3
 72
     8
 73
     4
 74
     0
 42
0.000000001
 43
0.00000001
 40
0.0
 40
0.0
 40
0.0
 40
0.0
 40
1.0
 40
1.0
 40
1.0
 40
1.0
 10
162.4021826861092
 20
140.1463330862001
 30
0.0
 10
162.2900044319295
 20
140.1463330862001
 30
0.0
 10
162.181334919201
 20
140.1206520209391
 30
0.0
 10
162.0894242874167
 20
140.0752935619415
 30
0.0
  0
LINE
  5
E7
330
1F
100
AcDbEntity
  8
0
  6
Continuous
 62
     7
370
    15
100
AcDbLine
 10
161.8021826053
 20
134.821409162
 30
0.0
 11
161.8021826053
 21
139.4563725105
 31
0.0
  0
LINE
  5
E8
330
1F
100
AcDbEntity
  8
0
  6
Continuous
 62
     7
370
    15
100
AcDbLine
 10
90.3521822093
 20
98.2428666091
 30
0.0
 11
90.3521822093
 21
121.0571274048
 31
0.0
  0
ARC
  5
E9
330
1F
100
AcDbEntity
  8
0
  6
Continuous
 62
     7
370
    15
100
AcDbCircle
 10
171.4871699335
 20
100.4148790228
 30
0.0
 40
1.887488618175398
100
AcDbArc
 50
185.4102956623
 51
252.4538806135
  0
ARC
  5
EA
330
1F
100
AcDbEntity
  8
0
  6
Continuous
 62
     7
370
    15
100
AcDbCircle
 10
171.6088746623
 20
100.5340498964
 30
0.0
 40
2.039380001474878
100
AcDbArc
 50
250.2024793675
 51
332.0819155772
  0
ARC
  5
EB
330
1F
100
AcDbEntity
  8
0
  6
Continuous
 62
     7
370
    15
100
AcDbCircle
 10
171.469045278
 20
100.352302319
 30
0.0
 40
1.760526294542606
100
AcDbArc
 50
161.381556313
 51
252.9328448109
  0
ARC
  5
EC
330
1F
100
AcDbEntity
  8
0
  6
Continuous
 62
     7
370
    15
100
AcDbCircle
 10
171.6104502142
 20
100.4824994749
 30
0.0
 40
1.92892976065302
100
AcDbArc
 50
250.051416328
 51
335.5004191181
  0
ARC
  5
ED
330
1F
100
AcDbEntity
  8
0
  6
Continuous
 62
     7
370
    15
100
AcDbCircle
 10
171.5236910086
 20
100.3557979738
 30
0.0
 40
1.402306929704781
100
AcDbArc
 50
87.2936699265
 51
251.9483707322
  0
ARC
  5
EE
330
1F
100
AcDbEntity
  8
0
  6
Continuous
 62
     7
370
    15
100
AcDbCircle
 10
171.6139919064
 20
100.426606957
 30
0.0
 40
1.49897564484451
100
AcDbArc
 50
249.504617996
 51
349.6008519217
  0
CIRCLE
  5
EF
330
1F
100
AcDbEntity
  8
0
  6
HIDDEN
 62
     7
370
     0
100
AcDbCircle
 10
188.5521826861
 20
109.649997007
 30
0.0
 40
3.680384757729342
  0
CIRCLE
  5
F0
330
1F
100
AcDbEntity
  8
0
  6
HIDDEN
 62
     7
370
     0
100
AcDbCircle
 10
188.5521826861
 20
109.649997007
 30
0.0
 40
3.380384757729332
  0
SPLINE
  5
F1
330
1F
100
AcDbEntity
  8
0
  6
HIDDEN
 62
     7
370
     0
100
AcDbSpline
210
0.0
220
0.0
230
1.0
 70
     8
 71
     3
 72
     9
 73
     5
 74
     0
 42
0.000000001
 43
0.00000001
 40
0.0
 40
0.0
 40
0.0
 40
0.0
 40
0.9333113421934416
 40
1.0
 40
1.0
 40
1.0
 40
1.0
 10
169.6262917739936
 20
101.9034579283316
 30
0.0
 10
169.6117159554448
 20
101.802487840272
 30
0.0
 10
169.5960986390255
 20
101.6943030540222
 30
0.0
 10
169.6031284939086
 20
101.6018205570473
 30
0.0
 10
169.6035973054954
 20
101.5956530234535
 30
0.0
  0
LWPOLYLINE
  5
F2
330
1F
100
AcDbEntity
  8
0
  6
HIDDEN
 62
     7
370
     0
100
AcDbPolyline
 90
       23
 70
   128
 43
0.0
 10
169.626291774
 20
101.9034579283
 10
169.7816736323
 20
102.3906807302
 10
170.070396669
 20
102.8209079875
 10
170.4713142736
 20
103.1626279353
 10
170.9550609139
 20
103.390811745
 10
171.4862062854
 20
103.4887463673
 10
172.0258462501
 20
103.4492582901
 10
172.5344545466
 20
103.2752402014
 10
172.9747801346
 20
102.9794377162
 10
173.314570382
 20
102.5835166572
 10
173.528938487
 20
102.1164760812
 10
173.6021823508
 20
101.6125239319
 10
173.528938487
 20
101.1085713169
 10
173.314570382
 20
100.6415307409
 10
172.9747801346
 20
100.2456096819
 10
172.5344545466
 20
99.9498067311
 10
172.0258462501
 20
99.775789108
 10
171.4862062854
 20
99.7363010308
 10
170.9550609139
 20
99.8342351875
 10
170.4713142736
 20
100.0624194628
 10
170.070396669
 20
100.4041394106
 10
169.7816736323
 20
100.8343666679
 10
169.626291774
 20
101.3215890041
  0
LWPOLYLINE
  5
F3
330
1F
100
AcDbEntity
  8
0
  6
HIDDEN
 62
     7
370
     0
100
AcDbPolyline
 90
       25
 70
   128
 43
0.0
 10
162.0523942893
 20
100.7518123722
 10
162.1807987595
 20
100.2188537157
 10
162.3791164511
 20
99.7222147769
 10
162.6338320112
 20
99.2957416809
 10
162.9275869837
 20
98.9684972799
 10
163.2403628228
 20
98.7627830243
 10
163.5508438831
 20
98.6926171816
 10
163.8378719126
 20
98.7627830243
 10
164.0818858778
 20
98.9684972799
 10
164.2662570139
 20
99.2957416809
 10
164.3784208482
 20
99.7222147769
 10
164.4107330849
 20
100.2188537157
 10
164.3609920775
 20
100.7518123722
 10
164.2325873745
 20
101.2847710288
 10
164.0342701485
 20
101.7814099676
 10
163.7795543557
 20
102.2078830636
 10
163.4857993832
 20
102.5351274646
 10
163.173023544
 20
102.7408417201
 10
162.8625424837
 20
102.8110070972
 10
162.5755144542
 20
102.7408417201
 10
162.331500489
 20
102.5351274646
 10
162.1471293529
 20
102.2078830636
 10
162.0349657515
 20
101.7814099676
 10
162.0026532819
 20
101.2847710288
 10
162.0523942893
 20
100.7518123722
  0
LWPOLYLINE
  5
F4
330
1F
100
AcDbEntity
  8
0
  6
HIDDEN
 62
     7
370
     0
100
AcDbPolyline
 90
       22
 70
   128
 43
0.0
 10
162.4339101163
 20
100.7839430011
 10
162.5539063735
 20
100.3070471695
 10
162.7438267951
 20
99.8725255838
 10
162.986796282
 20
99.5189880839
 10
163.2612258454
 20
99.2778463176
 10
163.5427311321
 20
99.1705281547
 10
163.806299146
 20
99.206569407
 10
164.0285108497
 20
99.3827672562
 10
164.1896217389
 20
99.6834652385
 10
164.2753159886
 20
100.0819455719
 10
164.2779800368
 20
100.5428021661
 10
164.1973768619
 20
101.0250847674
 10
164.0406683346
 20
101.4859404302
 10
163.8217786586
 20
101.8844212292
 10
163.5601571088
 20
102.1851192116
 10
163.2790499625
 20
102.3613170608
 10
163.0034348255
 20
102.3973578474
 10
162.7578012904
 20
102.2900401502
 10
162.5639753675
 20
102.0488988495
 10
162.439178841
 20
101.6953604183
 10
162.3945005031
 20
101.2608388326
 10
162.4339101163
 20
100.7839430011
  0
SPLINE
  5
F5
330
1F
100
AcDbEntity
  8
0
  6
HIDDEN
 62
     7
370
     0
100
AcDbSpline
210
0.0
220
0.0
230
1.0
 70
     8
 71
     3
 72
    14
 73
    10
 74
     0
 42
0.000000001
 43
0.00000001
 40
0.0
 40
0.0
 40
0.0
 40
0.0
 40
0.25
 40
0.25
 40
0.5
 40
0.5
 40
0.75
 40
0.75
 40
1.0
 40
1.0
 40
1.0
 40
1.0
 10
169.6262919234688
 20
101.3215894401467
 30
0.0
 10
169.662655751499
 20
101.3670840755485
 30
0.0
 10
169.6951334787092
 20
101.4154758817648
 30
0.0
 10
169.7438871081249
 20
101.5209610256944
 30
0.0
 10
169.7587908857994
 20
101.5775455339373
 30
0.0
 10
169.7588013194571
 20
101.6864331278877
 30
0.0
 10
169.7439110236489
 20
101.7386177936503
 30
0.0
 10
169.6950220927714
 20
101.8298951925939
 30
0.0
 10
169.6626499145009
 20
101.8685618979681
 30
0.0
 10
169.6262919234688
 20
101.9034578375158
 30
0.0
  0
ELLIPSE
  5
F6
330
1F
100
AcDbEntity
  8
0
  6
HIDDEN
 62
     7
370
     0
100
AcDbEllipse
 10
171.6021826861
 20
102.7624069464
 30
0.0
 11
1.383467579512143
 21
1.753907414218503
 31
0.0
210
0.0
220
0.0
230
1.0
 40
0.5126701559
 41
0.994460710832369
 42
4.136053364422175
  0
ELLIPSE
  5
F7
330
1F
100
AcDbEntity
  8
0
  6
HIDDEN
 62
     7
370
     0
100
AcDbEllipse
 10
171.6021826861
 20
102.7624069464
 30
0.0
 11
1.383467579512143
 21
-1.091267719176614
 31
0.0
210
0.0
220
0.0
230
1.0
 40
0.8239737799
 41
2.147131942757431
 42
5.288724596347237
  0
LINE
  5
F8
330
1F
100
AcDbEntity
  8
0
  6
HIDDEN
 62
     7
370
     0
100
AcDbLine
 10
177.6521829215
 20
85.9539618603
 30
0.0
 11
178.4840644596
 21
85.9321335218
 31
0.0
  0
LINE
  5
F9
330
1F
100
AcDbEntity
  8
0
  6
HIDDEN
 62
     7
370
     0
100
AcDbLine
 10
178.6521830855
 20
85.9539618603
 30
0.0
 11
177.6521829215
 21
85.9539618603
 31
0.0
  0
LWPOLYLINE
  5
FA
330
1F
100
AcDbEntity
  8
0
  6
HIDDEN
 62
     7
370
     0
100
AcDbPolyline
 90
       22
 70
   128
 43
0.0
 10
171.6021829543
 20
103.2065863608
 10
172.088528916
 20
103.1377020179
 10
172.5316605789
 20
102.9371705725
 10
172.8922044186
 20
102.622810088
 10
173.138124801
 20
102.2225518598
 10
173.2475691734
 20
101.7719617001
 10
173.2108135966
 20
101.3110762349
 10
173.0311242191
 20
100.880847115
 10
172.7244676349
 20
100.5195014066
 10
172.3180906174
 20
100.2591473869
 10
171.8481024054
 20
100.1229181773
 10
171.3562625719
 20
100.1229181773
 10
170.8862743599
 20
100.2591473869
 10
170.4798973424
 20
100.5195014066
 10
170.1732407583
 20
100.880847115
 10
169.9935513807
 20
101.3110762349
 10
169.9567967353
 20
101.7719617001
 10
170.0662411077
 20
102.2225518598
 10
170.3121605588
 20
102.622810088
 10
170.6727043984
 20
102.9371705725
 10
171.1158369926
 20
103.1377020179
 10
171.6021829543
 20
103.2065863608
  0
ELLIPSE
  5
FB
330
1F
100
AcDbEntity
  8
0
  6
HIDDEN
 62
     7
370
     0
100
AcDbEllipse
 10
171.6021826861
 20
102.7624069464
 30
0.0
 11
1.383467579512143
 21
1.753907414218503
 31
0.0
210
0.0
220
0.0
230
1.0
 40
0.5126701559
 41
4.136053364422175
 42
4.14754049063461
  0
ELLIPSE
  5
FC
330
1F
100
AcDbEntity
  8
0
  6
HIDDEN
 62
     7
370
     0
100
AcDbEllipse
 10
171.6021826861
 20
102.7624069464
 30
0.0
 11
1.383467579512143
 21
1.753907414218503
 31
0.0
210
0.0
220
0.0
230
1.0
 40
0.5126701559
 41
0.9829735846199518
 42
0.994460710832369
  0
SPLINE
  5
FD
330
1F
100
AcDbEntity
  8
0
  6
HIDDEN
 62
     7
370
     0
100
AcDbSpline
210
0.0
220
0.0
230
1.0
 70
     8
 71
     3
 72
     8
 73
     4
 74
     0
 42
0.000000001
 43
0.00000001
 40
0.0
 40
0.0
 40
0.0
 40
0.0
 40
1.0
 40
1.0
 40
1.0
 40
1.0
 10
171.6211360275867
 20
104.3252500966261
 30
0.0
 10
171.6381349116359
 20
104.3172668231256
 30
0.0
 10
171.6551390561468
 20
104.3085304206934
 30
0.0
 10
171.6721237822189
 20
104.299053568874
 30
0.0
  0
ELLIPSE
  5
FE
330
1F
100
AcDbEntity
  8
0
  6
HIDDEN
 62
     7
370
     0
100
AcDbEllipse
 10
171.6021826861
 20
102.7624069464
 30
0.0
 11
1.383467579512143
 21
-1.091267719176614
 31
0.0
210
0.0
220
0.0
230
1.0
 40
0.8239737799
 41
2.104730695520911
 42
2.147131942757427
  0
ELLIPSE
  5
FF
330
1F
100
AcDbEntity
  8
0
  6
HIDDEN
 62
     7
370
     0
100
AcDbEllipse
 10
171.6021826861
 20
102.7624069464
 30
0.0
 11
1.383467579512143
 21
-1.091267719176614
 31
0.0
210
0.0
220
0.0
230
1.0
 40
0.8239737799
 41
5.288724596347233
 42
5.331125843584008
  0
SPLINE
  5
100
330
1F
100
AcDbEntity
  8
0
  6
HIDDEN
 62
     7
370
     0
100
AcDbSpline
210
0.0
220
0.0
230
1.0
 70
     8
 71
     3
 72
     8
 73
     4
 74
     0
 42
0.000000001
 43
0.00000001
 40
0.0
 40
0.0
 40
0.0
 40
0.0
 40
1.0
 40
1.0
 40
1.0
 40
1.0
 10
171.672123782219
 20
101.2008550806343
 30
0.0
 10
171.6551390561468
 20
101.2079707906728
 30
0.0
 10
171.6381349116359
 20
101.2158459201805
 30
0.0
 10
171.6211360275866
 20
101.2244690396181
 30
0.0
  0
SPLINE
  5
101
330
1F
100
AcDbEntity
  8
0
  6
HIDDEN
 62
     7
370
     0
100
AcDbSpline
210
0.0
220
0.0
230
1.0
 70
     8
 71
     3
 72
    22
 73
    18
 74
     0
 42
0.000000001
 43
0.00000001
 40
0.0
 40
0.0
 40
0.0
 40
0.0
 40
0.125
 40
0.125
 40
0.25
 40
0.25
 40
0.375
 40
0.375
 40
0.5
 40
0.5
 40
0.625
 40
0.625
 40
0.75
 40
0.75
 40
0.875
 40
0.875
 40
1.0
 40
1.0
 40
1.0
 40
1.0
 10
170.6021826861092
 20
105.9443521545755
 30
0.0
 10
170.4994730932623
 20
105.8683805833151
 30
0.0
 10
170.4085041422052
 20
105.7883943696712
 30
0.0
 10
170.2479137943732
 20
105.6158857730823
 30
0.0
 10
170.1787389428486
 20
105.5232708863202
 30
0.0
 10
170.0681494101171
 20
105.3300962884634
 30
0.0
 10
170.0251668342019
 20
105.2272474488632
 30
0.0
 10
169.9670893202805
 20
105.0084413572954
 30
0.0
 10
169.9522272691124
 20
104.8942368529181
 30
0.0
 10
169.952138300357
 20
104.65245980778
 30
0.0
 10
169.9670822381065
 20
104.5294697584992
 30
0.0
 10
170.0248851136244
 20
104.2856043791808
 30
0.0
 10
170.0680192363814
 20
104.1645358064487
 30
0.0
 10
170.1790626937218
 20
103.9369930255037
 30
0.0
 10
170.2484537033755
 20
103.8278524760763
 30
0.0
 10
170.4086053387769
 20
103.6343332358387
 30
0.0
 10
170.4994125835123
 20
103.5489190424878
 30
0.0
 10
170.6021826861092
 20
103.4777708957184
 30
0.0
  0
SPLINE
  5
102
330
1F
100
AcDbEntity
  8
0
  6
HIDDEN
 62
     7
370
     0
100
AcDbSpline
210
0.0
220
0.0
230
1.0
 70
     8
 71
     3
 72
    38
 73
    34
 74
     0
 42
0.000000001
 43
0.00000001
 40
0.0
 40
0.0
 40
0.0
 40
0.0
 40
0.0624999999999999
 40
0.0624999999999999
 40
0.1249999999999998
 40
0.1249999999999998
 40
0.1874999999999996
 40
0.1874999999999996
 40
0.2499999999999995
 40
0.2499999999999995
 40
0.3124999999999994
 40
0.3124999999999994
 40
0.3749999999999992
 40
0.3749999999999992
 40
0.4374999999999991
 40
0.4374999999999991
 40
0.499999999999999
 40
0.499999999999999
 40
0.5624999999999989
 40
0.5624999999999989
 40
0.6249999999999988
 40
0.6249999999999988
 40
0.687499999999999
 40
0.687499999999999
 40
0.7499999999999991
 40
0.7499999999999991
 40
0.8124999999999993
 40
0.8124999999999993
 40
0.8749999999999996
 40
0.8749999999999996
 40
0.9374999999999998
 40
0.9374999999999998
 40
1.0
 40
1.0
 40
1.0
 40
1.0
 10
170.6021826861092
 20
103.4777708957184
 30
0.0
 10
170.7247376331102
 20
103.3929256232488
 30
0.0
 10
170.8572918001585
 20
103.3256325156287
 30
0.0
 10
171.1420233027462
 20
103.2247502563055
 30
0.0
 10
171.2925399167237
 20
103.192397196058
 30
0.0
 10
171.5957353980351
 20
103.1661186231189
 30
0.0
 10
171.751597730874
 20
103.1721948911592
 30
0.0
 10
172.0507712650783
 20
103.2218738931331
 30
0.0
 10
172.1985271393894
 20
103.2661669822523
 30
0.0
 10
172.4714630328708
 20
103.3885595359049
 30
0.0
 10
172.5987664994854
 20
103.4672221009002
 30
0.0
 10
172.8252762592095
 20
103.6547481493934
 30
0.0
 10
172.9225591505906
 20
103.7613640168233
 30
0.0
 10
173.0848232711371
 20
104.001399456638
 30
0.0
 10
173.1466267057873
 20
104.1304883964205
 30
0.0
 10
173.2305867272289
 20
104.4032747694033
 30
0.0
 10
173.2521074367127
 20
104.5469213546858
 30
0.0
 10
173.2522575343272
 20
104.8329594512919
 30
0.0
 10
173.2306876598765
 20
104.9790639006337
 30
0.0
 10
173.1473001496233
 20
105.2571236760607
 30
0.0
 10
173.0844759835099
 20
105.3929544602754
 30
0.0
 10
172.9236749157228
 20
105.6417175307709
 30
0.0
 10
172.8256619709743
 20
105.7555734893585
 30
0.0
 10
172.5986736898299
 20
105.9554699667935
 30
0.0
 10
172.4732531206066
 20
106.038829826788
 30
0.0
 10
172.1984819157321
 20
106.1717897118334
 30
0.0
 10
172.0526432048819
 20
106.2192392849006
 30
0.0
 10
171.752711082481
 20
106.2735804307412
 30
0.0
 10
171.5971903991226
 20
106.2802527290366
 30
0.0
 10
171.2942886162296
 20
106.2520182602157
 30
0.0
 10
171.1425376605424
 20
106.2166138371335
 30
0.0
 10
170.8591547891186
 20
106.1083545287376
 30
0.0
 10
170.7247390404595
 20
106.0350038507791
 30
0.0
 10
170.6021826861092
 20
105.9443521545755
 30
0.0
  0
SPLINE
  5
103
330
1F
100
AcDbEntity
  8
0
  6
HIDDEN
 62
     7
370
     0
100
AcDbSpline
210
0.0
220
0.0
230
1.0
 70
     8
 71
     3
 72
    16
 73
    12
 74
     0
 42
0.000000001
 43
0.00000001
 40
0.0
 40
0.0
 40
0.0
 40
0.0
 40
0.2499999999999978
 40
0.2499999999999978
 40
0.4999999999999956
 40
0.4999999999999956
 40
0.6249999999999963
 40
0.6249999999999963
 40
0.7499999999999971
 40
0.7499999999999971
 40
1.0
 40
1.0
 40
1.0
 40
1.0
 10
201.6021826861092
 20
122.7184734646822
 30
0.0
 10
201.6021826861092
 20
122.6289530727792
 30
0.0
 10
201.5969551792332
 20
122.537649964609
 30
0.0
 10
201.5676833435224
 20
122.3486276300967
 30
0.0
 10
201.543939819926
 20
122.2487823786604
 30
0.0
 10
201.475630759088
 20
122.1085950936071
 30
0.0
 10
201.4467599174302
 20
122.0641578646723
 30
0.0
 10
201.3803088738356
 20
121.9942695363553
 30
0.0
 10
201.3425018573207
 20
121.9688694331544
 30
0.0
 10
201.2322796391159
 20
121.9240470516593
 30
0.0
 10
201.1642693899329
 20
121.9298894926243
 30
0.0
 10
201.1021826860922
 20
121.9460945471686
 30
0.0
  0
SPLINE
  5
104
330
1F
100
AcDbEntity
  8
0
  6
HIDDEN
 62
     7
370
     0
100
AcDbSpline
210
0.0
220
0.0
230
1.0
 70
     8
 71
     3
 72
     8
 73
     4
 74
     0
 42
0.000000001
 43
0.00000001
 40
0.0
 40
0.0
 40
0.0
 40
0.0
 40
1.0
 40
1.0
 40
1.0
 40
1.0
 10
201.1021826860922
 20
121.9460945471686
 30
0.0
 10
201.0159393012849
 20
121.887437703022
 30
0.0
 10
200.9125599928659
 20
121.8473648670525
 30
0.0
 10
200.8021826861092
 20
121.8473648670525
 30
0.0
  0
SPLINE
  5
105
330
1F
100
AcDbEntity
  8
0
  6
HIDDEN
 62
     7
370
     0
100
AcDbSpline
210
0.0
220
0.0
230
1.0
 70
     8
 71
     3
 72
     8
 73
     4
 74
     0
 42
0.000000001
 43
0.00000001
 40
0.0
 40
0.0
 40
0.0
 40
0.0
 40
1.0
 40
1.0
 40
1.0
 40
1.0
 10
201.1021826861254
 20
97.3538994667778
 30
0.0
 10
201.0159393013105
 20
97.41255631093692
 30
0.0
 10
200.9125599928801
 20
97.45262914691654
 30
0.0
 10
200.8021826861092
 20
97.45262914691654
 30
0.0
  0
SPLINE
  5
106
330
1F
100
AcDbEntity
  8
0
  6
HIDDEN
 62
     7
370
     0
100
AcDbSpline
210
0.0
220
0.0
230
1.0
 70
     8
 71
     3
 72
    16
 73
    12
 74
     0
 42
0.000000001
 43
0.00000001
 40
0.0
 40
0.0
 40
0.0
 40
0.0
 40
0.2499999999999903
 40
0.2499999999999903
 40
0.374999999999992
 40
0.374999999999992
 40
0.4999999999999936
 40
0.4999999999999936
 40
0.7499999999999968
 40
0.7499999999999968
 40
1.0
 40
1.0
 40
1.0
 40
1.0
 10
201.1021826861154
 20
97.35389946678085
 30
0.0
 10
201.1642558354995
 20
97.37010106117002
 30
0.0
 10
201.2323173928937
 20
97.37592888428223
 30
0.0
 10
201.3424640748654
 20
97.33114593805186
 30
0.0
 10
201.3798928418029
 20
97.30604938247356
 30
0.0
 10
201.4463032569365
 20
97.23643713878037
 30
0.0
 10
201.4752972730429
 20
97.19199104342245
 30
0.0
 10
201.5438959653659
 20
97.0514981085653
 30
0.0
 10
201.567435036179
 20
96.95245909750936
 30
0.0
 10
201.5968355796975
 20
96.76362531074096
 30
0.0
 10
201.6021826861092
 20
96.67111520494679
 30
0.0
 10
201.6021826861092
 20
96.58152172903236
 30
0.0
  0
SPLINE
  5
107
330
1F
100
AcDbEntity
  8
0
  6
HIDDEN
 62
     7
370
     0
100
AcDbSpline
210
0.0
220
0.0
230
1.0
 70
     8
 71
     3
 72
    22
 73
    18
 74
     0
 42
0.000000001
 43
0.00000001
 40
0.0
 40
0.0
 40
0.0
 40
0.0
 40
0.125
 40
0.125
 40
0.25
 40
0.25
 40
0.375
 40
0.375
 40
0.5
 40
0.5
 40
0.625
 40
0.625
 40
0.75
 40
0.75
 40
0.875
 40
0.875
 40
1.0
 40
1.0
 40
1.0
 40
1.0
 10
170.6021826861092
 20
113.3556418593935
 30
0.0
 10
170.4994730932623
 20
113.4316134306539
 30
0.0
 10
170.4085041422052
 20
113.5115996442978
 30
0.0
 10
170.2479137943732
 20
113.6841082408867
 30
0.0
 10
170.1787389428486
 20
113.7767231276488
 30
0.0
 10
170.0681494101171
 20
113.9698977255056
 30
0.0
 10
170.0251668342019
 20
114.0727465651058
 30
0.0
 10
169.9670893202805
 20
114.2915526566736
 30
0.0
 10
169.9522272691124
 20
114.4057571610509
 30
0.0
 10
169.952138300357
 20
114.647534206189
 30
0.0
 10
169.9670822381065
 20
114.7705242554698
 30
0.0
 10
170.0248851136244
 20
115.0143896347882
 30
0.0
 10
170.0680192363814
 20
115.1354582075203
 30
0.0
 10
170.1790626937218
 20
115.3630009884653
 30
0.0
 10
170.2484537033755
 20
115.4721415378927
 30
0.0
 10
170.4086053387769
 20
115.6656607781303
 30
0.0
 10
170.4994125835123
 20
115.7510749714812
 30
0.0
 10
170.6021826861092
 20
115.8222231182506
 30
0.0
  0
LINE
  5
108
330
1F
100
AcDbEntity
  8
0
  6
HIDDEN
 62
     7
370
     0
100
AcDbLine
 10
169.6021826265
 20
109.649997007
 30
0.0
 11
169.6021826265
 21
101.6125239319
 31
0.0
  0
LINE
  5
109
330
1F
100
AcDbEntity
  8
0
  6
HIDDEN
 62
     7
370
     0
100
AcDbLine
 10
169.6021826265
 20
100.0741131491
 30
0.0
 11
169.6021826265
 21
96.1499966568
 31
0.0
  0
LINE
  5
10A
330
1F
100
AcDbEntity
  8
0
  6
HIDDEN
 62
     7
370
     0
100
AcDbLine
 10
169.6021826265
 20
123.1499973572
 30
0.0
 11
169.6021826265
 21
109.649997007
 31
0.0
  0
SPLINE
  5
10B
330
1F
100
AcDbEntity
  8
0
  6
HIDDEN
 62
     7
370
     0
100
AcDbSpline
210
0.0
220
0.0
230
1.0
 70
     8
 71
     3
 72
    38
 73
    34
 74
     0
 42
0.000000001
 43
0.00000001
 40
0.0
 40
0.0
 40
0.0
 40
0.0
 40
0.0625
 40
0.0625
 40
0.125
 40
0.125
 40
0.1875
 40
0.1875
 40
0.25
 40
0.25
 40
0.3125
 40
0.3125
 40
0.375
 40
0.375
 40
0.4375
 40
0.4375
 40
0.5
 40
0.5
 40
0.5625
 40
0.5625
 40
0.625
 40
0.625
 40
0.6875
 40
0.6875
 40
0.75
 40
0.75
 40
0.8125
 40
0.8125
 40
0.875
 40
0.875
 40
0.9375
 40
0.9375
 40
1.0
 40
1.0
 40
1.0
 40
1.0
 10
170.6021826861092
 20
115.8222231182506
 30
0.0
 10
170.7247376331102
 20
115.9070683907202
 30
0.0
 10
170.8572918001585
 20
115.9743614983403
 30
0.0
 10
171.1420233027462
 20
116.0752437576635
 30
0.0
 10
171.2925399167237
 20
116.107596817911
 30
0.0
 10
171.595735398035
 20
116.1338753908501
 30
0.0
 10
171.751597730874
 20
116.1277991228098
 30
0.0
 10
172.0507712650783
 20
116.0781201208359
 30
0.0
 10
172.1985271393894
 20
116.0338270317167
 30
0.0
 10
172.4714630328708
 20
115.9114344780641
 30
0.0
 10
172.5987664994854
 20
115.8327719130688
 30
0.0
 10
172.8252762592095
 20
115.6452458645756
 30
0.0
 10
172.9225591505906
 20
115.5386299971457
 30
0.0
 10
173.0848232711371
 20
115.298594557331
 30
0.0
 10
173.1466267057873
 20
115.1695056175485
 30
0.0
 10
173.2305867272289
 20
114.8967192445657
 30
0.0
 10
173.2521074367127
 20
114.7530726592832
 30
0.0
 10
173.2522575343272
 20
114.4670345626771
 30
0.0
 10
173.2306876598765
 20
114.3209301133353
 30
0.0
 10
173.1473001496233
 20
114.0428703379083
 30
0.0
 10
173.0844759835099
 20
113.9070395536936
 30
0.0
 10
172.9236749157228
 20
113.6582764831981
 30
0.0
 10
172.8256619709743
 20
113.5444205246105
 30
0.0
 10
172.5986736898299
 20
113.3445240471755
 30
0.0
 10
172.4732531206066
 20
113.261164187181
 30
0.0
 10
172.1984819157321
 20
113.1282043021355
 30
0.0
 10
172.0526432048819
 20
113.0807547290684
 30
0.0
 10
171.752711082481
 20
113.0264135832278
 30
0.0
 10
171.5971903991226
 20
113.0197412849324
 30
0.0
 10
171.2942886162296
 20
113.0479757537533
 30
0.0
 10
171.1425376605424
 20
113.0833801768355
 30
0.0
 10
170.8591547891186
 20
113.1916394852314
 30
0.0
 10
170.7247390404595
 20
113.2649901631899
 30
0.0
 10
170.6021826861092
 20
113.3556418593935
 30
0.0
  0
LINE
  5
10C
330
1F
100
AcDbEntity
  8
0
  6
HIDDEN
 62
     7
370
     0
100
AcDbLine
 10
175.968208283
 20
109.649997007
 30
0.0
 11
175.968208283
 21
95.6499965749
 31
0.0
  0
LINE
  5
10D
330
1F
100
AcDbEntity
  8
0
  6
HIDDEN
 62
     7
370
     0
100
AcDbLine
 10
175.968208283
 20
123.6499974391
 30
0.0
 11
175.968208283
 21
109.649997007
 31
0.0
  0
LINE
  5
10E
330
1F
100
AcDbEntity
  8
0
  6
HIDDEN
 62
     7
370
     0
100
AcDbLine
 10
188.0021830348
 20
121.847364854
 30
0.0
 11
200.8021817801
 21
121.847364854
 31
0.0
  0
LINE
  5
10F
330
1F
100
AcDbEntity
  8
0
  6
HIDDEN
 62
     7
370
     0
100
AcDbLine
 10
188.0021830348
 20
97.45262916
 30
0.0
 11
200.8021817801
 21
97.45262916
 31
0.0
  0
LINE
  5
110
330
1F
100
AcDbEntity
  8
0
  6
HIDDEN
 62
     7
370
     0
100
AcDbLine
 10
161.8021826053
 20
134.4499977193
 30
0.0
 11
162.1394410522
 21
134.4499977193
 31
0.0
  0
ELLIPSE
  5
111
330
1F
100
AcDbEntity
  8
0
  6
HIDDEN
 62
     7
370
     0
100
AcDbEllipse
 10
162.1394409863
 20
136.049997007
 30
0.0
 11
0.0
 21
1.599999999999994
 31
0.0
210
0.0
220
0.0
230
1.0
 40
0.4142135624
 41
3.141592653589793
 42
4.712388980384695
  0
ELLIPSE
  5
112
330
1F
100
AcDbEntity
  8
0
  6
HIDDEN
 62
     7
370
     0
100
AcDbEllipse
 10
162.1394409863
 20
85.449997007
 30
0.0
 11
0.0
 21
1.599999999999994
 31
0.0
210
0.0
220
0.0
230
1.0
 40
0.4142135624
 41
4.712388980384695
 42
6.283185307179586
  0
LINE
  5
113
330
1F
100
AcDbEntity
  8
0
  6
HIDDEN
 62
     7
370
     0
100
AcDbLine
 10
162.1394410522
 20
87.0499962828
 30
0.0
 11
161.8021826053
 21
87.0499962828
 31
0.0
  0
LINE
  5
114
330
1F
100
AcDbEntity
  8
0
  6
HIDDEN
 62
     7
370
     0
100
AcDbLine
 10
162.8021825364
 20
79.7565484307
 30
0.0
 11
162.018327208
 21
79.2982669434
 31
0.0
  0
LINE
  5
115
330
1F
100
AcDbEntity
  8
0
  6
HIDDEN
 62
     7
370
     0
100
AcDbLine
 10
162.0894243734
 20
140.0752941034
 30
0.0
 11
162.8021825364
 21
139.3625343106
 31
0.0
  0
LINE
  5
116
330
1F
100
AcDbEntity
  8
0
  6
HIDDEN
 62
     7
370
     0
100
AcDbLine
 10
97.352181494
 20
101.149996545
 30
0.0
 11
97.352181494
 21
118.1499974689
 31
0.0
  0
LINE
  5
117
330
1F
100
AcDbEntity
  8
0
  6
HIDDEN
 62
     7
370
     0
100
AcDbLine
 10
100.3481121061
 20
102.6499967909
 30
0.0
 11
100.3481121061
 21
116.6499972231
 31
0.0
  0
LINE
  5
118
330
1F
100
AcDbEntity
  8
0
  6
HIDDEN
 62
     7
370
     0
100
AcDbLine
 10
184.1021822093
 20
87.0499962828
 30
0.0
 11
177.6521829215
 21
87.0499962828
 31
0.0
  0
SPLINE
  5
119
330
1F
100
AcDbEntity
  8
0
  6
HIDDEN
 62
     7
370
     0
100
AcDbSpline
210
0.0
220
0.0
230
1.0
 70
     8
 71
     3
 72
    11
 73
     7
 74
     0
 42
0.000000001
 43
0.00000001
 40
0.0
 40
0.0
 40
0.0
 40
0.0
 40
0.2850945028388505
 40
0.6110978606404504
 40
0.9375261840302166
 40
1.0
 40
1.0
 40
1.0
 40
1.0
 10
201.0442399678417
 20
129.5230479798038
 30
0.0
 10
201.0406586717494
 20
129.4921969584427
 30
0.0
 10
201.0329821912891
 20
129.4260680328948
 30
0.0
 10
201.0682884686917
 20
128.7586051586873
 30
0.0
 10
201.1002438188619
 20
128.0058477014298
 30
0.0
 10
201.1019147175092
 20
127.5269305351548
 30
0.0
 10
201.102183133144
 20
127.4499965718706
 30
0.0
  0
LINE
  5
11A
330
1F
100
AcDbEntity
  8
0
  6
HIDDEN
 62
     7
370
     0
100
AcDbLine
 10
201.1021831331
 20
127.4499965719
 30
0.0
 11
201.1021831331
 21
121.9460943601
 31
0.0
  0
LINE
  5
11B
330
1F
100
AcDbEntity
  8
0
  6
HIDDEN
 62
     7
370
     0
100
AcDbLine
 10
201.1021831331
 20
91.8499974421
 30
0.0
 11
201.1021831331
 21
97.3538996539
 31
0.0
  0
SPLINE
  5
11C
330
1F
100
AcDbEntity
  8
0
  6
HIDDEN
 62
     7
370
     0
100
AcDbSpline
210
0.0
220
0.0
230
1.0
 70
     8
 71
     3
 72
    11
 73
     7
 74
     0
 42
0.000000001
 43
0.00000001
 40
0.0
 40
0.0
 40
0.0
 40
0.0
 40
0.2408918904947083
 40
0.5670441376873555
 40
0.8933013167444351
 40
1.0
 40
1.0
 40
1.0
 40
1.0
 10
201.0454059837052
 20
89.79667144629552
 30
0.0
 10
201.0414983612784
 20
89.80876585736198
 30
0.0
 10
201.032300067451
 20
89.8372353292065
 30
0.0
 10
201.0616064059659
 20
90.43110463952378
 30
0.0
 10
201.0982027028094
 20
91.190287861733
 30
0.0
 10
201.1013961358344
 20
91.71956188080436
 30
0.0
 10
201.102183133144
 20
91.8499974420984
 30
0.0
  0
LINE
  5
11D
330
1F
100
AcDbEntity
  8
0
  6
HIDDEN
 62
     7
370
     0
100
AcDbLine
 10
166.6373926473
 20
79.7565484307
 30
0.0
 11
162.8021825364
 21
79.7565484307
 31
0.0
  0
LINE
  5
11E
330
1F
100
AcDbEntity
  8
0
  6
HIDDEN
 62
     7
370
     0
100
AcDbLine
 10
177.6521829215
 20
79.7565484307
 30
0.0
 11
172.7669722659
 21
79.7565484307
 31
0.0
  0
LINE
  5
11F
330
1F
100
AcDbEntity
  8
0
  6
HIDDEN
 62
     7
370
     0
100
AcDbLine
 10
162.8021825364
 20
79.7565484307
 30
0.0
 11
162.8021825364
 21
85.4499971381
 31
0.0
  0
LINE
  5
120
330
1F
100
AcDbEntity
  8
0
  6
HIDDEN
 62
     7
370
     0
100
AcDbLine
 10
177.6521829215
 20
87.0499962828
 30
0.0
 11
162.1394410522
 21
87.0499962828
 31
0.0
  0
LINE
  5
121
330
1F
100
AcDbEntity
  8
0
  6
HIDDEN
 62
     7
370
     0
100
AcDbLine
 10
162.1394410522
 20
134.4499977193
 30
0.0
 11
177.725142732
 21
134.4499977193
 31
0.0
  0
LINE
  5
122
330
1F
100
AcDbEntity
  8
0
  6
HIDDEN
 62
     7
370
     0
100
AcDbLine
 10
162.8021825364
 20
139.3625343106
 30
0.0
 11
166.7382278738
 21
139.3625343106
 31
0.0
  0
LINE
  5
123
330
1F
100
AcDbEntity
  8
0
  6
HIDDEN
 62
     7
370
     0
100
AcDbLine
 10
172.6661370394
 20
139.3625343106
 30
0.0
 11
177.6521829215
 21
139.3625343106
 31
0.0
  0
LINE
  5
124
330
1F
100
AcDbEntity
  8
0
  6
HIDDEN
 62
     7
370
     0
100
AcDbLine
 10
162.8021825364
 20
139.3625343106
 30
0.0
 11
162.8021825364
 21
136.0499968639
 31
0.0
  0
LINE
  5
125
330
1F
100
AcDbEntity
  8
0
  6
HIDDEN
 62
     7
370
     0
100
AcDbLine
 10
133.3521818069
 20
102.6499967909
 30
0.0
 11
133.3521818069
 21
116.6499972231
 31
0.0
  0
LINE
  5
126
330
1F
100
AcDbEntity
  8
0
  6
HIDDEN
 62
     7
370
     0
100
AcDbLine
 10
134.493817508
 20
104.549996823
 30
0.0
 11
134.493817508
 21
114.749997191
 31
0.0
  0
LINE
  5
127
330
1F
100
AcDbEntity
  8
0
  6
HIDDEN
 62
     7
370
     0
100
AcDbLine
 10
188.0021830348
 20
91.8499974421
 30
0.0
 11
188.0021830348
 21
97.45262916
 31
0.0
  0
LINE
  5
128
330
1F
100
AcDbEntity
  8
0
  6
HIDDEN
 62
     7
370
     0
100
AcDbLine
 10
188.0021830348
 20
127.4499965719
 30
0.0
 11
188.0021830348
 21
121.847364854
 31
0.0
  0
LINE
  5
129
330
1F
100
AcDbEntity
  8
0
  6
HIDDEN
 62
     7
370
     0
100
AcDbLine
 10
188.0021830348
 20
89.7499972841
 30
0.0
 11
188.0021830348
 21
91.8499974421
 31
0.0
  0
LINE
  5
12A
330
1F
100
AcDbEntity
  8
0
  6
HIDDEN
 62
     7
370
     0
100
AcDbLine
 10
188.0021830348
 20
129.5499967298
 30
0.0
 11
188.0021830348
 21
127.4499965719
 31
0.0
  0
LINE
  5
12B
330
1F
100
AcDbEntity
  8
0
  6
HIDDEN
 62
     7
370
     0
100
AcDbLine
 10
185.7021832166
 20
134.4499977193
 30
0.0
 11
185.0577545611
 21
134.4499977193
 31
0.0
  0
LINE
  5
12C
330
1F
100
AcDbEntity
  8
0
  6
HIDDEN
 62
     7
370
     0
100
AcDbLine
 10
177.6521829215
 20
128.0694844088
 30
0.0
 11
177.6521829215
 21
127.9999965689
 31
0.0
  0
LINE
  5
12D
330
1F
100
AcDbEntity
  8
0
  6
HIDDEN
 62
     7
370
     0
100
AcDbLine
 10
167.7921823484
 20
131.8472379706
 30
0.0
 11
167.7921823484
 21
127.9999965689
 31
0.0
  0
SPLINE
  5
12E
330
1F
100
AcDbEntity
  8
0
  6
HIDDEN
 62
     7
370
     0
100
AcDbSpline
210
0.0
220
0.0
230
1.0
 70
     8
 71
     3
 72
    14
 73
    10
 74
     0
 42
0.000000001
 43
0.00000001
 40
0.0
 40
0.0
 40
0.0
 40
0.0
 40
0.25
 40
0.25
 40
0.5
 40
0.5
 40
0.75
 40
0.75
 40
1.0
 40
1.0
 40
1.0
 40
1.0
 10
170.8121826861091
 20
120.9324761970927
 30
0.0
 10
170.9106619597233
 20
120.9713128277045
 30
0.0
 10
171.0119593184218
 20
121.0086056558
 30
0.0
 10
171.2049430186641
 20
121.080016946875
 30
0.0
 10
171.2960383890785
 20
121.114116709732
 30
0.0
 10
171.447330912396
 20
121.1809456829623
 30
0.0
 10
171.5085966354246
 20
121.2143650887036
 30
0.0
 10
171.5907802363441
 20
121.2833826949978
 30
0.0
 10
171.6121826861092
 20
121.3191789768391
 30
0.0
 10
171.6121826861092
 20
121.3557593755331
 30
0.0
  0
LINE
  5
12F
330
1F
100
AcDbEntity
  8
0
  6
HIDDEN
 62
     7
370
     0
100
AcDbLine
 10
171.6121825648
 20
131.8472379706
 30
0.0
 11
171.6121825648
 21
127.9999965689
 31
0.0
  0
SPLINE
  5
130
330
1F
100
AcDbEntity
  8
0
  6
HIDDEN
 62
     7
370
     0
100
AcDbSpline
210
0.0
220
0.0
230
1.0
 70
     8
 71
     3
 72
    14
 73
    10
 74
     0
 42
0.000000001
 43
0.00000001
 40
0.0
 40
0.0
 40
0.0
 40
0.0
 40
0.2500000000000004
 40
0.2500000000000004
 40
0.5000000000000003
 40
0.5000000000000003
 40
0.7500000000000002
 40
0.7500000000000002
 40
1.0
 40
1.0
 40
1.0
 40
1.0
 10
171.6121826861092
 20
117.5970358773132
 30
0.0
 10
171.6121826861093
 20
117.5607762876381
 30
0.0
 10
171.5910625986109
 20
117.5241482338497
 30
0.0
 10
171.5085949434622
 20
117.4588705014363
 30
0.0
 10
171.4481635891211
 20
117.4309441901082
 30
0.0
 10
171.2956987229734
 20
117.3967797532138
 30
0.0
 10
171.2051178360226
 20
117.3914002562848
 30
0.0
 10
171.0124759200541
 20
117.4122765659639
 30
0.0
 10
170.9106637774466
 20
117.4386226111723
 30
0.0
 10
170.812182686109
 20
117.4793647203142
 30
0.0
  0
LINE
  5
131
330
1F
100
AcDbEntity
  8
0
  6
HIDDEN
 62
     7
370
     0
100
AcDbLine
 10
171.6121825648
 20
101.6487141958
 30
0.0
 11
171.6121825648
 21
97.8899912796
 31
0.0
  0
LINE
  5
132
330
1F
100
AcDbEntity
  8
0
  6
HIDDEN
 62
     7
370
     0
100
AcDbLine
 10
173.2240197507
 20
99.8979767672
 30
0.0
 11
173.2240197507
 21
97.6984973884
 31
0.0
  0
LINE
  5
133
330
1F
100
AcDbEntity
  8
0
  6
HIDDEN
 62
     7
370
     0
100
AcDbLine
 10
173.2240197507
 20
135.5602273605
 30
0.0
 11
173.2240197507
 21
127.9999965689
 31
0.0
  0
LINE
  5
134
330
1F
100
AcDbEntity
  8
0
  6
HIDDEN
 62
     7
370
     0
100
AcDbLine
 10
166.1803460939
 20
135.5602273605
 30
0.0
 11
166.1803460939
 21
127.9999965689
 31
0.0
  0
LWPOLYLINE
  5
135
330
1F
100
AcDbEntity
  8
0
  6
HIDDEN
 62
     7
370
     0
100
AcDbPolyline
 90
       22
 70
   128
 43
0.0
 10
171.6021829543
 20
119.19439378
 10
172.088528916
 20
119.1255094371
 10
172.5316605789
 20
118.9249779916
 10
172.8922044186
 20
118.6106165758
 10
173.138124801
 20
118.2103592789
 10
173.2475691734
 20
117.7597686535
 10
173.2108135966
 20
117.2988836541
 10
173.0311242191
 20
116.8686540684
 10
172.7244676349
 20
116.5073088257
 10
172.3180906174
 20
116.246954806
 10
171.8481024054
 20
116.1107255964
 10
171.3562625719
 20
116.1107255964
 10
170.8862743599
 20
116.246954806
 10
170.4798973424
 20
116.5073088257
 10
170.1732407583
 20
116.8686540684
 10
169.9935513807
 20
117.2988836541
 10
169.9567967353
 20
117.7597686535
 10
170.0662411077
 20
118.2103592789
 10
170.3121605588
 20
118.6106165758
 10
170.6727043984
 20
118.9249779916
 10
171.1158369926
 20
119.1255094371
 10
171.6021829543
 20
119.19439378
  0
ELLIPSE
  5
136
330
1F
100
AcDbEntity
  8
0
  6
HIDDEN
 62
     7
370
     0
100
AcDbEllipse
 10
171.6021826861
 20
116.5375870675
 30
0.0
 11
1.383467579512143
 21
1.091267719176599
 31
0.0
210
0.0
220
0.0
230
1.0
 40
0.8239737799
 41
0.9520594635920955
 42
0.9944607108323701
  0
SPLINE
  5
137
330
1F
100
AcDbEntity
  8
0
  6
HIDDEN
 62
     7
370
     0
100
AcDbSpline
210
0.0
220
0.0
230
1.0
 70
     8
 71
     3
 72
     8
 73
     4
 74
     0
 42
0.000000001
 43
0.00000001
 40
0.0
 40
0.0
 40
0.0
 40
0.0
 40
1.0
 40
1.0
 40
1.0
 40
1.0
 10
171.6721237822233
 20
118.0991389333366
 30
0.0
 10
171.6551390561482
 20
118.092023223297
 30
0.0
 10
171.6381349116345
 20
118.084148093788
 30
0.0
 10
171.6211360275824
 20
118.0755249743488
 30
0.0
  0
ELLIPSE
  5
138
330
1F
100
AcDbEntity
  8
0
  6
HIDDEN
 62
     7
370
     0
100
AcDbEllipse
 10
171.6021826861
 20
116.5375870675
 30
0.0
 11
-1.383467579512143
 21
1.753907414218517
 31
0.0
210
0.0
220
0.0
230
1.0
 40
0.5126701559
 41
5.277237470133833
 42
5.288724596347231
  0
ELLIPSE
  5
139
330
1F
100
AcDbEntity
  8
0
  6
HIDDEN
 62
     7
370
     0
100
AcDbEllipse
 10
171.6021826861
 20
116.5375870675
 30
0.0
 11
1.383467579512143
 21
1.091267719176599
 31
0.0
210
0.0
220
0.0
230
1.0
 40
0.8239737799
 41
0.9944607108323701
 42
4.136053364422176
  0
ELLIPSE
  5
13A
330
1F
100
AcDbEntity
  8
0
  6
HIDDEN
 62
     7
370
     0
100
AcDbEllipse
 10
171.6021826861
 20
116.5375870675
 30
0.0
 11
-1.383467579512143
 21
1.753907414218517
 31
0.0
210
0.0
220
0.0
230
1.0
 40
0.5126701559
 41
2.147131942757425
 42
2.158619068968896
  0
SPLINE
  5
13B
330
1F
100
AcDbEntity
  8
0
  6
HIDDEN
 62
     7
370
     0
100
AcDbSpline
210
0.0
220
0.0
230
1.0
 70
     8
 71
     3
 72
     8
 73
     4
 74
     0
 42
0.000000001
 43
0.00000001
 40
0.0
 40
0.0
 40
0.0
 40
0.0
 40
1.0
 40
1.0
 40
1.0
 40
1.0
 10
171.6211360275909
 20
114.974743917345
 30
0.0
 10
171.6381349116373
 20
114.9827271908443
 30
0.0
 10
171.6551390561454
 20
114.9914635932751
 30
0.0
 10
171.6721237822147
 20
115.0009404450928
 30
0.0
  0
ELLIPSE
  5
13C
330
1F
100
AcDbEntity
  8
0
  6
HIDDEN
 62
     7
370
     0
100
AcDbEllipse
 10
171.6021826861
 20
116.5375870675
 30
0.0
 11
1.383467579512143
 21
1.091267719176599
 31
0.0
210
0.0
220
0.0
230
1.0
 40
0.8239737799
 41
4.136053364422176
 42
4.178454611655175
  0
ELLIPSE
  5
13D
330
1F
100
AcDbEntity
  8
0
  6
HIDDEN
 62
     7
370
     0
100
AcDbEllipse
 10
171.6021826861
 20
116.5375870675
 30
0.0
 11
-1.383467579512143
 21
1.753907414218517
 31
0.0
210
0.0
220
0.0
230
1.0
 40
0.5126701559
 41
5.288724596347231
 42
8.430317249937012
  0
SPLINE
  5
13E
330
1F
100
AcDbEntity
  8
0
  6
HIDDEN
 62
     7
370
     0
100
AcDbSpline
210
0.0
220
0.0
230
1.0
 70
     8
 71
     3
 72
    14
 73
    10
 74
     0
 42
0.000000001
 43
0.00000001
 40
0.0
 40
0.0
 40
0.0
 40
0.0
 40
0.25
 40
0.25
 40
0.5
 40
0.5
 40
0.75
 40
0.75
 40
1.0
 40
1.0
 40
1.0
 40
1.0
 10
169.6262919234688
 20
117.9784045738224
 30
0.0
 10
169.662655751499
 20
117.9329099384206
 30
0.0
 10
169.6951334787092
 20
117.8845181322043
 30
0.0
 10
169.7438871081249
 20
117.7790329882747
 30
0.0
 10
169.7587908857994
 20
117.7224484800318
 30
0.0
 10
169.7588013194571
 20
117.6135608860813
 30
0.0
 10
169.7439110236489
 20
117.5613762203187
 30
0.0
 10
169.6950220927713
 20
117.4700988213751
 30
0.0
 10
169.6626499145009
 20
117.431432116001
 30
0.0
 10
169.6262919234688
 20
117.3965361764533
 30
0.0
  0
SPLINE
  5
13F
330
1F
100
AcDbEntity
  8
0
  6
HIDDEN
 62
     7
370
     0
100
AcDbSpline
210
0.0
220
0.0
230
1.0
 70
     8
 71
     3
 72
    10
 73
     6
 74
     0
 42
0.000000001
 43
0.00000001
 40
0.0
 40
0.0
 40
0.0
 40
0.0
 40
0.5
 40
0.5
 40
1.0
 40
1.0
 40
1.0
 40
1.0
 10
169.6262919234688
 20
117.3965361764532
 30
0.0
 10
169.6106858724876
 20
117.5018083770618
 30
0.0
 10
169.602181409459
 20
117.6057468748527
 30
0.0
 10
169.6021839630486
 20
117.8052601468088
 30
0.0
 10
169.6106815506491
 20
117.8964726414793
 30
0.0
 10
169.6262919234688
 20
117.9784045738224
 30
0.0
  0
LWPOLYLINE
  5
140
330
1F
100
AcDbEntity
  8
0
  6
HIDDEN
 62
     7
370
     0
100
AcDbPolyline
 90
       22
 70
   128
 43
0.0
 10
162.4339101163
 20
117.6300428695
 10
162.5539063735
 20
117.2703721448
 10
162.7438267951
 20
117.0213858484
 10
162.986796282
 20
116.9052070825
 10
163.2612258454
 20
116.9321590922
 10
163.5427311321
 20
117.0998465157
 10
163.806299146
 20
117.3933700545
 10
164.0285108497
 20
117.7866484857
 10
164.1896217389
 20
118.2447381205
 10
164.2753159886
 20
118.7269341088
 10
164.2779800368
 20
119.1903928182
 10
164.1973768619
 20
119.5939330271
 10
164.0406683346
 20
119.9016988165
 10
163.8217786586
 20
120.0863437614
 10
163.5601571088
 20
120.1314607522
 10
163.2790499625
 20
120.0330423078
 10
163.0034348255
 20
119.7998316846
 10
162.7578012904
 20
119.452551741
 10
162.5639753675
 20
119.0220599881
 10
162.439178841
 20
118.5466067753
 10
162.3945005031
 20
118.0684387571
 10
162.4339101163
 20
117.6300428695
  0
LWPOLYLINE
  5
141
330
1F
100
AcDbEntity
  8
0
  6
HIDDEN
 62
     7
370
     0
100
AcDbPolyline
 90
       23
 70
   128
 43
0.0
 10
169.626291774
 20
117.9784050098
 10
169.7816736323
 20
118.4656273461
 10
170.070396669
 20
118.8958546034
 10
170.4713142736
 20
119.2375745511
 10
170.9550609139
 20
119.4657588265
 10
171.4862062854
 20
119.5636929831
 10
172.0258462501
 20
119.524204906
 10
172.5344545466
 20
119.3501872829
 10
172.9747801346
 20
119.054384332
 10
173.314570382
 20
118.6584632731
 10
173.528938487
 20
118.191422697
 10
173.6021823508
 20
117.6874700821
 10
173.528938487
 20
117.1835179328
 10
173.314570382
 20
116.7164773567
 10
172.9747801346
 20
116.3205562978
 10
172.5344545466
 20
116.0247538126
 10
172.0258462501
 20
115.8507357239
 10
171.4862062854
 20
115.8112476467
 10
170.9550609139
 20
115.909182269
 10
170.4713142736
 20
116.1373660787
 10
170.070396669
 20
116.4790860264
 10
169.7816736323
 20
116.9093132837
 10
169.626291774
 20
117.3965360856
  0
SPLINE
  5
142
330
1F
100
AcDbEntity
  8
0
  6
HIDDEN
 62
     7
370
     0
100
AcDbSpline
210
0.0
220
0.0
230
1.0
 70
     8
 71
     3
 72
    12
 73
     8
 74
     0
 42
0.000000001
 43
0.00000001
 40
0.0
 40
0.0
 40
0.0
 40
0.0
 40
0.2500000000000003
 40
0.2500000000000003
 40
0.5000000000000007
 40
0.5000000000000007
 40
1.0
 40
1.0
 40
1.0
 40
1.0
 10
173.2240193281659
 20
121.6014968051915
 30
0.0
 10
173.3469668219614
 20
121.4435399564964
 30
0.0
 10
173.4405110250703
 20
121.2717065895189
 30
0.0
 10
173.5694504142325
 20
120.9000338798731
 30
0.0
 10
173.6020031716176
 20
120.7068454336818
 30
0.0
 10
173.6025395133514
 20
120.1185488954056
 30
0.0
 10
173.4699158563835
 20
119.7265306575169
 30
0.0
 10
173.2240193281659
 20
119.4020170748082
 30
0.0
  0
SPLINE
  5
143
330
1F
100
AcDbEntity
  8
0
  6
HIDDEN
 62
     7
370
     0
100
AcDbSpline
210
0.0
220
0.0
230
1.0
 70
     8
 71
     3
 72
    12
 73
     8
 74
     0
 42
0.000000001
 43
0.00000001
 40
0.0
 40
0.0
 40
0.0
 40
0.0
 40
0.2499999999999997
 40
0.2499999999999997
 40
0.4999999999999993
 40
0.4999999999999993
 40
1.0
 40
1.0
 40
1.0
 40
1.0
 10
173.2240193281659
 20
119.4020170748082
 30
0.0
 10
173.1091232769052
 20
119.1822766397516
 30
0.0
 10
172.9823572604326
 20
118.9853082881299
 30
0.0
 10
172.722142326814
 20
118.631590715291
 30
0.0
 10
172.5886348688518
 20
118.4747654214188
 30
0.0
 10
172.1802366002636
 20
118.0482228505111
 30
0.0
 10
171.896583465326
 20
117.8215306715558
 30
0.0
 10
171.6121826861093
 20
117.6512795271604
 30
0.0
  0
SPLINE
  5
144
330
1F
100
AcDbEntity
  8
0
  6
HIDDEN
 62
     7
370
     0
100
AcDbSpline
210
0.0
220
0.0
230
1.0
 70
     8
 71
     3
 72
    12
 73
     8
 74
     0
 42
0.000000001
 43
0.00000001
 40
0.0
 40
0.0
 40
0.0
 40
0.0
 40
0.499999999999999
 40
0.499999999999999
 40
0.7499999999999994
 40
0.7499999999999994
 40
1.0
 40
1.0
 40
1.0
 40
1.0
 10
171.6121826861092
 20
121.4100030253814
 30
0.0
 10
171.8963892206745
 20
121.5774671876752
 30
0.0
 10
172.1750849547783
 20
121.6891042871868
 30
0.0
 10
172.5844309979675
 20
121.7564175528261
 30
0.0
 10
172.7205703352871
 20
121.7615685928401
 30
0.0
 10
172.9818903842831
 20
121.7238026552207
 30
0.0
 10
173.1073115667149
 20
121.6822528968764
 30
0.0
 10
173.2240193281663
 20
121.6014968051936
 30
0.0
  0
SPLINE
  5
145
330
1F
100
AcDbEntity
  8
0
  6
HIDDEN
 62
     7
370
     0
100
AcDbSpline
210
0.0
220
0.0
230
1.0
 70
     8
 71
     3
 72
    22
 73
    18
 74
     0
 42
0.000000001
 43
0.00000001
 40
0.0
 40
0.0
 40
0.0
 40
0.0
 40
0.125
 40
0.125
 40
0.25
 40
0.25
 40
0.375
 40
0.375
 40
0.5
 40
0.5
 40
0.625
 40
0.625
 40
0.75
 40
0.75
 40
0.875
 40
0.875
 40
1.0
 40
1.0
 40
1.0
 40
1.0
 10
170.8121826861091
 20
117.4793647203154
 30
0.0
 10
170.6321659915398
 20
117.553838507292
 30
0.0
 10
170.4677341696695
 20
117.651287769276
 30
0.0
 10
170.1693379359109
 20
117.8906572028403
 30
0.0
 10
170.039034208546
 20
118.0305538149108
 30
0.0
 10
169.825815424927
 20
118.3388054049711
 30
0.0
 10
169.7421875678155
 20
118.5089686230903
 30
0.0
 10
169.6310566908973
 20
118.8594633578808
 30
0.0
 10
169.6022206960436
 20
119.0445883190321
 30
0.0
 10
169.602144753384
 20
119.4077951936494
 30
0.0
 10
169.6308033788112
 20
119.5911652073569
 30
0.0
 10
169.7419544719239
 20
119.9370563198502
 30
0.0
 10
169.8250215925679
 20
120.1025758471177
 30
0.0
 10
170.0387075506866
 20
120.4031155845215
 30
0.0
 10
170.1677145406109
 20
120.5369875058055
 30
0.0
 10
170.4673238201004
 20
120.7682342752096
 30
0.0
 10
170.6321665183596
 20
120.8614843918684
 30
0.0
 10
170.8121826861092
 20
120.9324761970927
 30
0.0
  0
LWPOLYLINE
  5
146
330
1F
100
AcDbEntity
  8
0
  6
HIDDEN
 62
     7
370
     0
100
AcDbPolyline
 90
       25
 70
   128
 43
0.0
 10
162.0523942893
 20
117.4205344057
 10
162.1807987595
 20
117.0130155868
 10
162.3791164511
 20
116.7101154922
 10
162.6338320112
 20
116.5324764213
 10
162.9275869837
 20
116.4922046362
 10
163.2403628228
 20
116.5920442789
 10
163.5508438831
 20
116.8251911065
 10
163.8378719126
 20
117.1757572218
 10
164.0818858778
 20
117.6198514065
 10
164.2662570139
 20
118.1272098682
 10
164.3784208482
 20
118.6632577217
 10
164.4107330849
 20
119.1914619765
 10
164.3609920775
 20
119.6758288777
 10
164.2325873745
 20
120.0833476967
 10
164.0342701485
 20
120.3862473256
 10
163.7795543557
 20
120.5638868621
 10
163.4857993832
 20
120.6041581816
 10
163.173023544
 20
120.5043185389
 10
162.8625424837
 20
120.2711721769
 10
162.5755144542
 20
119.920605596
 10
162.331500489
 20
119.4765118769
 10
162.1471293529
 20
118.969152484
 10
162.0349657515
 20
118.4331055618
 10
162.0026532819
 20
117.904901307
 10
162.0523942893
 20
117.4205344057
  0
LWPOLYLINE
  5
147
330
1F
100
AcDbEntity
  8
0
  6
HIDDEN
 62
     7
370
     0
100
AcDbPolyline
 90
       24
 70
   128
 43
0.0
 10
165.4765879994
 20
115.952924162
 10
165.2003041727
 20
116.0568835101
 10
164.9736100135
 20
116.2983256279
 10
164.8133182225
 20
116.6593439764
 10
164.7313166668
 20
117.1131630315
 10
164.7336873484
 20
117.6261257267
 10
164.8202542474
 20
118.1601870692
 10
164.9845972916
 20
118.6757393068
 10
165.2145277967
 20
119.1345451287
 10
165.4929927809
 20
119.5025777331
 10
165.7993397003
 20
119.7525419182
 10
166.110848475
 20
119.8658987767
 10
166.4044162517
 20
119.8342403284
 10
166.6582691742
 20
119.6599163002
 10
166.8535814879
 20
119.3558534494
 10
166.9758678673
 20
118.9446046836
 10
167.0160572303
 20
118.4566689542
 10
166.9711702762
 20
117.9282355941
 10
166.8445355517
 20
117.398494657
 10
166.6455454452
 20
116.9067353829
 10
166.3889581596
 20
116.4894292949
 10
166.0938029436
 20
116.1775256394
 10
165.7819705343
 20
115.9941575377
 10
165.4765879994
 20
115.952924162
  0
LWPOLYLINE
  5
148
330
1F
100
AcDbEntity
  8
0
  6
HIDDEN
 62
     7
370
     0
100
AcDbPolyline
 90
       19
 70
   128
 43
0.0
 10
166.2380829712
 20
116.5399270019
 10
166.0224417483
 20
116.6385652384
 10
165.8623865133
 20
116.8728855326
 10
165.7772231174
 20
117.2146250381
 10
165.7772231174
 20
117.6225652805
 10
165.8623865133
 20
118.0475016943
 10
166.0224417483
 20
118.4381812698
 10
166.2380829712
 20
118.7474818787
 10
166.4833016021
 20
118.938098464
 10
166.7285197673
 20
118.987038534
 10
166.9441609902
 20
118.8884002975
 10
167.1042162252
 20
118.6540795377
 10
167.1893791554
 20
118.3123400322
 10
167.1893791554
 20
117.9044002554
 10
167.1042162252
 20
117.4794638416
 10
166.9441609902
 20
117.0887842661
 10
166.7285197673
 20
116.7794831916
 10
166.4833016021
 20
116.5888670719
 10
166.2380829712
 20
116.5399270019
  0
LWPOLYLINE
  5
149
330
1F
100
AcDbEntity
  8
0
  6
HIDDEN
 62
     7
370
     0
100
AcDbPolyline
 90
       24
 70
   128
 43
0.0
 10
162.9987893885
 20
116.5463200657
 10
162.7225055618
 20
116.6502794138
 10
162.4958114026
 20
116.8917215316
 10
162.3355196116
 20
117.2527398801
 10
162.2535180559
 20
117.7065584696
 10
162.2558887375
 20
118.2195216304
 10
162.3424556365
 20
118.7535829729
 10
162.5067986807
 20
119.2691352105
 10
162.7367291858
 20
119.7279410324
 10
163.01519417
 20
120.0959736368
 10
163.321541555
 20
120.3459378219
 10
163.6330503298
 20
120.4592937491
 10
163.9266176408
 20
120.4276362321
 10
164.1804710289
 20
120.2533122039
 10
164.3757833426
 20
119.9492493531
 10
164.4980687907
 20
119.5380005873
 10
164.5382586194
 20
119.0500648579
 10
164.4933716653
 20
118.5216314978
 10
164.3667374065
 20
117.9918905607
 10
164.1677472999
 20
117.5001308209
 10
163.9111595487
 20
117.0828251987
 10
163.6160043327
 20
116.7709215431
 10
163.3041719233
 20
116.5875534414
 10
162.9987893885
 20
116.5463200657
  0
LINE
  5
14A
330
1F
100
AcDbEntity
  8
0
  6
HIDDEN
 62
     7
370
     0
100
AcDbLine
 10
164.0096972024
 20
118.8771787918
 30
0.0
 11
164.6619443109
 21
119.3841917327
 31
0.0
  0
LINE
  5
14B
330
1F
100
AcDbEntity
  8
0
  6
HIDDEN
 62
     7
370
     0
100
AcDbLine
 10
164.0096972024
 20
118.8771787918
 30
0.0
 11
162.7809693364
 21
119.1714413351
 31
0.0
  0
LINE
  5
14C
330
1F
100
AcDbEntity
  8
0
  6
HIDDEN
 62
     7
370
     0
100
AcDbLine
 10
163.7831744065
 20
117.7469061575
 30
0.0
 11
164.0096972024
 21
118.8771787918
 31
0.0
  0
LINE
  5
14D
330
1F
100
AcDbEntity
  8
0
  6
HIDDEN
 62
     7
370
     0
100
AcDbLine
 10
163.7831744065
 20
117.7469061575
 30
0.0
 11
162.5544460749
 21
118.0411687008
 31
0.0
  0
LINE
  5
14E
330
1F
100
AcDbEntity
  8
0
  6
HIDDEN
 62
     7
370
     0
100
AcDbLine
 10
163.7831744065
 20
117.7469061575
 30
0.0
 11
164.2088982535
 21
117.1236469297
 31
0.0
  0
LINE
  5
14F
330
1F
100
AcDbEntity
  8
0
  6
HIDDEN
 62
     7
370
     0
100
AcDbLine
 10
162.5544460749
 20
118.0411687008
 30
0.0
 11
162.9801703876
 21
117.4179090074
 31
0.0
  0
LINE
  5
150
330
1F
100
AcDbEntity
  8
0
  6
HIDDEN
 62
     7
370
     0
100
AcDbLine
 10
162.5544460749
 20
118.0411687008
 30
0.0
 11
162.7809693364
 21
119.1714413351
 31
0.0
  0
LINE
  5
151
330
1F
100
AcDbEntity
  8
0
  6
HIDDEN
 62
     7
370
     0
100
AcDbLine
 10
162.7809693364
 20
119.1714413351
 30
0.0
 11
163.4332164449
 21
119.6784542761
 31
0.0
  0
LWPOLYLINE
  5
152
330
1F
100
AcDbEntity
  8
0
  6
HIDDEN
 62
     7
370
     0
100
AcDbPolyline
 90
       22
 70
   128
 43
0.0
 10
162.890851896
 20
116.9722413531
 10
162.6491052357
 20
117.0698388367
 10
162.4569026081
 20
117.2987933158
 10
162.3313221408
 20
117.6387619114
 10
162.2835222425
 20
118.0595362446
 10
162.3177499769
 20
118.5237288362
 10
162.4309645759
 20
118.9900932721
 10
162.6131058929
 20
119.4171931482
 10
162.8479901028
 20
119.7670770696
 10
163.1147464996
 20
120.0086565575
 10
163.3896729236
 20
120.1204664892
 10
163.6483407838
 20
120.0925724468
 10
163.867766436
 20
119.9274526796
 10
164.028452642
 20
119.6397773809
 10
164.1161217613
 20
119.2551104239
 10
164.1229846773
 20
118.8076285532
 10
164.0484304426
 20
118.3370945862
 10
163.8990844858
 20
117.8853155932
 10
163.6882167568
 20
117.4924362338
 10
163.4345631374
 20
117.193363875
 10
163.1606625652
 20
117.0146733409
 10
162.890851896
 20
116.9722413531
  0
LINE
  5
153
330
1F
100
AcDbEntity
  8
0
  6
HIDDEN
 62
     7
370
     0
100
AcDbLine
 10
165.0876681579
 20
118.7609320394
 30
0.0
 11
163.8589402919
 21
119.0551945827
 31
0.0
  0
LINE
  5
154
330
1F
100
AcDbEntity
  8
0
  6
HIDDEN
 62
     7
370
     0
100
AcDbLine
 10
163.8589402919
 20
119.0551945827
 30
0.0
 11
163.4332164449
 21
119.6784542761
 31
0.0
  0
LINE
  5
155
330
1F
100
AcDbEntity
  8
0
  6
HIDDEN
 62
     7
370
     0
100
AcDbLine
 10
164.6619443109
 20
119.3841917327
 30
0.0
 11
163.4332164449
 21
119.6784542761
 31
0.0
  0
LINE
  5
156
330
1F
100
AcDbEntity
  8
0
  6
HIDDEN
 62
     7
370
     0
100
AcDbLine
 10
165.0876681579
 20
118.7609320394
 30
0.0
 11
164.6619443109
 21
119.3841917327
 31
0.0
  0
LINE
  5
157
330
1F
100
AcDbEntity
  8
0
  6
HIDDEN
 62
     7
370
     0
100
AcDbLine
 10
164.861145362
 20
117.630659405
 30
0.0
 11
163.6324170304
 21
117.9249219483
 31
0.0
  0
LINE
  5
158
330
1F
100
AcDbEntity
  8
0
  6
HIDDEN
 62
     7
370
     0
100
AcDbLine
 10
163.6324170304
 20
117.9249219483
 30
0.0
 11
162.9801703876
 21
117.4179090074
 31
0.0
  0
LINE
  5
159
330
1F
100
AcDbEntity
  8
0
  6
HIDDEN
 62
     7
370
     0
100
AcDbLine
 10
164.2088982535
 20
117.1236469297
 30
0.0
 11
162.9801703876
 21
117.4179090074
 31
0.0
  0
LINE
  5
15A
330
1F
100
AcDbEntity
  8
0
  6
HIDDEN
 62
     7
370
     0
100
AcDbLine
 10
164.861145362
 20
117.630659405
 30
0.0
 11
164.2088982535
 21
117.1236469297
 31
0.0
  0
LINE
  5
15B
330
1F
100
AcDbEntity
  8
0
  6
HIDDEN
 62
     7
370
     0
100
AcDbLine
 10
163.6324170304
 20
117.9249219483
 30
0.0
 11
163.8589402919
 21
119.0551945827
 31
0.0
  0
LINE
  5
15C
330
1F
100
AcDbEntity
  8
0
  6
HIDDEN
 62
     7
370
     0
100
AcDbLine
 10
164.861145362
 20
117.630659405
 30
0.0
 11
165.0876681579
 21
118.7609320394
 31
0.0
  0
LWPOLYLINE
  5
15D
330
1F
100
AcDbEntity
  8
0
  6
HIDDEN
 62
     7
370
     0
100
AcDbPolyline
 90
       22
 70
   128
 43
0.0
 10
163.5225344708
 20
99.1758720836
 10
163.7642811311
 20
99.2734700328
 10
163.9564837588
 20
99.5024245119
 10
164.082064226
 20
99.8423926419
 10
164.1298643572
 20
100.2631669751
 10
164.0956363899
 20
100.7273595667
 10
163.9824220238
 20
101.1937249339
 10
163.8002804739
 20
101.6208238787
 10
163.565396264
 20
101.9707078001
 10
163.2986398672
 20
102.2122877537
 10
163.0237134432
 20
102.3240976854
 10
162.765045583
 20
102.296203643
 10
162.5456203965
 20
102.1310834101
 10
162.3849339576
 20
101.843408577
 10
162.2972646055
 20
101.4587411544
 10
162.2904019223
 20
101.0112592838
 10
162.3649556914
 20
100.5407253167
 10
162.514301881
 20
100.088947255
 10
162.72516961
 20
99.6960669643
 10
162.9788232295
 20
99.3969950712
 10
163.2527238017
 20
99.2183040715
 10
163.5225344708
 20
99.1758720836
  0
LWPOLYLINE
  5
15E
330
1F
100
AcDbEntity
  8
0
  6
HIDDEN
 62
     7
370
     0
100
AcDbPolyline
 90
       24
 70
   128
 43
0.0
 10
163.7834882622
 20
98.8382946587
 10
164.0597720889
 20
98.9422544724
 10
164.2864662481
 20
99.1836961246
 10
164.4467580391
 20
99.5447149387
 10
164.5287595948
 20
99.9985335282
 10
164.5263889132
 20
100.5114957577
 10
164.4398220142
 20
101.0455580315
 10
164.27547897
 20
101.5611093378
 10
164.0455484649
 20
102.0199156253
 10
163.7670834807
 20
102.3879482298
 10
163.4607365613
 20
102.6379124149
 10
163.1492277866
 20
102.7512688077
 10
162.8556600099
 20
102.7196112907
 10
162.6018066218
 20
102.5452867969
 10
162.4064945409
 20
102.2412244118
 10
162.28420886
 20
101.8299756459
 10
162.2440190313
 20
101.3420399165
 10
162.2889059854
 20
100.8136056251
 10
162.415540477
 20
100.2838656193
 10
162.6145303508
 20
99.7921058795
 10
162.871118102
 20
99.3747997916
 10
163.166273318
 20
99.0628961361
 10
163.4781057274
 20
98.8795280344
 10
163.7834882622
 20
98.8382946587
  0
LWPOLYLINE
  5
15F
330
1F
100
AcDbEntity
  8
0
  6
HIDDEN
 62
     7
370
     0
100
AcDbPolyline
 90
       24
 70
   128
 43
0.0
 10
166.2612868732
 20
99.4316905624
 10
166.5375706998
 20
99.5356503761
 10
166.764264859
 20
99.7770920283
 10
166.92455665
 20
100.1381099111
 10
167.0065577401
 20
100.5919294319
 10
167.0041875241
 20
101.1048916614
 10
166.9176201595
 20
101.6389539352
 10
166.7532771153
 20
102.1545052415
 10
166.5233475415
 20
102.613311529
 10
166.2448820917
 20
102.9813441335
 10
165.9385347066
 20
103.2313083186
 10
165.6270259319
 20
103.3446647114
 10
165.3334586208
 20
103.3130067288
 10
165.0796052327
 20
103.1386822349
 10
164.884292919
 20
102.8346203155
 10
164.762007471
 20
102.4233710839
 10
164.7218176422
 20
101.9354358203
 10
164.7667045964
 20
101.4070015288
 10
164.8933388551
 20
100.877261523
 10
165.0923289617
 20
100.3855017832
 10
165.3489167129
 20
99.9681956953
 10
165.6440719289
 20
99.6562920398
 10
165.9559043383
 20
99.4729239381
 10
166.2612868732
 20
99.4316905624
  0
LINE
  5
160
330
1F
100
AcDbEntity
  8
0
  6
HIDDEN
 62
     7
370
     0
100
AcDbLine
 10
163.6324170304
 20
101.3750720656
 30
0.0
 11
162.9801703876
 21
101.8820850066
 31
0.0
  0
LINE
  5
161
330
1F
100
AcDbEntity
  8
0
  6
HIDDEN
 62
     7
370
     0
100
AcDbLine
 10
162.5544460749
 20
101.2588253132
 30
0.0
 11
162.9801703876
 21
101.8820850066
 31
0.0
  0
LINE
  5
162
330
1F
100
AcDbEntity
  8
0
  6
HIDDEN
 62
     7
370
     0
100
AcDbLine
 10
162.7809693364
 20
100.1285526789
 30
0.0
 11
162.5544460749
 21
101.2588253132
 31
0.0
  0
LINE
  5
163
330
1F
100
AcDbEntity
  8
0
  6
HIDDEN
 62
     7
370
     0
100
AcDbLine
 10
162.7809693364
 20
100.1285526789
 30
0.0
 11
163.4332164449
 21
99.6215397379
 31
0.0
  0
LINE
  5
164
330
1F
100
AcDbEntity
  8
0
  6
HIDDEN
 62
     7
370
     0
100
AcDbLine
 10
163.8589402919
 20
100.2447994313
 30
0.0
 11
163.4332164449
 21
99.6215397379
 31
0.0
  0
LINE
  5
165
330
1F
100
AcDbEntity
  8
0
  6
HIDDEN
 62
     7
370
     0
100
AcDbLine
 10
163.8589402919
 20
100.2447994313
 30
0.0
 11
163.6324170304
 21
101.3750720656
 31
0.0
  0
LINE
  5
166
330
1F
100
AcDbEntity
  8
0
  6
HIDDEN
 62
     7
370
     0
100
AcDbLine
 10
164.861145362
 20
101.6693346089
 30
0.0
 11
163.6324170304
 21
101.3750720656
 31
0.0
  0
LINE
  5
167
330
1F
100
AcDbEntity
  8
0
  6
HIDDEN
 62
     7
370
     0
100
AcDbLine
 10
165.0876681579
 20
100.5390619746
 30
0.0
 11
163.8589402919
 21
100.2447994313
 31
0.0
  0
LINE
  5
168
330
1F
100
AcDbEntity
  8
0
  6
HIDDEN
 62
     7
370
     0
100
AcDbLine
 10
164.0096972024
 20
100.4228152222
 30
0.0
 11
164.6619443109
 21
99.9158022812
 31
0.0
  0
LINE
  5
169
330
1F
100
AcDbEntity
  8
0
  6
HIDDEN
 62
     7
370
     0
100
AcDbLine
 10
164.0096972024
 20
100.4228152222
 30
0.0
 11
163.7831744065
 21
101.5530878565
 31
0.0
  0
LINE
  5
16A
330
1F
100
AcDbEntity
  8
0
  6
HIDDEN
 62
     7
370
     0
100
AcDbLine
 10
163.7831744065
 20
101.5530878565
 30
0.0
 11
164.2088982535
 21
102.1763470842
 31
0.0
  0
LINE
  5
16B
330
1F
100
AcDbEntity
  8
0
  6
HIDDEN
 62
     7
370
     0
100
AcDbLine
 10
165.0876681579
 20
100.5390619746
 30
0.0
 11
164.6619443109
 21
99.9158022812
 31
0.0
  0
LINE
  5
16C
330
1F
100
AcDbEntity
  8
0
  6
HIDDEN
 62
     7
370
     0
100
AcDbLine
 10
165.0876681579
 20
100.5390619746
 30
0.0
 11
164.861145362
 21
101.6693346089
 31
0.0
  0
LINE
  5
16D
330
1F
100
AcDbEntity
  8
0
  6
HIDDEN
 62
     7
370
     0
100
AcDbLine
 10
164.861145362
 20
101.6693346089
 30
0.0
 11
164.2088982535
 21
102.1763470842
 31
0.0
  0
LINE
  5
16E
330
1F
100
AcDbEntity
  8
0
  6
HIDDEN
 62
     7
370
     0
100
AcDbLine
 10
163.7831744065
 20
101.5530878565
 30
0.0
 11
162.5544460749
 21
101.2588253132
 31
0.0
  0
LINE
  5
16F
330
1F
100
AcDbEntity
  8
0
  6
HIDDEN
 62
     7
370
     0
100
AcDbLine
 10
164.2088982535
 20
102.1763470842
 30
0.0
 11
162.9801703876
 21
101.8820850066
 31
0.0
  0
LWPOLYLINE
  5
170
330
1F
100
AcDbEntity
  8
0
  6
HIDDEN
 62
     7
370
     0
100
AcDbPolyline
 90
       19
 70
   128
 43
0.0
 10
166.7285197673
 20
100.31295548
 10
166.9441609902
 20
100.4115937165
 10
167.1042162252
 20
100.6459144762
 10
167.1893791554
 20
100.9876539818
 10
167.1893791554
 20
101.3955937586
 10
167.1042162252
 20
101.8205301723
 10
166.9441609902
 20
102.2112097478
 10
166.7285197673
 20
102.5205108224
 10
166.4833016021
 20
102.7111269421
 10
166.2380829712
 20
102.760067012
 10
166.0224417483
 20
102.6614287755
 10
165.8623865133
 20
102.4271084814
 10
165.7772231174
 20
102.0853689759
 10
165.7772231174
 20
101.6774287334
 10
165.8623865133
 20
101.2524923197
 10
166.0224417483
 20
100.8618127442
 10
166.2380829712
 20
100.5525121352
 10
166.4833016021
 20
100.3618955499
 10
166.7285197673
 20
100.31295548
  0
LINE
  5
171
330
1F
100
AcDbEntity
  8
0
  6
HIDDEN
 62
     7
370
     0
100
AcDbLine
 10
164.0096972024
 20
100.4228152222
 30
0.0
 11
162.7809693364
 21
100.1285526789
 31
0.0
  0
LINE
  5
172
330
1F
100
AcDbEntity
  8
0
  6
HIDDEN
 62
     7
370
     0
100
AcDbLine
 10
164.6619443109
 20
99.9158022812
 30
0.0
 11
163.4332164449
 21
99.6215397379
 31
0.0
  0
LWPOLYLINE
  5
173
330
1F
100
AcDbEntity
  8
0
  6
HIDDEN
 62
     7
370
     0
100
AcDbPolyline
 90
       21
 70
   128
 43
0.0
 10
171.5014678685
 20
116.196980968
 10
171.9628012998
 20
116.2356629855
 10
172.3888348115
 20
116.4064144603
 10
172.7378656415
 20
116.6925209461
 10
172.9757272897
 20
117.0659761763
 10
173.0791376231
 20
117.4902234114
 10
173.0379731653
 20
117.9237354434
 10
172.8562628178
 20
118.324075628
 10
172.5517948417
 20
118.6520576364
 10
172.1543724907
 20
118.875574123
 10
171.7028971089
 20
118.9727483204
 10
171.2415636776
 20
118.9340658373
 10
170.8155301658
 20
118.7633143625
 10
170.4664993358
 20
118.477207411
 10
170.2286376876
 20
118.1037526465
 10
170.1252282856
 20
117.6795054114
 10
170.1663927434
 20
117.2459933794
 10
170.3481021596
 20
116.8456527292
 10
170.6525701357
 20
116.5176711864
 10
171.0499934179
 20
116.2941542341
 10
171.5014678685
 20
116.196980968
  0
LWPOLYLINE
  5
174
330
1F
100
AcDbEntity
  8
0
  6
HIDDEN
 62
     7
370
     0
100
AcDbPolyline
 90
       24
 70
   128
 43
0.0
 10
171.4661176575
 20
115.8124392739
 10
172.0095061956
 20
115.8474746979
 10
172.5226863546
 20
116.018973559
 10
172.9675959123
 20
116.3142177163
 10
173.3112399725
 20
116.7113094478
 10
173.5281310303
 20
117.1807984709
 10
173.6021823508
 20
117.6878649628
 10
173.5279037876
 20
118.1949030495
 10
173.3108031822
 20
118.6643063909
 10
172.9669821707
 20
119.0612621492
 10
172.5219394339
 20
119.3563302866
 10
172.0086829064
 20
119.5276265851
 10
171.4652785359
 20
119.5624468735
 10
170.932027444
 20
119.4582095257
 10
170.448478244
 20
119.2226435876
 10
170.0504952369
 20
118.8732216022
 10
169.7675929663
 20
118.43585762
 10
169.6207531986
 20
117.942988675
 10
169.6208677513
 20
117.4311696439
 10
169.7679273111
 20
116.9383589065
 10
170.0510251594
 20
116.501106683
 10
170.4491655601
 20
116.1518416255
 10
170.9328199995
 20
115.9164670742
 10
171.4661176575
 20
115.8124392739
  0
LWPOLYLINE
  5
175
330
1F
100
AcDbEntity
  8
0
  6
HIDDEN
 62
     7
370
     0
100
AcDbPolyline
 90
       24
 70
   128
 43
0.0
 10
171.4661176575
 20
116.1373586281
 10
172.0095061956
 20
116.1723935864
 10
172.5226863546
 20
116.3438929132
 10
172.9675959123
 20
116.6391366048
 10
173.3112399725
 20
117.0362288019
 10
173.5281310303
 20
117.505717825
 10
173.6021823508
 20
118.0127847827
 10
173.5279037876
 20
118.519821938
 10
173.3108031822
 20
118.9892252794
 10
172.9669821707
 20
119.3861810378
 10
172.5219394339
 20
119.6812491751
 10
172.0086829064
 20
119.8525464049
 10
171.4652785359
 20
119.8873666933
 10
170.932027444
 20
119.7831284142
 10
170.448478244
 20
119.5475624761
 10
170.0504952369
 20
119.1981404907
 10
169.7675929663
 20
118.7607765085
 10
169.6207531986
 20
118.2679075635
 10
169.6208677513
 20
117.7560889981
 10
169.7679273111
 20
117.2632782607
 10
170.0510251594
 20
116.8260255716
 10
170.4491655601
 20
116.476760514
 10
170.9328199995
 20
116.2413859627
 10
171.4661176575
 20
116.1373586281
  0
LWPOLYLINE
  5
176
330
1F
100
AcDbEntity
  8
0
  6
HIDDEN
 62
     7
370
     0
100
AcDbPolyline
 90
       21
 70
   128
 43
0.0
 10
171.5001332832
 20
117.5466718039
 10
171.9675799159
 20
117.5858665145
 10
172.3992581738
 20
117.7588801718
 10
172.7529139517
 20
118.0487776062
 10
172.9939271954
 20
118.4271814189
 10
173.0987075044
 20
118.857050117
 10
173.0569972915
 20
119.2963056153
 10
172.8728794751
 20
119.7019506133
 10
172.5643770096
 20
120.0342781729
 10
172.1616889609
 20
120.2607571966
 10
171.7042316941
 20
120.3592184818
 10
171.2367859928
 20
120.3200228399
 10
170.8051068036
 20
120.1470091826
 10
170.451451957
 20
119.8571117482
 10
170.2104377819
 20
119.4787088669
 10
170.1056584043
 20
119.0488392374
 10
170.1473686171
 20
118.6095837391
 10
170.3314855022
 20
118.2039387411
 10
170.6399879677
 20
117.8716111815
 10
171.0426769478
 20
117.6451330892
 10
171.5001332832
 20
117.5466718039
  0
LWPOLYLINE
  5
177
330
1F
100
AcDbEntity
  8
0
  6
HIDDEN
 62
     7
370
     0
100
AcDbPolyline
 90
       21
 70
   128
 43
0.0
 10
171.5001332832
 20
116.5431931502
 10
171.9675799159
 20
116.5823883264
 10
172.3992581738
 20
116.7554019837
 10
172.7529139517
 20
117.0452994182
 10
172.9939271954
 20
117.4237027651
 10
173.0987075044
 20
117.8535714633
 10
173.0569972915
 20
118.2928278929
 10
172.8728794751
 20
118.6984728909
 10
172.5643770096
 20
119.0307995192
 10
172.1616889609
 20
119.2572785428
 10
171.7042316941
 20
119.3557398281
 10
171.2367859928
 20
119.3165451175
 10
170.8051068036
 20
119.1435305289
 10
170.451451957
 20
118.8536340258
 10
170.2104377819
 20
118.4752302131
 10
170.1056584043
 20
118.045361515
 10
170.1473686171
 20
117.6061050853
 10
170.3314855022
 20
117.2004605531
 10
170.6399879677
 20
116.8681329935
 10
171.0426769478
 20
116.6416544354
 10
171.5001332832
 20
116.5431931502
  0
LWPOLYLINE
  5
178
330
1F
100
AcDbEntity
  8
0
  6
HIDDEN
 62
     7
370
     0
100
AcDbPolyline
 90
       24
 70
   128
 43
0.0
 10
171.4661176575
 20
116.329745192
 10
172.0095061956
 20
116.3647801502
 10
172.5226863546
 20
116.5362790114
 10
172.9675959123
 20
116.8315231687
 10
173.3112399725
 20
117.2286149001
 10
173.5281310303
 20
117.6981039232
 10
173.6021823508
 20
118.2051708809
 10
173.5279037876
 20
118.7122080362
 10
173.3108031822
 20
119.1816113776
 10
172.9669821707
 20
119.5785680673
 10
172.5219394339
 20
119.8736362046
 10
172.0086829064
 20
120.0449325031
 10
171.4652785359
 20
120.0797527916
 10
170.932027444
 20
119.9755145124
 10
170.448478244
 20
119.7399495057
 10
170.0504952369
 20
119.3905265889
 10
169.7675929663
 20
118.9531626067
 10
169.6207531986
 20
118.4602936617
 10
169.6208677513
 20
117.9484750963
 10
169.7679273111
 20
117.4556643589
 10
170.0510251594
 20
117.0184121354
 10
170.4491655601
 20
116.6691470778
 10
170.9328199995
 20
116.4337725266
 10
171.4661176575
 20
116.329745192
  0
LWPOLYLINE
  5
179
330
1F
100
AcDbEntity
  8
0
  6
HIDDEN
 62
     7
370
     0
100
AcDbPolyline
 90
       23
 70
   128
 43
0.0
 10
171.4770020244
 20
116.335457459
 10
171.9992597846
 20
116.3721930123
 10
172.4893487317
 20
116.5457039959
 10
172.9075647218
 20
116.8419330268
 10
173.2200262395
 20
117.2368827163
 10
173.4014190061
 20
117.6985556147
 10
173.4370495451
 20
118.1895498073
 10
173.3240298254
 20
118.6700880415
 10
173.0715156791
 20
119.1012401021
 10
172.6999654693
 20
119.4480758047
 10
172.2394786102
 20
119.6824980787
 10
171.7273629529
 20
119.7855144626
 10
171.2051051927
 20
119.748779375
 10
170.7150162456
 20
119.5752683914
 10
170.2968011869
 20
119.2790388948
 10
169.9843396691
 20
118.8840892053
 10
169.8029459713
 20
118.4224167726
 10
169.7673163635
 20
117.9314225799
 10
169.8803360833
 20
117.4508843458
 10
170.1328492982
 20
117.0197322852
 10
170.5044004393
 20
116.6728961169
 10
170.9648863671
 20
116.4384738429
 10
171.4770020244
 20
116.335457459
  0
LWPOLYLINE
  5
17A
330
1F
100
AcDbEntity
  8
0
  6
HIDDEN
 62
     7
370
     0
100
AcDbPolyline
 90
       24
 70
   128
 43
0.0
 10
171.4661176575
 20
116.5221312902
 10
172.0095061956
 20
116.5571662484
 10
172.5226863546
 20
116.7286655753
 10
172.9675959123
 20
117.0239092669
 10
173.3112399725
 20
117.421001464
 10
173.5281310303
 20
117.8904900214
 10
173.6021823508
 20
118.3975569791
 10
173.5279037876
 20
118.9045941344
 10
173.3108031822
 20
119.3739984072
 10
172.9669821707
 20
119.7709541655
 10
172.5219394339
 20
120.0660223028
 10
172.0086829064
 20
120.2373186013
 10
171.4652785359
 20
120.2721388898
 10
170.932027444
 20
120.1679015419
 10
170.448478244
 20
119.9323356039
 10
170.0504952369
 20
119.5829126871
 10
169.7675929663
 20
119.1455487049
 10
169.6207531986
 20
118.6526806912
 10
169.6208677513
 20
118.1408611945
 10
169.7679273111
 20
117.6480509228
 10
170.0510251594
 20
117.2107982336
 10
170.4491655601
 20
116.861533176
 10
170.9328199995
 20
116.6261586248
 10
171.4661176575
 20
116.5221312902
  0
LWPOLYLINE
  5
17B
330
1F
100
AcDbEntity
  8
0
  6
HIDDEN
 62
     7
370
     0
100
AcDbPolyline
 90
       23
 70
   128
 43
0.0
 10
171.4770020244
 20
116.5278440228
 10
171.9992597846
 20
116.5645791105
 10
172.4893487317
 20
116.7380900941
 10
172.9075647218
 20
117.0343195907
 10
173.2200262395
 20
117.4292688145
 10
173.4014190061
 20
117.8909417129
 10
173.4370495451
 20
118.3819359055
 10
173.3240298254
 20
118.8624741397
 10
173.0715156791
 20
119.2936262003
 10
172.6999654693
 20
119.6404628343
 10
172.2394786102
 20
119.8748841769
 10
171.7273629529
 20
119.9779005608
 10
171.2051051927
 20
119.9411654732
 10
170.7150162456
 20
119.7676544896
 10
170.2968011869
 20
119.471424993
 10
169.9843396691
 20
119.0764762348
 10
169.8029459713
 20
118.6148028708
 10
169.7673163635
 20
118.1238086781
 10
169.8803360833
 20
117.643270444
 10
170.1328492982
 20
117.2121183834
 10
170.5044004393
 20
116.8652822151
 10
170.9648863671
 20
116.6308604068
 10
171.4770020244
 20
116.5278440228
  0
LWPOLYLINE
  5
17C
330
1F
100
AcDbEntity
  8
0
  6
HIDDEN
 62
     7
370
     0
100
AcDbPolyline
 90
       24
 70
   128
 43
0.0
 10
171.4661176575
 20
116.714517854
 10
172.0095061956
 20
116.7495528123
 10
172.5226863546
 20
116.9210516735
 10
172.9675959123
 20
117.2162958308
 10
173.3112399725
 20
117.6133880279
 10
173.5281310303
 20
118.082877051
 10
173.6021823508
 20
118.5899430773
 10
173.5279037876
 20
119.096981164
 10
173.3108031822
 20
119.5663845054
 10
172.9669821707
 20
119.9633402637
 10
172.5219394339
 20
120.258408401
 10
172.0086829064
 20
120.4297046995
 10
171.4652785359
 20
120.4645259193
 10
170.932027444
 20
120.3602876401
 10
170.448478244
 20
120.1247217021
 10
170.0504952369
 20
119.7752997166
 10
169.7675929663
 20
119.3379357344
 10
169.6207531986
 20
118.8450667894
 10
169.6208677513
 20
118.3332472927
 10
169.7679273111
 20
117.840437021
 10
170.0510251594
 20
117.4031847975
 10
170.4491655601
 20
117.0539197399
 10
170.9328199995
 20
116.8185451886
 10
171.4661176575
 20
116.714517854
  0
LWPOLYLINE
  5
17D
330
1F
100
AcDbEntity
  8
0
  6
HIDDEN
 62
     7
370
     0
100
AcDbPolyline
 90
       23
 70
   128
 43
0.0
 10
171.4770020244
 20
116.720230121
 10
171.9992597846
 20
116.7569656743
 10
172.4893487317
 20
116.9304766579
 10
172.9075647218
 20
117.2267056889
 10
173.2200262395
 20
117.6216553784
 10
173.4014190061
 20
118.0833278111
 10
173.4370495451
 20
118.5743220038
 10
173.3240298254
 20
119.0548602379
 10
173.0715156791
 20
119.4860122985
 10
172.6999654693
 20
119.8328489325
 10
172.2394786102
 20
120.0672712064
 10
171.7273629529
 20
120.1702875904
 10
171.2051051927
 20
120.1335515714
 10
170.7150162456
 20
119.9600415191
 10
170.2968011869
 20
119.6638120225
 10
169.9843396691
 20
119.268862333
 10
169.8029459713
 20
118.8071899003
 10
169.7673163635
 20
118.3161947763
 10
169.8803360833
 20
117.8356565422
 10
170.1328492982
 20
117.4045049472
 10
170.5044004393
 20
117.0576687789
 10
170.9648863671
 20
116.823246505
 10
171.4770020244
 20
116.720230121
  0
LWPOLYLINE
  5
17E
330
1F
100
AcDbEntity
  8
0
  6
HIDDEN
 62
     7
370
     0
100
AcDbPolyline
 90
       24
 70
   128
 43
0.0
 10
171.4661176575
 20
116.9069039522
 10
172.0095061956
 20
116.9419389105
 10
172.5226863546
 20
117.1134382373
 10
172.9675959123
 20
117.408681929
 10
173.3112399725
 20
117.8057741261
 10
173.5281310303
 20
118.2752631492
 10
173.6021823508
 20
118.7823301068
 10
173.5279037876
 20
119.2893672622
 10
173.3108031822
 20
119.7587706036
 10
172.9669821707
 20
120.1557263619
 10
172.5219394339
 20
120.4507944993
 10
172.0086829064
 20
120.6220917291
 10
171.4652785359
 20
120.6569120175
 10
170.932027444
 20
120.5526737383
 10
170.448478244
 20
120.3171078003
 10
170.0504952369
 20
119.9676858148
 10
169.7675929663
 20
119.5303218326
 10
169.6207531986
 20
119.0374528876
 10
169.6208677513
 20
118.5256343222
 10
169.7679273111
 20
118.0328231192
 10
170.0510251594
 20
117.5955708957
 10
170.4491655601
 20
117.2463058381
 10
170.9328199995
 20
117.0109312868
 10
171.4661176575
 20
116.9069039522
  0
LWPOLYLINE
  5
17F
330
1F
100
AcDbEntity
  8
0
  6
HIDDEN
 62
     7
370
     0
100
AcDbPolyline
 90
       23
 70
   128
 43
0.0
 10
171.4770020244
 20
116.9126166849
 10
171.9992597846
 20
116.9493517725
 10
172.4893487317
 20
117.1228627561
 10
172.9075647218
 20
117.4190922527
 10
173.2200262395
 20
117.8140414766
 10
173.4014190061
 20
118.2757139093
 10
173.4370495451
 20
118.7667090333
 10
173.3240298254
 20
119.2472472674
 10
173.0715156791
 20
119.678399328
 10
172.6999654693
 20
120.0252350307
 10
172.2394786102
 20
120.2596573046
 10
171.7273629529
 20
120.3626736886
 10
171.2051051927
 20
120.3259386009
 10
170.7150162456
 20
120.1524276173
 10
170.2968011869
 20
119.8561981207
 10
169.9843396691
 20
119.4612484312
 10
169.8029459713
 20
118.9995759985
 10
169.7673163635
 20
118.5085818059
 10
169.8803360833
 20
118.0280435717
 10
170.1328492982
 20
117.5968915111
 10
170.5044004393
 20
117.2500548771
 10
170.9648863671
 20
117.0156330689
 10
171.4770020244
 20
116.9126166849
  0
LWPOLYLINE
  5
180
330
1F
100
AcDbEntity
  8
0
  6
HIDDEN
 62
     7
370
     0
100
AcDbPolyline
 90
       24
 70
   128
 43
0.0
 10
171.4661176575
 20
117.0437119788
 10
172.0095061956
 20
117.0787469371
 10
172.5226863546
 20
117.2502462639
 10
172.9675959123
 20
117.5454899556
 10
173.3112399725
 20
117.942581687
 10
173.5281310303
 20
118.4120716414
 10
173.6021823508
 20
118.9191376677
 10
173.5279037876
 20
119.4261757544
 10
173.3108031822
 20
119.8955790958
 10
172.9669821707
 20
120.2925348541
 10
172.5219394339
 20
120.5876029915
 10
172.0086829064
 20
120.75889929
 10
171.4652785359
 20
120.7937195784
 10
170.932027444
 20
120.6894822306
 10
170.448478244
 20
120.4539162925
 10
170.0504952369
 20
120.1044933758
 10
169.7675929663
 20
119.6671293935
 10
169.6207531986
 20
119.1742613799
 10
169.6208677513
 20
118.6624418831
 10
169.7679273111
 20
118.1696316114
 10
170.0510251594
 20
117.7323793879
 10
170.4491655601
 20
117.3831138647
 10
170.9328199995
 20
117.1477393134
 10
171.4661176575
 20
117.0437119788
  0
LWPOLYLINE
  5
181
330
1F
100
AcDbEntity
  8
0
  6
HIDDEN
 62
     7
370
     0
100
AcDbPolyline
 90
       23
 70
   128
 43
0.0
 10
171.4729209689
 20
117.171665456
 10
172.0122079624
 20
117.2095986902
 10
172.5182784049
 20
117.3887674584
 10
172.9501308201
 20
117.6946561671
 10
173.2727819381
 20
118.1024851165
 10
173.4600904656
 20
118.5792123786
 10
173.4968823639
 20
119.0862169376
 10
173.3801764695
 20
119.5824246741
 10
173.1194285003
 20
120.0276359803
 10
172.7357627151
 20
120.3857825956
 10
172.2602601422
 20
120.6278491652
 10
171.7314449398
 20
120.7342238984
 10
171.192157015
 20
120.6962911299
 10
170.6860875038
 20
120.5171223617
 10
170.2542341573
 20
120.2112331873
 10
169.9315839706
 20
119.8034051693
 10
169.744275443
 20
119.3266779071
 10
169.7074835447
 20
118.8196724168
 10
169.8241885079
 20
118.3234646803
 10
170.084936477
 20
117.8782533741
 10
170.4686031935
 20
117.5201076901
 10
170.9441048352
 20
117.2780411205
 10
171.4729209689
 20
117.171665456
  0
ARC
  5
182
330
1F
100
AcDbEntity
  8
0
  6
HIDDEN
 62
     7
370
     0
100
AcDbCircle
 10
171.584250082
 20
100.3402536758
 30
0.0
 40
1.978860264004145
100
AcDbArc
 50
337.3814144578
 51
182.993480502
  0
ARC
  5
183
330
1F
100
AcDbEntity
  8
0
  6
HIDDEN
 62
     7
370
     0
100
AcDbCircle
 10
171.5785153307
 20
100.2849828578
 30
0.0
 40
1.885980632459493
100
AcDbArc
 50
341.3732776071
 51
160.505171621
  0
ARC
  5
184
330
1F
100
AcDbEntity
  8
0
  6
HIDDEN
 62
     7
370
     0
100
AcDbCircle
 10
171.6598328063
 20
100.3203144109
 30
0.0
 40
1.43792785919006
100
AcDbArc
 50
353.4397892769
 51
92.7875091573
  0
LWPOLYLINE
  5
185
330
1F
100
AcDbEntity
  8
0
  6
HIDDEN
 62
     7
370
     0
100
AcDbPolyline
 90
       24
 70
   128
 43
0.0
 10
170.9181423558
 20
98.7520150727
 10
170.4364567322
 20
98.9909263215
 10
170.0412267146
 20
99.3430985025
 10
169.7617666123
 20
99.7824126742
 10
169.6188011465
 20
100.2762855849
 10
169.6229343561
 20
100.7880901805
 10
169.7738589046
 20
101.2798676154
 10
170.0603821573
 20
101.7151454351
 10
170.4612541271
 20
102.0616402737
 10
170.946743272
 20
102.2936550787
 10
171.4808427987
 20
102.3939822688
 10
172.0239426268
 20
102.355181042
 10
172.5357611922
 20
102.1801282539
 10
172.9783415122
 20
101.8818079381
 10
173.3188581912
 20
101.4823445937
 10
173.5320565549
 20
101.0113645232
 10
173.6021255402
 20
100.5037974453
 10
173.5238674355
 20
99.9972892812
 10
173.3030871747
 20
99.5294039956
 10
172.9561583398
 20
99.1348426676
 10
172.5088115109
 20
98.8428674525
 10
171.9942241234
 20
98.6751343942
 10
171.4505608452
 20
98.6440822369
 10
170.9181423558
 20
98.7520150727
  0
LWPOLYLINE
  5
186
330
1F
100
AcDbEntity
  8
0
  6
HIDDEN
 62
     7
370
     0
100
AcDbPolyline
 90
       21
 70
   128
 43
0.0
 10
171.0891527382
 20
100.0259945056
 10
170.6786900086
 20
100.2397954351
 10
170.3586261047
 20
100.5623236186
 10
170.1602897865
 20
100.9620062894
 10
170.1030963359
 20
101.3997195176
 10
170.1926439328
 20
101.832617808
 10
170.4201669691
 20
102.2183264493
 10
170.7633928654
 20
102.5190882272
 10
171.1887269539
 20
102.7054631038
 10
171.6545316649
 20
102.759207867
 10
172.1152131704
 20
102.6750610097
 10
172.5256749687
 20
102.4612591489
 10
172.8457388727
 20
102.1387318968
 10
173.0440751908
 20
101.7390487603
 10
173.1012686414
 20
101.3013355321
 10
173.0117219759
 20
100.8684372416
 10
172.7841989396
 20
100.482729066
 10
172.4409721119
 20
100.1819668225
 10
172.0156389547
 20
99.9955914802
 10
171.5498333124
 20
99.9418476484
 10
171.0891527382
 20
100.0259945056
  0
LWPOLYLINE
  5
187
330
1F
100
AcDbEntity
  8
0
  6
HIDDEN
 62
     7
370
     0
100
AcDbPolyline
 90
       24
 70
   128
 43
0.0
 10
170.9181423558
 20
98.9444011709
 10
170.4364567322
 20
99.1833124197
 10
170.0412267146
 20
99.5354846007
 10
169.7617666123
 20
99.9747987724
 10
169.6188011465
 20
100.4686716831
 10
169.6229343561
 20
100.9804762787
 10
169.7738589046
 20
101.4722537136
 10
170.0603821573
 20
101.9075315333
 10
170.4612541271
 20
102.2540268375
 10
170.946743272
 20
102.4860416426
 10
171.4808427987
 20
102.5863688326
 10
172.0239426268
 20
102.5475671402
 10
172.5357611922
 20
102.3725148177
 10
172.9783415122
 20
102.0741940363
 10
173.3188581912
 20
101.6747306919
 10
173.5320565549
 20
101.2037506214
 10
173.6021255402
 20
100.6961844749
 10
173.5238674355
 20
100.1896753794
 10
173.3030871747
 20
99.7217900938
 10
172.9561583398
 20
99.3272287658
 10
172.5088115109
 20
99.0352544821
 10
171.9942241234
 20
98.8675204924
 10
171.4505608452
 20
98.8364683351
 10
170.9181423558
 20
98.9444011709
  0
LWPOLYLINE
  5
188
330
1F
100
AcDbEntity
  8
0
  6
HIDDEN
 62
     7
370
     0
100
AcDbPolyline
 90
       23
 70
   128
 43
0.0
 10
170.9728659389
 20
99.0375883764
 10
170.5112316904
 20
99.2700092382
 10
170.1379808856
 20
99.6152290961
 10
169.8833507744
 20
100.0452803335
 10
169.767970152
 20
100.525323104
 10
169.8011857716
 20
101.0164663083
 10
169.980308905
 20
101.4789219833
 10
170.2908258212
 20
101.8752230218
 10
170.7075805662
 20
102.1732644065
 10
171.1968117652
 20
102.3489006682
 10
171.7188823295
 20
102.3879021293
 10
172.2314999697
 20
102.2871097437
 10
172.6931332869
 20
102.054688882
 10
173.0663840918
 20
101.709469024
 10
173.3210151342
 20
101.2794177866
 10
173.4363957567
 20
100.7993750161
 10
173.4031792057
 20
100.3082308805
 10
173.2240570036
 20
99.8457761368
 10
172.9135400874
 20
99.4494750983
 10
172.4967844112
 20
99.151433248
 10
172.0075541434
 20
98.9757969863
 10
171.4854826478
 20
98.9367959908
 10
170.9728659389
 20
99.0375883764
  0
LWPOLYLINE
  5
189
330
1F
100
AcDbEntity
  8
0
  6
HIDDEN
 62
     7
370
     0
100
AcDbPolyline
 90
       24
 70
   128
 43
0.0
 10
170.9181423558
 20
99.1367872691
 10
170.4364567322
 20
99.3756994492
 10
170.0412267146
 20
99.7278716302
 10
169.7617666123
 20
100.1671848706
 10
169.6188011465
 20
100.6610577813
 10
169.6229343561
 20
101.1728623769
 10
169.7738589046
 20
101.6646398118
 10
170.0603821573
 20
102.0999176315
 10
170.4612541271
 20
102.4464129357
 10
170.946743272
 20
102.6784277408
 10
171.4808427987
 20
102.7787549308
 10
172.0239426268
 20
102.7399537041
 10
172.5357611922
 20
102.564900916
 10
172.9783415122
 20
102.2665806002
 10
173.3188581912
 20
101.8671167901
 10
173.5320565549
 20
101.3961367196
 10
173.6021255402
 20
100.8885705731
 10
173.5238674355
 20
100.3820614776
 10
173.3030871747
 20
99.914176192
 10
172.9561583398
 20
99.519614864
 10
172.5088115109
 20
99.2276405803
 10
171.9942241234
 20
99.0599075219
 10
171.4505608452
 20
99.0288553647
 10
170.9181423558
 20
99.1367872691
  0
LWPOLYLINE
  5
18A
330
1F
100
AcDbEntity
  8
0
  6
HIDDEN
 62
     7
370
     0
100
AcDbPolyline
 90
       23
 70
   128
 43
0.0
 10
170.9728659389
 20
99.2299744746
 10
170.5112316904
 20
99.4623953364
 10
170.1379808856
 20
99.8076151944
 10
169.8833507744
 20
100.2376664317
 10
169.767970152
 20
100.7177092022
 10
169.8011857716
 20
101.2088533378
 10
169.980308905
 20
101.6713080815
 10
170.2908258212
 20
102.0676095857
 10
170.7075805662
 20
102.3656509704
 10
171.1968117652
 20
102.5412867664
 10
171.7188823295
 20
102.5802886932
 10
172.2314999697
 20
102.4794963076
 10
172.6931332869
 20
102.2470754458
 10
173.0663840918
 20
101.9018551222
 10
173.3210151342
 20
101.4718038848
 10
173.4363957567
 20
100.9917611143
 10
173.4031792057
 20
100.5006179101
 10
173.2240570036
 20
100.0381622351
 10
172.9135400874
 20
99.6418611965
 10
172.4967844112
 20
99.3438193462
 10
172.0075541434
 20
99.1681840158
 10
171.4854826478
 20
99.129182089
 10
170.9728659389
 20
99.2299744746
  0
LWPOLYLINE
  5
18B
330
1F
100
AcDbEntity
  8
0
  6
HIDDEN
 62
     7
370
     0
100
AcDbPolyline
 90
       24
 70
   128
 43
0.0
 10
170.9181423558
 20
99.3291733674
 10
170.4364567322
 20
99.5680855474
 10
170.0412267146
 20
99.9202577284
 10
169.7617666123
 20
100.3595709688
 10
169.6188011465
 20
100.8534448108
 10
169.6229343561
 20
101.3652484751
 10
169.7738589046
 20
101.8570263757
 10
170.0603821573
 20
102.2923041953
 10
170.4612541271
 20
102.6387994996
 10
170.946743272
 20
102.8708143047
 10
171.4808427987
 20
102.9711414947
 10
172.0239426268
 20
102.9323398023
 10
172.5357611922
 20
102.7572874798
 10
172.9783415122
 20
102.4589666984
 10
173.3188581912
 20
102.059503354
 10
173.5320565549
 20
101.5885228178
 10
173.6021255402
 20
101.0809566713
 10
173.5238674355
 20
100.5744485072
 10
173.3030871747
 20
100.1065622902
 10
172.9561583398
 20
99.7120009622
 10
172.5088115109
 20
99.4200266785
 10
171.9942241234
 20
99.2522936201
 10
171.4505608452
 20
99.2212414629
 10
170.9181423558
 20
99.3291733674
  0
LWPOLYLINE
  5
18C
330
1F
100
AcDbEntity
  8
0
  6
HIDDEN
 62
     7
370
     0
100
AcDbPolyline
 90
       23
 70
   128
 43
0.0
 10
170.9728659389
 20
99.4223605728
 10
170.5112316904
 20
99.6547814346
 10
170.1379808856
 20
100.0000012926
 10
169.8833507744
 20
100.4300534612
 10
169.767970152
 20
100.9100953004
 10
169.8011857716
 20
101.401239436
 10
169.980308905
 20
101.8636946453
 10
170.2908258212
 20
102.2599956839
 10
170.7075805662
 20
102.5580370686
 10
171.1968117652
 20
102.7336733303
 10
171.7188823295
 20
102.7726747914
 10
172.2314999697
 20
102.6718824058
 10
172.6931332869
 20
102.439461544
 10
173.0663840918
 20
102.094241686
 10
173.3210151342
 20
101.664189983
 10
173.4363957567
 20
101.1841472125
 10
173.4031792057
 20
100.6930040083
 10
173.2240570036
 20
100.2305483333
 10
172.9135400874
 20
99.8342472947
 10
172.4967844112
 20
99.5362063757
 10
172.0075541434
 20
99.360570114
 10
171.4854826478
 20
99.3215681872
 10
170.9728659389
 20
99.4223605728
  0
LWPOLYLINE
  5
18D
330
1F
100
AcDbEntity
  8
0
  6
HIDDEN
 62
     7
370
     0
100
AcDbPolyline
 90
       24
 70
   128
 43
0.0
 10
170.9181423558
 20
99.5215603969
 10
170.4364567322
 20
99.7604716456
 10
170.0412267146
 20
100.1126438266
 10
169.7617666123
 20
100.5519579983
 10
169.6188011465
 20
101.045830909
 10
169.6229343561
 20
101.5576355046
 10
169.7738589046
 20
102.0494129396
 10
170.0603821573
 20
102.4846902936
 10
170.4612541271
 20
102.8311855978
 10
170.946743272
 20
103.0632004029
 10
171.4808427987
 20
103.1635275929
 10
172.0239426268
 20
103.1247263661
 10
172.5357611922
 20
102.949673578
 10
172.9783415122
 20
102.6513532622
 10
173.3188581912
 20
102.2518894522
 10
173.5320565549
 20
101.7809098474
 10
173.6021255402
 20
101.2733427695
 10
173.5238674355
 20
100.7668346054
 10
173.3030871747
 20
100.2989493198
 10
172.9561583398
 20
99.9043879918
 10
172.5088115109
 20
99.6124127767
 10
171.9942241234
 20
99.4446797183
 10
171.4505608452
 20
99.4136275611
 10
170.9181423558
 20
99.5215603969
  0
LWPOLYLINE
  5
18E
330
1F
100
AcDbEntity
  8
0
  6
HIDDEN
 62
     7
370
     0
100
AcDbPolyline
 90
       23
 70
   128
 43
0.0
 10
170.9728659389
 20
99.6147466711
 10
170.5112316904
 20
99.8471675328
 10
170.1379808856
 20
100.1923883221
 10
169.8833507744
 20
100.6224395594
 10
169.767970152
 20
101.1024823299
 10
169.8011857716
 20
101.5936255342
 10
169.980308905
 20
102.0560807436
 10
170.2908258212
 20
102.4523822478
 10
170.7075805662
 20
102.7504236324
 10
171.1968117652
 20
102.9260594285
 10
171.7188823295
 20
102.9650613553
 10
172.2314999697
 20
102.8642689696
 10
172.6931332869
 20
102.6318481079
 10
173.0663840918
 20
102.2866277843
 10
173.3210151342
 20
101.8565765469
 10
173.4363957567
 20
101.3765342421
 10
173.4031792057
 20
100.8853901065
 10
173.2240570036
 20
100.4229353628
 10
172.9135400874
 20
100.0266333929
 10
172.4967844112
 20
99.7285924739
 10
172.0075541434
 20
99.5529562122
 10
171.4854826478
 20
99.5139542854
 10
170.9728659389
 20
99.6147466711
  0
LWPOLYLINE
  5
18F
330
1F
100
AcDbEntity
  8
0
  6
HIDDEN
 62
     7
370
     0
100
AcDbPolyline
 90
       24
 70
   128
 43
0.0
 10
170.9181423558
 20
99.8464792854
 10
170.4364567322
 20
100.0853905341
 10
170.0412267146
 20
100.4375627151
 10
169.7617666123
 20
100.8768768868
 10
169.6188011465
 20
101.3707497976
 10
169.6229343561
 20
101.8825543931
 10
169.7738589046
 20
102.3743318281
 10
170.0603821573
 20
102.8096096477
 10
170.4612541271
 20
103.156104952
 10
170.946743272
 20
103.3881197571
 10
171.4808427987
 20
103.4884469471
 10
172.0239426268
 20
103.4496452546
 10
172.5357611922
 20
103.2745929322
 10
172.9783415122
 20
102.9762721508
 10
173.3188581912
 20
102.5768088064
 10
173.5320565549
 20
102.1058287359
 10
173.6021255402
 20
101.5982625893
 10
173.5238674355
 20
101.0917534939
 10
173.3030871747
 20
100.6238682083
 10
172.9561583398
 20
100.2293068803
 10
172.5088115109
 20
99.9373325965
 10
171.9942241234
 20
99.7695986069
 10
171.4505608452
 20
99.7385464496
 10
170.9181423558
 20
99.8464792854
  0
LWPOLYLINE
  5
190
330
1F
100
AcDbEntity
  8
0
  6
HIDDEN
 62
     7
370
     0
100
AcDbPolyline
 90
       21
 70
   128
 43
0.0
 10
171.0958610547
 20
100.4079168549
 10
170.6907664684
 20
100.6189228854
 10
170.3748879281
 20
100.9372331089
 10
170.1791453434
 20
101.3316882661
 10
170.1226997448
 20
101.7636785171
 10
170.2110757379
 20
102.1909162289
 10
170.4356231985
 20
102.5715803615
 10
170.7743619827
 20
102.8684091641
 10
171.1941332815
 20
103.0523472353
 10
171.6538471428
 20
103.1053888499
 10
172.1085039226
 20
103.0223423502
 10
172.5135985089
 20
102.8113367854
 10
172.8294770492
 20
102.4930265619
 10
173.025219634
 20
102.0985704734
 10
173.0816652326
 20
101.6665806881
 10
172.9932892395
 20
101.2393429762
 10
172.7687417788
 20
100.8586788437
 10
172.4300029946
 20
100.5618495754
 10
172.0102316958
 20
100.3779124356
 10
171.5505178345
 20
100.324870821
 10
171.0958610547
 20
100.4079168549
  0
LINE
  5
191
330
1F
100
AcDbEntity
  8
0
  6
HIDDEN
 62
     7
370
     0
100
AcDbLine
 10
169.6021826265
 20
101.5955692044
 30
0.0
 11
169.6021826265
 21
100.0741131491
 31
0.0
  0
LINE
  5
192
330
1F
100
AcDbEntity
  8
0
  6
HIDDEN
 62
     7
370
     0
100
AcDbLine
 10
173.6021823508
 20
98.7911539039
 30
0.0
 11
173.6021823508
 21
101.6125239319
 31
0.0
  0
LINE
  5
193
330
1F
100
AcDbEntity
  8
0
  6
HIDDEN
 62
     7
370
     0
100
AcDbLine
 10
161.8021826053
 20
98.2560718319
 30
0.0
 11
163.6957818901
 21
98.7095607332
 31
0.0
  0
LINE
  5
194
330
1F
100
AcDbEntity
  8
0
  6
HIDDEN
 62
     7
370
     0
100
AcDbLine
 10
162.7176044767
 20
102.7940640113
 30
0.0
 11
161.8021826053
 21
102.5748344025
 31
0.0
  0
LINE
  5
195
330
1F
100
AcDbEntity
  8
0
  6
HIDDEN
 62
     7
370
     0
100
AcDbLine
 10
163.7251432312
 20
99.1793170458
 30
0.0
 11
170.932203464
 21
100.9052999205
 31
0.0
  0
LINE
  5
196
330
1F
100
AcDbEntity
  8
0
  6
HIDDEN
 62
     7
370
     0
100
AcDbLine
 10
170.932203464
 20
104.298613768
 30
0.0
 11
162.9565753301
 21
102.3885694219
 31
0.0
  0
LINE
  5
197
330
1F
100
AcDbEntity
  8
0
  6
HIDDEN
 62
     7
370
     0
100
AcDbLine
 10
169.9521829633
 20
101.6783330477
 30
0.0
 11
169.9521829633
 21
101.6560930646
 31
0.0
  0
LINE
  5
198
330
1F
100
AcDbEntity
  8
0
  6
HIDDEN
 62
     7
370
     0
100
AcDbLine
 10
169.9521829633
 20
104.7720506674
 30
0.0
 11
169.9521829633
 21
103.0561800933
 31
0.0
  0
LINE
  5
199
330
1F
100
AcDbEntity
  8
0
  6
HIDDEN
 62
     7
370
     0
100
AcDbLine
 10
173.2521829454
 20
101.6560930646
 30
0.0
 11
173.2521829454
 21
104.6915680988
 31
0.0
  0
ARC
  5
19A
330
1F
100
AcDbEntity
  8
0
  6
HIDDEN
 62
     7
370
     0
100
AcDbCircle
 10
170.6021826861
 20
123.149997007
 30
0.0
 40
1.0
100
AcDbArc
 50
90.0
 51
180.0
  0
ARC
  5
19B
330
1F
100
AcDbEntity
  8
0
  6
HIDDEN
 62
     7
370
     0
100
AcDbCircle
 10
170.6021826861
 20
96.149997007
 30
0.0
 40
1.0
100
AcDbArc
 50
180.0
 51
270.0
  0
LINE
  5
19C
330
1F
100
AcDbEntity
  8
0
  6
HIDDEN
 62
     7
370
     0
100
AcDbLine
 10
173.9705297423
 20
124.1499965898
 30
0.0
 11
170.6021827904
 21
124.1499965898
 31
0.0
  0
LINE
  5
19D
330
1F
100
AcDbEntity
  8
0
  6
HIDDEN
 62
     7
370
     0
100
AcDbLine
 10
170.6021827904
 20
95.1499974242
 30
0.0
 11
173.9705297423
 21
95.1499974242
 31
0.0
  0
ARC
  5
19E
330
1F
100
AcDbEntity
  8
0
  6
HIDDEN
 62
     7
370
     0
100
AcDbCircle
 10
173.9705301885
 20
123.149997007
 30
0.0
 40
1.0
100
AcDbArc
 50
75.0
 51
90.0
  0
ARC
  5
19F
330
1F
100
AcDbEntity
  8
0
  6
HIDDEN
 62
     7
370
     0
100
AcDbCircle
 10
173.9705301885
 20
96.149997007
 30
0.0
 40
1.0
100
AcDbArc
 50
270.0
 51
285.0
  0
LINE
  5
1A0
330
1F
100
AcDbEntity
  8
0
  6
HIDDEN
 62
     7
370
     0
100
AcDbLine
 10
174.2293489424
 20
95.1840707919
 30
0.0
 11
175.968208283
 21
95.6499965749
 31
0.0
  0
LINE
  5
1A1
330
1F
100
AcDbEntity
  8
0
  6
HIDDEN
 62
     7
370
     0
100
AcDbLine
 10
175.968208283
 20
123.6499974391
 30
0.0
 11
174.2293489424
 21
124.115923222
 31
0.0
  0
LINE
  5
1A2
330
1F
100
AcDbEntity
  8
0
  6
HIDDEN
 62
     7
370
     0
100
AcDbLine
 10
188.0021830348
 20
123.6499974391
 30
0.0
 11
175.968208283
 21
123.6499974391
 31
0.0
  0
LINE
  5
1A3
330
1F
100
AcDbEntity
  8
0
  6
HIDDEN
 62
     7
370
     0
100
AcDbLine
 10
175.968208283
 20
95.6499965749
 30
0.0
 11
188.0021830348
 21
95.6499965749
 31
0.0
  0
ARC
  5
1A4
330
1F
100
AcDbEntity
  8
0
  6
HIDDEN
 62
     7
370
     0
100
AcDbCircle
 10
91.1521826861
 20
100.349997007
 30
0.0
 40
0.7999999999999972
100
AcDbArc
 50
90.0
 51
180.0
  0
ARC
  5
1A5
330
1F
100
AcDbEntity
  8
0
  6
HIDDEN
 62
     7
370
     0
100
AcDbCircle
 10
91.1521826861
 20
118.949997007
 30
0.0
 40
0.7999999999999972
100
AcDbArc
 50
180.0
 51
270.0
  0
LINE
  5
1A6
330
1F
100
AcDbEntity
  8
0
  6
HIDDEN
 62
     7
370
     0
100
AcDbLine
 10
98.2445561586
 20
100.9249973929
 30
0.0
 11
99.1212436257
 21
100.9249973929
 31
0.0
  0
LINE
  5
1A7
330
1F
100
AcDbEntity
  8
0
  6
HIDDEN
 62
     7
370
     0
100
AcDbLine
 10
99.1212436257
 20
118.374996621
 30
0.0
 11
98.2445561586
 21
118.374996621
 31
0.0
  0
ARC
  5
1A8
330
1F
100
AcDbEntity
  8
0
  6
HIDDEN
 62
     7
370
     0
100
AcDbCircle
 10
99.1212425784
 20
101.324997007
 30
0.0
 40
0.4000000000000057
100
AcDbArc
 50
270.0
 51
330.0
  0
ARC
  5
1A9
330
1F
100
AcDbEntity
  8
0
  6
HIDDEN
 62
     7
370
     0
100
AcDbCircle
 10
99.1212425784
 20
117.974997007
 30
0.0
 40
0.4000000000000057
100
AcDbArc
 50
30.0
 51
90.0
  0
ARC
  5
1AA
330
1F
100
AcDbEntity
  8
0
  6
HIDDEN
 62
     7
370
     0
100
AcDbCircle
 10
98.2445551168
 20
101.324997007
 30
0.0
 40
0.3999999999999915
100
AcDbArc
 50
255.0
 51
270.0
  0
ARC
  5
1AB
330
1F
100
AcDbEntity
  8
0
  6
HIDDEN
 62
     7
370
     0
100
AcDbCircle
 10
98.2445551168
 20
117.974997007
 30
0.0
 40
0.3999999999999986
100
AcDbArc
 50
90.0
 51
105.0
  0
LINE
  5
1AC
330
1F
100
AcDbEntity
  8
0
  6
HIDDEN
 62
     7
370
     0
100
AcDbLine
 10
98.1410266159
 20
118.3613676465
 30
0.0
 11
97.352181494
 21
118.1499974689
 31
0.0
  0
LINE
  5
1AD
330
1F
100
AcDbEntity
  8
0
  6
HIDDEN
 62
     7
370
     0
100
AcDbLine
 10
97.352181494
 20
101.149996545
 30
0.0
 11
98.1410266159
 21
100.9386263675
 31
0.0
  0
LINE
  5
1AE
330
1F
100
AcDbEntity
  8
0
  6
HIDDEN
 62
     7
370
     0
100
AcDbLine
 10
99.4676509199
 20
101.1249970532
 30
0.0
 11
100.3481121061
 21
102.6499967909
 31
0.0
  0
LINE
  5
1AF
330
1F
100
AcDbEntity
  8
0
  6
HIDDEN
 62
     7
370
     0
100
AcDbLine
 10
100.3481121061
 20
116.6499972231
 30
0.0
 11
99.4676509199
 21
118.1749969608
 31
0.0
  0
LINE
  5
1B0
330
1F
100
AcDbEntity
  8
0
  6
HIDDEN
 62
     7
370
     0
100
AcDbLine
 10
91.1521808503
 20
101.149996545
 30
0.0
 11
97.352181494
 21
101.149996545
 31
0.0
  0
LINE
  5
1B1
330
1F
100
AcDbEntity
  8
0
  6
HIDDEN
 62
     7
370
     0
100
AcDbLine
 10
97.352181494
 20
118.1499974689
 30
0.0
 11
91.1521808503
 21
118.1499974689
 31
0.0
  0
ARC
  5
1B2
330
1F
100
AcDbEntity
  8
0
  6
HIDDEN
 62
     7
370
     0
100
AcDbCircle
 10
184.1021826861
 20
85.449997007
 30
0.0
 40
1.599999999999994
100
AcDbArc
 50
0.0
 51
90.0
  0
LINE
  5
1B3
330
1F
100
AcDbEntity
  8
0
  6
HIDDEN
 62
     7
370
     0
100
AcDbLine
 10
201.6021841464
 20
130.1092317215
 30
0.0
 11
201.0322333572
 21
129.5393051467
 31
0.0
  0
LINE
  5
1B4
330
1F
100
AcDbEntity
  8
0
  6
HIDDEN
 62
     7
370
     0
100
AcDbLine
 10
201.0325425563
 20
89.7603759429
 30
0.0
 11
201.6021841464
 21
89.1907604298
 31
0.0
  0
LINE
  5
1B5
330
1F
100
AcDbEntity
  8
0
  6
HIDDEN
 62
     7
370
     0
100
AcDbLine
 10
100.3481121061
 20
102.6499967909
 30
0.0
 11
133.3521818069
 21
102.6499967909
 31
0.0
  0
LINE
  5
1B6
330
1F
100
AcDbEntity
  8
0
  6
HIDDEN
 62
     7
370
     0
100
AcDbLine
 10
133.3521818069
 20
116.6499972231
 30
0.0
 11
100.3481121061
 21
116.6499972231
 31
0.0
  0
LINE
  5
1B7
330
1F
100
AcDbEntity
  8
0
  6
HIDDEN
 62
     7
370
     0
100
AcDbLine
 10
133.3521818069
 20
102.6499967909
 30
0.0
 11
134.493817508
 21
104.549996823
 31
0.0
  0
LINE
  5
1B8
330
1F
100
AcDbEntity
  8
0
  6
HIDDEN
 62
     7
370
     0
100
AcDbLine
 10
134.493817508
 20
114.749997191
 30
0.0
 11
133.3521818069
 21
116.6499972231
 31
0.0
  0
LINE
  5
1B9
330
1F
100
AcDbEntity
  8
0
  6
HIDDEN
 62
     7
370
     0
100
AcDbLine
 10
185.7021832166
 20
84.6499966345
 30
0.0
 11
185.7021832166
 21
85.4499971381
 31
0.0
  0
LINE
  5
1BA
330
1F
100
AcDbEntity
  8
0
  6
HIDDEN
 62
     7
370
     0
100
AcDbLine
 10
134.493817508
 20
104.549996823
 30
0.0
 11
169.6021826265
 21
104.549996823
 31
0.0
  0
LINE
  5
1BB
330
1F
100
AcDbEntity
  8
0
  6
HIDDEN
 62
     7
370
     0
100
AcDbLine
 10
169.6021826265
 20
114.749997191
 30
0.0
 11
134.493817508
 21
114.749997191
 31
0.0
  0
LINE
  5
1BC
330
1F
100
AcDbEntity
  8
0
  6
HIDDEN
 62
     7
370
     0
100
AcDbLine
 10
188.0021830348
 20
89.7499972841
 30
0.0
 11
201.0458381174
 21
89.7499972841
 31
0.0
  0
LINE
  5
1BD
330
1F
100
AcDbEntity
  8
0
  6
HIDDEN
 62
     7
370
     0
100
AcDbLine
 10
201.0444560347
 20
129.5499967298
 30
0.0
 11
188.0021830348
 21
129.5499967298
 31
0.0
  0
LINE
  5
1BE
330
1F
100
AcDbEntity
  8
0
  6
HIDDEN
 62
     7
370
     0
100
AcDbLine
 10
185.7021832166
 20
134.4499977193
 30
0.0
 11
185.7021832166
 21
134.6499973795
 31
0.0
  0
LINE
  5
1BF
330
1F
100
AcDbEntity
  8
0
  6
HIDDEN
 62
     7
370
     0
100
AcDbLine
 10
169.9521829633
 20
116.2438139206
 30
0.0
 11
169.9521829633
 21
114.5279433465
 31
0.0
  0
LINE
  5
1C0
330
1F
100
AcDbEntity
  8
0
  6
HIDDEN
 62
     7
370
     0
100
AcDbLine
 10
169.9521829633
 20
117.6439009494
 30
0.0
 11
169.9521829633
 21
117.6216609663
 31
0.0
  0
LINE
  5
1C1
330
1F
100
AcDbEntity
  8
0
  6
HIDDEN
 62
     7
370
     0
100
AcDbLine
 10
173.2521829454
 20
114.6084259151
 30
0.0
 11
173.2521829454
 21
117.6439009494
 31
0.0
  0
LINE
  5
1C2
330
1F
100
AcDbEntity
  8
0
  6
HIDDEN
 62
     7
370
     0
100
AcDbLine
 10
162.9565753301
 20
116.911424592
 30
0.0
 11
170.932203464
 21
115.001380246
 31
0.0
  0
LINE
  5
1C3
330
1F
100
AcDbEntity
  8
0
  6
HIDDEN
 62
     7
370
     0
100
AcDbLine
 10
170.932203464
 20
118.3946940935
 30
0.0
 11
163.7251432312
 21
120.1206769681
 31
0.0
  0
LINE
  5
1C4
330
1F
100
AcDbEntity
  8
0
  6
HIDDEN
 62
     7
370
     0
100
AcDbLine
 10
173.6021823508
 20
117.6874700821
 30
0.0
 11
173.6021823508
 21
120.50884011
 31
0.0
  0
LINE
  5
1C5
330
1F
100
AcDbEntity
  8
0
  6
HIDDEN
 62
     7
370
     0
100
AcDbLine
 10
161.8021826053
 20
116.7251596114
 30
0.0
 11
162.7176044767
 21
116.5059300027
 31
0.0
  0
LINE
  5
1C6
330
1F
100
AcDbEntity
  8
0
  6
HIDDEN
 62
     7
370
     0
100
AcDbLine
 10
163.6957818901
 20
120.5904332808
 30
0.0
 11
161.8021826053
 21
121.0439221821
 31
0.0
  0
LINE
  5
1C7
330
1F
100
AcDbEntity
  8
0
  6
HIDDEN
 62
     7
370
     0
100
AcDbLine
 10
166.1817952318
 20
116.2552896774
 30
0.0
 11
166.6788374332
 21
116.7289049252
 31
0.0
  0
LINE
  5
1C8
330
1F
100
AcDbEntity
  8
0
  6
HIDDEN
 62
     7
370
     0
100
AcDbLine
 10
167.1262783257
 20
118.5972493029
 30
0.0
 11
166.8977001009
 21
119.2446395642
 31
0.0
  0
LINE
  5
1C9
330
1F
100
AcDbEntity
  8
0
  6
HIDDEN
 62
     7
370
     0
100
AcDbLine
 10
162.925340168
 20
116.5590079388
 30
0.0
 11
165.4031383132
 21
115.9656120351
 31
0.0
  0
LINE
  5
1CA
330
1F
100
AcDbEntity
  8
0
  6
HIDDEN
 62
     7
370
     0
100
AcDbLine
 10
166.3347360937
 20
119.8556151128
 30
0.0
 11
163.8569379484
 21
120.4490110165
 31
0.0
  0
LINE
  5
1CB
330
1F
100
AcDbEntity
  8
0
  6
HIDDEN
 62
     7
370
     0
100
AcDbLine
 10
163.8569379484
 20
98.8509829974
 30
0.0
 11
166.3347360937
 21
99.4443789012
 31
0.0
  0
LINE
  5
1CC
330
1F
100
AcDbEntity
  8
0
  6
HIDDEN
 62
     7
370
     0
100
AcDbLine
 10
165.4031383132
 20
103.3343819788
 30
0.0
 11
162.925340168
 21
102.7409860751
 31
0.0
  0
LINE
  5
1CD
330
1F
100
AcDbEntity
  8
0
  6
HIDDEN
 62
     7
370
     0
100
AcDbLine
 10
166.8977001009
 20
100.0553544498
 30
0.0
 11
167.1262783257
 21
100.7027447111
 31
0.0
  0
LINE
  5
1CE
330
1F
100
AcDbEntity
  8
0
  6
HIDDEN
 62
     7
370
     0
100
AcDbLine
 10
166.6788374332
 20
102.5710890888
 30
0.0
 11
166.1817952318
 21
103.0447043366
 31
0.0
  0
LINE
  5
1CF
330
1F
100
AcDbEntity
  8
0
  6
HIDDEN
 62
     7
370
     0
100
AcDbLine
 10
173.6021823508
 20
117.6874700821
 30
0.0
 11
173.6021823508
 21
118.0123899019
 31
0.0
  0
LINE
  5
1D0
330
1F
100
AcDbEntity
  8
0
  6
HIDDEN
 62
     7
370
     0
100
AcDbLine
 10
173.1021822689
 20
117.9494669548
 30
0.0
 11
173.1021822689
 21
118.9529446772
 31
0.0
  0
LINE
  5
1D1
330
1F
100
AcDbEntity
  8
0
  6
HIDDEN
 62
     7
370
     0
100
AcDbLine
 10
170.1021827085
 20
118.9529446772
 30
0.0
 11
170.1021827085
 21
117.9494669548
 31
0.0
  0
LINE
  5
1D2
330
1F
100
AcDbEntity
  8
0
  6
HIDDEN
 62
     7
370
     0
100
AcDbLine
 10
173.6021823508
 20
118.7819352261
 30
0.0
 11
173.6021823508
 21
118.918742787
 31
0.0
  0
LINE
  5
1D3
330
1F
100
AcDbEntity
  8
0
  6
HIDDEN
 62
     7
370
     0
100
AcDbLine
 10
169.6021826265
 20
100.5180587879
 30
0.0
 11
169.6021826265
 21
100.381251227
 31
0.0
  0
LINE
  5
1D4
330
1F
100
AcDbEntity
  8
0
  6
HIDDEN
 62
     7
370
     0
100
AcDbLine
 10
173.6021823508
 20
100.381251227
 30
0.0
 11
173.6021823508
 21
100.5180587879
 31
0.0
  0
LINE
  5
1D5
330
1F
100
AcDbEntity
  8
0
  6
HIDDEN
 62
     7
370
     0
100
AcDbLine
 10
170.1021827085
 20
101.3505270592
 30
0.0
 11
170.1021827085
 21
100.3470493368
 31
0.0
  0
LINE
  5
1D6
330
1F
100
AcDbEntity
  8
0
  6
HIDDEN
 62
     7
370
     0
100
AcDbLine
 10
173.1021822689
 20
100.3470493368
 30
0.0
 11
173.1021822689
 21
101.3505270592
 31
0.0
  0
LINE
  5
1D7
330
1F
100
AcDbEntity
  8
0
  6
HIDDEN
 62
     7
370
     0
100
AcDbLine
 10
169.6021826265
 20
101.6125239319
 30
0.0
 11
169.6021826265
 21
101.2876041121
 31
0.0
  0
LINE
  5
1D8
330
1F
100
AcDbEntity
  8
0
  6
HIDDEN
 62
     7
370
     0
100
AcDbLine
 10
173.6021823508
 20
101.2876041121
 30
0.0
 11
173.6021823508
 21
101.6125239319
 31
0.0
  0
ARC
  5
1D9
330
1F
100
AcDbEntity
  8
0
  6
HIDDEN
 62
     7
370
     0
100
AcDbCircle
 10
171.6021826861
 20
100.9284833522
 30
0.0
 40
1.500000000000014
100
AcDbArc
 50
71.1182787691
 51
191.5274417158
  0
ARC
  5
1DA
330
1F
100
AcDbEntity
  8
0
  6
HIDDEN
 62
     7
370
     0
100
AcDbCircle
 10
171.6021826861
 20
100.9284833522
 30
0.0
 40
1.500000000000014
100
AcDbArc
 50
336.6722113243
 51
71.1182787691
  0
CIRCLE
  5
1DB
330
1F
100
AcDbEntity
  8
0
  6
HIDDEN
 62
     7
370
     0
100
AcDbCircle
 10
171.6021826861
 20
118.3715106618
 30
0.0
 40
1.500000000000006
  0
DIMENSION
  5
1DC
330
1F
100
AcDbEntity
  8
VERMASSUNG
100
AcDbDimension
  2
_D
 10
82.0287324548
 20
141.399997007
 30
0.0
 11
82.0287324548
 21
109.649997007
 31
0.0
 70
   160
  1
ISO 40 %%c<>
 71
     2
 42
-1.0
  3
SLDDIMSTYLE0
100
AcDbAlignedDimension
 13
177.0521826861
 23
77.899997007
 33
0.0
 14
177.0521826861
 24
141.399997007
 34
0.0
 50
90.0
100
AcDbRotatedDimension
  0
DIMENSION
  5
1E9
330
1F
100
AcDbEntity
  8
VERMASSUNG
100
AcDbDimension
  2
_D_1
 10
208.9256165923
 20
95.649997007
 30
0.0
 11
208.9256165923
 21
109.649997007
 31
0.0
 70
   160
  1
%%c<>
 71
     2
 42
-1.0
  3
SLDDIMSTYLE0
100
AcDbAlignedDimension
 13
188.0021826861
 23
123.649997007
 33
0.0
 14
188.0021826861
 24
95.649997007
 34
0.0
 50
90.0
100
AcDbRotatedDimension
  0
DIMENSION
  5
1F4
330
1F
100
AcDbEntity
  8
VERMASSUNG
100
AcDbDimension
  2
_D_2
 10
214.9256165923
 20
84.649997007
 30
0.0
 11
214.9256165923
 21
109.649997007
 31
0.0
 70
   160
  1
ST5 %%c<>
 71
     2
 42
-1.0
  3
SLDDIMSTYLE0
100
AcDbAlignedDimension
 13
201.1021826861
 23
134.649997007
 33
0.0
 14
201.1021826861
 24
84.649997007
 34
0.0
 50
90.0
100
AcDbRotatedDimension
  0
DIMENSION
  5
200
330
1F
100
AcDbEntity
  8
VERMASSUNG
100
AcDbDimension
  2
_D_3
 10
201.6021826861
 20
143.9142680542
 30
0.0
 11
189.6271826861
 21
143.9142680542
 31
0.0
 70
   160
  1
(<>)
 71
     2
 42
-1.0
  3
SLDDIMSTYLE0
100
AcDbAlignedDimension
 13
177.6521826861
 23
134.8214093631
 33
0.0
 14
201.6021826861
 24
134.149997007
 34
0.0
100
AcDbRotatedDimension
  0
DIMENSION
  5
20C
330
1F
100
AcDbEntity
  8
VERMASSUNG
100
AcDbDimension
  2
_D_4
 10
201.6021826861
 20
149.9142680542
 30
0.0
 11
180.1021826861
 21
149.9142680542
 31
0.0
 70
   160
  1
<>
 71
     2
 42
-1.0
  3
SLDDIMSTYLE0
100
AcDbAlignedDimension
 13
158.6021826861
 23
131.874997007
 33
0.0
 14
201.6021826861
 24
134.149997007
 34
0.0
100
AcDbRotatedDimension
  0
DIMENSION
  5
216
330
1F
100
AcDbEntity
  8
VERMASSUNG
100
AcDbDimension
  2
_D_5
 10
201.6021826861
 20
155.9142680542
 30
0.0
 11
145.9771826861
 21
155.9142680542
 31
0.0
 70
   160
  1
(<>)
 71
     2
 42
-1.0
  3
SLDDIMSTYLE0
100
AcDbAlignedDimension
 13
90.3521826861
 23
121.057127604
 33
0.0
 14
201.6021826861
 24
134.149997007
 34
0.0
100
AcDbRotatedDimension
  0
LINE
  5
222
330
1F
100
AcDbEntity
  8
VERMASSUNG
  6
CENTERX2
 62
     7
370
     0
100
AcDbLine
 10
177.6521826861
 20
82.6499977389
 30
0.0
 11
177.6521826861
 21
87.449997007
 31
0.0
  0
LINE
  5
223
330
1F
100
AcDbEntity
  8
VERMASSUNG
  6
CENTERX2
 62
     7
370
     0
100
AcDbLine
 10
177.6521826861
 20
136.6499969192
 30
0.0
 11
177.6521826861
 21
132.449997007
 31
0.0
  0
LINE
  5
224
330
1F
100
AcDbEntity
  8
VERMASSUNG
  6
CENTERX2
 62
     7
370
     0
100
AcDbLine
 10
88.3521826861
 20
109.649997007
 30
0.0
 11
203.6713902092
 21
109.649997007
 31
0.0
  0
OLE2FRAME
  5
225
330
1F
100
AcDbEntity
  8
0
100
AcDbOle2Frame
 70
     2
  3
Paintbrush-Bild
 10
13.8511154363
 20
38.264191557
 30
0.0
 11
51.6290888628
 21
31.9806341108
 31
0.0
 71
     2
 72
     0
 73
     1
 90
    12928
310
80552BED0767C5B32B40DDAF6807D121434000000000000000006FFBDDFB85D0
310
4940DDAF6807D121434000000000000000006FFBDDFB85D04940416F4BD60AFB
310
3F4000000000000000002BED0767C5B32B40416F4BD60AFB3F40000000000000
310
0000000000000100000000010000010000000100000000000100000000320000
310
D0CF11E0A1B11AE1000000000000000000000000000000003E000300FEFF0900
310
0600000000000000000000000100000001000000000000000010000002000000
310
01000000FEFFFFFF0000000000000000FFFFFFFFFFFFFFFFFFFFFFFFFFFFFFFF
310
FFFFFFFFFFFFFFFFFFFFFFFFFFFFFFFFFFFFFFFFFFFFFFFFFFFFFFFFFFFFFFFF
310
FFFFFFFFFFFFFFFFFFFFFFFFFFFFFFFFFFFFFFFFFFFFFFFFFFFFFFFFFFFFFFFF
310
FFFFFFFFFFFFFFFFFFFFFFFFFFFFFFFFFFFFFFFFFFFFFFFFFFFFFFFFFFFFFFFF
310
FFFFFFFFFFFFFFFFFFFFFFFFFFFFFFFFFFFFFFFFFFFFFFFFFFFFFFFFFFFFFFFF
310
FFFFFFFFFFFFFFFFFFFFFFFFFFFFFFFFFFFFFFFFFFFFFFFFFFFFFFFFFFFFFFFF
310
FFFFFFFFFFFFFFFFFFFFFFFFFFFFFFFFFFFFFFFFFFFFFFFFFFFFFFFFFFFFFFFF
310
FFFFFFFFFFFFFFFFFFFFFFFFFFFFFFFFFFFFFFFFFFFFFFFFFFFFFFFFFFFFFFFF
310
FFFFFFFFFFFFFFFFFFFFFFFFFFFFFFFFFFFFFFFFFFFFFFFFFFFFFFFFFFFFFFFF
310
FFFFFFFFFFFFFFFFFFFFFFFFFFFFFFFFFFFFFFFFFFFFFFFFFFFFFFFFFFFFFFFF
310
FFFFFFFFFFFFFFFFFFFFFFFFFFFFFFFFFFFFFFFFFFFFFFFFFFFFFFFFFFFFFFFF
310
FFFFFFFFFFFFFFFFFFFFFFFFFFFFFFFFFFFFFFFFFFFFFFFFFFFFFFFFFFFFFFFF
310
FFFFFFFFFFFFFFFFFFFFFFFFFFFFFFFFFFFFFFFFFFFFFFFFFFFFFFFFFFFFFFFF
310
FFFFFFFFFFFFFFFFFFFFFFFFFFFFFFFFFFFFFFFFFFFFFFFFFFFFFFFFFFFFFFFF
310
FDFFFFFFFEFFFFFFFEFFFFFFFEFFFFFF05000000060000000700000008000000
310
090000000A0000000B0000000C0000000D0000000E0000000F00000010000000
310
11000000120000001300000014000000150000001600000017000000FEFFFFFF
310
FFFFFFFFFFFFFFFFFFFFFFFFFFFFFFFFFFFFFFFFFFFFFFFFFFFFFFFFFFFFFFFF
310
FFFFFFFFFFFFFFFFFFFFFFFFFFFFFFFFFFFFFFFFFFFFFFFFFFFFFFFFFFFFFFFF
310
FFFFFFFFFFFFFFFFFFFFFFFFFFFFFFFFFFFFFFFFFFFFFFFFFFFFFFFFFFFFFFFF
310
FFFFFFFFFFFFFFFFFFFFFFFFFFFFFFFFFFFFFFFFFFFFFFFFFFFFFFFFFFFFFFFF
310
FFFFFFFFFFFFFFFFFFFFFFFFFFFFFFFFFFFFFFFFFFFFFFFFFFFFFFFFFFFFFFFF
310
FFFFFFFFFFFFFFFFFFFFFFFFFFFFFFFFFFFFFFFFFFFFFFFFFFFFFFFFFFFFFFFF
310
FFFFFFFFFFFFFFFFFFFFFFFFFFFFFFFFFFFFFFFFFFFFFFFFFFFFFFFFFFFFFFFF
310
FFFFFFFFFFFFFFFFFFFFFFFFFFFFFFFFFFFFFFFFFFFFFFFFFFFFFFFFFFFFFFFF
310
FFFFFFFFFFFFFFFFFFFFFFFFFFFFFFFFFFFFFFFFFFFFFFFFFFFFFFFFFFFFFFFF
310
FFFFFFFFFFFFFFFFFFFFFFFFFFFFFFFFFFFFFFFFFFFFFFFFFFFFFFFFFFFFFFFF
310
FFFFFFFFFFFFFFFFFFFFFFFFFFFFFFFFFFFFFFFFFFFFFFFFFFFFFFFFFFFFFFFF
310
FFFFFFFFFFFFFFFFFFFFFFFFFFFFFFFFFFFFFFFFFFFFFFFFFFFFFFFFFFFFFFFF
310
FFFFFFFFFFFFFFFFFFFFFFFFFFFFFFFFFFFFFFFFFFFFFFFFFFFFFFFFFFFFFFFF
310
52006F006F007400200045006E00740072007900000000000000000000000000
310
0000000000000000000000000000000000000000000000000000000000000000
310
16000500FFFFFFFFFFFFFFFF020000000A00030000000000C000000000000046
310
000000000000000000000000F04968A8991FD20103000000C000000000000000
310
01004F006C006500000000000000000000000000000000000000000000000000
310
0000000000000000000000000000000000000000000000000000000000000000
310
0A000200FFFFFFFFFFFFFFFFFFFFFFFF00000000000000000000000000000000
310
0000000000000000000000000000000000000000000000001400000000000000
310
010043006F006D0070004F0062006A0000000000000000000000000000000000
310
0000000000000000000000000000000000000000000000000000000000000000
310
120002010100000003000000FFFFFFFF00000000000000000000000000000000
310
0000000000000000000000000000000000000000010000004D00000000000000
310
01004F006C006500310030004E00610074006900760065000000000000000000
310
0000000000000000000000000000000000000000000000000000000000000000
310
1A000200FFFFFFFFFFFFFFFFFFFFFFFF00000000000000000000000000000000
310
0000000000000000000000000000000000000000040000002426000000000000
310
FEFFFFFF02000000FEFFFFFFFFFFFFFFFFFFFFFFFFFFFFFFFFFFFFFFFFFFFFFF
310
FFFFFFFFFFFFFFFFFFFFFFFFFFFFFFFFFFFFFFFFFFFFFFFFFFFFFFFFFFFFFFFF
310
FFFFFFFFFFFFFFFFFFFFFFFFFFFFFFFFFFFFFFFFFFFFFFFFFFFFFFFFFFFFFFFF
310
FFFFFFFFFFFFFFFFFFFFFFFFFFFFFFFFFFFFFFFFFFFFFFFFFFFFFFFFFFFFFFFF
310
FFFFFFFFFFFFFFFFFFFFFFFFFFFFFFFFFFFFFFFFFFFFFFFFFFFFFFFFFFFFFFFF
310
FFFFFFFFFFFFFFFFFFFFFFFFFFFFFFFFFFFFFFFFFFFFFFFFFFFFFFFFFFFFFFFF
310
FFFFFFFFFFFFFFFFFFFFFFFFFFFFFFFFFFFFFFFFFFFFFFFFFFFFFFFFFFFFFFFF
310
FFFFFFFFFFFFFFFFFFFFFFFFFFFFFFFFFFFFFFFFFFFFFFFFFFFFFFFFFFFFFFFF
310
FFFFFFFFFFFFFFFFFFFFFFFFFFFFFFFFFFFFFFFFFFFFFFFFFFFFFFFFFFFFFFFF
310
FFFFFFFFFFFFFFFFFFFFFFFFFFFFFFFFFFFFFFFFFFFFFFFFFFFFFFFFFFFFFFFF
310
FFFFFFFFFFFFFFFFFFFFFFFFFFFFFFFFFFFFFFFFFFFFFFFFFFFFFFFFFFFFFFFF
310
FFFFFFFFFFFFFFFFFFFFFFFFFFFFFFFFFFFFFFFFFFFFFFFFFFFFFFFFFFFFFFFF
310
FFFFFFFFFFFFFFFFFFFFFFFFFFFFFFFFFFFFFFFFFFFFFFFFFFFFFFFFFFFFFFFF
310
FFFFFFFFFFFFFFFFFFFFFFFFFFFFFFFFFFFFFFFFFFFFFFFFFFFFFFFFFFFFFFFF
310
FFFFFFFFFFFFFFFFFFFFFFFFFFFFFFFFFFFFFFFFFFFFFFFFFFFFFFFFFFFFFFFF
310
FFFFFFFFFFFFFFFFFFFFFFFFFFFFFFFFFFFFFFFFFFFFFFFFFFFFFFFFFFFFFFFF
310
0100000200000000000000000000000000000000000000000000000000000000
310
0000000000000000000000000000000000000000000000000000000000000000
310
0100FEFF030A0000FFFFFFFF0A00030000000000C00000000000004607000000
310
5042727573680007000000504272757368000700000050427275736800F439B2
310
7100000000000000000000000000000000000000000000000000000000000000
310
0000000000000000000000000000000000000000000000000000000000000000
310
0000000000000000000000000000000000000000000000000000000000000000
310
0000000000000000000000000000000000000000000000000000000000000000
310
0000000000000000000000000000000000000000000000000000000000000000
310
0000000000000000000000000000000000000000000000000000000000000000
310
0000000000000000000000000000000000000000000000000000000000000000
310
0000000000000000000000000000000000000000000000000000000000000000
310
0000000000000000000000000000000000000000000000000000000000000000
310
0000000000000000000000000000000000000000000000000000000000000000
310
0000000000000000000000000000000000000000000000000000000000000000
310
0000000000000000000000000000000000000000000000000000000000000000
310
20260000424D0E260000000000003E00000028000000B40200006E0000000100
310
01000000000000000000130B0000130B00000200000002000000000000FFFFFF
310
FFFFFFFFFFFFFFFFFFFFFFFFFFFFFFFFFFFFFFFFFFFFFFFFFFFFFFFFFFFFFFFF
310
FFFFFFFFFFFFFFFFFFFFFFFFFFFFFFFFFFFFFFFFFFFFFFFFFFFFFFFFFFFFFFFF
310
FFFFFFFFFFFFFFFFFFFFFFFFFFFFFFFFFFFFFFFFFFFFFFFFF000FFFFFFFFFFFF
310
FFFFFFFFFFFFFFFFFFFFFFFFFFFFFFFFFFFFFFFFFFFFFFFFFFFFFFFFFFFFFFFF
310
FFFFFFFFFFFFFFFFFFFFFFFFFFFFFFFFFFFFFFFFFFFFFFFFFFFFFFFFFFFFFFFF
310
FFFFFFFFFFFFFFFFFFFFFFFFFFFFFFFFF000FFFFFFFFFFFFFFFFFFFFFFFFFFFF
310
FFFFFFFFFFFFFFFFFFFFFFFFFFFFFFFFFFFFFFFFFFFFFFFFFFFFFFFFFFFFFFFF
310
FFFFFFFFFFFFFFFFFFFFFFFFFFFFFFFFFFFFFFFFFFFFFFFFFFFFFFFFFFFFFFFF
310
FFFFFFFFFFFFFFFFF000FFFFFFFFFFFFFFFFFFFFFFFFFFFFFFFFFFFFFFFFFFFF
310
FFFFFFFFFFFFFFFFFFFFFFFFFFFFFFFFFFFFFFFFFFFFFFFFFFFFFFFFFFFFFFFF
310
FFFFFFFFFFFFFFFFFFFFFFFFFFFFFFFFFFFFFFFFFFFFFFFFFFFFFFFFFFFFFFFF
310
F000FFFFFFFFFFFFFFFFFFFFFFFFFFFFFFFFFFFFFFFFFFFFFFFFFFFFFFFFFFFF
310
FFFFFFFFFFFFFFFFFFFFFFFFFFFFFFFFFFFFFFFFFFFFFFFFFFFFFFFFFFFFFFFF
310
FFFFFFFFFFFFFFFFFFFFFFFFFFFFFFFFFFFFFFFFFFFFFFFFF000FFFFFFFFFFFF
310
FFFFFFFFFFFFFFFFFFFFFFFFFFFFFFFFFFFFFFFFFFFFFFFFFFFFFFFFFFFFFFFF
310
FFFFFFFFFFFFFFFFFFFFFFFFFFFFFFFFFFFFFFFFFFFFFFFFFFFFFFFFFFFFFFFF
310
FFFFFFFFFFFFFFFFFFFFFFFFFFFFFFFFF000FFFFFFFFFFFFFFFFFFFFFFFFFFFF
310
FFFFFFFFFFFFFFFFFFFFFFFFFFFFFFFFFFFFFFFFFFFFFFFFFFFFFFFFFFFFFFFF
310
FFFFFFFFFFFFFFFFFFFFFFFFFFFFFFFFFFFFFFFFFFFFFFFFFFFFFFFFFFFFFFFF
310
FFFFFFFFFFFFFFFFF000FFFFFFFFFFFFFFFFFFFFFFFFFFFFFFFFFFFFFFFFFFFF
310
FFFFFFFFFFFFFFFFFFFFFFFFFFFFFFFFFFFFFFFFFFFFFFFFFFFFFFFFFFFFFFFF
310
FFFFFFFFFFFFFFFFFFFFFFFFFFFFFFFFFFFFFFFFFFFFFFFFFFFFFFFFFFFFFFFF
310
F000FFFFFFFFFFFFFFFFFFFFFFFFFFFFFFFFFFFFFFFFFFFFFFFFFFFFFFFFFFFF
310
FFFFFFFFFFFFFFFFFFFFFFFFFFFFFFFFFFFFFFFFFFFFFFFFFFFFFFFFFFFFFFFF
310
FFFFFFFFFFFFFFFFFFFFFFFFFFFFFFFFFFFFFFFFFFFFFFFFF000FFFFFFFFFFFF
310
FFFFFFFFFFFFFFFFFFFFFFFFFFFFFFFFFFFFFFFFFFFFFFFFFFFFFFFFFFFFFFFF
310
FFFFFFFFFFFFFFFFFFFFFFFFFFFFFFFFFFFFFFFFFFFFFFFFFFFFFFFFFFFFFFFF
310
FFFFFFFFFFFFFFFFFFFFFFFFFFFFFFFFF000FFFFFFFFFFFFFFFFFFFFFFFFFFFF
310
FFFFFFFFFFFFFFFFFFFFFFFFFFFFFFFFFFFFFFFFFFFFFFFFFFFFFFFFFFFFFFFF
310
FFFFFFFFFFFFFFFFFFFFFFFFFFFFFFFFFFFFFFFFFFFFFFFFFFFFFFFFFFFFFFFF
310
FFFFFFFFFFFFFFFFF000FFFFFFFFFFFFFFFFFFFFFFFFFFFFFFFFFFFFFFFFFFFF
310
FFFFFFFFFFFFFFFFFFFFFFFFFFFFFFFFFFFFFFFFFFFFFFFFFFFFFFFFFFFFFFFF
310
FFFFFFFFFFFFFFFFFFFFFFFFFFFFFFFFFFFFFFFFFFFFFFFFFFFFFFFFFFFFFFFF
310
F000FFFFFFFFFFFFFFFFFFFFFFFFFFFFFFFFFFFFFFFFFFFFFFFFFFFFFFFFFFFF
310
FFFFFFFFFFFFFFFFFFFFFFFFFFFFFFFFFFFFFFFFFFFFFFFFFFFFFFFFFFFFFFFF
310
FFFFFFFFFFFFFFFFFFFFFFFFFFFFFFFFFFFFFFFFFFFFFFFFF000FFFFFFFFFFFF
310
FFFFFFFFFFFFFFFFFFFFFFFFFFFFFFFFFFFFFFFFFFFFFFFFFFFFFFFFFFFFFFFF
310
FFFFFFFFFFFFFFFFFFFFFFFFFFFFFFFFFFFFFFFFFFFFFFFFFFFFFFFFFFFFFFFF
310
FFFFFFFFFFFFFFFFFFFFFFFFFFFFFFFFF000FFFFFFFFFFFFFFFFFFFFFFFFFFFF
310
FFFFFFFFFFFFFFFFFFFFFFFFFFFFFFFFFFFFFFFFFFFFFFFFFFFFFFFFFFFFFFFF
310
FFFFFFFFFFFFFFFFFFFFFFFFFFFFFFFFFFFFFFFFFFFFFFFFFFFFFFFFFFFFFFFF
310
FFFFFFFFFFFFFFFFF000FFFFFFFFFFFFFFFFFFFFFFFFFFFFFFFFFFFFFFFFFFFF
310
FFFFFFFFFFFFFFFFFFFFFFFFFFFFFFFFFFFFFFFFFFFFFFFFFFFFFFFFFFFFFFFF
310
FFFFFFFFFFFFFFFFFFFFFFFFFFFFFFFFFFFFFFFFFFFFFFFFFFFFFFFFFFFFFFFF
310
F000FFFFFFFFFFFFFFFFFFFFFFFFFFFFFFFFFFFFFFFFFFFFFFFFFFFFFFFFFFFF
310
FFFFFFFFFFFFFFFFFFFFFFFFFFFFFFFFFFFFFFFFFFFFFFFFFFFFFFFFFFFFFFFF
310
FFFFFFFFFFFFFFFFFFFFFFFFFFFFFFFFFFFFFFFFFFFFFFFFF000FFFFFFFFFFFF
310
FFFFFFFFFFFFFFFFFFFFFFFFFFFFFFFFFFFFFFFFFFFFFFFFFFFFFFFFFFFFFFFF
310
FFFFFFFFFFFFFFFFFFFFFFFFFFFFFFFFFFFFFFFFFFFFFFFFFFFFFFFFFFFFFFFF
310
FFFFFFFFFFFFFFFFFFFFFFFFFFFFFFFFF000FFFFFFFFFFFFFFFFFFFFFFFFFFFF
310
FFFFFFFFFFFFFFFFFFFFFFFFFFFFFFFFFFFFFFFFFFFFFFFFFFFFFFFFFFFFFFFF
310
FFFFFFFFFFFFFFFFFFFFFFFFFFFFFFFFFFFFFFFFFFFFFFFFFFFFFFFFFFFFFFFF
310
FFFFFFFFFFFFFFFFF000FFFFF80003FFFFFFFFFFFFFFFFFFFFFFFFFFFFFFFFFF
310
FFFFF00007FFFFFFFFFF00007FFFFFF800000000000000007FFFFFFFFFFFFFFF
310
FFFFFFFC001FFFFFFFFFFFFFFC001FFFFFFFFFFFFFFFFFFFFFFFFFFE0007FFFF
310
F000FFFF8000007FFFFFFFF8000FFFFFC0007FFFFF80007FFFFF0000007FFFFF
310
FFF8000007FFFFF800000000000000007FFFFFF0001FFFFFFFFFFFC00001FFFF
310
FFFFFFFFC00001FFFFFFFF000000000003FFFFE000007FFFF000FFFE0000000F
310
FFFFFFF0000FFFFF80007FFFFF80007FFFFC0000001FFFFFFFC0000001FFFFF8
310
00000000000000007FFFFFF0001FFFFFFFFFFE0000003FFFFFFFFFFE0000003F
310
FFFFFF000000000003FFFF0000000FFFF000FFF800000003FFFFFFF00007FFFF
310
80007FFFFF80007FFFF000000007FFFFFF000000003FFFF80000000000000000
310
7FFFFFF0001FFFFFFFFFF80000000FFFFFFFFFF80000000FFFFFFF0000000000
310
03FFFC00000003FFF000FFE000000000FFFFFFF00007FFFF80003FFFFF80007F
310
FFC000000001FFFFFC000000001FFFF800000000000000007FFFFFF0001FFFFF
310
FFFFE000000003FFFFFFFFE000000003FFFFFF000000000003FFF000000000FF
310
F000FF80000000007FFFFFF00007FFFF80003FFFFF80007FFF8000000000FFFF
310
F80000000007FFF800000000000000007FFFFFF0001FFFFFFFFFC000000001FF
310
FFFFFFC000000001FFFFFF000000000003FFC0000000007FF000FF0000000000
310
3FFFFFE00007FFFF00003FFFFF80007FFE00000000003FFFF00000000003FFF8
310
00000000000000007FFFFFF0001FFFFFFFFF8000000000FFFFFFFF8000000000
310
FFFFFF000000000003FF80000000003FF000FE00000000001FFFFFE00003FFFF
310
00003FFFFF80007FFC00000000001FFFE00000000001FFF8000001FFFE000000
310
7FFFFFF0001FFFFFFFFE00000000003FFFFFFE00000000003FFFFF0000000000
310
03FF00000000001FF000FC00000000000FFFFFE00003FFFF00001FFFFF80007F
310
F800000000001FFFC00000000000FFF8000001FFFE0000007FFFFFF0001FFFFF
310
FFFC00000000001FFFFFFC00000000001FFFFF000000000003FE00000000000F
310
F000F8000000000007FFFFE00003FFFF00001FFFFF80007FF800000000000FFF
310
800000000000FFF8000001FFFE0000007FFFFFF0001FFFFFFFF800000000000F
310
FFFFF800000000000FFFFF000000000003FC000000000007F000F80000000000
310
03FFFFC00003FFFE00001FFFFF80007FF0000000000007FF0000000000007FF8
310
000001FFFE0000007FFFFFF0001FFFFFFFF0000000000007FFFFF00000000000
310
07FFFF000000000003F8000000000003F000F0000000000003FFFFC00001FFFE
310
00001FFFFF80007FE0000000000007FE0000000000003FF8000001FFFE000000
310
7FFFFFF0001FFFFFFFF0000000000007FFFFF0000000000007FFFF0000000000
310
03F800001F800003F000E00001FFF00001FFFFC00001FFFE00000FFFFF80007F
310
E00001FFE00003FE00001FFF00003FF8000001FFFE0000007FFFFFF0001FFFFF
310
FFE000003E000003FFFFE000003E000003FFFF000000000003F00001FFF80001
310
F000E00007FFFC0001FFFFC00001FFFE00000FFFFF80007FC0000FFFFC0003FC
310
0000FFFFC0001FF8000001FFFE0000007FFFFFF0001FFFFFFFC00003FFE00001
310
FFFFC00003FFE00001FFFF0001FFFFFFFFF00007FFFE0001F000E0000FFFFF00
310
00FFFF800001FFFC00000FFFFF80007FC0001FFFFE0001FC0001FFFFE0001FF8
310
000001FFFE0000007FFFFFF0001FFFFFFF80000FFFF80000FFFF80000FFFF800
310
00FFFF0003FFFFFFFFE0000FFFFF8000F000C0003FFFFF8000FFFF800000FFFC
310
000007FFFF80007F80003FFFFF0001FC0003FFFFF0001FF8000001FFFE000000
310
7FFFFFF0001FFFFFFF80003FFFFE0000FFFF80003FFFFE0000FFFF0003FFFFFF
310
FFE0003FFFFF8000F000C0003FFFFF8000FFFF800000FFFC000007FFFF80007F
310
80007FFFFF8001F80007FFFFF8000FF8000001FFFE0000007FFFFFF0001FFFFF
310
FF00007FFFFF00007FFF00007FFFFF00007FFF0003FFFFFFFFE0003FFFFFC000
310
F000C0007FFFFFC000FFFF000000FFFC000007FFFF80007F8000FFFFFF8000F8
310
000FFFFFF8000FF8000001FFFE0000007FFFFFF0001FFFFFFF0000FFFFFF8000
310
7FFF0000FFFFFF80007FFF0003FFFFFFFFC0007FFFFFC00070008000FFFFFFC0
310
00FFFF000000FFF8000007FFFF80007F8000FFFFFF8000F8000FFFFFF8000FF8
310
000001FFFE0000007FFFFFF0001FFFFFFE0001FFFFFFC0003FFE0001FFFFFFC0
310
003FFF0003FFFFFFFFC0007FFFFFE00070008000FFFFFFC0007FFF0000007FF8
310
000003FFFF80007F0001FFFFFF8000F8000FFFFFF8000FF8000001FFFE000000
310
7FFFFFF0001FFFFFFE0001FFFFFFC0003FFE0001FFFFFFC0003FFF0003FFFFFF
310
FFC000FFFFFFE00070008000FFFFFFC0007FFF0000007FF8000003FFFF80007F
310
0001FFFFFF8000F8001FFFFFF8000FF8000001FFFE0000007FFFFFF0001FFFFF
310
FE0003FFFFFFE0003FFE0003FFFFFFE0003FFF0003FFFFFFFFC000FFFFFFE000
310
70008000FFFFFFC0007FFE0000007FF8000003FFFF80007F0001FFFFFF8000F0
310
001FFFFFF8000FF8000001FFFE0000007FFFFFF0001FFFFFFC0003FFFFFFE000
310
1FFC0003FFFFFFE0001FFF0003FFFFFFFFC000FFFFFFC00070008000FFFFFF80
310
007FFE0000007FF0000003FFFF80007F0001FFFFFF0000F0001FFFFFF8000FF8
310
000001FFFE0000007FFFFFF0001FFFFFFC0007FFFFFFF0001FFC0007FFFFFFF0
310
001FFF0003FFFFFFFFC000FFFFFFC00070008001FFFFFF0000FFFE0000003FF0
310
000001FFFF80007F0001FFFFFF0000F8001FFFFFF0000FF8000001FFFE000000
310
7FFFFFF0001FFFFFFC0007FFFFFFF0001FFC0007FFFFFFF0001FFF0003FFFFFF
310
FFC001FFFFFF80007000FFFFFFFFFE0000FFFE0008003FF0008001FFFF80007F
310
FFFFFFFFFC0000FFFFFFFFFFE0000FF8000001FFFE0000007FFFFFF0001FFFFF
310
F8000FFFFFFFF8000FF8000FFFFFFFF8000FFF0003FFFFFFFFFFFFFFFFFF0000
310
7000FFFFFFFFFC0000FFFC0008003FF0008001FFFF80007FFFFFFFFFF80001FF
310
FFFFFFFF80000FF8000001FFFE0000007FFFFFF0001FFFFFF8000FFFFFFFF800
310
0FF8000FFFFFFFF8000FFF0003FFFFFFFFFFFFFFFFFE0000F000FFFFFFFFE000
310
00FFFC000C003FE000C001FFFF80007FFFFFFFFFC00001FFFFFFFFFE00001FF8
310
000001FFFE0000007FFFFFF0001FFFFFF8000FFFFFFFF8000FF8000FFFFFFFF8
310
000FFF0003FFFFFFFFFFFFFFFFF00000F000FFFFFFFE000001FFFC000C001FE0
310
00C000FFFF80007FFFFFFFFE000001FFFFFFFFE000001FF80FFFFFFFFFFFFFC0
310
7FFFFFF0001FFFFFF8000FFFFFFFF8000FF8000FFFFFFFF8000FFF0003FFFFFF
310
FFFFFFFFFF800000F000FFFFFFC0000001FFFC001C001FE001C000FFFF80007F
310
FFFFFF80000003FFFFFFF80000001FF80FFFFFFFFFFFFFC07FFFFFF0001FFFFF
310
F8001FFFFFFFFC000FF8001FFFFFFFFC000FFF0003FFFFFFFFFFFFFFF0000001
310
F000FFFFF800000001FFF8001C001FE001C000FFFF80007FFFFFF800000003FF
310
FFFF800000003FF80FFFFFFFFFFFFFC07FFFFFF0001FFFFFF8001FFFFFFFFC00
310
0FF8001FFFFFFFFC000FFF0003FFFFFFFFFFFFFE00000001F000FFFFC0000000
310
03FFF8001E001FC001E000FFFF80007FFFFF8000000007FFFFFC000000003FF8
310
0FFFFFFFFFFFFFC07FFFFFF0001FFFFFF8001FFFFFFFFC000FF8001FFFFFFFFC
310
000FFF0003FFFFFFFFFFFFE000000003F000FFFE0000000007FFF8001E000FC0
310
01E0007FFF80007FFFFE0000000007FFFFE0000000007FF80FFFFFFFFFFFFFC0
310
7FFFFFF0001FFFFFF0001FFFFFFFFC0007F0001FFFFFFFFC0007FF0003FFFFFF
310
FFFFFF0000000003F000FFF80000000007FFF8001E000FC003E0007FFF80007F
310
FFF0000000000FFFFF8000000000FFF80FFFFFFFFFFFFFC07FFFFFF0001FFFFF
310
F0001FFFFFFFFC0007F0001FFFFFFFFC0007FF0003FFFFFFFFFFFC0000000007
310
F000FFE0000000000FFFF0003E000FC003E0007FFF80007FFFC0000000001FFF
310
FE0000000001FFF80FFFFFFFFFFFFFC07FFFFFF0001FFFFFF0001FFFFFFFFC00
310
07F0001FFFFFFFFC0007FF0003FFFFFFFFFFF0000000000FF000FFC000000000
310
1FFFF0003F000F8003F0003FFF80007FFF80000000003FFFF80000000003FFF8
310
0FFFFFFFFFFFFFC07FFFFFF0001FFFFFF0001FFFFFFFFC0007F0001FFFFFFFFC
310
0007FF0003FFFFFFFFFFE0000000001FF000FF00000000007FFFF0003F000780
310
03F0003FFF80007FFF00000000007FFFF00000000007FFF80FFFFFFFFFFFFFC0
310
7FFFFFF0001FFFFFF0001FFFFFFFFC0007F0001FFFFFFFFC0007FF0003FFFFFF
310
FFFF80000000007FF000FE0000000000FFFFE0003F00078007F0003FFF80007F
310
FE0000000001FFFFE0000000001FFFF80FFFFFFFFFFFFFC07FFFFFF0001FFFFF
310
F0001FFFFFFFFC0007F0001FFFFFFFFC0007FF0003FFFFFFFFFF0000000000FF
310
F000FC0000000003FFFFE0007F00078007F0003FFF80007FFC0000000007FFFF
310
C0000000007FFFF80FFFFFFFFFFFFFC07FFFFFF0001FFFFFF8001FFFFFFFFC00
310
0FF8001FFFFFFFFC000FFF0003FFFFFFFFFE0000000003FFF000FC000000000F
310
FFFFE0007F80070007F8001FFF80007FF8000000001FFFFF8000000001FFFFF8
310
0FFFFFFFFFFFFFC07FFFFFF0001FFFFFF8001FFFFFFFFC000FF8001FFFFFFFFC
310
000FFF0003FFFFFFFFFC000000000FFFF000F8000000007FFFFFE0007F800700
310
07F8001FFF80007FF000000000FFFFFF800000000FFFFFF80FFFFFFFFFFFFFC0
310
7FFFFFF0001FFFFFF8000FFFFFFFF8000FF8000FFFFFFFF8000FFF0003FFFFFF
310
FFFC000000007FFFF000F800000007FFFFFFC0007F8003000FF8001FFF80007F
310
F000000007FFFFFF000000007FFFFFF80FFFFFFFFFFFFFC07FFFFFF0001FFFFF
310
F8000FFFFFFFF8000FF8000FFFFFFFF8000FFF0003FFFFFFFFF80000000FFFFF
310
F000F0000000FFFFFFFFC000FF8003000FF8001FFF80007FE0000000FFFFFFFF
310
0000000FFFFFFFF8000001FFFE0000007FFFFFF0001FFFFFF8000FFFFFFFF800
310
0FF8000FFFFFFFF8000FFF0003FFFFFFFFF8000000FFFFFFF000F000000FFFFF
310
FFFFC000FFC002000FF8000FFF80007FE000001FFFFFFFFE000001FFFFFFFFF8
310
000001FFFE0000007FFFFFF0001FFFFFF8000FFFFFFFF8000FF8000FFFFFFFF8
310
000FFF0003FFFFFFFFF000001FFFFFFFF000E00000FFFFFFFFFFC000FFC00200
310
0FFC000FFF80007FE00001FFFFFFFFFE00001FFFFFFFFFF8000001FFFE000000
310
7FFFFFF0001FFFFFFC000FFFFFFFF8001FFC000FFFFFFFF8001FFF0003FFFFFF
310
FFF00001FFFFFFFFF000E00007FFFFFFFFFF8000FFC000001FFC000FFF80007F
310
C0000FFFFFFFFFFE0000FFFFFFFFFFF8000001FFFE0000007FFFFFF0001FFFFF
310
FC0007FFFFFFF0001FFC0007FFFFFFF0001FFF0003FFFFFFFFF00007FFFFFFFF
310
F000E0001FFFFFFFFFFF8000FFC000001FFC000FFF80007FC0003FFFFFFFFFFE
310
0001FFFFFFFFFFF8000001FFFE0000007FFFFFF0001FFFFFFC0007FFFFFFF000
310
1FFC0007FFFFFFF0001FFF0003FFFFFFFFF0001FFFFFFFFFF000E0003FFFFF00
310
03FF8001FFE000001FFC0007FF80007FC0007FFFFF0007FC0003FFFFF0003FF8
310
000001FFFE0000007FFFFFF0001FFFFFFC0003FFFFFFE0001FFC0003FFFFFFE0
310
001FFF0003FFFFFFFFF0003FFFFFFFFFF000E0003FFFFF0001FF8001FFE00000
310
1FFE0007FF80007FC0007FFFFE0003FC0007FFFFE0003FF8000001FFFE000000
310
7FFFFFF0001FFFFFFE0003FFFFFFE0003FFE0003FFFFFFE0003FFF0003FFFFFF
310
FFF0003FFFFF8001F000E0003FFFFF0001FF0001FFE000001FFE0007FF80007F
310
C0007FFFFE0003FC0007FFFFE0003FF8000001FFFE0000007FFFFFF0001FFFFF
310
FE0001FFFFFFC0003FFE0001FFFFFFC0003FFF0003FFFFFFFFF0003FFFFF0001
310
F000E0003FFFFF0003FF0001FFE000003FFE0007FF80007FC0007FFFFE0003FC
310
0007FFFFE0003FF8000001FFFE0000007FFFFFF0001FFFFFFF0001FFFFFFC000
310
7FFF0001FFFFFFC0007FFF0003FFFFFFFFF0003FFFFF0001F000E0003FFFFE00
310
03FF0003FFF000003FFE0003FF80007FC0007FFFFC0003FE0007FFFFE0003FF8
310
000001FFFE0000007FFFFFF0001FFFFFFF0000FFFFFF80007FFF0000FFFFFF80
310
007FFF0003FFFFFFFFF0003FFFFF0001F000E0003FFFFE0003FF0003FFF00000
310
3FFF0003FF80007FC0007FFFFC0007FE0007FFFFC0003FF8000001FFFE000000
310
7FFFFFF0001FFFFFFF80007FFFFF0000FFFF80007FFFFF0000FFFF0003FFFFFF
310
FFF0003FFFFF0003F000E0003FFFFC0003FE0003FFF000003FFF0003FF80007F
310
E0003FFFF80007FE0003FFFFC0007FF8000001FFFE0000007FFFFFF0001FFFFF
310
FF80003FFFFE0000FFFF80003FFFFE0000FFFF0003FFFFFFFFF0001FFFFE0003
310
F000F0001FFFF80003FE0003FFF000007FFF0001FF80007FE0003FFFF00007FE
310
0001FFFF80007FF8000001FFFE0000007FFFFFF0001FFFFFFFC0000FFFF80001
310
FFFFC0000FFFF80001FFFF0003FFFFFFFFF0001FFFFC0003F000F0000FFFF000
310
07FE0007FFF800007FFF0001FF80007FE0001FFFE00007FF0000FFFE00007FF8
310
000001FFFE0000007FFFFFF0001FFFFFFFC00003FFE00001FFFFC00003FFE000
310
01FFFF0003FFFFFFFFF8000FFFF80003F000F00003FFC00007FC0007FFF80000
310
7FFF8001FF80007FF00007FF80000FFF00007FF80000FFF8000001FFFE000000
310
7F80000000000001FFE000003E000003FFFFE000003E000003FFFF0003FFFFFF
310
FFF80003FFE00007F000F800000000000FFC0007FFF800007FFF8001FF80007F
310
F000000000000FFF000000000000FFF8000001FFFE0000007F80000000000001
310
FFF0000000000007FFFFF0000000000007FFFF0003FFFFFFFFFC00007E000007
310
F000F800000000000FFC0007FFF80000FFFF8000FF80007FF800000000001FFF
310
800000000001FFF8000001FFFE0000007F80000000000001FFF800000000000F
310
FFFFF800000000000FFFFF0003FFFFFFFFFC00000000000FF000FC0000000000
310
1FFC0007FFFC0000FFFF8000FF80007FF800000000003FFFC00000000001FFF8
310
000001FFFE0000007F80000000000001FFF800000000000FFFFFF80000000000
310
0FFFFF0003FFFFFFFFFE00000000001FF000FE00000000003FF8000FFFFC0000
310
FFFF8000FF80007FFC00000000003FFFC00000000003FFF8000001FFFE000000
310
7F80000000000001FFFC00000000001FFFFFFC00000000001FFFFF0003FFFFFF
310
FFFF00000000001FF000FF00000000003FF8000FFFFC0000FFFFC000FF80007F
310
FE00000000007FFFE00000000007FFF8000001FFFE0000007F80000000000001
310
FFFE00000000003FFFFFFE00000000003FFFFF0003FFFFFFFFFF80000000003F
310
F000FF80000000007FF8000FFFFC0001FFFFC0007F80007FFF0000000000FFFF
310
F0000000000FFFF800000000000000007F80000000000001FFFF8000000000FF
310
FFFFFF8000000000FFFFFF0003FFFFFFFFFFC0000000007FF000FFC000000000
310
FFF8000FFFFE0001FFFFC0007F80007FFF8000000001FFFFF8000000001FFFF8
310
00000000000000007F80000000000001FFFFC000000001FFFFFFFFC000000001
310
FFFFFF0003FFFFFFFFFFE000000000FFF000FFE000000003FFF0001FFFFE0001
310
FFFFC0007F80007FFFC000000007FFFFFE000000003FFFF80000000000000000
310
7F80000000000001FFFFE000000003FFFFFFFFE000000003FFFFFF0003FFFFFF
310
FFFFF000000003FFF000FFF80000000FFFF0001FFFFE0001FFFFE0007F80007F
310
FFF00000000FFFFFFF00000000FFFFF800000000000000007F80000000000001
310
FFFFF80000000FFFFFFFFFF80000000FFFFFFF0003FFFFFFFFFFFC0000000FFF
310
F000FFFE0000003FFFF0001FFFFE0003FFFFE0003F80007FFFFC0000003FFFFF
310
FFC0000003FFFFF800000000000000007F80000000000001FFFFFE0000003FFF
310
FFFFFFFE0000003FFFFFFF0003FFFFFFFFFFFF0000003FFFF000FFFF800000FF
310
FFF0001FFFFF0003FFFFE0003F80007FFFFF000001FFFFFFFFF800001FFFFFF8
310
00000000000000007F80000000000001FFFFFFC00001FFFFFFFFFFFFC00001FF
310
FFFFFF0003FFFFFFFFFFFFC00000FFFFF000FFFFF8000FFFFFFFFFFFFFFFFFFF
310
FFFFFFFFFFFFFFFFFFFFF0001FFFFFFFFFFF0000FFFFFFF80000000000000000
310
7FFFFFFFFFFFFFFFFFFFFFFC001FFFFFFFFFFFFFFC001FFFFFFFFFFFFFFFFFFF
310
FFFFFFFC001FFFFFF000FFFFFFFFFFFFFFFFFFFFFFFFFFFFFFFFFFFFFFFFFFFF
310
FFFFFFFFFFFFFFFFFFFFFFFFFFFFFFFFFFFFFFFFFFFFFFFFFFFFFFFFFFFFFFFF
310
FFFFFFFFFFFFFFFFFFFFFFFFFFFFFFFFFFFFFFFFFFFFFFFFFFFFFFFFFFFFFFFF
310
F000FFFFFFFFFFFFFFFFFFFFFFFFFFFFFFFFFFFFFFFFFFFFFFFFFFFFFFFFFFFF
310
FFFFFFFFFFFFFFFFFFFFFFFFFFFFFFFFFFFFFFFFFFFFFFFFFFFFFFFFFFFFFFFF
310
FFFFFFFFFFFFFFFFFFFFFFFFFFFFFFFFFFFFFFFFFFFFFFFFF000FFFFFFFFFFFF
310
FFFFFFFFFFFFFFFFFFFFFFFFFFFFFFFFFFFFFFFFFFFFFFFFFFFFFFFFFFFFFFFF
310
FFFFFFFFFFFFFFFFFFFFFFFFFFFFFFFFFFFFFFFFFFFFFFFFFFFFFFFFFFFFFFFF
310
FFFFFFFFFFFFFFFFFFFFFFFFFFFFFFFFF000FFFFFFFFFFFFFFFFFFFFFFFFFFFF
310
FFFFFFFFFFFFFFFFFFFFFFFFFFFFFFFFFFFFFFFFFFFFFFFFFFFFFFFFFFFFFFFF
310
FFFFFFFFFFFFFFFFFFFFFFFFFFFFFFFFFFFFFFFFFFFFFFFFFFFFFFFFFFFFFFFF
310
FFFFFFFFFFFFFFFFF000FFFFFFFFFFFFFFFFFFFFFFFFFFFFFFFFFFFFFFFFFFFF
310
FFFFFFFFFFFFFFFFFFFFFFFFFFFFFFFFFFFFFFFFFFFFFFFFFFFFFFFFFFFFFFFF
310
FFFFFFFFFFFFFFFFFFFFFFFFFFFFFFFFFFFFFFFFFFFFFFFFFFFFFFFFFFFFFFFF
310
F000FFFFFFFFFFFFFFFFFFFFFFFFFFFFFFFFFFFFFFFFFFFFFFFFFFFFFFFFFFFF
310
FFFFFFFFFFFFFFFFFFFFFFFFFFFFFFFFFFFFFFFFFFFFFFFFFFFFFFFFFFFFFFFF
310
FFFFFFFFFFFFFFFFFFFFFFFFFFFFFFFFFFFFFFFFFFFFFFFFF000FFFFFFFFFFFF
310
FFFFFFFFFFFFFFFFFFFFFFFFFFFFFFFFFFFFFFFFFFFFFFFFFFFFFFFFFFFFFFFF
310
FFFFFFFFFFFFFFFFFFFFFFFFFFFFFFFFFFFFFFFFFFFFFFFFFFFFFFFFFFFFFFFF
310
FFFFFFFFFFFFFFFFFFFFFFFFFFFFFFFFF000FFFFFFFFFFFFFFFFFFFFFFFFFFFF
310
FFFFFFFFFFFFFFFFFFFFFFFFFFFFFFFFFFFFFFFFFFFFFFFFFFFFFFFFFFFFFFFF
310
FFFFFFFFFFFFFFFFFFFFFFFFFFFFFFFFFFFFFFFFFFFFFFFFFFFFFFFFFFFFFFFF
310
FFFFFFFFFFFFFFFFF000FFFFFFFFFFFFFFFFFFFFFFFFFFFFFFFFFFFFFFFFFFFF
310
FFFFFFFFFFFFFFFFFFFFFFFFFFFFFFFFFFFFFFFFFFFFFFFFFFFFFFFFFFFFFFFF
310
FFFFFFFFFFFFFFFFFFFFFFFFFFFFFFFFFFFFFFFFFFFFFFFFFFFFFFFFFFFFFFFF
310
F000FFFFFFFFFFFFFFFFFFFFFFFFFFFFFFFFFFFFFFFFFFFFFFFFFFFFFFFFFFFF
310
FFFFFFFFFFFFFFFFFFFFFFFFFFFFFFFFFFFFFFFFFFFFFFFFFFFFFFFFFFFFFFFF
310
FFFFFFFFFFFFFFFFFFFFFFFFFFFFFFFFFFFFFFFFFFFFFFFFF000FFFFFFFFFFFF
310
FFFFFFFFFFFFFFFFFFFFFFFFFFFFFFFFFFFFFFFFFFFFFFFFFFFFFFFFFFFFFFFF
310
FFFFFFFFFFFFFFFFFFFFFFFFFFFFFFFFFFFFFFFFFFFFFFFFFFFFFFFFFFFFFFFF
310
FFFFFFFFFFFFFFFFFFFFFFFFFFFFFFFFF000FFFFFFFFFFFFFFFFFFFFFFFFFFFF
310
FFFFFFFFFFFFFFFFFFFFFFFFFFFFFFFFFFFFFFFFFFFFFFFFFFFFFFFFFFFFFFFF
310
FFFFFFFFFFFFFFFFFFFFFFFFFFFFFFFFFFFFFFFFFFFFFFFFFFFFFFFFFFFFFFFF
310
FFFFFFFFFFFFFFFFF000FFFFFFFFFFFFFFFFFFFFFFFFFFFFFFFFFFFFFFFFFFFF
310
FFFFFFFFFFFFFFFFFFFFFFFFFFFFFFFFFFFFFFFFFFFFFFFFFFFFFFFFFFFFFFFF
310
FFFFFFFFFFFFFFFFFFFFFFFFFFFFFFFFFFFFFFFFFFFFFFFFFFFFFFFFFFFFFFFF
310
F000FFFFFFFFFFFFFFFFFFFFFFFFFFFFFFFFFFFFFFFFFFFFFFFFFFFFFFFFFFFF
310
FFFFFFFFFFFFFFFFFFFFFFFFFFFFFFFFFFFFFFFFFFFFFFFFFFFFFFFFFFFFFFFF
310
FFFFFFFFFFFFFFFFFFFFFFFFFFFFFFFFFFFFFFFFFFFFFFFFF000FFFFFFFFFFFF
310
FFFFFFFFFFFFFFFFFFFFFFFFFFFFFFFFFFFFFFFFFFFFFFFFFFFFFFFFFFFFFFFF
310
FFFFFFFFFFFFFFFFFFFFFFFFFFFFFFFFFFFFFFFFFFFFFFFFFFFFFFFFFFFFFFFF
310
FFFFFFFFFFFFFFFFFFFFFFFFFFFFFFFFF000FFFFFFFFFFFFFFFFFFFFFFFFFFFF
310
FFFFFFFFFFFFFFFFFFFFFFFFFFFFFFFFFFFFFFFFFFFFFFFFFFFFFFFFFFFFFFFF
310
FFFFFFFFFFFFFFFFFFFFFFFFFFFFFFFFFFFFFFFFFFFFFFFFFFFFFFFFFFFFFFFF
310
FFFFFFFFFFFFFFFFF000FFFFFFFFFFFFFFFFFFFFFFFFFFFFFFFFFFFFFFFFFFFF
310
FFFFFFFFFFFFFFFFFFFFFFFFFFFFFFFFFFFFFFFFFFFFFFFFFFFFFFFFFFFFFFFF
310
FFFFFFFFFFFFFFFFFFFFFFFFFFFFFFFFFFFFFFFFFFFFFFFFFFFFFFFFFFFFFFFF
310
F000FFFFFFFFFFFFFFFFFFFFFFFFFFFFFFFFFFFFFFFFFFFFFFFFFFFFFFFFFFFF
310
FFFFFFFFFFFFFFFFFFFFFFFFFFFFFFFFFFFFFFFFFFFFFFFFFFFFFFFFFFFFFFFF
310
FFFFFFFFFFFFFFFFFFFFFFFFFFFFFFFFFFFFFFFFFFFFFFFFF000FFFFFFFFFFFF
310
FFFFFFFFFFFFFFFFFFFFFFFFFFFFFFFFFFFFFFFFFFFFFFFFFFFFFFFFFFFFFFFF
310
FFFFFFFFFFFFFFFFFFFFFFFFFFFFFFFFFFFFFFFFFFFFFFFFFFFFFFFFFFFFFFFF
310
FFFFFFFFFFFFFFFFFFFFFFFFFFFFFFFFF000FFFFFFFFFFFFFFFFFFFFFFFFFFFF
310
FFFFFFFFFFFFFFFFFFFFFFFFFFFFFFFFFFFFFFFFFFFFFFFFFFFFFFFFFFFFFFFF
310
FFFFFFFFFFFFFFFFFFFFFFFFFFFFFFFFFFFFFFFFFFFFFFFFFFFFFFFFFFFFFFFF
310
FFFFFFFFFFFFFFFFF000FFFFFFFFFFFFFFFFFFFFFFFFFFFFFFFFFFFFFFFFFFFF
310
FFFFFFFFFFFFFFFFFFFFFFFFFFFFFFFFFFFFFFFFFFFFFFFFFFFFFFFFFFFFFFFF
310
FFFFFFFFFFFFFFFFFFFFFFFFFFFFFFFFFFFFFFFFFFFFFFFFFFFFFFFFFFFFFFFF
310
F000FFFFFFFFFFFFFFFFFFFFFFFFFFFFFFFFFFFFFFFFFFFFFFFFFFFFFFFFFFFF
310
FFFFFFFFFFFFFFFFFFFFFFFFFFFFFFFFFFFFFFFFFFFFFFFFFFFFFFFFFFFFFFFF
310
FFFFFFFFFFFFFFFFFFFFFFFFFFFFFFFFFFFFFFFFFFFFFFFFF000FFFFFFFFFFFF
310
FFFFFFFFFFFFFFFFFFFFFFFFFFFFFFFFFFFFFFFFFFFFFFFFFFFFFFFFFFFFFFFF
310
FFFFFFFFFFFFFFFFFFFFFFFFFFFFFFFFFFFFFFFFFFFFFFFFFFFFFFFFFFFFFFFF
310
FFFFFFFFFFFFFFFFFFFFFFFFFFFFFFFFF0000000000000000000000000000000
310
0000000000000000000000000000000000000000000000000000000000000000
310
0000000000000000000000000000000000000000000000000000000000000000
310
0000000000000000000000000000000000000000000000000000000000000000
310
0000000000000000000000000000000000000000000000000000000000000000
310
0000000000000000000000000000000000000000000000000000000000000000
310
0000000000000000000000000000000000000000000000000000000000000000
310
0000000000000000000000000000000000000000000000000000000000000000
310
0000000000000000000000000000000000000000000000000000000000000000
310
0000000000000000000000000000000000000000000000000000000000000000
310
0000000000000000000000000000000000000000000000000000000000000000
310
0000000000000000000000000000000000000000000000000000000000000000
310
0000000000000000000000000000000000000000000000000000000000000000
310
0000000000000000000000000000000000000000000000000000000000000000
310
0000000000000000000000000000000000000000000000000000000000000000
310
0000000000000000000000000000000000000000000000000000000000000000
  1
OLE
  0
ENDSEC
  0
SECTION
  2
OBJECTS
  0
DICTIONARY
  5
C
330
0
100
AcDbDictionary
281
     1
  3
ACAD_GROUP
350
D
  3
ACAD_LAYOUT
350
1A
  3
ACAD_MLINESTYLE
350
17
  3
ACAD_PLOTSETTINGS
350
19
  3
ACAD_PLOTSTYLENAME
350
E
  3
ACAD_SCALELIST
350
47
  0
DICTIONARY
  5
D
102
{ACAD_REACTORS
330
C
102
}
330
C
100
AcDbDictionary
281
     1
  0
DICTIONARY
  5
1A
102
{ACAD_REACTORS
330
C
102
}
330
C
100
AcDbDictionary
281
     1
  3
Layout1
350
1E
  3
Layout2
350
26
  3
Model
350
22
  0
DICTIONARY
  5
17
102
{ACAD_REACTORS
330
C
102
}
330
C
100
AcDbDictionary
281
     1
  3
Standard
350
18
  0
DICTIONARY
  5
19
102
{ACAD_REACTORS
330
C
102
}
330
C
100
AcDbDictionary
281
     1
  0
ACDBDICTIONARYWDFLT
  5
E
102
{ACAD_REACTORS
330
C
102
}
330
C
100
AcDbDictionary
281
     1
  3
Normal
350
F
100
AcDbDictionaryWithDefault
340
F
  0
DICTIONARY
  5
47
102
{ACAD_REACTORS
330
C
102
}
330
C
100
AcDbDictionary
281
     1
  3
A0
350
48
  3
A1
350
49
  3
A2
350
4A
  3
A3
350
4B
  3
A4
350
4C
  3
A5
350
4D
  3
A6
350
4E
  3
A7
350
4F
  3
A8
350
50
  3
A9
350
51
  3
B0
350
52
  3
B1
350
53
  3
B2
350
54
  3
B3
350
55
  3
B4
350
56
  3
B5
350
57
  3
B6
350
58
  3
B7
350
59
  3
B8
350
5A
  3
B9
350
5B
  3
C0
350
5C
  3
C1
350
5D
  3
C2
350
5E
  3
C3
350
5F
  3
C4
350
60
  3
C5
350
61
  3
C6
350
62
  3
C7
350
63
  3
C8
350
64
  3
C9
350
65
  3
D0
350
66
  3
D1
350
67
  3
D2
350
68
  0
LAYOUT
  5
1E
102
{ACAD_REACTORS
330
1A
102
}
330
1A
100
AcDbPlotSettings
  1

  2
none_device
  4

  6

 40
0.0
 41
0.0
 42
0.0
 43
0.0
 44
0.0
 45
0.0
 46
0.0
 47
0.0
 48
0.0
 49
0.0
140
0.0
141
0.0
142
1.0
143
1.0
 70
   688
 72
     1
 73
     0
 74
     5
  7

 75
    16
147
1.0
148
0.0
149
0.0
100
AcDbLayout
  1
Layout1
 70
     1
 71
     1
 10
0.0
 20
0.0
 11
420.0
 21
297.0
 12
0.0
 22
0.0
 32
0.0
 14
1.0000000000E+20
 24
1.0000000000E+20
 34
1.0000000000E+20
 15
-1.0000000000E+20
 25
-1.0000000000E+20
 35
-1.0000000000E+20
146
0.0
 13
0.0
 23
0.0
 33
0.0
 16
1.0
 26
0.0
 36
0.0
 17
0.0
 27
1.0
 37
0.0
 76
     0
330
1B
  0
LAYOUT
  5
26
102
{ACAD_REACTORS
330
1A
102
}
330
1A
100
AcDbPlotSettings
  1

  2
none_device
  4

  6

 40
0.0
 41
0.0
 42
0.0
 43
0.0
 44
0.0
 45
0.0
 46
0.0
 47
0.0
 48
0.0
 49
0.0
140
0.0
141
0.0
142
1.0
143
1.0
 70
   688
 72
     1
 73
     0
 74
     5
  7

 75
    16
147
1.0
148
0.0
149
0.0
100
AcDbLayout
  1
Layout2
 70
     1
 71
     2
 10
0.0
 20
0.0
 11
0.0
 21
0.0
 12
0.0
 22
0.0
 32
0.0
 14
0.0
 24
0.0
 34
0.0
 15
0.0
 25
0.0
 35
0.0
146
0.0
 13
0.0
 23
0.0
 33
0.0
 16
1.0
 26
0.0
 36
0.0
 17
0.0
 27
1.0
 37
0.0
 76
     0
330
23
  0
LAYOUT
  5
22
102
{ACAD_REACTORS
330
1A
102
}
330
1A
100
AcDbPlotSettings
  1

  2
none_device
  4
Letter_(8.50_x_11.00_Inches)
  6

 40
6.35
 41
6.35
 42
6.35000508
 43
6.35000508
 44
215.9
 45
279.4
 46
0.0
 47
0.0
 48
0.0
 49
0.0
140
0.0
141
0.0
142
1.0
143
1.0
 70
  1712
 72
     1
 73
     0
 74
     0
  7

 75
     0
147
1.0
148
0.0
149
0.0
100
AcDbLayout
  1
Model
 70
     1
 71
     0
 10
0.0
 20
0.0
 11
297.0
 21
210.0
 12
0.0
 22
0.0
 32
0.0
 14
0.0
 24
0.0
 34
0.0
 15
297.0
 25
210.0
 35
0.0
146
0.0
 13
0.0
 23
0.0
 33
0.0
 16
1.0
 26
0.0
 36
0.0
 17
0.0
 27
1.0
 37
0.0
 76
     0
330
1F
331
29
  0
MLINESTYLE
  5
18
102
{ACAD_REACTORS
330
17
102
}
330
17
100
AcDbMlineStyle
  2
Standard
 70
     0
  3

 62
   256
 51
90.0
 52
90.0
 71
     2
 49
0.5
 62
   256
  6
BYLAYER
 49
-0.5
 62
   256
  6
BYLAYER
  0
ACDBPLACEHOLDER
  5
F
102
{ACAD_REACTORS
330
E
102
}
330
E
  0
SCALE
  5
48
102
{ACAD_REACTORS
330
47
102
}
330
47
100
AcDbScale
 70
     0
300
1:1
140
1.0
141
1.0
290
     1
  0
SCALE
  5
49
102
{ACAD_REACTORS
330
47
102
}
330
47
100
AcDbScale
 70
     0
300
1:2
140
1.0
141
2.0
290
     0
  0
SCALE
  5
4A
102
{ACAD_REACTORS
330
47
102
}
330
47
100
AcDbScale
 70
     0
300
1:4
140
1.0
141
4.0
290
     0
  0
SCALE
  5
4B
102
{ACAD_REACTORS
330
47
102
}
330
47
100
AcDbScale
 70
     0
300
1:5
140
1.0
141
5.0
290
     0
  0
SCALE
  5
4C
102
{ACAD_REACTORS
330
47
102
}
330
47
100
AcDbScale
 70
     0
300
1:8
140
1.0
141
8.0
290
     0
  0
SCALE
  5
4D
102
{ACAD_REACTORS
330
47
102
}
330
47
100
AcDbScale
 70
     0
300
1:10
140
1.0
141
10.0
290
     0
  0
SCALE
  5
4E
102
{ACAD_REACTORS
330
47
102
}
330
47
100
AcDbScale
 70
     0
300
1:16
140
1.0
141
16.0
290
     0
  0
SCALE
  5
4F
102
{ACAD_REACTORS
330
47
102
}
330
47
100
AcDbScale
 70
     0
300
1:20
140
1.0
141
20.0
290
     0
  0
SCALE
  5
50
102
{ACAD_REACTORS
330
47
102
}
330
47
100
AcDbScale
 70
     0
300
1:30
140
1.0
141
30.0
290
     0
  0
SCALE
  5
51
102
{ACAD_REACTORS
330
47
102
}
330
47
100
AcDbScale
 70
     0
300
1:40
140
1.0
141
40.0
290
     0
  0
SCALE
  5
52
102
{ACAD_REACTORS
330
47
102
}
330
47
100
AcDbScale
 70
     0
300
1:50
140
1.0
141
50.0
290
     0
  0
SCALE
  5
53
102
{ACAD_REACTORS
330
47
102
}
330
47
100
AcDbScale
 70
     0
300
1:100
140
1.0
141
100.0
290
     0
  0
SCALE
  5
54
102
{ACAD_REACTORS
330
47
102
}
330
47
100
AcDbScale
 70
     0
300
2:1
140
2.0
141
1.0
290
     0
  0
SCALE
  5
55
102
{ACAD_REACTORS
330
47
102
}
330
47
100
AcDbScale
 70
     0
300
4:1
140
4.0
141
1.0
290
     0
  0
SCALE
  5
56
102
{ACAD_REACTORS
330
47
102
}
330
47
100
AcDbScale
 70
     0
300
8:1
140
8.0
141
1.0
290
     0
  0
SCALE
  5
57
102
{ACAD_REACTORS
330
47
102
}
330
47
100
AcDbScale
 70
     0
300
10:1
140
10.0
141
1.0
290
     0
  0
SCALE
  5
58
102
{ACAD_REACTORS
330
47
102
}
330
47
100
AcDbScale
 70
     0
300
100:1
140
100.0
141
1.0
290
     0
  0
SCALE
  5
59
102
{ACAD_REACTORS
330
47
102
}
330
47
100
AcDbScale
 70
     0
300
1/128" = 1'-0"
140
0.0078125
141
12.0
290
     0
  0
SCALE
  5
5A
102
{ACAD_REACTORS
330
47
102
}
330
47
100
AcDbScale
 70
     0
300
1/64" = 1'-0"
140
0.015625
141
12.0
290
     0
  0
SCALE
  5
5B
102
{ACAD_REACTORS
330
47
102
}
330
47
100
AcDbScale
 70
     0
300
1/32" = 1'-0"
140
0.03125
141
12.0
290
     0
  0
SCALE
  5
5C
102
{ACAD_REACTORS
330
47
102
}
330
47
100
AcDbScale
 70
     0
300
1/16" = 1'-0"
140
0.0625
141
12.0
290
     0
  0
SCALE
  5
5D
102
{ACAD_REACTORS
330
47
102
}
330
47
100
AcDbScale
 70
     0
300
3/32" = 1'-0"
140
0.09375
141
12.0
290
     0
  0
SCALE
  5
5E
102
{ACAD_REACTORS
330
47
102
}
330
47
100
AcDbScale
 70
     0
300
1/8" = 1'-0"
140
0.125
141
12.0
290
     0
  0
SCALE
  5
5F
102
{ACAD_REACTORS
330
47
102
}
330
47
100
AcDbScale
 70
     0
300
3/16" = 1'-0"
140
0.1875
141
12.0
290
     0
  0
SCALE
  5
60
102
{ACAD_REACTORS
330
47
102
}
330
47
100
AcDbScale
 70
     0
300
1/4" = 1'-0"
140
0.25
141
12.0
290
     0
  0
SCALE
  5
61
102
{ACAD_REACTORS
330
47
102
}
330
47
100
AcDbScale
 70
     0
300
3/8" = 1'-0"
140
0.375
141
12.0
290
     0
  0
SCALE
  5
62
102
{ACAD_REACTORS
330
47
102
}
330
47
100
AcDbScale
 70
     0
300
1/2" = 1'-0"
140
0.5
141
12.0
290
     0
  0
SCALE
  5
63
102
{ACAD_REACTORS
330
47
102
}
330
47
100
AcDbScale
 70
     0
300
3/4" = 1'-0"
140
0.75
141
12.0
290
     0
  0
SCALE
  5
64
102
{ACAD_REACTORS
330
47
102
}
330
47
100
AcDbScale
 70
     0
300
1" = 1'-0"
140
1.0
141
12.0
290
     0
  0
SCALE
  5
65
102
{ACAD_REACTORS
330
47
102
}
330
47
100
AcDbScale
 70
     0
300
1-1/2" = 1'-0"
140
1.5
141
12.0
290
     0
  0
SCALE
  5
66
102
{ACAD_REACTORS
330
47
102
}
330
47
100
AcDbScale
 70
     0
300
3" = 1'-0"
140
3.0
141
12.0
290
     0
  0
SCALE
  5
67
102
{ACAD_REACTORS
330
47
102
}
330
47
100
AcDbScale
 70
     0
300
6" = 1'-0"
140
6.0
141
12.0
290
     0
  0
SCALE
  5
68
102
{ACAD_REACTORS
330
47
102
}
330
47
100
AcDbScale
 70
     0
300
1'-0" = 1'-0"
140
12.0
141
12.0
290
     0
  0
ENDSEC
  0
EOF
