  0
SECTION
  2
HEADER
  9
$ACADVER
  1
AC1015
  9
$ACADMAINTVER
 70
     6
  9
$DWGCODEPAGE
  3
ANSI_1252
  9
$INSBASE
 10
0.0
 20
0.0
 30
0.0
  9
$EXTMIN
 10
0.0
 20
0.0
 30
0.0
  9
$EXTMAX
 10
297.0
 20
210.0
 30
0.0
  9
$LIMMIN
 10
0.0
 20
0.0
  9
$LIMMAX
 10
297.0
 20
210.0
  9
$ORTHOMODE
 70
     0
  9
$REGENMODE
 70
     1
  9
$FILLMODE
 70
     1
  9
$QTEXTMODE
 70
     0
  9
$MIRRTEXT
 70
     1
  9
$LTSCALE
 40
1.0
  9
$ATTMODE
 70
     1
  9
$TEXTSIZE
 40
2.0
  9
$TRACEWID
 40
1.0
  9
$TEXTSTYLE
  7
Standard
  9
$CLAYER
  8
0
  9
$CELTYPE
  6
ByLayer
  9
$CECOLOR
 62
   256
  9
$CELTSCALE
 40
1.0
  9
$DISPSILH
 70
     0
  9
$DIMSCALE
 40
1.0
  9
$DIMASZ
 40
3.0
  9
$DIMEXO
 40
0.0
  9
$DIMDLI
 40
3.75
  9
$DIMRND
 40
0.0
  9
$DIMDLE
 40
0.0
  9
$DIMEXE
 40
1.0
  9
$DIMTP
 40
0.0
  9
$DIMTM
 40
0.0
  9
$DIMTXT
 40
2.0
  9
$DIMCEN
 40
2.5
  9
$DIMTSZ
 40
0.0
  9
$DIMTOL
 70
     0
  9
$DIMLIM
 70
     0
  9
$DIMTIH
 70
     1
  9
$DIMTOH
 70
     1
  9
$DIMSE1
 70
     0
  9
$DIMSE2
 70
     0
  9
$DIMTAD
 70
     1
  9
$DIMZIN
 70
     0
  9
$DIMBLK
  1

  9
$DIMASO
 70
     1
  9
$DIMSHO
 70
     1
  9
$DIMPOST
  1

  9
$DIMAPOST
  1

  9
$DIMALT
 70
     0
  9
$DIMALTD
 70
     3
  9
$DIMALTF
 40
0.0393700787
  9
$DIMLFAC
 40
1.0
  9
$DIMTOFL
 70
     1
  9
$DIMTVP
 40
0.0
  9
$DIMTIX
 70
     0
  9
$DIMSOXD
 70
     0
  9
$DIMSAH
 70
     0
  9
$DIMBLK1
  1

  9
$DIMBLK2
  1

  9
$DIMSTYLE
  2
ISO-25
  9
$DIMCLRD
 70
     0
  9
$DIMCLRE
 70
     0
  9
$DIMCLRT
 70
     0
  9
$DIMTFAC
 40
1.0
  9
$DIMGAP
 40
1.524
  9
$DIMJUST
 70
     0
  9
$DIMSD1
 70
     0
  9
$DIMSD2
 70
     0
  9
$DIMTOLJ
 70
     0
  9
$DIMTZIN
 70
     0
  9
$DIMALTZ
 70
     0
  9
$DIMALTTZ
 70
     0
  9
$DIMUPT
 70
     0
  9
$DIMDEC
 70
     2
  9
$DIMTDEC
 70
     3
  9
$DIMALTU
 70
     2
  9
$DIMALTTD
 70
     3
  9
$DIMTXSTY
  7
Standard
  9
$DIMAUNIT
 70
     0
  9
$DIMADEC
 70
     2
  9
$DIMALTRND
 40
0.0
  9
$DIMAZIN
 70
     0
  9
$DIMDSEP
 70
    44
  9
$DIMATFIT
 70
     3
  9
$DIMFRAC
 70
     0
  9
$DIMLDRBLK
  1

  9
$DIMLUNIT
 70
     2
  9
$DIMLWD
 70
    -2
  9
$DIMLWE
 70
    -2
  9
$DIMTMOVE
 70
     0
  9
$LUNITS
 70
     2
  9
$LUPREC
 70
     2
  9
$SKETCHINC
 40
1.0
  9
$FILLETRAD
 40
10.0
  9
$AUNITS
 70
     0
  9
$AUPREC
 70
     2
  9
$MENU
  1
.
  9
$ELEVATION
 40
0.0
  9
$PELEVATION
 40
0.0
  9
$THICKNESS
 40
0.0
  9
$LIMCHECK
 70
     0
  9
$CHAMFERA
 40
0.0
  9
$CHAMFERB
 40
0.0
  9
$CHAMFERC
 40
0.0
  9
$CHAMFERD
 40
0.0
  9
$SKPOLY
 70
     0
  9
$TDCREATE
 40
2457668.349655289
  9
$TDUCREATE
 40
2457668.266321956
  9
$TDUPDATE
 40
2457668.349656562
  9
$TDUUPDATE
 40
2457668.266323229
  9
$TDINDWG
 40
0.0000000116
  9
$TDUSRTIMER
 40
0.0000000116
  9
$USRTIMER
 70
     1
  9
$ANGBASE
 50
0.0
  9
$ANGDIR
 70
     0
  9
$PDMODE
 70
     0
  9
$PDSIZE
 40
-1.0
  9
$PLINEWID
 40
0.0
  9
$SPLFRAME
 70
     0
  9
$SPLINETYPE
 70
     6
  9
$SPLINESEGS
 70
     8
  9
$HANDSEED
  5
2BF
  9
$SURFTAB1
 70
     6
  9
$SURFTAB2
 70
     6
  9
$SURFTYPE
 70
     6
  9
$SURFU
 70
     6
  9
$SURFV
 70
     6
  9
$UCSBASE
  2

  9
$UCSNAME
  2

  9
$UCSORG
 10
0.0
 20
0.0
 30
0.0
  9
$UCSXDIR
 10
1.0
 20
0.0
 30
0.0
  9
$UCSYDIR
 10
0.0
 20
1.0
 30
0.0
  9
$UCSORTHOREF
  2

  9
$UCSORTHOVIEW
 70
     0
  9
$UCSORGTOP
 10
0.0
 20
0.0
 30
0.0
  9
$UCSORGBOTTOM
 10
0.0
 20
0.0
 30
0.0
  9
$UCSORGLEFT
 10
0.0
 20
0.0
 30
0.0
  9
$UCSORGRIGHT
 10
0.0
 20
0.0
 30
0.0
  9
$UCSORGFRONT
 10
0.0
 20
0.0
 30
0.0
  9
$UCSORGBACK
 10
0.0
 20
0.0
 30
0.0
  9
$PUCSBASE
  2

  9
$PUCSNAME
  2

  9
$PUCSORG
 10
0.0
 20
0.0
 30
0.0
  9
$PUCSXDIR
 10
1.0
 20
0.0
 30
0.0
  9
$PUCSYDIR
 10
0.0
 20
1.0
 30
0.0
  9
$PUCSORTHOREF
  2

  9
$PUCSORTHOVIEW
 70
     0
  9
$PUCSORGTOP
 10
0.0
 20
0.0
 30
0.0
  9
$PUCSORGBOTTOM
 10
0.0
 20
0.0
 30
0.0
  9
$PUCSORGLEFT
 10
0.0
 20
0.0
 30
0.0
  9
$PUCSORGRIGHT
 10
0.0
 20
0.0
 30
0.0
  9
$PUCSORGFRONT
 10
0.0
 20
0.0
 30
0.0
  9
$PUCSORGBACK
 10
0.0
 20
0.0
 30
0.0
  9
$USERI1
 70
     0
  9
$USERI2
 70
     0
  9
$USERI3
 70
     0
  9
$USERI4
 70
     0
  9
$USERI5
 70
     0
  9
$USERR1
 40
0.0
  9
$USERR2
 40
0.0
  9
$USERR3
 40
0.0
  9
$USERR4
 40
0.0
  9
$USERR5
 40
0.0
  9
$WORLDVIEW
 70
     1
  9
$SHADEDGE
 70
     3
  9
$SHADEDIF
 70
    70
  9
$TILEMODE
 70
     1
  9
$MAXACTVP
 70
    64
  9
$PINSBASE
 10
0.0
 20
0.0
 30
0.0
  9
$PLIMCHECK
 70
     0
  9
$PEXTMIN
 10
1.0000000000E+20
 20
1.0000000000E+20
 30
1.0000000000E+20
  9
$PEXTMAX
 10
-1.0000000000E+20
 20
-1.0000000000E+20
 30
-1.0000000000E+20
  9
$PLIMMIN
 10
0.0
 20
0.0
  9
$PLIMMAX
 10
420.0
 20
297.0
  9
$UNITMODE
 70
     0
  9
$VISRETAIN
 70
     1
  9
$PLINEGEN
 70
     0
  9
$PSLTSCALE
 70
     1
  9
$TREEDEPTH
 70
  3020
  9
$CMLSTYLE
  2
Standard
  9
$CMLJUST
 70
     0
  9
$CMLSCALE
 40
20.0
  9
$PROXYGRAPHICS
 70
     1
  9
$MEASUREMENT
 70
     1
  9
$CELWEIGHT
370
    -1
  9
$ENDCAPS
280
     0
  9
$JOINSTYLE
280
     0
  9
$LWDISPLAY
290
     1
  9
$INSUNITS
 70
     4
  9
$HYPERLINKBASE
  1

  9
$STYLESHEET
  1

  9
$XEDIT
290
     1
  9
$CEPSNTYPE
380
     0
  9
$PSTYLEMODE
290
     1
  9
$FINGERPRINTGUID
  2
{20045538-D3C8-47F6-88FA-83D459DBC60C}
  9
$VERSIONGUID
  2
{FAEB1C32-E019-11D5-929B-00C0DF256EC4}
  9
$EXTNAMES
290
     1
  9
$PSVPSCALE
 40
0.0
  9
$OLESTARTUP
290
     0
  0
ENDSEC
  0
SECTION
  2
CLASSES
  0
CLASS
  1
ACDBDICTIONARYWDFLT
  2
AcDbDictionaryWithDefault
  3
ObjectDBX Classes
 90
        0
280
     0
281
     0
  0
CLASS
  1
VISUALSTYLE
  2
AcDbVisualStyle
  3
ObjectDBX Classes
 90
     4095
280
     0
281
     0
  0
CLASS
  1
MATERIAL
  2
AcDbMaterial
  3
ObjectDBX Classes
 90
     1153
280
     0
281
     0
  0
CLASS
  1
SCALE
  2
AcDbScale
  3
ObjectDBX Classes
 90
     1153
280
     0
281
     0
  0
CLASS
  1
TABLESTYLE
  2
AcDbTableStyle
  3
ObjectDBX Classes
 90
     4095
280
     0
281
     0
  0
CLASS
  1
MLEADERSTYLE
  2
AcDbMLeaderStyle
  3
ACDB_MLEADERSTYLE_CLASS
 90
     4095
280
     0
281
     0
  0
CLASS
  1
SUN
  2
AcDbSun
  3
SCENEOE
 90
     1153
280
     0
281
     0
  0
CLASS
  1
ACDBPLACEHOLDER
  2
AcDbPlaceHolder
  3
ObjectDBX Classes
 90
        0
280
     0
281
     0
  0
CLASS
  1
LAYOUT
  2
AcDbLayout
  3
ObjectDBX Classes
 90
        0
280
     0
281
     0
  0
ENDSEC
  0
SECTION
  2
TABLES
  0
TABLE
  2
VPORT
  5
8
330
0
100
AcDbSymbolTable
 70
     1
  0
VPORT
  5
29
330
8
100
AcDbSymbolTableRecord
100
AcDbViewportTableRecord
  2
*Active
 70
     0
 10
0.0
 20
0.0
 11
1.0
 21
1.0
 12
148.5
 22
105.0
 13
0.0
 23
0.0
 14
10.0
 24
10.0
 15
10.0
 25
10.0
 16
0.0
 26
0.0
 36
1.0
 17
0.0
 27
0.0
 37
0.0
 40
210.0
 41
1.4142857143
 42
50.0
 43
0.0
 44
0.0
 50
0.0
 51
0.0
 71
     0
 72
  2000
 73
     1
 74
     3
 75
     0
 76
     0
 77
     0
 78
     0
281
     0
 65
     1
110
0.0
120
0.0
130
0.0
111
1.0
121
0.0
131
0.0
112
0.0
122
1.0
132
0.0
 79
     0
146
0.0
  0
ENDTAB
  0
TABLE
  2
LTYPE
  5
5
330
0
100
AcDbSymbolTable
 70
     6
  0
LTYPE
  5
14
330
5
100
AcDbSymbolTableRecord
100
AcDbLinetypeTableRecord
  2
ByBlock
 70
     0
  3

 72
    65
 73
     0
 40
0.0
  0
LTYPE
  5
15
330
5
100
AcDbSymbolTableRecord
100
AcDbLinetypeTableRecord
  2
ByLayer
 70
     0
  3

 72
    65
 73
     0
 40
0.0
  0
LTYPE
  5
16
330
5
100
AcDbSymbolTableRecord
100
AcDbLinetypeTableRecord
  2
Continuous
 70
     0
  3
Solid line
 72
    65
 73
     0
 40
0.0
  0
LTYPE
  5
6E
330
5
100
AcDbSymbolTableRecord
100
AcDbLinetypeTableRecord
  2
HIDDEN
 70
     0
  3
Hidden __ __ __ __ __ __ __ __ __ __ __ __ __ __
 72
    65
 73
     2
 40
1.905
 49
1.27
 74
     0
 49
-0.635
 74
     0
  0
LTYPE
  5
6F
330
5
100
AcDbSymbolTableRecord
100
AcDbLinetypeTableRecord
  2
PHANTOM
 70
     0
  3
Phantom ______  __  __  ______  __  __  ______
 72
    65
 73
     6
 40
12.7
 49
6.35
 74
     0
 49
-1.27
 74
     0
 49
1.27
 74
     0
 49
-1.27
 74
     0
 49
1.27
 74
     0
 49
-1.27
 74
     0
  0
LTYPE
  5
70
330
5
100
AcDbSymbolTableRecord
100
AcDbLinetypeTableRecord
  2
CENTER
 70
     0
  3
Center ____ _ ____ _ ____ _ ____ _ ____ _ ____
 72
    65
 73
     4
 40
10.16
 49
6.35
 74
     0
 49
-1.27
 74
     0
 49
1.27
 74
     0
 49
-1.27
 74
     0
  0
LTYPE
  5
71
330
5
100
AcDbSymbolTableRecord
100
AcDbLinetypeTableRecord
  2
CENTERX2
 70
     0
  3
Center (2x) ________  __  ________  __  _____
 72
    65
 73
     4
 40
20.32
 49
12.7
 74
     0
 49
-2.54
 74
     0
 49
2.54
 74
     0
 49
-2.54
 74
     0
  0
LTYPE
  5
72
330
5
100
AcDbSymbolTableRecord
100
AcDbLinetypeTableRecord
  2
DOT2
 70
     0
  3
Dot (.5x) ........................................
 72
    65
 73
     2
 40
0.635
 49
0.0
 74
     0
 49
-0.635
 74
     0
  0
ENDTAB
  0
TABLE
  2
LAYER
  5
2
330
0
100
AcDbSymbolTable
 70
     5
  0
LAYER
  5
10
330
2
100
AcDbSymbolTableRecord
100
AcDbLayerTableRecord
  2
0
 70
     0
 62
     7
  6
Continuous
370
    -3
390
F
  0
LAYER
  5
73
330
2
100
AcDbSymbolTableRecord
100
AcDbLayerTableRecord
  2
FORMAT
 70
     0
 62
     7
  6
Continuous
370
    -3
390
F
  0
LAYER
  5
74
330
2
100
AcDbSymbolTableRecord
100
AcDbLayerTableRecord
  2
VERMASSUNG
 70
     0
 62
     7
  6
Continuous
370
    -3
390
F
  0
LAYER
  5
75
330
2
100
AcDbSymbolTableRecord
100
AcDbLayerTableRecord
  2
KOPF_DÜNN
 70
     0
 62
     7
  6
Continuous
370
    -3
390
F
  0
LAYER
  5
76
330
2
100
AcDbSymbolTableRecord
100
AcDbLayerTableRecord
  2
KOPF_DICK
 70
     0
 62
     7
  6
Continuous
370
    15
390
F
  0
ENDTAB
  0
TABLE
  2
STYLE
  5
3
330
0
100
AcDbSymbolTable
 70
     2
  0
STYLE
  5
11
330
3
100
AcDbSymbolTableRecord
100
AcDbTextStyleTableRecord
  2
Standard
 70
     0
 40
0.0
 41
1.0
 50
0.0
 71
     0
 42
2.0
  3
txt
  4

  0
STYLE
  5
77
330
3
100
AcDbSymbolTableRecord
100
AcDbTextStyleTableRecord
  2
SLDTEXTSTYLE0
 70
     0
 40
0.0
 41
0.7
 50
0.0
 71
     0
 42
2.0
  3
TXT
  4

  0
ENDTAB
  0
TABLE
  2
VIEW
  5
6
330
0
100
AcDbSymbolTable
 70
     0
  0
ENDTAB
  0
TABLE
  2
UCS
  5
7
330
0
100
AcDbSymbolTable
 70
     0
  0
ENDTAB
  0
TABLE
  2
APPID
  5
9
330
0
100
AcDbSymbolTable
 70
     1
  0
APPID
  5
12
330
9
100
AcDbSymbolTableRecord
100
AcDbRegAppTableRecord
  2
ACAD
 70
     0
  0
ENDTAB
  0
TABLE
  2
DIMSTYLE
  5
A
330
0
100
AcDbSymbolTable
 70
     2
100
AcDbDimStyleTable
  0
DIMSTYLE
105
27
330
A
100
AcDbSymbolTableRecord
100
AcDbDimStyleTableRecord
  2
ISO-25
 70
     0
 41
2.5
 42
0.625
 43
3.75
 44
1.25
 73
     0
 74
     0
 77
     1
 78
     8
140
2.5
141
2.5
143
0.0393700787
147
0.625
171
     3
172
     1
178
     0
271
     2
272
     2
274
     3
278
    44
283
     0
284
     8
340
11
  0
DIMSTYLE
105
1D3
102
{ACAD_REACTORS
330
1D2
330
1DF
330
1EA
330
1F6
330
200
330
20C
102
}
330
A
100
AcDbSymbolTableRecord
100
AcDbDimStyleTableRecord
  2
SLDDIMSTYLE0
 70
     0
 41
3.0
 44
0.0
 45
0.000000001
 73
     0
 74
     0
 77
     1
 78
    12
 79
     3
140
2.0
147
0.5
173
     1
178
     0
271
     2
272
     3
276
     2
284
    12
340
77
  0
ENDTAB
  0
TABLE
  2
BLOCK_RECORD
  5
1
330
0
100
AcDbSymbolTable
 70
     7
  0
BLOCK_RECORD
  5
1F
330
1
100
AcDbSymbolTableRecord
100
AcDbBlockTableRecord
  2
*Model_Space
340
22
  0
BLOCK_RECORD
  5
1B
330
1
100
AcDbSymbolTableRecord
100
AcDbBlockTableRecord
  2
*Paper_Space
340
1E
  0
BLOCK_RECORD
  5
23
330
1
100
AcDbSymbolTableRecord
100
AcDbBlockTableRecord
  2
*Paper_Space0
340
26
  0
BLOCK_RECORD
  5
1D4
330
1
100
AcDbSymbolTableRecord
100
AcDbBlockTableRecord
  2
_D
340
0
  0
BLOCK_RECORD
  5
1E0
330
1
100
AcDbSymbolTableRecord
100
AcDbBlockTableRecord
  2
_D_1
340
0
  0
BLOCK_RECORD
  5
1EB
330
1
100
AcDbSymbolTableRecord
100
AcDbBlockTableRecord
  2
_D_2
340
0
  0
BLOCK_RECORD
  5
1F7
330
1
100
AcDbSymbolTableRecord
100
AcDbBlockTableRecord
  2
_D_3
340
0
  0
BLOCK_RECORD
  5
201
330
1
100
AcDbSymbolTableRecord
100
AcDbBlockTableRecord
  2
_D_4
340
0
  0
BLOCK_RECORD
  5
20D
330
1
100
AcDbSymbolTableRecord
100
AcDbBlockTableRecord
  2
_D_5
340
0
  0
ENDTAB
  0
ENDSEC
  0
SECTION
  2
BLOCKS
  0
BLOCK
  5
20
330
1F
100
AcDbEntity
  8
0
100
AcDbBlockBegin
  2
*Model_Space
 70
     0
 10
0.0
 20
0.0
 30
0.0
  3
*Model_Space
  1

  0
ENDBLK
  5
21
330
1F
100
AcDbEntity
  8
0
100
AcDbBlockEnd
  0
BLOCK
  5
1C
330
1B
100
AcDbEntity
 67
     1
  8
0
100
AcDbBlockBegin
  2
*Paper_Space
 70
     0
 10
0.0
 20
0.0
 30
0.0
  3
*Paper_Space
  1

  0
ENDBLK
  5
1D
330
1B
100
AcDbEntity
 67
     1
  8
0
100
AcDbBlockEnd
  0
BLOCK
  5
24
330
23
100
AcDbEntity
  8
0
100
AcDbBlockBegin
  2
*Paper_Space0
 70
     0
 10
0.0
 20
0.0
 30
0.0
  3
*Paper_Space0
  1

  0
ENDBLK
  5
25
330
23
100
AcDbEntity
  8
0
100
AcDbBlockEnd
  0
BLOCK
  5
1D5
330
1D4
100
AcDbEntity
  8
0
100
AcDbBlockBegin
  2
_D
 70
     0
 10
0.0
 20
0.0
 30
0.0
  3
_D
  1

  0
SOLID
  5
1D7
330
1D4
100
AcDbEntity
  8
VERMASSUNG
100
AcDbTrace
 10
97.9331152657
 20
78.211023701
 30
0.0
 11
98.3831152657
 21
81.211023701
 31
0.0
 12
97.4831152657
 22
81.211023701
 32
0.0
 13
97.4831152657
 23
81.211023701
 33
0.0
  0
SOLID
  5
1D8
330
1D4
100
AcDbEntity
  8
VERMASSUNG
100
AcDbTrace
 10
97.9331152657
 20
141.711023701
 30
0.0
 11
97.4831152657
 21
138.711023701
 31
0.0
 12
98.3831152657
 22
138.711023701
 32
0.0
 13
98.3831152657
 23
138.711023701
 33
0.0
  0
LINE
  5
1D9
330
1D4
100
AcDbEntity
  8
VERMASSUNG
100
AcDbLine
 10
188.8198333928
 20
78.211023701
 30
0.0
 11
96.9331152657
 21
78.211023701
 31
0.0
  0
LINE
  5
1DA
330
1D4
100
AcDbEntity
  8
VERMASSUNG
100
AcDbLine
 10
188.8198333928
 20
141.711023701
 30
0.0
 11
96.9331152657
 21
141.711023701
 31
0.0
  0
LINE
  5
1DB
330
1D4
100
AcDbEntity
  8
VERMASSUNG
100
AcDbLine
 10
97.9331152657
 20
78.211023701
 30
0.0
 11
97.9331152657
 21
141.711023701
 31
0.0
  0
MTEXT
  5
1DC
330
1D4
100
AcDbEntity
  8
VERMASSUNG
100
AcDbMText
 10
95.1549800095
 20
101.1580875527
 30
0.0
 40
2.0
 41
0.0
 71
     1
 72
     1
  1
ISO 40
  7
SLDTEXTSTYLE0
 11
3.391901413832837E-15
 21
1.0
 31
0.0
 73
     1
 44
1.0
  0
MTEXT
  5
1DD
330
1D4
100
AcDbEntity
  8
VERMASSUNG
100
AcDbMText
 10
95.3549799608
 20
110.3580877569
 30
0.0
 40
2.0
 41
0.0
 71
     1
 72
     1
  1
%%c
  7
SLDTEXTSTYLE0
 11
3.391901413832837E-15
 21
1.0
 31
0.0
 73
     1
 44
1.0
  0
MTEXT
  5
1DE
330
1D4
100
AcDbEntity
  8
VERMASSUNG
100
AcDbMText
 10
95.3549796698
 20
113.9659680883
 30
0.0
 40
2.0
 41
0.0
 71
     1
 72
     1
  1
63.5
  7
SLDTEXTSTYLE0
 11
3.391901413832837E-15
 21
1.0
 31
0.0
 73
     1
 44
1.0
  0
ENDBLK
  5
1D6
330
1D4
100
AcDbEntity
  8
0
100
AcDbBlockEnd
  0
BLOCK
  5
1E1
330
1E0
100
AcDbEntity
  8
0
100
AcDbBlockBegin
  2
_D_1
 70
     0
 10
0.0
 20
0.0
 30
0.0
  3
_D_1
  1

  0
SOLID
  5
1E3
330
1E0
100
AcDbEntity
  8
VERMASSUNG
100
AcDbTrace
 10
217.2183145688
 20
118.961023701
 30
0.0
 11
216.7683145688
 21
115.961023701
 31
0.0
 12
217.6683145688
 22
115.961023701
 32
0.0
 13
217.6683145688
 23
115.961023701
 33
0.0
  0
SOLID
  5
1E4
330
1E0
100
AcDbEntity
  8
VERMASSUNG
100
AcDbTrace
 10
217.2183145688
 20
100.961023701
 30
0.0
 11
217.6683145688
 21
103.961023701
 31
0.0
 12
216.7683145688
 22
103.961023701
 32
0.0
 13
216.7683145688
 23
103.961023701
 33
0.0
  0
LINE
  5
1E5
330
1E0
100
AcDbEntity
  8
VERMASSUNG
100
AcDbLine
 10
201.4698333928
 20
118.961023701
 30
0.0
 11
218.2183145688
 21
118.961023701
 31
0.0
  0
LINE
  5
1E6
330
1E0
100
AcDbEntity
  8
VERMASSUNG
100
AcDbLine
 10
201.4698333928
 20
100.961023701
 30
0.0
 11
218.2183145688
 21
100.961023701
 31
0.0
  0
LINE
  5
1E7
330
1E0
100
AcDbEntity
  8
VERMASSUNG
100
AcDbLine
 10
217.2183145688
 20
118.961023701
 30
0.0
 11
217.2183145688
 21
100.961023701
 31
0.0
  0
MTEXT
  5
1E8
330
1E0
100
AcDbEntity
  8
VERMASSUNG
100
AcDbMText
 10
214.6401790311
 20
106.9575911573
 30
0.0
 40
2.0
 41
0.0
 71
     1
 72
     1
  1
%%c
  7
SLDTEXTSTYLE0
 11
-7.044195017643634E-15
 21
1.0
 31
0.0
 73
     1
 44
1.0
  0
MTEXT
  5
1E9
330
1E0
100
AcDbEntity
  8
VERMASSUNG
100
AcDbMText
 10
214.6401789729
 20
110.5665633509
 30
0.0
 40
2.0
 41
0.0
 71
     1
 72
     1
  1
18
  7
SLDTEXTSTYLE0
 11
-7.044195017643634E-15
 21
1.0
 31
0.0
 73
     1
 44
1.0
  0
ENDBLK
  5
1E2
330
1E0
100
AcDbEntity
  8
0
100
AcDbBlockEnd
  0
BLOCK
  5
1EC
330
1EB
100
AcDbEntity
  8
0
100
AcDbBlockBegin
  2
_D_2
 70
     0
 10
0.0
 20
0.0
 30
0.0
  3
_D_2
  1

  0
ARC
  5
1EE
330
1EB
100
AcDbEntity
  8
VERMASSUNG
100
AcDbCircle
 10
199.0066269046
 20
147.040449389
 30
0.0
 40
4.247059938537233
100
AcDbArc
 50
153.4349488229
 51
206.5650511771
  0
ARC
  5
1EF
330
1EB
100
AcDbEntity
  8
VERMASSUNG
100
AcDbCircle
 10
200.783039881
 20
147.040449389
 30
0.0
 40
4.247059938537233
100
AcDbArc
 50
333.4349488229
 51
26.5650511771
  0
SOLID
  5
1F0
330
1EB
100
AcDbEntity
  8
VERMASSUNG
100
AcDbTrace
 10
189.4198333928
 20
145.1411064435
 30
0.0
 11
192.4198333928
 21
144.6911064435
 31
0.0
 12
192.4198333928
 22
145.5911064435
 32
0.0
 13
192.4198333928
 23
145.5911064435
 33
0.0
  0
SOLID
  5
1F1
330
1EB
100
AcDbEntity
  8
VERMASSUNG
100
AcDbTrace
 10
210.3698333928
 20
145.1411064435
 30
0.0
 11
207.3698333928
 21
145.5911064435
 31
0.0
 12
207.3698333928
 22
144.6911064435
 32
0.0
 13
207.3698333928
 23
144.6911064435
 33
0.0
  0
LINE
  5
1F2
330
1EB
100
AcDbEntity
  8
VERMASSUNG
100
AcDbLine
 10
189.4198333928
 20
135.1324360571
 30
0.0
 11
189.4198333928
 21
146.1411064435
 31
0.0
  0
LINE
  5
1F3
330
1EB
100
AcDbEntity
  8
VERMASSUNG
100
AcDbLine
 10
210.3698333928
 20
125.661023701
 30
0.0
 11
210.3698333928
 21
146.1411064435
 31
0.0
  0
LINE
  5
1F4
330
1EB
100
AcDbEntity
  8
VERMASSUNG
100
AcDbLine
 10
189.4198333928
 20
145.1411064435
 30
0.0
 11
210.3698333928
 21
145.1411064435
 31
0.0
  0
MTEXT
  5
1F5
330
1EB
100
AcDbEntity
  8
VERMASSUNG
100
AcDbMText
 10
196.7954410138
 20
147.7192420395
 30
0.0
 40
2.0
 41
0.0
 71
     1
 72
     1
  1
20.95
  7
SLDTEXTSTYLE0
 73
     1
 44
1.0
  0
ENDBLK
  5
1ED
330
1EB
100
AcDbEntity
  8
0
100
AcDbBlockEnd
  0
BLOCK
  5
1F8
330
1F7
100
AcDbEntity
  8
0
100
AcDbBlockBegin
  2
_D_3
 70
     0
 10
0.0
 20
0.0
 30
0.0
  3
_D_3
  1

  0
SOLID
  5
1FA
330
1F7
100
AcDbEntity
  8
VERMASSUNG
100
AcDbTrace
 10
170.3698333928
 20
151.1411064435
 30
0.0
 11
173.3698333928
 21
150.6911064435
 31
0.0
 12
173.3698333928
 22
151.5911064435
 32
0.0
 13
173.3698333928
 23
151.5911064435
 33
0.0
  0
SOLID
  5
1FB
330
1F7
100
AcDbEntity
  8
VERMASSUNG
100
AcDbTrace
 10
210.3698333928
 20
151.1411064435
 30
0.0
 11
207.3698333928
 21
151.5911064435
 31
0.0
 12
207.3698333928
 22
150.6911064435
 32
0.0
 13
207.3698333928
 23
150.6911064435
 33
0.0
  0
LINE
  5
1FC
330
1F7
100
AcDbEntity
  8
VERMASSUNG
100
AcDbLine
 10
170.3698333928
 20
132.186023701
 30
0.0
 11
170.3698333928
 21
152.1411064435
 31
0.0
  0
LINE
  5
1FD
330
1F7
100
AcDbEntity
  8
VERMASSUNG
100
AcDbLine
 10
210.3698333928
 20
125.661023701
 30
0.0
 11
210.3698333928
 21
152.1411064435
 31
0.0
  0
LINE
  5
1FE
330
1F7
100
AcDbEntity
  8
VERMASSUNG
100
AcDbLine
 10
170.3698333928
 20
151.1411064435
 30
0.0
 11
210.3698333928
 21
151.1411064435
 31
0.0
  0
MTEXT
  5
1FF
330
1F7
100
AcDbEntity
  8
VERMASSUNG
100
AcDbMText
 10
188.8708745874
 20
153.7192420395
 30
0.0
 40
2.0
 41
0.0
 71
     1
 72
     1
  1
40
  7
SLDTEXTSTYLE0
 73
     1
 44
1.0
  0
ENDBLK
  5
1F9
330
1F7
100
AcDbEntity
  8
0
100
AcDbBlockEnd
  0
BLOCK
  5
202
330
201
100
AcDbEntity
  8
0
100
AcDbBlockBegin
  2
_D_4
 70
     0
 10
0.0
 20
0.0
 30
0.0
  3
_D_4
  1

  0
ARC
  5
204
330
201
100
AcDbEntity
  8
VERMASSUNG
100
AcDbCircle
 10
154.8569739695
 20
159.040449389
 30
0.0
 40
4.247059938537386
100
AcDbArc
 50
153.4349488229
 51
206.5650511771
  0
ARC
  5
205
330
201
100
AcDbEntity
  8
VERMASSUNG
100
AcDbCircle
 10
157.6326928161
 20
159.040449389
 30
0.0
 40
4.247059938537386
100
AcDbArc
 50
333.4349488229
 51
26.5650511771
  0
SOLID
  5
206
330
201
100
AcDbEntity
  8
VERMASSUNG
100
AcDbTrace
 10
102.1198333928
 20
157.1411064435
 30
0.0
 11
105.1198333928
 21
156.6911064435
 31
0.0
 12
105.1198333928
 22
157.5911064435
 32
0.0
 13
105.1198333928
 23
157.5911064435
 33
0.0
  0
SOLID
  5
207
330
201
100
AcDbEntity
  8
VERMASSUNG
100
AcDbTrace
 10
210.3698333928
 20
157.1411064435
 30
0.0
 11
207.3698333928
 21
157.5911064435
 31
0.0
 12
207.3698333928
 22
156.6911064435
 32
0.0
 13
207.3698333928
 23
156.6911064435
 33
0.0
  0
LINE
  5
208
330
201
100
AcDbEntity
  8
VERMASSUNG
100
AcDbLine
 10
102.1198333928
 20
121.3681542981
 30
0.0
 11
102.1198333928
 21
158.1411064435
 31
0.0
  0
LINE
  5
209
330
201
100
AcDbEntity
  8
VERMASSUNG
100
AcDbLine
 10
210.3698333928
 20
125.661023701
 30
0.0
 11
210.3698333928
 21
158.1411064435
 31
0.0
  0
LINE
  5
20A
330
201
100
AcDbEntity
  8
VERMASSUNG
100
AcDbLine
 10
102.1198333928
 20
157.1411064435
 30
0.0
 11
210.3698333928
 21
157.1411064435
 31
0.0
  0
MTEXT
  5
20B
330
201
100
AcDbEntity
  8
VERMASSUNG
100
AcDbMText
 10
152.6457880787
 20
159.7192420395
 30
0.0
 40
2.0
 41
0.0
 71
     1
 72
     1
  1
108.25
  7
SLDTEXTSTYLE0
 73
     1
 44
1.0
  0
ENDBLK
  5
203
330
201
100
AcDbEntity
  8
0
100
AcDbBlockEnd
  0
BLOCK
  5
20E
330
20D
100
AcDbEntity
  8
0
100
AcDbBlockBegin
  2
_D_5
 70
     0
 10
0.0
 20
0.0
 30
0.0
  3
_D_5
  1

  0
SOLID
  5
210
330
20D
100
AcDbEntity
  8
VERMASSUNG
100
AcDbTrace
 10
223.2183145688
 20
125.961023701
 30
0.0
 11
222.7683145688
 21
122.961023701
 31
0.0
 12
223.6683145688
 22
122.961023701
 32
0.0
 13
223.6683145688
 23
122.961023701
 33
0.0
  0
SOLID
  5
211
330
20D
100
AcDbEntity
  8
VERMASSUNG
100
AcDbTrace
 10
223.2183145688
 20
93.961023701
 30
0.0
 11
223.6683145688
 21
96.961023701
 31
0.0
 12
222.7683145688
 22
96.961023701
 32
0.0
 13
222.7683145688
 23
96.961023701
 33
0.0
  0
LINE
  5
212
330
20D
100
AcDbEntity
  8
VERMASSUNG
100
AcDbLine
 10
210.0698333928
 20
125.961023701
 30
0.0
 11
224.2183145688
 21
125.961023701
 31
0.0
  0
LINE
  5
213
330
20D
100
AcDbEntity
  8
VERMASSUNG
100
AcDbLine
 10
210.0698333928
 20
93.961023701
 30
0.0
 11
224.2183145688
 21
93.961023701
 31
0.0
  0
LINE
  5
214
330
20D
100
AcDbEntity
  8
VERMASSUNG
100
AcDbLine
 10
223.2183145688
 20
125.961023701
 30
0.0
 11
223.2183145688
 21
93.961023701
 31
0.0
  0
MTEXT
  5
215
330
20D
100
AcDbEntity
  8
VERMASSUNG
100
AcDbMText
 10
220.4401793126
 20
103.8560244792
 30
0.0
 40
2.0
 41
0.0
 71
     1
 72
     1
  1
ST3
  7
SLDTEXTSTYLE0
 11
-7.044195017643634E-15
 21
1.0
 31
0.0
 73
     1
 44
1.0
  0
MTEXT
  5
216
330
20D
100
AcDbEntity
  8
VERMASSUNG
100
AcDbMText
 10
220.6401792639
 20
109.6560244054
 30
0.0
 40
2.0
 41
0.0
 71
     1
 72
     1
  1
%%c
  7
SLDTEXTSTYLE0
 11
-7.044195017643634E-15
 21
1.0
 31
0.0
 73
     1
 44
1.0
  0
MTEXT
  5
217
330
20D
100
AcDbEntity
  8
VERMASSUNG
100
AcDbMText
 10
220.4401793126
 20
113.2660239541
 30
0.0
 40
2.0
 41
0.0
 71
     1
 72
     1
  1
32
  7
SLDTEXTSTYLE0
 11
-7.044195017643634E-15
 21
1.0
 31
0.0
 73
     1
 44
1.0
  0
ENDBLK
  5
20F
330
20D
100
AcDbEntity
  8
0
100
AcDbBlockEnd
  0
ENDSEC
  0
SECTION
  2
ENTITIES
  0
MTEXT
  5
78
330
1F
100
AcDbEntity
  8
KOPF_DÜNN
100
AcDbMText
 10
13.8892156294
 20
23.8442973028
 30
0.0
 40
3.0
 41
0.0
 71
     1
 72
     1
  1
124.440.032.040
  7
SLDTEXTSTYLE0
 73
     1
 44
1.0
  0
MTEXT
  5
79
330
1F
100
AcDbEntity
  8
VERMASSUNG
100
AcDbMText
 10
13.9329988022
 20
28.8834360957
 30
0.0
 40
3.0
 41
0.0
 71
     1
 72
     1
  1
Aufnahme_Master shank ST3
  7
SLDTEXTSTYLE0
 73
     1
 44
1.0
  0
MTEXT
  5
7A
330
1F
100
AcDbEntity
  8
VERMASSUNG
100
AcDbMText
 10
98.8601118557
 20
13.8365368761
 30
0.0
 40
2.0
 41
0.0
 71
     1
 72
     1
  1
Datum: 14.05.2008
  7
SLDTEXTSTYLE0
 73
     1
 44
1.0
  0
MTEXT
  5
7B
330
1F
100
AcDbEntity
  8
VERMASSUNG
100
AcDbMText
 10
13.933048693
 20
18.0482802738
 30
0.0
 40
2.0
 41
0.0
 71
     1
 72
     1
  1
DIN 69871 B ISO 40
  7
SLDTEXTSTYLE0
 73
     1
 44
1.0
  0
MTEXT
  5
7C
330
1F
100
AcDbEntity
  8
VERMASSUNG
100
AcDbMText
 10
13.9808475933
 20
13.9090974274
 30
0.0
 40
2.0
 41
0.0
 71
     1
 72
     1
  1
Gewicht: 906g
  7
SLDTEXTSTYLE0
 73
     1
 44
1.0
  0
ARC
  5
7D
330
1F
100
AcDbEntity
  8
0
  6
Continuous
 62
     7
370
    15
100
AcDbCircle
 10
172.9698333928
 20
87.136023701
 30
0.0
 40
0.5999999999999943
100
AcDbArc
 50
0.0
 51
90.0
  0
ARC
  5
7E
330
1F
100
AcDbEntity
  8
0
  6
Continuous
 62
     7
370
    15
100
AcDbCircle
 10
172.9698333928
 20
132.786023701
 30
0.0
 40
0.5999999999999943
100
AcDbArc
 50
270.0
 51
0.0
  0
LINE
  5
7F
330
1F
100
AcDbEntity
  8
0
  6
Continuous
 62
     7
370
    15
100
AcDbLine
 10
170.3698333928
 20
132.1860236653
 30
0.0
 11
102.9755246469
 21
122.3576871284
 31
0.0
  0
LINE
  5
80
330
1F
100
AcDbEntity
  8
0
  6
Continuous
 62
     7
370
    15
100
AcDbLine
 10
102.9755246469
 20
97.5643602737
 30
0.0
 11
170.3698333928
 21
87.7360237368
 31
0.0
  0
LINE
  5
81
330
1F
100
AcDbEntity
  8
0
  6
Continuous
 62
     7
370
    15
100
AcDbLine
 10
170.3698333928
 20
87.7360237368
 30
0.0
 11
172.9698333999
 21
87.7360237368
 31
0.0
  0
LINE
  5
82
330
1F
100
AcDbEntity
  8
0
  6
Continuous
 62
     7
370
    15
100
AcDbLine
 10
172.9698333999
 20
132.1860236653
 30
0.0
 11
170.3698333928
 21
132.1860236653
 31
0.0
  0
ARC
  5
83
330
1F
100
AcDbEntity
  8
0
  6
Continuous
 62
     7
370
    15
100
AcDbCircle
 10
193.4198333928
 20
89.961023701
 30
0.0
 40
4.000000000000028
100
AcDbArc
 50
90.0
 51
180.0
  0
ARC
  5
84
330
1F
100
AcDbEntity
  8
0
  6
Continuous
 62
     7
370
    15
100
AcDbCircle
 10
193.4198333928
 20
129.961023701
 30
0.0
 40
4.000000000000028
100
AcDbArc
 50
180.0
 51
270.0
  0
LINE
  5
85
330
1F
100
AcDbEntity
  8
0
  6
Continuous
 62
     7
370
    15
100
AcDbLine
 10
210.069834871
 20
125.961024461
 30
0.0
 11
193.4198342839
 21
125.961024461
 31
0.0
  0
LINE
  5
86
330
1F
100
AcDbEntity
  8
0
  6
Continuous
 62
     7
370
    15
100
AcDbLine
 10
193.4198342839
 20
93.9610229411
 30
0.0
 11
210.069834871
 21
93.9610229411
 31
0.0
  0
LINE
  5
87
330
1F
100
AcDbEntity
  8
0
  6
Continuous
 62
     7
370
    15
100
AcDbLine
 10
210.069834871
 20
93.9610229411
 30
0.0
 11
210.3698324987
 21
94.2610242941
 31
0.0
  0
LINE
  5
88
330
1F
100
AcDbEntity
  8
0
  6
Continuous
 62
     7
370
    15
100
AcDbLine
 10
210.3698324987
 20
125.661023108
 30
0.0
 11
210.069834871
 21
125.961024461
 31
0.0
  0
ARC
  5
89
330
1F
100
AcDbEntity
  8
0
  6
Continuous
 62
     7
370
    15
100
AcDbCircle
 10
103.1198333928
 20
98.553893104
 30
0.0
 40
1.0
100
AcDbArc
 50
180.0
 51
261.7028550302
  0
ARC
  5
8A
330
1F
100
AcDbEntity
  8
0
  6
Continuous
 62
     7
370
    15
100
AcDbCircle
 10
103.1198333928
 20
121.3681542981
 30
0.0
 40
1.0
100
AcDbArc
 50
98.2971449698
 51
180.0
  0
ARC
  5
8B
330
1F
100
AcDbEntity
  8
0
  6
Continuous
 62
     7
370
    15
100
AcDbCircle
 10
183.3698333928
 20
101.2395100462
 30
0.0
 40
1.500000000000001
100
AcDbArc
 50
293.2172608401
 51
336.2941551587
  0
ARC
  5
8C
330
1F
100
AcDbEntity
  8
0
  6
Continuous
 62
     7
370
    15
100
AcDbCircle
 10
183.3698333928
 20
101.2395100462
 30
0.0
 40
1.500000000000032
100
AcDbArc
 50
191.5274417161
 51
293.2172608401
  0
SPLINE
  5
8D
330
1F
100
AcDbEntity
  8
0
  6
Continuous
 62
     7
370
    15
100
AcDbSpline
210
0.0
220
0.0
230
1.0
 70
     8
 71
     3
 72
    11
 73
     7
 74
     0
 42
0.000000001
 43
0.00000001
 40
0.0
 40
0.0
 40
0.0
 40
0.0
 40
0.1183360814115707
 40
0.4755395481499631
 40
0.8141711270312346
 40
1.0
 40
1.0
 40
1.0
 40
1.0
 10
201.5383128651969
 20
108.4153119313073
 30
0.0
 10
201.5032068680609
 20
108.469002857248
 30
0.0
 10
201.3621316371063
 20
108.6847625677018
 30
0.0
 10
201.0955768539438
 20
109.0924392624436
 30
0.0
 10
200.8023259166585
 20
109.5409327846589
 30
0.0
 10
200.64588049207
 20
109.7802049364338
 30
0.0
 10
200.5904481390111
 20
109.8649847785368
 30
0.0
  0
SPLINE
  5
8E
330
1F
100
AcDbEntity
  8
0
  6
Continuous
 62
     7
370
    15
100
AcDbSpline
210
0.0
220
0.0
230
1.0
 70
     8
 71
     3
 72
    10
 73
     6
 74
     0
 42
0.000000001
 43
0.00000001
 40
0.0
 40
0.0
 40
0.0
 40
0.0
 40
0.4391160974561112
 40
0.7513670386881948
 40
1.0
 40
1.0
 40
1.0
 40
1.0
 10
203.2676969298713
 20
108.5113508465242
 30
0.0
 10
203.0201225872381
 20
108.4976020778551
 30
0.0
 10
202.5965006754997
 20
108.4740767011715
 30
0.0
 10
201.9806903205863
 20
108.4398788133141
 30
0.0
 10
201.6741835575345
 20
108.4228573412873
 30
0.0
 10
201.5383128651969
 20
108.4153119313073
 30
0.0
  0
SPLINE
  5
8F
330
1F
100
AcDbEntity
  8
0
  6
Continuous
 62
     7
370
    15
100
AcDbSpline
210
0.0
220
0.0
230
1.0
 70
     8
 71
     3
 72
    10
 73
     6
 74
     0
 42
0.000000001
 43
0.00000001
 40
0.0
 40
0.0
 40
0.0
 40
0.0
 40
0.4391161640315042
 40
0.7513664561928608
 40
1.0
 40
1.0
 40
1.0
 40
1.0
 10
204.049218131005
 20
110.0570626235226
 30
0.0
 10
203.9373379753344
 20
109.8357820400624
 30
0.0
 10
203.745901168926
 20
109.4571514601896
 30
0.0
 10
203.467611684969
 20
108.906744811889
 30
0.0
 10
203.3290983466427
 20
108.6327913557272
 30
0.0
 10
203.2676969298713
 20
108.5113508465242
 30
0.0
  0
SPLINE
  5
90
330
1F
100
AcDbEntity
  8
0
  6
Continuous
 62
     7
370
    15
100
AcDbSpline
210
0.0
220
0.0
230
1.0
 70
     8
 71
     3
 72
    11
 73
     7
 74
     0
 42
0.000000001
 43
0.00000001
 40
0.0
 40
0.0
 40
0.0
 40
0.0
 40
0.1858294683356974
 40
0.5244601083170191
 40
0.8816648644818227
 40
0.9999999999999999
 40
0.9999999999999999
 40
0.9999999999999999
 40
0.9999999999999999
 10
203.1013552674644
 20
111.5067354707521
 30
0.0
 10
203.1567885092694
 20
111.4219558102269
 30
0.0
 10
203.3132358384352
 20
111.1826850942294
 30
0.0
 10
203.6064794904406
 20
110.7341869556347
 30
0.0
 10
203.8730428956667
 20
110.3265158172651
 30
0.0
 10
204.0141135729855
 20
110.1107536843298
 30
0.0
 10
204.049218131005
 20
110.0570626235226
 30
0.0
  0
CIRCLE
  5
91
330
1F
100
AcDbEntity
  8
0
  6
Continuous
 62
     7
370
    15
100
AcDbCircle
 10
202.3198333928
 20
109.961023701
 30
0.0
 40
1.900000000000021
  0
SPLINE
  5
92
330
1F
100
AcDbEntity
  8
0
  6
Continuous
 62
     7
370
    15
100
AcDbSpline
210
0.0
220
0.0
230
1.0
 70
     8
 71
     3
 72
    10
 73
     6
 74
     0
 42
0.000000001
 43
0.00000001
 40
0.0
 40
0.0
 40
0.0
 40
0.0
 40
0.4391163543526634
 40
0.7513667818491374
 40
1.0
 40
1.0
 40
1.0
 40
1.0
 10
200.5904481390111
 20
109.8649847785368
 30
0.0
 10
200.7023282160279
 20
110.0862653936697
 30
0.0
 10
200.8937648878528
 20
110.4648960277372
 30
0.0
 10
201.1720549915372
 20
111.0153021393564
 30
0.0
 10
201.3105667989515
 20
111.2892559895263
 30
0.0
 10
201.3719674774997
 20
111.4106965555352
 30
0.0
  0
SPLINE
  5
93
330
1F
100
AcDbEntity
  8
0
  6
Continuous
 62
     7
370
    15
100
AcDbSpline
210
0.0
220
0.0
230
1.0
 70
     8
 71
     3
 72
    10
 73
     6
 74
     0
 42
0.000000001
 43
0.00000001
 40
0.0
 40
0.0
 40
0.0
 40
0.0
 40
0.4391172656395321
 40
0.7513655787546006
 40
1.0
 40
1.0
 40
1.0
 40
1.0
 10
201.3719674774997
 20
111.4106965555352
 30
0.0
 10
201.6195431044454
 20
111.4244452562149
 30
0.0
 10
202.043165263676
 20
111.447970408268
 30
0.0
 10
202.6589761683
 20
111.4821688318139
 30
0.0
 10
202.9654833214159
 20
111.4991900938419
 30
0.0
 10
203.1013552674644
 20
111.5067354707521
 30
0.0
  0
CIRCLE
  5
94
330
1F
100
AcDbEntity
  8
0
  6
Continuous
 62
     7
370
    15
100
AcDbCircle
 10
202.3198333928
 20
109.961023701
 30
0.0
 40
2.600000000000046
  0
CIRCLE
  5
95
330
1F
100
AcDbEntity
  8
0
  6
Continuous
 62
     7
370
    15
100
AcDbCircle
 10
202.3198333928
 20
109.961023701
 30
0.0
 40
3.000000000000013
  0
ARC
  5
96
330
1F
100
AcDbEntity
  8
0
  6
Continuous
 62
     7
370
    15
100
AcDbCircle
 10
202.3198333928
 20
109.961023701
 30
0.0
 40
1.499999999999995
100
AcDbArc
 50
333.1785720611
 51
33.1785720611
  0
ARC
  5
97
330
1F
100
AcDbEntity
  8
0
  6
Continuous
 62
     7
370
    15
100
AcDbCircle
 10
202.3198333928
 20
109.961023701
 30
0.0
 40
1.499999999999995
100
AcDbArc
 50
273.1785720611
 51
333.1785720611
  0
ARC
  5
98
330
1F
100
AcDbEntity
  8
0
  6
Continuous
 62
     7
370
    15
100
AcDbCircle
 10
202.3198333928
 20
109.961023701
 30
0.0
 40
1.499999999999995
100
AcDbArc
 50
93.1785720611
 51
153.1785720611
  0
ARC
  5
99
330
1F
100
AcDbEntity
  8
0
  6
Continuous
 62
     7
370
    15
100
AcDbCircle
 10
202.3198333928
 20
109.961023701
 30
0.0
 40
1.499999999999999
100
AcDbArc
 50
153.1785720611
 51
213.1785720611
  0
ARC
  5
9A
330
1F
100
AcDbEntity
  8
0
  6
Continuous
 62
     7
370
    15
100
AcDbCircle
 10
202.3198333928
 20
109.961023701
 30
0.0
 40
1.499999999999999
100
AcDbArc
 50
213.1785720611
 51
273.1785720611
  0
ARC
  5
9B
330
1F
100
AcDbEntity
  8
0
  6
Continuous
 62
     7
370
    15
100
AcDbCircle
 10
202.3198333928
 20
109.961023701
 30
0.0
 40
1.499999999999994
100
AcDbArc
 50
33.1785720611
 51
93.1785720611
  0
LINE
  5
9C
330
1F
100
AcDbEntity
  8
0
  6
Continuous
 62
     7
370
    15
100
AcDbLine
 10
174.1698334569
 20
79.5129315533
 30
0.0
 11
177.9479968005
 21
79.5129315533
 31
0.0
  0
LINE
  5
9D
330
1F
100
AcDbEntity
  8
0
  6
Continuous
 62
     7
370
    15
100
AcDbLine
 10
177.9479968005
 20
128.3110232629
 30
0.0
 11
174.1698334569
 21
128.3110232629
 31
0.0
  0
LINE
  5
9E
330
1F
100
AcDbEntity
  8
0
  6
Continuous
 62
     7
370
    15
100
AcDbLine
 10
177.9479968005
 20
79.5129315533
 30
0.0
 11
177.9479968005
 21
128.3110232629
 31
0.0
  0
SPLINE
  5
9F
330
1F
100
AcDbEntity
  8
0
  6
Continuous
 62
     7
370
    15
100
AcDbSpline
210
0.0
220
0.0
230
1.0
 70
     8
 71
     3
 72
     8
 73
     4
 74
     0
 42
0.000000001
 43
0.00000001
 40
0.0
 40
0.0
 40
0.0
 40
0.0
 40
1.0
 40
1.0
 40
1.0
 40
1.0
 10
179.5598333927981
 20
82.14419724152822
 30
0.0
 10
179.1756986442138
 20
81.45155581958403
 30
0.0
 10
178.7907123677209
 20
80.75936964526032
 30
0.0
 10
178.4050437890945
 20
80.06757535441614
 30
0.0
  0
SPLINE
  5
A0
330
1F
100
AcDbEntity
  8
0
  6
Continuous
 62
     7
370
    15
100
AcDbSpline
210
0.0
220
0.0
230
1.0
 70
     8
 71
     3
 72
     8
 73
     4
 74
     0
 42
0.000000001
 43
0.00000001
 40
0.0
 40
0.0
 40
0.0
 40
0.0
 40
0.0011901715795577
 40
0.0011901715795577
 40
0.0011901715795577
 40
0.0011901715795577
 10
177.9479967507414
 20
79.512931352393
 30
0.0
 10
178.1018429402373
 20
79.69749659007658
 30
0.0
 10
178.25423820791
 20
79.88237195060522
 30
0.0
 10
178.4050437890945
 20
80.06757535441614
 30
0.0
  0
SPLINE
  5
A1
330
1F
100
AcDbEntity
  8
0
  6
Continuous
 62
     7
370
    15
100
AcDbSpline
210
0.0
220
0.0
230
1.0
 70
    24
 71
     3
 72
     8
 73
     4
 74
     0
 42
0.000000001
 43
0.00000001
 40
0.0
 40
0.0
 40
0.0
 40
0.0
 40
1.0
 40
1.0
 40
1.0
 40
1.0
 10
179.5598333927981
 20
128.3110237010297
 30
0.0
 10
179.0351009044363
 20
128.3110237010297
 30
0.0
 10
178.4964254202174
 20
128.3110237010297
 30
0.0
 10
177.9479967507414
 20
128.3110237010297
 30
0.0
  0
LINE
  5
A2
330
1F
100
AcDbEntity
  8
0
  6
Continuous
 62
     7
370
    15
100
AcDbLine
 10
179.5598330551
 20
82.1441972234
 30
0.0
 11
179.5598330551
 21
128.3110232629
 31
0.0
  0
LINE
  5
A3
330
1F
100
AcDbEntity
  8
0
  6
Continuous
 62
     7
370
    15
100
AcDbLine
 10
184.9916704574
 20
100.2090034612
 30
0.0
 11
184.9916704574
 21
128.3110232629
 31
0.0
  0
LINE
  5
A4
330
1F
100
AcDbEntity
  8
0
  6
Continuous
 62
     7
370
    15
100
AcDbLine
 10
188.8198327848
 20
128.3110232629
 30
0.0
 11
184.9916704574
 21
128.3110232629
 31
0.0
  0
LINE
  5
A5
330
1F
100
AcDbEntity
  8
0
  6
Continuous
 62
     7
370
    15
100
AcDbLine
 10
184.9916704574
 20
79.5129315533
 30
0.0
 11
188.8198327848
 21
79.5129315533
 31
0.0
  0
LINE
  5
A6
330
1F
100
AcDbEntity
  8
0
  6
Continuous
 62
     7
370
    15
100
AcDbLine
 10
184.9916704574
 20
79.5129315533
 30
0.0
 11
184.9916704574
 21
98.0095240824
 31
0.0
  0
SPLINE
  5
A7
330
1F
100
AcDbEntity
  8
0
  6
Continuous
 62
     7
370
    15
100
AcDbSpline
210
0.0
220
0.0
230
1.0
 70
     8
 71
     3
 72
    12
 73
     8
 74
     0
 42
0.000000001
 43
0.00000001
 40
0.0
 40
0.0
 40
0.0
 40
0.0
 40
0.2499999999999997
 40
0.2499999999999997
 40
0.4999999999999993
 40
0.4999999999999993
 40
1.0
 40
1.0
 40
1.0
 40
1.0
 10
184.9916700348548
 20
98.00952390282265
 30
0.0
 10
185.1146175286504
 20
98.16748075151774
 30
0.0
 10
185.2081617317593
 20
98.33931411849527
 30
0.0
 10
185.3371011209215
 20
98.7109868281411
 30
0.0
 10
185.3696538783066
 20
98.90417527433235
 30
0.0
 10
185.3701902200404
 20
99.49247181260857
 30
0.0
 10
185.2375665630724
 20
99.88449005049729
 30
0.0
 10
184.9916700348548
 20
100.209003633206
 30
0.0
  0
SPLINE
  5
A8
330
1F
100
AcDbEntity
  8
0
  6
Continuous
 62
     7
370
    15
100
AcDbSpline
210
0.0
220
0.0
230
1.0
 70
     8
 71
     3
 72
    12
 73
     8
 74
     0
 42
0.000000001
 43
0.00000001
 40
0.0
 40
0.0
 40
0.0
 40
0.0
 40
0.250000000000001
 40
0.250000000000001
 40
0.500000000000002
 40
0.500000000000002
 40
1.0
 40
1.0
 40
1.0
 40
1.0
 10
188.8198333927982
 20
79.512931352393
 30
0.0
 10
188.9153753029341
 20
79.512931352393
 30
0.0
 10
189.0075202447969
 20
79.5291850215892
 30
0.0
 10
189.1638465214068
 20
79.58279344250269
 30
0.0
 10
189.2275146640268
 20
79.61920456778438
 30
0.0
 10
189.3763825094572
 20
79.74132820747086
 30
0.0
 10
189.4198333927982
 20
79.8364808829079
 30
0.0
 10
189.4198333927982
 20
79.93210733852757
 30
0.0
  0
SPLINE
  5
A9
330
1F
100
AcDbEntity
  8
0
  6
Continuous
 62
     7
370
    15
100
AcDbSpline
210
0.0
220
0.0
230
1.0
 70
    24
 71
     3
 72
    12
 73
     8
 74
     0
 42
0.000000001
 43
0.00000001
 40
0.0
 40
0.0
 40
0.0
 40
0.0
 40
0.4999999999999931
 40
0.4999999999999931
 40
0.7499999999999966
 40
0.7499999999999966
 40
1.0
 40
1.0
 40
1.0
 40
1.0
 10
189.4198333927982
 20
128.3110237010297
 30
0.0
 10
189.4198333927982
 20
128.3110237010297
 30
0.0
 10
189.3701533978431
 20
128.3110237010297
 30
0.0
 10
189.2142348408256
 20
128.3110237010297
 30
0.0
 10
189.1483537762494
 20
128.3110237010297
 30
0.0
 10
188.9957081207607
 20
128.3110237010297
 30
0.0
 10
188.9084582128997
 20
128.3110237010297
 30
0.0
 10
188.819833392798
 20
128.3110237010297
 30
0.0
  0
LINE
  5
AA
330
1F
100
AcDbEntity
  8
0
  6
Continuous
 62
     7
370
    15
100
AcDbLine
 10
189.4198336282
 20
79.9321068056
 30
0.0
 11
189.4198336282
 21
128.3110232629
 31
0.0
  0
SPLINE
  5
AB
330
1F
100
AcDbEntity
  8
0
  6
Continuous
 62
     7
370
    15
100
AcDbSpline
210
0.0
220
0.0
230
1.0
 70
     8
 71
     3
 72
    10
 73
     6
 74
     0
 42
0.000000001
 43
0.00000001
 40
0.0
 40
0.0
 40
0.0
 40
0.0
 40
0.5
 40
0.5
 40
1.0
 40
1.0
 40
1.0
 40
1.0
 10
173.7859779341454
 20
79.60929385156146
 30
0.0
 10
173.8347479071267
 20
79.58106584435346
 30
0.0
 10
173.892200030429
 20
79.55697124011185
 30
0.0
 10
174.0227969334178
 20
79.5227077670193
 30
0.0
 10
174.09528661326
 20
79.51293135239298
 30
0.0
 10
174.1698333927981
 20
79.51293135239298
 30
0.0
  0
SPLINE
  5
AC
330
1F
100
AcDbEntity
  8
0
  6
Continuous
 62
     7
370
    15
100
AcDbSpline
210
0.0
220
0.0
230
1.0
 70
     8
 71
     3
 72
    10
 73
     6
 74
     0
 42
0.000000001
 43
0.00000001
 40
0.0
 40
0.0
 40
0.0
 40
0.0
 40
0.5
 40
0.5
 40
1.0
 40
1.0
 40
1.0
 40
1.0
 10
173.7859779341454
 20
79.60929385156146
 30
0.0
 10
173.7278552740692
 20
79.67659901142325
 30
0.0
 10
173.6754521080657
 20
79.7566843984569
 30
0.0
 10
173.5965490865194
 20
79.94070384014567
 30
0.0
 10
173.5698333927981
 20
80.04591519756613
 30
0.0
 10
173.5698333927981
 20
80.15464854402678
 30
0.0
  0
LINE
  5
AD
330
1F
100
AcDbEntity
  8
0
  6
Continuous
 62
     7
370
    15
100
AcDbLine
 10
173.569833312
 20
80.1546481975
 30
0.0
 11
173.569833312
 21
128.3110232629
 31
0.0
  0
SPLINE
  5
AE
330
1F
100
AcDbEntity
  8
0
  6
Continuous
 62
     7
370
    15
100
AcDbSpline
210
0.0
220
0.0
230
1.0
 70
    24
 71
     3
 72
    12
 73
     8
 74
     0
 42
0.000000001
 43
0.00000001
 40
0.0
 40
0.0
 40
0.0
 40
0.0
 40
0.2499999999999998
 40
0.2499999999999998
 40
0.4999999999999997
 40
0.4999999999999997
 40
1.0
 40
1.0
 40
1.0
 40
1.0
 10
174.1698333927981
 20
128.3110237010297
 30
0.0
 10
174.0814180154877
 20
128.3110237010297
 30
0.0
 10
173.9941475783171
 20
128.3110237010297
 30
0.0
 10
173.8416838535452
 20
128.3110237010297
 30
0.0
 10
173.7760452413228
 20
128.3110237010297
 30
0.0
 10
173.6193868400389
 20
128.3110237010297
 30
0.0
 10
173.5698333927981
 20
128.3110237010297
 30
0.0
 10
173.5698333927981
 20
128.3110237010297
 30
0.0
  0
LINE
  5
AF
330
1F
100
AcDbEntity
  8
0
  6
Continuous
 62
     7
370
    15
100
AcDbLine
 10
183.3798332715
 20
101.9597408899
 30
0.0
 11
183.3798332715
 21
128.3110232629
 31
0.0
  0
SPLINE
  5
B0
330
1F
100
AcDbEntity
  8
0
  6
Continuous
 62
     7
370
    15
100
AcDbSpline
210
0.0
220
0.0
230
1.0
 70
    24
 71
     3
 72
     8
 73
     4
 74
     0
 42
0.000000001
 43
0.00000001
 40
0.0
 40
0.0
 40
0.0
 40
0.0
 40
1.0
 40
1.0
 40
1.0
 40
1.0
 10
184.9916700348548
 20
128.3110237010297
 30
0.0
 10
184.4432413653788
 20
128.3110237010297
 30
0.0
 10
183.90456588116
 20
128.3110237010297
 30
0.0
 10
183.3798333927981
 20
128.3110237010297
 30
0.0
  0
SPLINE
  5
B1
330
1F
100
AcDbEntity
  8
0
  6
Continuous
 62
     7
370
    15
100
AcDbSpline
210
0.0
220
0.0
230
1.0
 70
     8
 71
     3
 72
    12
 73
     8
 74
     0
 42
0.000000001
 43
0.00000001
 40
0.0
 40
0.0
 40
0.0
 40
0.0
 40
0.2499999999999992
 40
0.2499999999999992
 40
0.4999999999999984
 40
0.4999999999999984
 40
1.0
 40
1.0
 40
1.0
 40
1.0
 10
184.9916700348549
 20
100.209003633206
 30
0.0
 10
184.8767739835942
 20
100.4287440682625
 30
0.0
 10
184.7500079671215
 20
100.6257124198843
 30
0.0
 10
184.489793033503
 20
100.9794299927232
 30
0.0
 10
184.3562855755408
 20
101.1362552865954
 30
0.0
 10
183.9478873069526
 20
101.5627978575031
 30
0.0
 10
183.664234172015
 20
101.7894900364583
 30
0.0
 10
183.3798333927982
 20
101.9597411808538
 30
0.0
  0
SPLINE
  5
B2
330
1F
100
AcDbEntity
  8
0
  6
Continuous
 62
     7
370
    15
100
AcDbSpline
210
0.0
220
0.0
230
1.0
 70
     8
 71
     3
 72
    14
 73
    10
 74
     0
 42
0.000000001
 43
0.00000001
 40
0.0
 40
0.0
 40
0.0
 40
0.0
 40
0.2499999999999995
 40
0.2499999999999995
 40
0.4999999999999997
 40
0.4999999999999997
 40
0.7499999999999998
 40
0.7499999999999998
 40
1.0
 40
1.0
 40
1.0
 40
1.0
 10
183.3798333927981
 20
102.0139848307
 30
0.0
 10
183.3798333927981
 20
102.0506356988638
 30
0.0
 10
183.3585056040863
 20
102.0871024961128
 30
0.0
 10
183.2760472014297
 20
102.1522413506536
 30
0.0
 10
183.2149310095745
 20
102.1803124812445
 30
0.0
 10
183.0636279165124
 20
102.2141403629714
 30
0.0
 10
182.9722498931219
 20
102.2196035043679
 30
0.0
 10
182.779876180069
 20
102.1986775863553
 30
0.0
 10
182.67769584059
 20
102.17214216098
 30
0.0
 10
182.5798333927981
 20
102.1316559876987
 30
0.0
  0
SPLINE
  5
B3
330
1F
100
AcDbEntity
  8
0
  6
Continuous
 62
     7
370
    15
100
AcDbSpline
210
0.0
220
0.0
230
1.0
 70
     8
 71
     3
 72
    12
 73
     8
 74
     0
 42
0.000000001
 43
0.00000001
 40
0.0
 40
0.0
 40
0.0
 40
0.0
 40
0.5000000000000009
 40
0.5000000000000009
 40
0.7500000000000004
 40
0.7500000000000004
 40
1.0
 40
1.0
 40
1.0
 40
1.0
 10
183.3798333927981
 20
98.20101768263274
 30
0.0
 10
183.6640399273635
 20
98.033553520339
 30
0.0
 10
183.9427356614672
 20
97.92191642082742
 30
0.0
 10
184.3520817046565
 20
97.85460315518804
 30
0.0
 10
184.488221041976
 20
97.84945211517409
 30
0.0
 10
184.7495410909721
 20
97.88721805279346
 30
0.0
 10
184.8749622734038
 20
97.92876781113773
 30
0.0
 10
184.9916700348553
 20
98.00952390282055
 30
0.0
  0
LINE
  5
B4
330
1F
100
AcDbEntity
  8
0
  6
Continuous
 62
     7
370
    15
100
AcDbLine
 10
183.3798332715
 20
98.2552609943
 30
0.0
 11
183.3798332715
 21
98.2010179736
 31
0.0
  0
SPLINE
  5
B5
330
1F
100
AcDbEntity
  8
0
  6
Continuous
 62
     7
370
    15
100
AcDbSpline
210
0.0
220
0.0
230
1.0
 70
     8
 71
     3
 72
    14
 73
    10
 74
     0
 42
0.000000001
 43
0.00000001
 40
0.0
 40
0.0
 40
0.0
 40
0.0
 40
0.25
 40
0.25
 40
0.5
 40
0.5
 40
0.75
 40
0.75
 40
1.0
 40
1.0
 40
1.0
 40
1.0
 10
182.5798333927946
 20
98.6785445109229
 30
0.0
 10
182.6772428127784
 20
98.64012979152872
 30
0.0
 10
182.779567055792
 20
98.60242938674597
 30
0.0
 10
182.9715687413295
 20
98.53138460115184
 30
0.0
 10
183.0630033709839
 20
98.49718313979379
 30
0.0
 10
183.214782238279
 20
98.43018671438838
 30
0.0
 10
183.2757591281935
 20
98.3970452460789
 30
0.0
 10
183.3587770667578
 20
98.32736767842883
 30
0.0
 10
183.3798333927981
 20
98.29163396726162
 30
0.0
 10
183.3798333927981
 20
98.25526133248084
 30
0.0
  0
SPLINE
  5
B6
330
1F
100
AcDbEntity
  8
0
  6
Continuous
 62
     7
370
    15
100
AcDbSpline
210
0.0
220
0.0
230
1.0
 70
     8
 71
     3
 72
    22
 73
    18
 74
     0
 42
0.000000001
 43
0.00000001
 40
0.0
 40
0.0
 40
0.0
 40
0.0
 40
0.125
 40
0.125
 40
0.25
 40
0.25
 40
0.375
 40
0.375
 40
0.5
 40
0.5
 40
0.625
 40
0.625
 40
0.75
 40
0.75
 40
0.875
 40
0.875
 40
1.0
 40
1.0
 40
1.0
 40
1.0
 10
182.5798333927981
 20
102.1316559876988
 30
0.0
 10
182.3998166982288
 20
102.0571822007222
 30
0.0
 10
182.2353848763586
 20
101.9597329387383
 30
0.0
 10
181.9369886426002
 20
101.7203635051741
 30
0.0
 10
181.8066849152353
 20
101.5804668931037
 30
0.0
 10
181.5934661316163
 20
101.2722153030437
 30
0.0
 10
181.5098382745048
 20
101.1020520849246
 30
0.0
 10
181.3987073975865
 20
100.7515573501343
 30
0.0
 10
181.3698714027327
 20
100.5664323889831
 30
0.0
 10
181.3697954600729
 20
100.2032255143661
 30
0.0
 10
181.3984540854999
 20
100.0198555006586
 30
0.0
 10
181.5096051786122
 20
99.67396438816534
 30
0.0
 10
181.592672299256
 20
99.50844486089791
 30
0.0
 10
181.8063582573743
 20
99.20790512349409
 30
0.0
 10
181.9353652472984
 20
99.07403320221006
 30
0.0
 10
182.2349745267875
 20
98.84278643280574
 30
0.0
 10
182.3998172250487
 20
98.74953631614578
 30
0.0
 10
182.5798333927981
 20
98.67854451092151
 30
0.0
  0
SPLINE
  5
B7
330
1F
100
AcDbEntity
  8
0
  6
Continuous
 62
     7
370
    15
100
AcDbSpline
210
0.0
220
0.0
230
1.0
 70
     8
 71
     3
 72
     8
 73
     4
 74
     0
 42
0.000000001
 43
0.00000001
 40
0.0
 40
0.0
 40
0.0
 40
0.0
 40
0.0011901715795577
 40
0.0011901715795577
 40
0.0011901715795577
 40
0.0011901715795577
 10
184.5346229965018
 20
80.06757535441614
 30
0.0
 10
184.6854285776863
 20
79.88237195060522
 30
0.0
 10
184.8378238453589
 20
79.69749659007658
 30
0.0
 10
184.9916700348548
 20
79.512931352393
 30
0.0
  0
SPLINE
  5
B8
330
1F
100
AcDbEntity
  8
0
  6
Continuous
 62
     7
370
    15
100
AcDbSpline
210
0.0
220
0.0
230
1.0
 70
     8
 71
     3
 72
     8
 73
     4
 74
     0
 42
0.000000001
 43
0.00000001
 40
0.0
 40
0.0
 40
0.0
 40
0.0
 40
1.0
 40
1.0
 40
1.0
 40
1.0
 10
184.5346229965018
 20
80.06757535441614
 30
0.0
 10
184.1489544178754
 20
80.75936964526032
 30
0.0
 10
183.7639681413825
 20
81.45155581958402
 30
0.0
 10
183.3798333927981
 20
82.14419724152822
 30
0.0
  0
LINE
  5
B9
330
1F
100
AcDbEntity
  8
0
  6
Continuous
 62
     7
370
    15
100
AcDbLine
 10
183.3798332715
 20
82.1441972234
 30
0.0
 11
183.3798332715
 21
98.2010179736
 31
0.0
  0
SPLINE
  5
BA
330
1F
100
AcDbEntity
  8
0
  6
Continuous
 62
     7
370
    15
100
AcDbSpline
210
0.0
220
0.0
230
1.0
 70
    24
 71
     3
 72
    14
 73
    10
 74
     0
 42
0.000000001
 43
0.00000001
 40
0.0
 40
0.0
 40
0.0
 40
0.0
 40
0.25
 40
0.25
 40
0.5
 40
0.5
 40
0.75
 40
0.75
 40
1.0
 40
1.0
 40
1.0
 40
1.0
 10
183.3798333927981
 20
128.3110237010297
 30
0.0
 10
183.3798333927981
 20
128.3110237010297
 30
0.0
 10
183.3637517913384
 20
128.3110237010297
 30
0.0
 10
183.2982602780714
 20
128.3110237010297
 30
0.0
 10
183.2489523049441
 20
128.3110237010297
 30
0.0
 10
183.1143827832472
 20
128.3110237010297
 30
0.0
 10
183.0288597071619
 20
128.3110237010297
 30
0.0
 10
182.8218642116069
 20
128.3110237010297
 30
0.0
 10
182.7011705776632
 20
128.3110237010297
 30
0.0
 10
182.5798333927982
 20
128.3110237010297
 30
0.0
  0
SPLINE
  5
BB
330
1F
100
AcDbEntity
  8
0
  6
Continuous
 62
     7
370
    15
100
AcDbSpline
210
0.0
220
0.0
230
1.0
 70
     8
 71
     3
 72
    12
 73
     8
 74
     0
 42
0.000000001
 43
0.00000001
 40
0.0
 40
0.0
 40
0.0
 40
0.0
 40
0.2500000000000015
 40
0.2500000000000015
 40
0.500000000000003
 40
0.500000000000003
 40
1.0
 40
1.0
 40
1.0
 40
1.0
 10
180.3598333927982
 20
83.14316584474295
 30
0.0
 10
180.2534315424407
 20
83.14316584474297
 30
0.0
 10
180.1461161310442
 20
83.12039508072444
 30
0.0
 10
179.9506445400169
 20
83.03415213407234
 30
0.0
 10
179.8604624240793
 20
82.96947581360182
 30
0.0
 10
179.6422409373586
 20
82.736546489545
 30
0.0
 10
179.5598333927978
 20
82.52196125165399
 30
0.0
 10
179.5598333927981
 20
82.30894421322127
 30
0.0
  0
SPLINE
  5
BC
330
1F
100
AcDbEntity
  8
0
  6
Continuous
 62
     7
370
    15
100
AcDbSpline
210
0.0
220
0.0
230
1.0
 70
    24
 71
     3
 72
    14
 73
    10
 74
     0
 42
0.000000001
 43
0.00000001
 40
0.0
 40
0.0
 40
0.0
 40
0.0
 40
0.1250000000000018
 40
0.1250000000000018
 40
0.2500000000000037
 40
0.2500000000000037
 40
0.5000000000000004
 40
0.5000000000000004
 40
1.0
 40
1.0
 40
1.0
 40
1.0
 10
180.3598333927981
 20
128.3110237010297
 30
0.0
 10
180.2992160693805
 20
128.3110237010297
 30
0.0
 10
180.2370909212455
 20
128.3110237010297
 30
0.0
 10
180.1208732582241
 20
128.3110237010297
 30
0.0
 10
180.0662566185317
 20
128.3110237010297
 30
0.0
 10
179.9115802800235
 20
128.3110237010297
 30
0.0
 10
179.8254635312395
 20
128.3110237010297
 30
0.0
 10
179.6241559506989
 20
128.3110237010297
 30
0.0
 10
179.5598333927981
 20
128.3110237010297
 30
0.0
 10
179.5598333927981
 20
128.3110237010297
 30
0.0
  0
LINE
  5
BD
330
1F
100
AcDbEntity
  8
0
  6
Continuous
 62
     7
370
    15
100
AcDbLine
 10
182.5798336992
 20
83.1431654819
 30
0.0
 11
180.3598335588
 21
83.1431654819
 31
0.0
  0
LINE
  5
BE
330
1F
100
AcDbEntity
  8
0
  6
Continuous
 62
     7
370
    15
100
AcDbLine
 10
182.5798336992
 20
128.3110232629
 30
0.0
 11
180.3598335588
 21
128.3110232629
 31
0.0
  0
SPLINE
  5
BF
330
1F
100
AcDbEntity
  8
0
  6
Continuous
 62
     7
370
    15
100
AcDbSpline
210
0.0
220
0.0
230
1.0
 70
     8
 71
     3
 72
    12
 73
     8
 74
     0
 42
0.000000001
 43
0.00000001
 40
0.0
 40
0.0
 40
0.0
 40
0.0
 40
0.5
 40
0.5
 40
0.75
 40
0.75
 40
1.0
 40
1.0
 40
1.0
 40
1.0
 10
183.3798333927981
 20
82.30894421322263
 30
0.0
 10
183.3798333927981
 20
82.5217667721555
 30
0.0
 10
183.2979080349784
 20
82.73602327879348
 30
0.0
 10
183.07898623151
 20
82.96971290724336
 30
0.0
 10
182.988938940019
 20
83.03419773208734
 30
0.0
 10
182.7935254719991
 20
83.12039734324291
 30
0.0
 10
182.6862425050154
 20
83.14316584474297
 30
0.0
 10
182.5798333927982
 20
83.14316584474297
 30
0.0
  0
LINE
  5
C0
330
1F
100
AcDbEntity
  8
0
  6
Continuous
 62
     7
370
    15
100
AcDbLine
 10
170.3698333928
 20
87.7360237368
 30
0.0
 11
170.3698333928
 21
132.1860236653
 31
0.0
  0
SPLINE
  5
C1
330
1F
100
AcDbEntity
  8
0
  6
Continuous
 62
     7
370
    15
100
AcDbSpline
210
0.0
220
0.0
230
1.0
 70
     8
 71
     3
 72
    12
 73
     8
 74
     0
 42
0.000000001
 43
0.00000001
 40
0.0
 40
0.0
 40
0.0
 40
0.0
 40
0.5
 40
0.5
 40
0.75
 40
0.75
 40
1.0
 40
1.0
 40
1.0
 40
1.0
 10
183.3798333927981
 20
137.6131031888367
 30
0.0
 10
183.3798333927981
 20
137.3999657871852
 30
0.0
 10
183.2971909776502
 20
137.1849862624476
 30
0.0
 10
183.0786075668398
 20
136.9520671935618
 30
0.0
 10
182.9895176138591
 20
136.8882002837413
 30
0.0
 10
182.7941122959616
 20
136.8018141293595
 30
0.0
 10
182.6875882490183
 20
136.7788815573164
 30
0.0
 10
182.5798333927982
 20
136.7788815573164
 30
0.0
  0
SPLINE
  5
C2
330
1F
100
AcDbEntity
  8
0
  6
Continuous
 62
     7
370
    15
100
AcDbSpline
210
0.0
220
0.0
230
1.0
 70
     8
 71
     3
 72
    12
 73
     8
 74
     0
 42
0.000000001
 43
0.00000001
 40
0.0
 40
0.0
 40
0.0
 40
0.0
 40
0.2499999999999986
 40
0.2499999999999986
 40
0.4999999999999971
 40
0.4999999999999971
 40
1.0
 40
1.0
 40
1.0
 40
1.0
 10
182.5798333927982
 20
131.1099598444862
 30
0.0
 10
182.7019153902865
 20
131.1099598444862
 30
0.0
 10
182.8225059327721
 20
131.1486862006599
 30
0.0
 10
183.0280012164719
 20
131.2786497884061
 30
0.0
 10
183.1135176994245
 20
131.3678560249529
 30
0.0
 10
183.3169120509687
 20
131.6727325624985
 30
0.0
 10
183.3798333927981
 20
131.9155031766006
 30
0.0
 10
183.3798333927981
 20
132.158264520555
 30
0.0
  0
SPLINE
  5
C3
330
1F
100
AcDbEntity
  8
0
  6
Continuous
 62
     7
370
    15
100
AcDbSpline
210
0.0
220
0.0
230
1.0
 70
     8
 71
     3
 72
     8
 73
     4
 74
     0
 42
0.000000001
 43
0.00000001
 40
0.0
 40
0.0
 40
0.0
 40
0.0
 40
1.0
 40
1.0
 40
1.0
 40
1.0
 10
184.4337880790942
 20
139.6735618572942
 30
0.0
 10
184.0818440561859
 20
139.0420004692804
 30
0.0
 10
183.7304856331257
 20
138.4101185695815
 30
0.0
 10
183.3798333927981
 20
137.7778501605312
 30
0.0
  0
SPLINE
  5
C4
330
1F
100
AcDbEntity
  8
0
  6
Continuous
 62
     7
370
    15
100
AcDbSpline
210
0.0
220
0.0
230
1.0
 70
     8
 71
     3
 72
     8
 73
     4
 74
     0
 42
0.000000001
 43
0.00000001
 40
0.0
 40
0.0
 40
0.0
 40
0.0
 40
0.0012409313617635
 40
0.0012409313617635
 40
0.0012409313617635
 40
0.0012409313617635
 10
184.9916700348548
 20
140.4573597802453
 30
0.0
 10
184.8049971066227
 20
140.1963479025467
 30
0.0
 10
184.6190119186502
 20
139.9350894007713
 30
0.0
 10
184.4337880790942
 20
139.6735618572942
 30
0.0
  0
LINE
  5
C5
330
1F
100
AcDbEntity
  8
0
  6
Continuous
 62
     7
370
    15
100
AcDbLine
 10
184.9916704574
 20
135.8712540545
 30
0.0
 11
184.9916704574
 21
140.4573602207
 31
0.0
  0
SPLINE
  5
C6
330
1F
100
AcDbEntity
  8
0
  6
Continuous
 62
     7
370
    15
100
AcDbSpline
210
0.0
220
0.0
230
1.0
 70
     8
 71
     3
 72
     8
 73
     4
 74
     0
 42
0.000000001
 43
0.00000001
 40
0.0
 40
0.0
 40
0.0
 40
0.0
 40
1.0
 40
1.0
 40
1.0
 40
1.0
 10
183.3798333927981
 20
132.3631627568882
 30
0.0
 10
183.9046245122941
 20
133.5381399445929
 30
0.0
 10
184.4431407634769
 20
134.7070391123311
 30
0.0
 10
184.9916700348549
 20
135.8712533410773
 30
0.0
  0
LINE
  5
C7
330
1F
100
AcDbEntity
  8
0
  6
Continuous
 62
     7
370
    15
100
AcDbLine
 10
183.3798332715
 20
132.3631630816
 30
0.0
 11
183.3798332715
 21
137.7778501787
 31
0.0
  0
LINE
  5
C8
330
1F
100
AcDbEntity
  8
0
  6
Continuous
 62
     7
370
    15
100
AcDbLine
 10
188.8198327848
 20
140.4573602207
 30
0.0
 11
184.9916704574
 21
140.4573602207
 31
0.0
  0
LINE
  5
C9
330
1F
100
AcDbEntity
  8
0
  6
Continuous
 62
     7
370
    15
100
AcDbLine
 10
184.9916704574
 20
135.8712540545
 30
0.0
 11
188.8198327848
 21
135.8712540545
 31
0.0
  0
SPLINE
  5
CA
330
1F
100
AcDbEntity
  8
0
  6
Continuous
 62
     7
370
    15
100
AcDbSpline
210
0.0
220
0.0
230
1.0
 70
     8
 71
     3
 72
     8
 73
     4
 74
     0
 42
0.000000001
 43
0.00000001
 40
0.0
 40
0.0
 40
0.0
 40
0.0
 40
0.0012409313617635
 40
0.0012409313617635
 40
0.0012409313617635
 40
0.0012409313617635
 10
178.5058787065021
 20
139.6735618572942
 30
0.0
 10
178.3206548669461
 20
139.9350894007713
 30
0.0
 10
178.1346696789736
 20
140.1963479025467
 30
0.0
 10
177.9479967507414
 20
140.4573597802453
 30
0.0
  0
SPLINE
  5
CB
330
1F
100
AcDbEntity
  8
0
  6
Continuous
 62
     7
370
    15
100
AcDbSpline
210
0.0
220
0.0
230
1.0
 70
     8
 71
     3
 72
     8
 73
     4
 74
     0
 42
0.000000001
 43
0.00000001
 40
0.0
 40
0.0
 40
0.0
 40
0.0
 40
1.0
 40
1.0
 40
1.0
 40
1.0
 10
179.5598333927981
 20
137.7778501605312
 30
0.0
 10
179.2091811524706
 20
138.4101185695815
 30
0.0
 10
178.8578227294104
 20
139.0420004692804
 30
0.0
 10
178.5058787065021
 20
139.6735618572942
 30
0.0
  0
LINE
  5
CC
330
1F
100
AcDbEntity
  8
0
  6
Continuous
 62
     7
370
    15
100
AcDbLine
 10
179.5598330551
 20
132.3631630816
 30
0.0
 11
179.5598330551
 21
137.7778501787
 31
0.0
  0
SPLINE
  5
CD
330
1F
100
AcDbEntity
  8
0
  6
Continuous
 62
     7
370
    15
100
AcDbSpline
210
0.0
220
0.0
230
1.0
 70
     8
 71
     3
 72
     8
 73
     4
 74
     0
 42
0.000000001
 43
0.00000001
 40
0.0
 40
0.0
 40
0.0
 40
0.0
 40
1.0
 40
1.0
 40
1.0
 40
1.0
 10
177.9479967507414
 20
135.8712533410772
 30
0.0
 10
178.4969415289383
 20
134.7061572287635
 30
0.0
 10
179.0355519034551
 20
133.5369989119391
 30
0.0
 10
179.5598333927981
 20
132.3631627568882
 30
0.0
  0
LINE
  5
CE
330
1F
100
AcDbEntity
  8
0
  6
Continuous
 62
     7
370
    15
100
AcDbLine
 10
177.9479968005
 20
135.8712540545
 30
0.0
 11
177.9479968005
 21
140.4573602207
 31
0.0
  0
LINE
  5
CF
330
1F
100
AcDbEntity
  8
0
  6
Continuous
 62
     7
370
    15
100
AcDbLine
 10
182.5798336992
 20
136.7788819202
 30
0.0
 11
180.3598335588
 21
136.7788819202
 31
0.0
  0
LINE
  5
D0
330
1F
100
AcDbEntity
  8
0
  6
Continuous
 62
     7
370
    15
100
AcDbLine
 10
180.3598335588
 20
131.109960524
 30
0.0
 11
182.5798336992
 21
131.109960524
 31
0.0
  0
SPLINE
  5
D1
330
1F
100
AcDbEntity
  8
0
  6
Continuous
 62
     7
370
    15
100
AcDbSpline
210
0.0
220
0.0
230
1.0
 70
     8
 71
     3
 72
    12
 73
     8
 74
     0
 42
0.000000001
 43
0.00000001
 40
0.0
 40
0.0
 40
0.0
 40
0.0
 40
0.5000000000000003
 40
0.5000000000000003
 40
0.7500000000000001
 40
0.7500000000000001
 40
1.0
 40
1.0
 40
1.0
 40
1.0
 10
173.5698333927981
 20
135.1324360571133
 30
0.0
 10
173.5698333927981
 20
135.309052453635
 30
0.0
 10
173.61917402762
 20
135.4841096250088
 30
0.0
 10
173.7753895859081
 20
135.6980598375014
 30
0.0
 10
173.8406921658088
 20
135.7593924803483
 30
0.0
 10
173.9944611837691
 20
135.8467805783196
 30
0.0
 10
174.0814742903796
 20
135.8712533410772
 30
0.0
 10
174.1698333927981
 20
135.8712533410772
 30
0.0
  0
LINE
  5
D2
330
1F
100
AcDbEntity
  8
0
  6
Continuous
 62
     7
370
    15
100
AcDbLine
 10
174.1698334569
 20
135.8712540545
 30
0.0
 11
177.9479968005
 21
135.8712540545
 31
0.0
  0
LINE
  5
D3
330
1F
100
AcDbEntity
  8
0
  6
Continuous
 62
     7
370
    15
100
AcDbLine
 10
179.5598330551
 20
132.3631630816
 30
0.0
 11
179.5598330551
 21
132.1582646646
 31
0.0
  0
SPLINE
  5
D4
330
1F
100
AcDbEntity
  8
0
  6
Continuous
 62
     7
370
    15
100
AcDbSpline
210
0.0
220
0.0
230
1.0
 70
     8
 71
     3
 72
    14
 73
    10
 74
     0
 42
0.000000001
 43
0.00000001
 40
0.0
 40
0.0
 40
0.0
 40
0.0
 40
0.25
 40
0.25
 40
0.5
 40
0.5
 40
0.75
 40
0.75
 40
1.0
 40
1.0
 40
1.0
 40
1.0
 10
179.5598333927981
 20
132.158264520555
 30
0.0
 10
179.5598333927981
 20
132.0363291853734
 30
0.0
 10
179.5758777603381
 20
131.916774944872
 30
0.0
 10
179.6416071025174
 20
131.6826589617287
 30
0.0
 10
179.6908144727657
 20
131.570726421594
 30
0.0
 10
179.8258274536646
 20
131.3683266123572
 30
0.0
 10
179.9117475222709
 20
131.2784614187942
 30
0.0
 10
180.1182623242763
 20
131.148126909184
 30
0.0
 10
180.2384010366474
 20
131.1099598444862
 30
0.0
 10
180.3598333927982
 20
131.1099598444862
 30
0.0
  0
SPLINE
  5
D5
330
1F
100
AcDbEntity
  8
0
  6
Continuous
 62
     7
370
    15
100
AcDbSpline
210
0.0
220
0.0
230
1.0
 70
     8
 71
     3
 72
    14
 73
    10
 74
     0
 42
0.000000001
 43
0.00000001
 40
0.0
 40
0.0
 40
0.0
 40
0.0
 40
0.25
 40
0.25
 40
0.5
 40
0.5
 40
0.75
 40
0.75
 40
1.0
 40
1.0
 40
1.0
 40
1.0
 10
188.8198333927982
 20
135.8712533410772
 30
0.0
 10
188.9082559309206
 20
135.8712533410772
 30
0.0
 10
188.9963099206137
 20
135.8461809906179
 30
0.0
 10
189.148139684485
 20
135.7598389256465
 30
0.0
 10
189.2139826290488
 20
135.6982956711337
 30
0.0
 10
189.3177816895943
 20
135.5564679248828
 30
0.0
 10
189.356253799069
 20
135.4764193349127
 30
0.0
 10
189.4074764623436
 20
135.307406838239
 30
0.0
 10
189.4198333927982
 20
135.2206275313694
 30
0.0
 10
189.4198333927982
 20
135.1324360571133
 30
0.0
  0
LINE
  5
D6
330
1F
100
AcDbEntity
  8
0
  6
Continuous
 62
     7
370
    15
100
AcDbLine
 10
183.3798332715
 20
132.1582646646
 30
0.0
 11
183.3798332715
 21
132.3631630816
 31
0.0
  0
LINE
  5
D7
330
1F
100
AcDbEntity
  8
0
  6
Continuous
 62
     7
370
    15
100
AcDbLine
 10
173.569833312
 20
135.1324358561
 30
0.0
 11
173.569833312
 21
128.3110232629
 31
0.0
  0
LINE
  5
D8
330
1F
100
AcDbEntity
  8
0
  6
Continuous
 62
     7
370
    15
100
AcDbLine
 10
189.4198336282
 20
135.1324358561
 30
0.0
 11
189.4198336282
 21
128.3110232629
 31
0.0
  0
SPLINE
  5
D9
330
1F
100
AcDbEntity
  8
0
  6
Continuous
 62
     7
370
    15
100
AcDbSpline
210
0.0
220
0.0
230
1.0
 70
     8
 71
     3
 72
    12
 73
     8
 74
     0
 42
0.000000001
 43
0.00000001
 40
0.0
 40
0.0
 40
0.0
 40
0.0
 40
0.5000000000000042
 40
0.5000000000000042
 40
0.7500000000000021
 40
0.7500000000000021
 40
1.0
 40
1.0
 40
1.0
 40
1.0
 10
189.4198333927981
 20
139.9715748344709
 30
0.0
 10
189.4198333927981
 20
140.091901867524
 30
0.0
 10
189.3660385812051
 20
140.2099994410058
 30
0.0
 10
189.2051150112389
 20
140.3496421834448
 30
0.0
 10
189.1403635501364
 20
140.3879181368393
 30
0.0
 10
188.9881433668187
 20
140.4427579664737
 30
0.0
 10
188.9053358512937
 20
140.4573597802453
 30
0.0
 10
188.8198333927982
 20
140.4573597802453
 30
0.0
  0
LINE
  5
DA
330
1F
100
AcDbEntity
  8
0
  6
Continuous
 62
     7
370
    15
100
AcDbLine
 10
189.4198336282
 20
135.1324358561
 30
0.0
 11
189.4198336282
 21
139.9715749152
 31
0.0
  0
LINE
  5
DB
330
1F
100
AcDbEntity
  8
0
  6
Continuous
 62
     7
370
    15
100
AcDbLine
 10
177.9479968005
 20
140.4573602207
 30
0.0
 11
174.1698334569
 21
140.4573602207
 31
0.0
  0
SPLINE
  5
DC
330
1F
100
AcDbEntity
  8
0
  6
Continuous
 62
     7
370
    15
100
AcDbSpline
210
0.0
220
0.0
230
1.0
 70
     8
 71
     3
 72
    10
 73
     6
 74
     0
 42
0.000000001
 43
0.00000001
 40
0.0
 40
0.0
 40
0.0
 40
0.0
 40
0.5
 40
0.5
 40
1.0
 40
1.0
 40
1.0
 40
1.0
 10
173.8570749941057
 20
140.3863202559866
 30
0.0
 10
173.7812354001022
 20
140.316271069658
 30
0.0
 10
173.7139118823762
 20
140.2310522960844
 30
0.0
 10
173.6072682440711
 20
140.0208261694225
 30
0.0
 10
173.5698333927981
 20
139.8973169785552
 30
0.0
 10
173.5698333927981
 20
139.7673988580326
 30
0.0
  0
SPLINE
  5
DD
330
1F
100
AcDbEntity
  8
0
  6
Continuous
 62
     7
370
    15
100
AcDbSpline
210
0.0
220
0.0
230
1.0
 70
     8
 71
     3
 72
     8
 73
     4
 74
     0
 42
0.000000001
 43
0.00000001
 40
0.0
 40
0.0
 40
0.0
 40
0.0
 40
1.0
 40
1.0
 40
1.0
 40
1.0
 10
174.1698333927981
 20
140.4573597802453
 30
0.0
 10
174.0576551386185
 20
140.4573597802453
 30
0.0
 10
173.94898562589
 20
140.4316787149843
 30
0.0
 10
173.8570749941057
 20
140.3863202559866
 30
0.0
  0
LINE
  5
DE
330
1F
100
AcDbEntity
  8
0
  6
Continuous
 62
     7
370
    15
100
AcDbLine
 10
173.569833312
 20
135.1324358561
 30
0.0
 11
173.569833312
 21
139.7673992046
 31
0.0
  0
SPLINE
  5
DF
330
1F
100
AcDbEntity
  8
0
  6
Continuous
 62
     7
370
    15
100
AcDbSpline
210
0.0
220
0.0
230
1.0
 70
     8
 71
     3
 72
    14
 73
    10
 74
     0
 42
0.000000001
 43
0.00000001
 40
0.0
 40
0.0
 40
0.0
 40
0.0
 40
0.25
 40
0.25
 40
0.5
 40
0.5
 40
0.75
 40
0.75
 40
1.0
 40
1.0
 40
1.0
 40
1.0
 10
180.3598333927982
 20
136.7788815573164
 30
0.0
 10
180.2524643482838
 20
136.7788815573164
 30
0.0
 10
180.1456588565209
 20
136.8018065527214
 30
0.0
 10
179.9505174880041
 20
136.8879989865956
 30
0.0
 10
179.8613077704142
 20
136.9518429832596
 30
0.0
 10
179.7153809775978
 20
137.1072590912009
 30
0.0
 10
179.6573912337997
 20
137.1999136694087
 30
0.0
 10
179.5797973922772
 20
137.3991470094582
 30
0.0
 10
179.5598333927981
 20
137.5057521045134
 30
0.0
 10
179.5598333927981
 20
137.6131031888367
 30
0.0
  0
SPLINE
  5
E0
330
1F
100
AcDbEntity
  8
0
  6
Continuous
 62
     7
370
    15
100
AcDbSpline
210
0.0
220
0.0
230
1.0
 70
    11
 71
     3
 72
    66
 73
    62
 74
     0
 42
0.000000001
 43
0.00000001
 40
0.0
 40
0.0
 40
0.0
 40
0.0
 40
0.0312499999999996
 40
0.0312499999999996
 40
0.0624999999999993
 40
0.0624999999999993
 40
0.0937499999999989
 40
0.0937499999999989
 40
0.124999999999999
 40
0.124999999999999
 40
0.1562499999999991
 40
0.1562499999999991
 40
0.1874999999999991
 40
0.1874999999999991
 40
0.2187499999999992
 40
0.2187499999999992
 40
0.2499999999999993
 40
0.2499999999999993
 40
0.2812499999999993
 40
0.2812499999999993
 40
0.3124999999999995
 40
0.3124999999999995
 40
0.3437499999999996
 40
0.3437499999999996
 40
0.3749999999999997
 40
0.3749999999999997
 40
0.4062499999999998
 40
0.4062499999999998
 40
0.4374999999999999
 40
0.4374999999999999
 40
0.46875
 40
0.46875
 40
0.5
 40
0.5
 40
0.5312500000000001
 40
0.5312500000000001
 40
0.5625000000000001
 40
0.5625000000000001
 40
0.6249999999999994
 40
0.6249999999999994
 40
0.656249999999999
 40
0.656249999999999
 40
0.6874999999999991
 40
0.6874999999999991
 40
0.7187499999999992
 40
0.7187499999999992
 40
0.7499999999999992
 40
0.7499999999999992
 40
0.7812499999999993
 40
0.7812499999999993
 40
0.8124999999999994
 40
0.8124999999999994
 40
0.8437499999999996
 40
0.8437499999999996
 40
0.8749999999999996
 40
0.8749999999999996
 40
0.9062499999999997
 40
0.9062499999999997
 40
0.9374999999999998
 40
0.9374999999999998
 40
1.0
 40
1.0
 40
1.0
 40
1.0
 10
199.8031738011828
 20
112.4681408593566
 30
0.0
 10
199.9849587061275
 20
112.6171259624652
 30
0.0
 10
200.1780130083687
 20
112.7464537877623
 30
0.0
 10
200.5848777229328
 20
112.9693308082656
 30
0.0
 10
200.8003185859454
 20
113.0633611693473
 30
0.0
 10
201.2451974623889
 20
113.2123898373234
 30
0.0
 10
201.4716900784244
 20
113.2667370838209
 30
0.0
 10
201.932500343562
 20
113.336746012248
 30
0.0
 10
202.1691178391405
 20
113.3522492260796
 30
0.0
 10
202.6374532221392
 20
113.3427631178916
 30
0.0
 10
202.868898193992
 20
113.3182724092908
 30
0.0
 10
203.3263936451146
 20
113.2300488975465
 30
0.0
 10
203.5546041539743
 20
113.1653218179875
 30
0.0
 10
203.9903941104455
 20
112.9989833795828
 30
0.0
 10
204.1988383187566
 20
112.8976751431524
 30
0.0
 10
204.5964581044396
 20
112.6576877792875
 30
0.0
 10
204.7872630135241
 20
112.517208421073
 30
0.0
 10
205.1329182730586
 20
112.2070927585877
 30
0.0
 10
205.289394391029
 20
112.0370024410512
 30
0.0
 10
205.5676444253631
 20
111.664557492199
 30
0.0
 10
205.68958952466
 20
111.4604043929316
 30
0.0
 10
205.8829292931659
 20
111.0380816642843
 30
0.0
 10
205.9563913498139
 20
110.817762940203
 30
0.0
 10
206.0530016012215
 20
110.3571607395459
 30
0.0
 10
206.0745170725888
 20
110.1218980614635
 30
0.0
 10
206.0634328345347
 20
109.6557159259931
 30
0.0
 10
206.0302849633118
 20
109.419555614396
 30
0.0
 10
205.9126325288733
 20
108.9661448572939
 30
0.0
 10
205.8289920843466
 20
108.7483775231026
 30
0.0
 10
205.6136737921661
 20
108.3300353182159
 30
0.0
 10
205.4842816554439
 20
108.1344320804538
 30
0.0
 10
205.189651914014
 20
107.7738137915536
 30
0.0
 10
205.0219715710274
 20
107.606510587893
 30
0.0
 10
204.6619767079112
 20
107.3103043923435
 30
0.0
 10
204.4692028982434
 20
107.1801935875603
 30
0.0
 10
204.0588526201202
 20
106.9544909051109
 30
0.0
 10
203.8426218681041
 20
106.8601103097394
 30
0.0
 10
203.1805086891704
 20
106.637339658185
 30
0.0
 10
202.707105136223
 20
106.5655519389772
 30
0.0
 10
202.0082106383481
 20
106.578894401633
 30
0.0
 10
201.7747199350634
 20
106.6030928651615
 30
0.0
 10
201.3119812546348
 20
106.6921682394154
 30
0.0
 10
201.0878314835011
 20
106.7559089931484
 30
0.0
 10
200.6536303775724
 20
106.9211643621221
 30
0.0
 10
200.4421790740561
 20
107.0235152192634
 30
0.0
 10
200.0408567081725
 20
107.2658211512435
 30
0.0
 10
199.8542177423653
 20
107.4034630523729
 30
0.0
 10
199.5092648639396
 20
107.712448624729
 30
0.0
 10
199.3493431471287
 20
107.8859891224104
 30
0.0
 10
199.0698098025476
 20
108.2607545219604
 30
0.0
 10
198.9510603767475
 20
108.4598161988572
 30
0.0
 10
198.7572839198207
 20
108.8824540051835
 30
0.0
 10
198.6819759089968
 20
109.1092307743698
 30
0.0
 10
198.5865704890576
 20
109.5666058315939
 30
0.0
 10
198.5650180534506
 20
109.7987528749771
 30
0.0
 10
198.5764265958779
 20
110.2702704776771
 30
0.0
 10
198.6097667105186
 20
110.5043703761154
 30
0.0
 10
198.7273135343295
 20
110.9565812870898
 30
0.0
 10
198.8130803341962
 20
111.1790250244531
 30
0.0
 10
199.1348518836005
 20
111.8021323990002
 30
0.0
 10
199.4396039912935
 20
112.1701706531394
 30
0.0
 10
199.8031738011829
 20
112.4681408593566
 30
0.0
  0
LINE
  5
E1
330
1F
100
AcDbEntity
  8
0
  6
Continuous
 62
     7
370
    15
100
AcDbLine
 10
210.069834871
 20
109.961023701
 30
0.0
 11
210.069834871
 21
93.9610229411
 31
0.0
  0
LINE
  5
E2
330
1F
100
AcDbEntity
  8
0
  6
Continuous
 62
     7
370
    15
100
AcDbLine
 10
210.069834871
 20
125.961024461
 30
0.0
 11
210.069834871
 21
109.961023701
 31
0.0
  0
LINE
  5
E3
330
1F
100
AcDbEntity
  8
0
  6
Continuous
 62
     7
370
    15
100
AcDbLine
 10
210.3698324987
 20
109.961023701
 30
0.0
 11
210.3698324987
 21
94.2610242941
 31
0.0
  0
LINE
  5
E4
330
1F
100
AcDbEntity
  8
0
  6
Continuous
 62
     7
370
    15
100
AcDbLine
 10
210.3698324987
 20
125.661023108
 30
0.0
 11
210.3698324987
 21
109.961023701
 31
0.0
  0
LINE
  5
E5
330
1F
100
AcDbEntity
  8
0
  6
Continuous
 62
     7
370
    15
100
AcDbLine
 10
102.119832916
 20
98.5538933032
 30
0.0
 11
102.119832916
 21
121.3681540989
 31
0.0
  0
ARC
  5
E6
330
1F
100
AcDbEntity
  8
0
  6
Continuous
 62
     7
370
    15
100
AcDbCircle
 10
183.3821395658
 20
100.8039196653
 30
0.0
 40
2.015400767325057
100
AcDbArc
 50
183.1754858657
 51
333.2068118082
  0
ARC
  5
E7
330
1F
100
AcDbEntity
  8
0
  6
Continuous
 62
     7
370
    15
100
AcDbCircle
 10
183.389357555
 20
100.7116561487
 30
0.0
 40
1.885872840361599
100
AcDbArc
 50
161.5404026688
 51
337.258360343
  0
LWPOLYLINE
  5
E8
330
1F
100
AcDbEntity
  8
0
  6
Continuous
 62
     7
370
    15
100
AcDbPolyline
 90
        3
 70
   128
 43
0.0
 10
182.7469343895
 20
101.9403330587
 10
183.1990905681
 20
102.0584536322
 10
183.356044499
 20
102.0675554477
  0
LWPOLYLINE
  5
E9
330
1F
100
AcDbEntity
  8
0
  6
Continuous
 62
     7
370
    15
100
AcDbPolyline
 90
       16
 70
   128
 43
0.0
 10
184.8568987676
 20
100.4733714812
 10
184.8399086499
 20
100.3779286124
 10
184.675831964
 20
99.9647575967
 10
184.3839144909
 20
99.6194539197
 10
183.9927320012
 20
99.3758180716
 10
183.5405767539
 20
99.2576984294
 10
183.0717070603
 20
99.2766573631
 10
182.6320203596
 20
99.4308387466
 10
182.2645558619
 20
99.7051514291
 10
182.0052831078
 20
100.0727425866
 10
181.8795824999
 20
100.4976296403
 10
181.8997586721
 20
100.9382234492
 10
182.063835358
 20
101.3513935335
 10
182.3557518998
 20
101.6966972106
 10
182.7469343895
 20
101.9403330587
 10
182.7469343895
 20
101.9403330587
  0
LWPOLYLINE
  5
EA
330
1F
100
AcDbEntity
  8
0
  6
HIDDEN
 62
     7
370
     0
100
AcDbPolyline
 90
       22
 70
   128
 43
0.0
 10
175.2901851775
 20
99.4868987777
 10
175.5319318378
 20
99.5844967269
 10
175.7241344655
 20
99.813451206
 10
175.8497149327
 20
100.153419336
 10
175.8975150639
 20
100.5741936692
 10
175.8632870966
 20
101.0383862608
 10
175.7500727305
 20
101.5047516279
 10
175.5679311806
 20
101.9318505727
 10
175.3330469707
 20
102.2817344942
 10
175.0662905739
 20
102.5233144477
 10
174.7913641499
 20
102.6351243794
 10
174.5326962897
 20
102.607230337
 10
174.3132711032
 20
102.4421101042
 10
174.1525846643
 20
102.1544352711
 10
174.0649153122
 20
101.7697678484
 10
174.058052629
 20
101.3222859778
 10
174.1326063981
 20
100.8517520108
 10
174.2819525877
 20
100.3999739491
 10
174.4928203167
 20
100.0070936583
 10
174.7464739361
 20
99.7080217652
 10
175.0203745084
 20
99.5293307655
 10
175.2901851775
 20
99.4868987777
  0
LWPOLYLINE
  5
EB
330
1F
100
AcDbEntity
  8
0
  6
HIDDEN
 62
     7
370
     0
100
AcDbPolyline
 90
       24
 70
   128
 43
0.0
 10
175.5511389689
 20
99.1493213527
 10
175.8274227956
 20
99.2532811665
 10
176.0541169548
 20
99.4947228186
 10
176.2144087458
 20
99.8557416328
 10
176.2964103015
 20
100.3095602222
 10
176.2940396199
 20
100.8225224518
 10
176.2074727209
 20
101.3565847256
 10
176.0431296767
 20
101.8721360319
 10
175.8131991716
 20
102.3309423194
 10
175.5347341874
 20
102.6989749238
 10
175.228387268
 20
102.9489391089
 10
174.9168784933
 20
103.0622955017
 10
174.6233107166
 20
103.0306379848
 10
174.3694573285
 20
102.8563134909
 10
174.1741452476
 20
102.5522511058
 10
174.0518595667
 20
102.1410023399
 10
174.011669738
 20
101.6530666106
 10
174.0565566921
 20
101.1246323191
 10
174.1831911837
 20
100.5948923134
 10
174.3821810575
 20
100.1031325736
 10
174.6387688087
 20
99.6858264857
 10
174.9339240247
 20
99.3739228301
 10
175.2457564341
 20
99.1905547284
 10
175.5511389689
 20
99.1493213527
  0
LWPOLYLINE
  5
EC
330
1F
100
AcDbEntity
  8
0
  6
HIDDEN
 62
     7
370
     0
100
AcDbPolyline
 90
       24
 70
   128
 43
0.0
 10
178.0289375798
 20
99.7427172564
 10
178.3052214065
 20
99.8466770702
 10
178.5319155657
 20
100.0881187223
 10
178.6922073567
 20
100.4491366052
 10
178.7742084467
 20
100.9029561259
 10
178.7718382308
 20
101.4159183555
 10
178.6852708662
 20
101.9499806293
 10
178.520927822
 20
102.4655319356
 10
178.2909982482
 20
102.9243382231
 10
178.0125327983
 20
103.2923708275
 10
177.7061854133
 20
103.5423350126
 10
177.3946766385
 20
103.6556914054
 10
177.1011093275
 20
103.6240334228
 10
176.8472559394
 20
103.449708929
 10
176.6519436257
 20
103.1456470095
 10
176.5296581776
 20
102.734397778
 10
176.4894683489
 20
102.2464625143
 10
176.534355303
 20
101.7180282228
 10
176.6609895618
 20
101.1882882171
 10
176.8599796684
 20
100.6965284773
 10
177.1165674196
 20
100.2792223894
 10
177.4117226356
 20
99.9673187338
 10
177.723555045
 20
99.7839506321
 10
178.0289375798
 20
99.7427172564
  0
LINE
  5
ED
330
1F
100
AcDbEntity
  8
0
  6
HIDDEN
 62
     7
370
     0
100
AcDbLine
 10
175.4000677371
 20
101.6860987597
 30
0.0
 11
174.7478210942
 21
102.1931117006
 31
0.0
  0
LINE
  5
EE
330
1F
100
AcDbEntity
  8
0
  6
HIDDEN
 62
     7
370
     0
100
AcDbLine
 10
174.3220967816
 20
101.5698520072
 30
0.0
 11
174.7478210942
 21
102.1931117006
 31
0.0
  0
LINE
  5
EF
330
1F
100
AcDbEntity
  8
0
  6
HIDDEN
 62
     7
370
     0
100
AcDbLine
 10
174.5486200431
 20
100.4395793729
 30
0.0
 11
174.3220967816
 21
101.5698520072
 31
0.0
  0
LINE
  5
F0
330
1F
100
AcDbEntity
  8
0
  6
HIDDEN
 62
     7
370
     0
100
AcDbLine
 10
174.5486200431
 20
100.4395793729
 30
0.0
 11
175.2008671516
 21
99.932566432
 31
0.0
  0
LINE
  5
F1
330
1F
100
AcDbEntity
  8
0
  6
HIDDEN
 62
     7
370
     0
100
AcDbLine
 10
175.6265909986
 20
100.5558261253
 30
0.0
 11
175.2008671516
 21
99.932566432
 31
0.0
  0
LINE
  5
F2
330
1F
100
AcDbEntity
  8
0
  6
HIDDEN
 62
     7
370
     0
100
AcDbLine
 10
175.6265909986
 20
100.5558261253
 30
0.0
 11
175.4000677371
 21
101.6860987597
 31
0.0
  0
LINE
  5
F3
330
1F
100
AcDbEntity
  8
0
  6
HIDDEN
 62
     7
370
     0
100
AcDbLine
 10
176.6287960687
 20
101.980361303
 30
0.0
 11
175.4000677371
 21
101.6860987597
 31
0.0
  0
LINE
  5
F4
330
1F
100
AcDbEntity
  8
0
  6
HIDDEN
 62
     7
370
     0
100
AcDbLine
 10
176.8553188646
 20
100.8500886687
 30
0.0
 11
175.6265909986
 21
100.5558261253
 31
0.0
  0
LINE
  5
F5
330
1F
100
AcDbEntity
  8
0
  6
HIDDEN
 62
     7
370
     0
100
AcDbLine
 10
175.7773479091
 20
100.7338419162
 30
0.0
 11
176.4295950176
 21
100.2268289753
 31
0.0
  0
LINE
  5
F6
330
1F
100
AcDbEntity
  8
0
  6
HIDDEN
 62
     7
370
     0
100
AcDbLine
 10
175.7773479091
 20
100.7338419162
 30
0.0
 11
175.5508251132
 21
101.8641145505
 31
0.0
  0
LINE
  5
F7
330
1F
100
AcDbEntity
  8
0
  6
HIDDEN
 62
     7
370
     0
100
AcDbLine
 10
175.5508251132
 20
101.8641145505
 30
0.0
 11
175.9765489602
 21
102.4873737783
 31
0.0
  0
LINE
  5
F8
330
1F
100
AcDbEntity
  8
0
  6
HIDDEN
 62
     7
370
     0
100
AcDbLine
 10
176.8553188646
 20
100.8500886687
 30
0.0
 11
176.4295950176
 21
100.2268289753
 31
0.0
  0
LINE
  5
F9
330
1F
100
AcDbEntity
  8
0
  6
HIDDEN
 62
     7
370
     0
100
AcDbLine
 10
176.8553188646
 20
100.8500886687
 30
0.0
 11
176.6287960687
 21
101.980361303
 31
0.0
  0
LINE
  5
FA
330
1F
100
AcDbEntity
  8
0
  6
HIDDEN
 62
     7
370
     0
100
AcDbLine
 10
176.6287960687
 20
101.980361303
 30
0.0
 11
175.9765489602
 21
102.4873737783
 31
0.0
  0
LINE
  5
FB
330
1F
100
AcDbEntity
  8
0
  6
HIDDEN
 62
     7
370
     0
100
AcDbLine
 10
175.5508251132
 20
101.8641145505
 30
0.0
 11
174.3220967816
 21
101.5698520072
 31
0.0
  0
LINE
  5
FC
330
1F
100
AcDbEntity
  8
0
  6
HIDDEN
 62
     7
370
     0
100
AcDbLine
 10
175.9765489602
 20
102.4873737783
 30
0.0
 11
174.7478210942
 21
102.1931117006
 31
0.0
  0
LWPOLYLINE
  5
FD
330
1F
100
AcDbEntity
  8
0
  6
HIDDEN
 62
     7
370
     0
100
AcDbPolyline
 90
       19
 70
   128
 43
0.0
 10
178.496170474
 20
100.623982174
 10
178.7118116969
 20
100.7226204105
 10
178.8718669319
 20
100.9569411703
 10
178.9570298621
 20
101.2986806758
 10
178.9570298621
 20
101.7066204526
 10
178.8718669319
 20
102.1315568664
 10
178.7118116969
 20
102.5222364419
 10
178.496170474
 20
102.8315375165
 10
178.2509523088
 20
103.0221536361
 10
178.0057336779
 20
103.0710937061
 10
177.790092455
 20
102.9724554696
 10
177.63003722
 20
102.7381351755
 10
177.5448738241
 20
102.3963956699
 10
177.5448738241
 20
101.9884554275
 10
177.63003722
 20
101.5635190137
 10
177.790092455
 20
101.1728394382
 10
178.0057336779
 20
100.8635388293
 10
178.2509523088
 20
100.672922244
 10
178.496170474
 20
100.623982174
  0
LINE
  5
FE
330
1F
100
AcDbEntity
  8
0
  6
HIDDEN
 62
     7
370
     0
100
AcDbLine
 10
175.7773479091
 20
100.7338419162
 30
0.0
 11
174.5486200431
 21
100.4395793729
 31
0.0
  0
LINE
  5
FF
330
1F
100
AcDbEntity
  8
0
  6
HIDDEN
 62
     7
370
     0
100
AcDbLine
 10
176.4295950176
 20
100.2268289753
 30
0.0
 11
175.2008671516
 21
99.932566432
 31
0.0
  0
LWPOLYLINE
  5
100
330
1F
100
AcDbEntity
  8
0
  6
HIDDEN
 62
     7
370
     0
100
AcDbPolyline
 90
       24
 70
   128
 43
0.0
 10
177.2442387061
 20
116.2639508561
 10
176.9679548794
 20
116.3679102041
 10
176.7412607202
 20
116.609352322
 10
176.5809689292
 20
116.9703706705
 10
176.4989673735
 20
117.4241897256
 10
176.5013380551
 20
117.9371524208
 10
176.5879049541
 20
118.4712137633
 10
176.7522479983
 20
118.9867660009
 10
176.9821785034
 20
119.4455718227
 10
177.2606434876
 20
119.8136044272
 10
177.566990407
 20
120.0635686122
 10
177.8784991817
 20
120.1769254707
 10
178.1720669584
 20
120.1452670224
 10
178.4259198809
 20
119.9709429943
 10
178.6212321946
 20
119.6668801435
 10
178.7435185739
 20
119.2556313776
 10
178.783707937
 20
118.7676956483
 10
178.7388209829
 20
118.2392622881
 10
178.6121862584
 20
117.7095213511
 10
178.4131961519
 20
117.2177620769
 10
178.1566088663
 20
116.800455989
 10
177.8614536503
 20
116.4885523335
 10
177.5496212409
 20
116.3051842317
 10
177.2442387061
 20
116.2639508561
  0
LWPOLYLINE
  5
101
330
1F
100
AcDbEntity
  8
0
  6
HIDDEN
 62
     7
370
     0
100
AcDbPolyline
 90
       19
 70
   128
 43
0.0
 10
178.0057336779
 20
116.850953696
 10
177.790092455
 20
116.9495919325
 10
177.63003722
 20
117.1839122266
 10
177.5448738241
 20
117.5256517321
 10
177.5448738241
 20
117.9335919746
 10
177.63003722
 20
118.3585283883
 10
177.790092455
 20
118.7492079638
 10
178.0057336779
 20
119.0585085728
 10
178.2509523088
 20
119.2491251581
 10
178.496170474
 20
119.2980652281
 10
178.7118116969
 20
119.1994269915
 10
178.8718669319
 20
118.9651062318
 10
178.9570298621
 20
118.6233667262
 10
178.9570298621
 20
118.2154269495
 10
178.8718669319
 20
117.7904905357
 10
178.7118116969
 20
117.3998109602
 10
178.496170474
 20
117.0905098856
 10
178.2509523088
 20
116.8998937659
 10
178.0057336779
 20
116.850953696
  0
LWPOLYLINE
  5
102
330
1F
100
AcDbEntity
  8
0
  6
HIDDEN
 62
     7
370
     0
100
AcDbPolyline
 90
       24
 70
   128
 43
0.0
 10
174.7664400952
 20
116.8573467598
 10
174.4901562685
 20
116.9613061078
 10
174.2634621093
 20
117.2027482257
 10
174.1031703183
 20
117.5637665742
 10
174.0211687626
 20
118.0175851636
 10
174.0235394442
 20
118.5305483245
 10
174.1101063432
 20
119.064609667
 10
174.2744493873
 20
119.5801619046
 10
174.5043798925
 20
120.0389677264
 10
174.7828448766
 20
120.4070003309
 10
175.0891922617
 20
120.6569645159
 10
175.4007010365
 20
120.7703204431
 10
175.6942683475
 20
120.7386629262
 10
175.9481217356
 20
120.564338898
 10
176.1434340493
 20
120.2602760472
 10
176.2657194974
 20
119.8490272813
 10
176.3059093261
 20
119.361091552
 10
176.2610223719
 20
118.8326581918
 10
176.1343881132
 20
118.3029172548
 10
175.9353980066
 20
117.8111575149
 10
175.6788102554
 20
117.3938518927
 10
175.3836550394
 20
117.0819482372
 10
175.07182263
 20
116.8985801355
 10
174.7664400952
 20
116.8573467598
  0
LINE
  5
103
330
1F
100
AcDbEntity
  8
0
  6
HIDDEN
 62
     7
370
     0
100
AcDbLine
 10
175.7773479091
 20
119.1882054858
 30
0.0
 11
176.4295950176
 21
119.6952184268
 31
0.0
  0
LINE
  5
104
330
1F
100
AcDbEntity
  8
0
  6
HIDDEN
 62
     7
370
     0
100
AcDbLine
 10
175.7773479091
 20
119.1882054858
 30
0.0
 11
174.5486200431
 21
119.4824680292
 31
0.0
  0
LINE
  5
105
330
1F
100
AcDbEntity
  8
0
  6
HIDDEN
 62
     7
370
     0
100
AcDbLine
 10
175.5508251132
 20
118.0579328515
 30
0.0
 11
175.7773479091
 21
119.1882054858
 31
0.0
  0
LINE
  5
106
330
1F
100
AcDbEntity
  8
0
  6
HIDDEN
 62
     7
370
     0
100
AcDbLine
 10
175.5508251132
 20
118.0579328515
 30
0.0
 11
174.3220967816
 21
118.3521953948
 31
0.0
  0
LINE
  5
107
330
1F
100
AcDbEntity
  8
0
  6
HIDDEN
 62
     7
370
     0
100
AcDbLine
 10
175.5508251132
 20
118.0579328515
 30
0.0
 11
175.9765489602
 21
117.4346736238
 31
0.0
  0
LINE
  5
108
330
1F
100
AcDbEntity
  8
0
  6
HIDDEN
 62
     7
370
     0
100
AcDbLine
 10
174.3220967816
 20
118.3521953948
 30
0.0
 11
174.7478210942
 21
117.7289357014
 31
0.0
  0
LINE
  5
109
330
1F
100
AcDbEntity
  8
0
  6
HIDDEN
 62
     7
370
     0
100
AcDbLine
 10
174.3220967816
 20
118.3521953948
 30
0.0
 11
174.5486200431
 21
119.4824680292
 31
0.0
  0
LINE
  5
10A
330
1F
100
AcDbEntity
  8
0
  6
HIDDEN
 62
     7
370
     0
100
AcDbLine
 10
174.5486200431
 20
119.4824680292
 30
0.0
 11
175.2008671516
 21
119.9894809701
 31
0.0
  0
LWPOLYLINE
  5
10B
330
1F
100
AcDbEntity
  8
0
  6
HIDDEN
 62
     7
370
     0
100
AcDbPolyline
 90
       22
 70
   128
 43
0.0
 10
174.6585026027
 20
117.2832680472
 10
174.4167559424
 20
117.3808655307
 10
174.2245533147
 20
117.6098200098
 10
174.0989728475
 20
117.9497886055
 10
174.0511729491
 20
118.3705629386
 10
174.0854006836
 20
118.8347555303
 10
174.1986152825
 20
119.3011199661
 10
174.3807565996
 20
119.7282198422
 10
174.6156408095
 20
120.0781037637
 10
174.8823972063
 20
120.3196832516
 10
175.1573236303
 20
120.4314931833
 10
175.4159914905
 20
120.4035991408
 10
175.6354171427
 20
120.2384793737
 10
175.7961033487
 20
119.9508040749
 10
175.883772468
 20
119.5661371179
 10
175.890635384
 20
119.1186552473
 10
175.8160811493
 20
118.6481212803
 10
175.6667351925
 20
118.1963422873
 10
175.4558674635
 20
117.8034629278
 10
175.2022138441
 20
117.5043905691
 10
174.9283132718
 20
117.325700035
 10
174.6585026027
 20
117.2832680472
  0
LINE
  5
10C
330
1F
100
AcDbEntity
  8
0
  6
HIDDEN
 62
     7
370
     0
100
AcDbLine
 10
176.8553188646
 20
119.0719587334
 30
0.0
 11
175.6265909986
 21
119.3662212767
 31
0.0
  0
LINE
  5
10D
330
1F
100
AcDbEntity
  8
0
  6
HIDDEN
 62
     7
370
     0
100
AcDbLine
 10
175.6265909986
 20
119.3662212767
 30
0.0
 11
175.2008671516
 21
119.9894809701
 31
0.0
  0
LINE
  5
10E
330
1F
100
AcDbEntity
  8
0
  6
HIDDEN
 62
     7
370
     0
100
AcDbLine
 10
176.4295950176
 20
119.6952184268
 30
0.0
 11
175.2008671516
 21
119.9894809701
 31
0.0
  0
LINE
  5
10F
330
1F
100
AcDbEntity
  8
0
  6
HIDDEN
 62
     7
370
     0
100
AcDbLine
 10
176.8553188646
 20
119.0719587334
 30
0.0
 11
176.4295950176
 21
119.6952184268
 31
0.0
  0
LINE
  5
110
330
1F
100
AcDbEntity
  8
0
  6
HIDDEN
 62
     7
370
     0
100
AcDbLine
 10
176.6287960687
 20
117.9416860991
 30
0.0
 11
175.4000677371
 21
118.2359486424
 31
0.0
  0
LINE
  5
111
330
1F
100
AcDbEntity
  8
0
  6
HIDDEN
 62
     7
370
     0
100
AcDbLine
 10
175.4000677371
 20
118.2359486424
 30
0.0
 11
174.7478210942
 21
117.7289357014
 31
0.0
  0
LINE
  5
112
330
1F
100
AcDbEntity
  8
0
  6
HIDDEN
 62
     7
370
     0
100
AcDbLine
 10
175.9765489602
 20
117.4346736238
 30
0.0
 11
174.7478210942
 21
117.7289357014
 31
0.0
  0
LINE
  5
113
330
1F
100
AcDbEntity
  8
0
  6
HIDDEN
 62
     7
370
     0
100
AcDbLine
 10
176.6287960687
 20
117.9416860991
 30
0.0
 11
175.9765489602
 21
117.4346736238
 31
0.0
  0
LINE
  5
114
330
1F
100
AcDbEntity
  8
0
  6
HIDDEN
 62
     7
370
     0
100
AcDbLine
 10
175.4000677371
 20
118.2359486424
 30
0.0
 11
175.6265909986
 21
119.3662212767
 31
0.0
  0
LINE
  5
115
330
1F
100
AcDbEntity
  8
0
  6
HIDDEN
 62
     7
370
     0
100
AcDbLine
 10
176.6287960687
 20
117.9416860991
 30
0.0
 11
176.8553188646
 21
119.0719587334
 31
0.0
  0
CIRCLE
  5
116
330
1F
100
AcDbEntity
  8
0
  6
HIDDEN
 62
     7
370
     0
100
AcDbCircle
 10
202.3198333928
 20
109.961023701
 30
0.0
 40
2.153589838486252
  0
CIRCLE
  5
117
330
1F
100
AcDbEntity
  8
0
  6
HIDDEN
 62
     7
370
     0
100
AcDbCircle
 10
202.3198333928
 20
109.961023701
 30
0.0
 40
1.953589838486229
  0
SPLINE
  5
118
330
1F
100
AcDbEntity
  8
0
  6
HIDDEN
 62
     7
370
     0
100
AcDbSpline
210
0.0
220
0.0
230
1.0
 70
     8
 71
     3
 72
     9
 73
     5
 74
     0
 42
0.000000001
 43
0.00000001
 40
0.0
 40
0.0
 40
0.0
 40
0.0
 40
0.9333113421934416
 40
1.0
 40
1.0
 40
1.0
 40
1.0
 10
181.3939424806826
 20
102.2144846223768
 30
0.0
 10
181.3793666621338
 20
102.1135145343172
 30
0.0
 10
181.3637493457145
 20
102.0053297480674
 30
0.0
 10
181.3707792005976
 20
101.9128472510925
 30
0.0
 10
181.3712480121843
 20
101.9066797174987
 30
0.0
  0
LWPOLYLINE
  5
119
330
1F
100
AcDbEntity
  8
0
  6
HIDDEN
 62
     7
370
     0
100
AcDbPolyline
 90
       23
 70
   128
 43
0.0
 10
181.3939424807
 20
101.6326156982
 10
181.549324339
 20
101.1453933619
 10
181.8380473757
 20
100.7151661046
 10
182.2389649802
 20
100.3734461569
 10
182.7227116206
 20
100.1452618815
 10
183.2538569921
 20
100.0473277249
 10
183.7934969568
 20
100.0868158021
 10
184.3021052533
 20
100.2608334251
 10
184.7424308413
 20
100.556636376
 10
185.0822210887
 20
100.9525574349
 10
185.2965891936
 20
101.419598011
 10
185.3698330575
 20
101.9235506259
 10
185.2965891936
 20
102.4275027752
 10
185.0822210887
 20
102.8945433513
 10
184.7424308413
 20
103.2904644102
 10
184.3021052533
 20
103.5862668954
 10
183.7934969568
 20
103.7602849842
 10
183.2538569921
 20
103.7997730613
 10
182.7227116206
 20
103.701838439
 10
182.2389649802
 20
103.4736546293
 10
181.8380473757
 20
103.1319346816
 10
181.549324339
 20
102.7017074243
 10
181.3939424807
 20
102.2144846224
  0
LWPOLYLINE
  5
11A
330
1F
100
AcDbEntity
  8
0
  6
HIDDEN
 62
     7
370
     0
100
AcDbPolyline
 90
       25
 70
   128
 43
0.0
 10
173.820044996
 20
101.0628390663
 10
173.9484494662
 20
100.5298804097
 10
174.1467671578
 20
100.033241471
 10
174.4014827178
 20
99.6067683749
 10
174.6952376904
 20
99.279523974
 10
175.0080135295
 20
99.0738097184
 10
175.3184945898
 20
99.0036438756
 10
175.6055226193
 20
99.0738097184
 10
175.8495365845
 20
99.279523974
 10
176.0339077206
 20
99.6067683749
 10
176.1460715549
 20
100.033241471
 10
176.1783837916
 20
100.5298804097
 10
176.1286427842
 20
101.0628390663
 10
176.0002380812
 20
101.5957977228
 10
175.8019208552
 20
102.0924366616
 10
175.5472050624
 20
102.5189097576
 10
175.2534500898
 20
102.8461541586
 10
174.9406742507
 20
103.0518684142
 10
174.6301931904
 20
103.1220337913
 10
174.3431651609
 20
103.0518684142
 10
174.0991511957
 20
102.8461541586
 10
173.9147800596
 20
102.5189097576
 10
173.8026164582
 20
102.0924366616
 10
173.7703039886
 20
101.5957977228
 10
173.820044996
 20
101.0628390663
  0
LWPOLYLINE
  5
11B
330
1F
100
AcDbEntity
  8
0
  6
HIDDEN
 62
     7
370
     0
100
AcDbPolyline
 90
       22
 70
   128
 43
0.0
 10
174.201560823
 20
101.0949696951
 10
174.3215570801
 20
100.6180738636
 10
174.5114775018
 20
100.1835522779
 10
174.7544469887
 20
99.830014778
 10
175.0288765521
 20
99.5888730117
 10
175.3103818388
 20
99.4815548487
 10
175.5739498527
 20
99.5175961011
 10
175.7961615564
 20
99.6937939503
 10
175.9572724456
 20
99.9944919326
 10
176.0429666953
 20
100.392972266
 10
176.0456307435
 20
100.8538288601
 10
175.9650275686
 20
101.3361114614
 10
175.8083190413
 20
101.7969671242
 10
175.5894293652
 20
102.1954479233
 10
175.3278078155
 20
102.4961459056
 10
175.0467006692
 20
102.6723437548
 10
174.7710855322
 20
102.7083845415
 10
174.5254519971
 20
102.6010668442
 10
174.3316260742
 20
102.3599255436
 10
174.2068295477
 20
102.0063871123
 10
174.1621512098
 20
101.5718655266
 10
174.201560823
 20
101.0949696951
  0
ELLIPSE
  5
11C
330
1F
100
AcDbEntity
  8
0
  6
HIDDEN
 62
     7
370
     0
100
AcDbEllipse
 10
183.3698333928
 20
103.0734336405
 30
0.0
 11
1.383467579512114
 21
-1.091267719176599
 31
0.0
210
0.0
220
0.0
230
1.0
 40
0.8239737799
 41
2.147131942757433
 42
5.288724596347239
  0
ELLIPSE
  5
11D
330
1F
100
AcDbEntity
  8
0
  6
HIDDEN
 62
     7
370
     0
100
AcDbEllipse
 10
183.3698333928
 20
103.0734336405
 30
0.0
 11
1.383467579512114
 21
1.753907414218489
 31
0.0
210
0.0
220
0.0
230
1.0
 40
0.5126701559
 41
0.9944607108323698
 42
4.136053364422176
  0
SPLINE
  5
11E
330
1F
100
AcDbEntity
  8
0
  6
HIDDEN
 62
     7
370
     0
100
AcDbSpline
210
0.0
220
0.0
230
1.0
 70
     8
 71
     3
 72
    14
 73
    10
 74
     0
 42
0.000000001
 43
0.00000001
 40
0.0
 40
0.0
 40
0.0
 40
0.0
 40
0.25
 40
0.25
 40
0.5
 40
0.5
 40
0.75
 40
0.75
 40
1.0
 40
1.0
 40
1.0
 40
1.0
 10
181.3939426301577
 20
101.6326161341919
 30
0.0
 10
181.430306458188
 20
101.6781107695937
 30
0.0
 10
181.4627841853982
 20
101.72650257581
 30
0.0
 10
181.5115378148139
 20
101.8319877197395
 30
0.0
 10
181.5264415924884
 20
101.8885722279825
 30
0.0
 10
181.5264520261461
 20
101.9974598219329
 30
0.0
 10
181.5115617303379
 20
102.0496444876956
 30
0.0
 10
181.4626727994603
 20
102.1409218866391
 30
0.0
 10
181.4303006211899
 20
102.1795885920133
 30
0.0
 10
181.3939426301577
 20
102.214484531561
 30
0.0
  0
LWPOLYLINE
  5
11F
330
1F
100
AcDbEntity
  8
0
  6
HIDDEN
 62
     7
370
     0
100
AcDbPolyline
 90
       22
 70
   128
 43
0.0
 10
183.369833661
 20
100.416626928
 10
183.8561796227
 20
100.485511271
 10
184.2993112856
 20
100.6860427164
 10
184.6598551252
 20
101.0004041322
 10
184.9057755077
 20
101.4006614291
 10
185.01521988
 20
101.8512520545
 10
184.9784643033
 20
102.312137054
 10
184.7987749258
 20
102.7423666396
 10
184.4921183416
 20
103.1037118823
 10
184.0857413241
 20
103.364065902
 10
183.6157531121
 20
103.5002951116
 10
183.1239132786
 20
103.5002951116
 10
182.6539250666
 20
103.364065902
 10
182.2475480491
 20
103.1037118823
 10
181.9408914649
 20
102.7423666396
 10
181.7612020874
 20
102.312137054
 10
181.724447442
 20
101.8512520545
 10
181.8338918144
 20
101.4006614291
 10
182.0798112655
 20
101.0004041322
 10
182.4403551051
 20
100.6860427164
 10
182.8834876993
 20
100.485511271
 10
183.369833661
 20
100.416626928
  0
SPLINE
  5
120
330
1F
100
AcDbEntity
  8
0
  6
HIDDEN
 62
     7
370
     0
100
AcDbSpline
210
0.0
220
0.0
230
1.0
 70
    11
 71
     3
 72
    56
 73
    52
 74
     0
 42
0.000000001
 43
0.00000001
 40
0.0
 40
0.0
 40
0.0
 40
0.0
 40
0.0312499999999998
 40
0.0312499999999998
 40
0.0624999999999997
 40
0.0624999999999997
 40
0.1249999999999994
 40
0.1249999999999994
 40
0.1874999999999992
 40
0.1874999999999992
 40
0.2187499999999991
 40
0.2187499999999991
 40
0.249999999999999
 40
0.249999999999999
 40
0.2812499999999989
 40
0.2812499999999989
 40
0.3124999999999988
 40
0.3124999999999988
 40
0.3437499999999987
 40
0.3437499999999987
 40
0.3749999999999986
 40
0.3749999999999986
 40
0.4374999999999987
 40
0.4374999999999987
 40
0.4999999999999989
 40
0.4999999999999989
 40
0.531249999999999
 40
0.531249999999999
 40
0.562499999999999
 40
0.562499999999999
 40
0.6249999999999991
 40
0.6249999999999991
 40
0.6562499999999992
 40
0.6562499999999992
 40
0.6874999999999993
 40
0.6874999999999993
 40
0.7499999999999997
 40
0.7499999999999997
 40
0.7812499999999999
 40
0.7812499999999999
 40
0.8125
 40
0.8125
 40
0.8750000000000002
 40
0.8750000000000002
 40
0.9062500000000002
 40
0.9062500000000002
 40
0.9375000000000002
 40
0.9375000000000002
 40
0.9687500000000001
 40
0.9687500000000001
 40
1.0
 40
1.0
 40
1.0
 40
1.0
 10
183.3698333927981
 20
107.3937756864496
 30
0.0
 10
183.2589659029967
 20
107.3937756864496
 30
0.0
 10
183.150371276152
 20
107.4020410598594
 30
0.0
 10
182.9373842604598
 20
107.4344340945438
 30
0.0
 10
182.8319479089615
 20
107.4590122752358
 30
0.0
 10
182.5340172596005
 20
107.554864799435
 30
0.0
 10
182.3539341476057
 20
107.6497577715673
 30
0.0
 10
182.0543918226688
 20
107.893327352207
 30
0.0
 10
181.9320878458059
 20
108.0448200182227
 30
0.0
 10
181.8071897495752
 20
108.304487638681
 30
0.0
 10
181.7744483666713
 20
108.398439740004
 30
0.0
 10
181.7310758604337
 20
108.5922896826449
 30
0.0
 10
181.7200426749329
 20
108.6921998616878
 30
0.0
 10
181.7196299508097
 20
108.8982774943667
 30
0.0
 10
181.7306192076661
 20
109.0043854375457
 30
0.0
 10
181.7734065997365
 20
109.2119724756981
 30
0.0
 10
181.805456046308
 20
109.3155962312643
 30
0.0
 10
181.8892320337359
 20
109.517103123568
 30
0.0
 10
181.9401147203299
 20
109.6134126035953
 30
0.0
 10
182.0591950335129
 20
109.7972414830671
 30
0.0
 10
182.1278746629735
 20
109.8849926302408
 30
0.0
 10
182.3526050984172
 20
110.1243744136913
 30
0.0
 10
182.5331217454308
 20
110.2582096984023
 30
0.0
 10
182.9275178192489
 20
110.4424017418937
 30
0.0
 10
183.1474019942907
 20
110.4941409252949
 30
0.0
 10
183.47488038466
 20
110.495062856721
 30
0.0
 10
183.5861103728909
 20
110.4827625739925
 30
0.0
 10
183.800120736417
 20
110.4346686105354
 30
0.0
 10
183.9036580960848
 20
110.3991999328571
 30
0.0
 10
184.20446397968
 20
110.2600747498877
 30
0.0
 10
184.3839021036983
 20
110.1271184192988
 30
0.0
 10
184.6097584528636
 20
109.8874622630999
 30
0.0
 10
184.6772782972167
 20
109.8015740520911
 30
0.0
 10
184.7969375175322
 20
109.6180177053691
 30
0.0
 10
184.8489739853719
 20
109.519917901504
 30
0.0
 10
184.9740568269713
 20
109.2211109112742
 30
0.0
 10
185.0194007417569
 20
109.0064866934102
 30
0.0
 10
185.0200449324292
 20
108.6985639879354
 30
0.0
 10
185.0092514965153
 20
108.5965274671311
 30
0.0
 10
184.9661461467139
 20
108.4013469617778
 30
0.0
 10
184.9343311937623
 20
108.3090807302301
 30
0.0
 10
184.8091776571219
 20
108.0467131774036
 30
0.0
 10
184.6877967328475
 20
107.8956098557741
 30
0.0
 10
184.4608696243859
 20
107.7107397721526
 30
0.0
 10
184.3790418312365
 20
107.6569553250547
 30
0.0
 10
184.2026912415864
 20
107.5633166877329
 30
0.0
 10
184.1069226347074
 20
107.5231374627503
 30
0.0
 10
183.9082993499757
 20
107.4591634059885
 30
0.0
 10
183.8054411590421
 20
107.4350720438721
 30
0.0
 10
183.5920589393677
 20
107.4023081045607
 30
0.0
 10
183.4807008825995
 20
107.3937756864496
 30
0.0
 10
183.3698333927981
 20
107.3937756864496
 30
0.0
  0
ELLIPSE
  5
121
330
1F
100
AcDbEntity
  8
0
  6
HIDDEN
 62
     7
370
     0
100
AcDbEllipse
 10
183.3698333928
 20
103.0734336405
 30
0.0
 11
1.383467579512114
 21
-1.091267719176599
 31
0.0
210
0.0
220
0.0
230
1.0
 40
0.8239737799
 41
5.288724596347236
 42
5.331125843620931
  0
SPLINE
  5
122
330
1F
100
AcDbEntity
  8
0
  6
HIDDEN
 62
     7
370
     0
100
AcDbSpline
210
0.0
220
0.0
230
1.0
 70
     8
 71
     3
 72
     8
 73
     4
 74
     0
 42
0.000000001
 43
0.00000001
 40
0.0
 40
0.0
 40
0.0
 40
0.0
 40
1.0
 40
1.0
 40
1.0
 40
1.0
 10
183.4397744889523
 20
101.5118817746609
 30
0.0
 10
183.4227897628506
 20
101.5189974847105
 30
0.0
 10
183.4057856183101
 20
101.5268726142319
 30
0.0
 10
183.3887867342312
 20
101.5354957336858
 30
0.0
  0
ELLIPSE
  5
123
330
1F
100
AcDbEntity
  8
0
  6
HIDDEN
 62
     7
370
     0
100
AcDbEllipse
 10
183.3698333928
 20
103.0734336405
 30
0.0
 11
1.383467579512114
 21
1.753907414218489
 31
0.0
210
0.0
220
0.0
230
1.0
 40
0.5126701559
 41
4.136053364422169
 42
4.147540490645156
  0
ELLIPSE
  5
124
330
1F
100
AcDbEntity
  8
0
  6
HIDDEN
 62
     7
370
     0
100
AcDbEllipse
 10
183.3698333928
 20
103.0734336405
 30
0.0
 11
1.383467579512114
 21
1.753907414218489
 31
0.0
210
0.0
220
0.0
230
1.0
 40
0.5126701559
 41
0.982973584609466
 42
0.9944607108323626
  0
SPLINE
  5
125
330
1F
100
AcDbEntity
  8
0
  6
HIDDEN
 62
     7
370
     0
100
AcDbSpline
210
0.0
220
0.0
230
1.0
 70
     8
 71
     3
 72
     8
 73
     4
 74
     0
 42
0.000000001
 43
0.00000001
 40
0.0
 40
0.0
 40
0.0
 40
0.0
 40
1.0
 40
1.0
 40
1.0
 40
1.0
 10
183.3887867342311
 20
104.6362767906923
 30
0.0
 10
183.40578561831
 20
104.6282935171791
 30
0.0
 10
183.4227897628507
 20
104.6195571147316
 30
0.0
 10
183.4397744889525
 20
104.6100802628943
 30
0.0
  0
ELLIPSE
  5
126
330
1F
100
AcDbEntity
  8
0
  6
HIDDEN
 62
     7
370
     0
100
AcDbEllipse
 10
183.3698333928
 20
103.0734336405
 30
0.0
 11
1.383467579512114
 21
-1.091267719176599
 31
0.0
210
0.0
220
0.0
230
1.0
 40
0.8239737799
 41
2.104730695483816
 42
2.147131942757429
  0
CIRCLE
  5
127
330
1F
100
AcDbEntity
  8
0
  6
HIDDEN
 62
     7
370
     0
100
AcDbCircle
 10
202.3198333928
 20
109.961023701
 30
0.0
 40
2.625
  0
SPLINE
  5
128
330
1F
100
AcDbEntity
  8
0
  6
HIDDEN
 62
     7
370
     0
100
AcDbSpline
210
0.0
220
0.0
230
1.0
 70
     8
 71
     3
 72
    16
 73
    12
 74
     0
 42
0.000000001
 43
0.00000001
 40
0.0
 40
0.0
 40
0.0
 40
0.0
 40
0.2500000000000064
 40
0.2500000000000064
 40
0.5000000000000129
 40
0.5000000000000129
 40
0.6250000000000138
 40
0.6250000000000138
 40
0.7500000000000147
 40
0.7500000000000147
 40
1.0
 40
1.0
 40
1.0
 40
1.0
 10
210.3698333927982
 20
118.5697869578294
 30
0.0
 10
210.3698333927982
 20
118.496261147308
 30
0.0
 10
210.3656202428165
 20
118.4213136354272
 30
0.0
 10
210.3430720505781
 20
118.266655880834
 30
0.0
 10
210.324923675526
 20
118.1857116267174
 30
0.0
 10
210.2751112959175
 20
118.0692386281988
 30
0.0
 10
210.2541447494955
 20
118.0308138481632
 30
0.0
 10
210.2029614193339
 20
117.9645928541878
 30
0.0
 10
210.1733915778213
 20
117.9381532158545
 30
0.0
 10
210.0828524964795
 20
117.8846964727673
 30
0.0
 10
210.0233930090743
 20
117.8814739478762
 30
0.0
 10
209.9698333927586
 20
117.8892294882211
 30
0.0
  0
SPLINE
  5
129
330
1F
100
AcDbEntity
  8
0
  6
HIDDEN
 62
     7
370
     0
100
AcDbSpline
210
0.0
220
0.0
230
1.0
 70
     8
 71
     3
 72
    10
 73
     6
 74
     0
 42
0.000000001
 43
0.00000001
 40
0.0
 40
0.0
 40
0.0
 40
0.0
 40
0.5
 40
0.5
 40
1.0
 40
1.0
 40
1.0
 40
1.0
 10
209.9698333927725
 20
117.8892294882338
 30
0.0
 10
209.9286373308612
 20
117.8563412439962
 30
0.0
 10
209.8831998665134
 20
117.8278657171595
 30
0.0
 10
209.7815269352438
 20
117.7863933972439
 30
0.0
 10
209.7263656472443
 20
117.774339699009
 30
0.0
 10
209.6698333927983
 20
117.774339699009
 30
0.0
  0
SPLINE
  5
12A
330
1F
100
AcDbEntity
  8
0
  6
HIDDEN
 62
     7
370
     0
100
AcDbSpline
210
0.0
220
0.0
230
1.0
 70
     8
 71
     3
 72
    10
 73
     6
 74
     0
 42
0.000000001
 43
0.00000001
 40
0.0
 40
0.0
 40
0.0
 40
0.0
 40
0.5
 40
0.5
 40
1.0
 40
1.0
 40
1.0
 40
1.0
 10
209.9698333928308
 20
102.0328179137791
 30
0.0
 10
209.9286373309136
 20
102.0657061580289
 30
0.0
 10
209.8831998665598
 20
102.0941816848762
 30
0.0
 10
209.7815269352693
 20
102.1356540048099
 30
0.0
 10
209.7263656472577
 20
102.1477077030503
 30
0.0
 10
209.6698333927983
 20
102.1477077030504
 30
0.0
  0
SPLINE
  5
12B
330
1F
100
AcDbEntity
  8
0
  6
HIDDEN
 62
     7
370
     0
100
AcDbSpline
210
0.0
220
0.0
230
1.0
 70
     8
 71
     3
 72
    16
 73
    12
 74
     0
 42
0.000000001
 43
0.00000001
 40
0.0
 40
0.0
 40
0.0
 40
0.0
 40
0.2500000000000172
 40
0.2500000000000172
 40
0.3750000000000186
 40
0.3750000000000186
 40
0.50000000000002
 40
0.50000000000002
 40
0.75000000000001
 40
0.75000000000001
 40
1.0
 40
1.0
 40
1.0
 40
1.0
 10
209.9698333928124
 20
102.032817913787
 30
0.0
 10
210.0230880194544
 20
102.0405294460573
 30
0.0
 10
210.0826248239925
 20
102.037294004807
 30
0.0
 10
210.1727196379601
 20
101.9843934448402
 30
0.0
 10
210.2023688945627
 20
101.9579996099693
 30
0.0
 10
210.2531527157753
 20
101.8927493419715
 30
0.0
 10
210.2741490500608
 20
101.8547975304865
 30
0.0
 10
210.3249549280092
 20
101.7367981703109
 30
0.0
 10
210.3429456650844
 20
101.6560704714456
 30
0.0
 10
210.365610811657
 20
101.5009986556423
 30
0.0
 10
210.3698333927982
 20
101.4259061331689
 30
0.0
 10
210.3698333927982
 20
101.352265486981
 30
0.0
  0
LINE
  5
12C
330
1F
100
AcDbEntity
  8
0
  6
HIDDEN
 62
     7
370
     0
100
AcDbLine
 10
189.8698337951
 20
109.961023701
 30
0.0
 11
189.8698337951
 21
101.2610235788
 31
0.0
  0
LINE
  5
12D
330
1F
100
AcDbEntity
  8
0
  6
HIDDEN
 62
     7
370
     0
100
AcDbLine
 10
189.8698337951
 20
118.6610238232
 30
0.0
 11
189.8698337951
 21
109.961023701
 31
0.0
  0
LINE
  5
12E
330
1F
100
AcDbEntity
  8
0
  6
HIDDEN
 62
     7
370
     0
100
AcDbLine
 10
193.2358589599
 20
109.961023701
 30
0.0
 11
193.2358589599
 21
100.9610240885
 31
0.0
  0
LINE
  5
12F
330
1F
100
AcDbEntity
  8
0
  6
HIDDEN
 62
     7
370
     0
100
AcDbLine
 10
193.2358589599
 20
118.9610233136
 30
0.0
 11
193.2358589599
 21
109.961023701
 31
0.0
  0
LINE
  5
130
330
1F
100
AcDbEntity
  8
0
  6
HIDDEN
 62
     7
370
     0
100
AcDbLine
 10
173.569833312
 20
134.7610244133
 30
0.0
 11
173.9070917589
 21
134.7610244133
 31
0.0
  0
ELLIPSE
  5
131
330
1F
100
AcDbEntity
  8
0
  6
HIDDEN
 62
     7
370
     0
100
AcDbEllipse
 10
173.907091693
 20
136.361023701
 30
0.0
 11
0.0
 21
1.600000000000023
 31
0.0
210
0.0
220
0.0
230
1.0
 40
0.4142135624
 41
3.141592653589793
 42
4.712388980384695
  0
LINE
  5
132
330
1F
100
AcDbEntity
  8
0
  6
HIDDEN
 62
     7
370
     0
100
AcDbLine
 10
173.9070917589
 20
87.3610229768
 30
0.0
 11
173.569833312
 21
87.3610229768
 31
0.0
  0
ELLIPSE
  5
133
330
1F
100
AcDbEntity
  8
0
  6
HIDDEN
 62
     7
370
     0
100
AcDbEllipse
 10
173.907091693
 20
85.761023701
 30
0.0
 11
0.0
 21
1.600000000000009
 31
0.0
210
0.0
220
0.0
230
1.0
 40
0.4142135624
 41
4.712388980384695
 42
6.283185307179586
  0
LINE
  5
134
330
1F
100
AcDbEntity
  8
0
  6
HIDDEN
 62
     7
370
     0
100
AcDbLine
 10
174.569833243
 20
80.0675751247
 30
0.0
 11
173.7859779147
 21
79.6092936375
 31
0.0
  0
LINE
  5
135
330
1F
100
AcDbEntity
  8
0
  6
HIDDEN
 62
     7
370
     0
100
AcDbLine
 10
201.4698327163
 20
117.7743395396
 30
0.0
 11
209.6698318252
 21
117.7743395396
 31
0.0
  0
LINE
  5
136
330
1F
100
AcDbEntity
  8
0
  6
HIDDEN
 62
     7
370
     0
100
AcDbLine
 10
201.4698327163
 20
102.1477078625
 30
0.0
 11
209.6698318252
 21
102.1477078625
 31
0.0
  0
LINE
  5
137
330
1F
100
AcDbEntity
  8
0
  6
HIDDEN
 62
     7
370
     0
100
AcDbLine
 10
173.8570750801
 20
140.3863207974
 30
0.0
 11
174.569833243
 21
139.6735610046
 31
0.0
  0
LINE
  5
138
330
1F
100
AcDbEntity
  8
0
  6
HIDDEN
 62
     7
370
     0
100
AcDbLine
 10
109.1198322007
 20
101.4610232391
 30
0.0
 11
109.1198322007
 21
118.461024163
 31
0.0
  0
LINE
  5
139
330
1F
100
AcDbEntity
  8
0
  6
HIDDEN
 62
     7
370
     0
100
AcDbLine
 10
112.1157628128
 20
102.961023485
 30
0.0
 11
112.1157628128
 21
116.9610239171
 31
0.0
  0
LINE
  5
13A
330
1F
100
AcDbEntity
  8
0
  6
HIDDEN
 62
     7
370
     0
100
AcDbLine
 10
178.405043354
 20
80.0675751247
 30
0.0
 11
174.569833243
 21
80.0675751247
 31
0.0
  0
LINE
  5
13B
330
1F
100
AcDbEntity
  8
0
  6
HIDDEN
 62
     7
370
     0
100
AcDbLine
 10
189.4198336282
 20
80.0675751247
 30
0.0
 11
184.5346229726
 21
80.0675751247
 31
0.0
  0
LINE
  5
13C
330
1F
100
AcDbEntity
  8
0
  6
HIDDEN
 62
     7
370
     0
100
AcDbLine
 10
174.569833243
 20
80.0675751247
 30
0.0
 11
174.569833243
 21
85.7610238322
 31
0.0
  0
LINE
  5
13D
330
1F
100
AcDbEntity
  8
0
  6
HIDDEN
 62
     7
370
     0
100
AcDbLine
 10
189.4198336282
 20
87.3610229768
 30
0.0
 11
173.9070917589
 21
87.3610229768
 31
0.0
  0
LINE
  5
13E
330
1F
100
AcDbEntity
  8
0
  6
HIDDEN
 62
     7
370
     0
100
AcDbLine
 10
174.569833243
 20
139.6735610046
 30
0.0
 11
178.5058785805
 21
139.6735610046
 31
0.0
  0
LINE
  5
13F
330
1F
100
AcDbEntity
  8
0
  6
HIDDEN
 62
     7
370
     0
100
AcDbLine
 10
184.4337877461
 20
139.6735610046
 30
0.0
 11
189.4198336282
 21
139.6735610046
 31
0.0
  0
LINE
  5
140
330
1F
100
AcDbEntity
  8
0
  6
HIDDEN
 62
     7
370
     0
100
AcDbLine
 10
174.569833243
 20
139.6735610046
 30
0.0
 11
174.569833243
 21
136.361023558
 31
0.0
  0
LINE
  5
141
330
1F
100
AcDbEntity
  8
0
  6
HIDDEN
 62
     7
370
     0
100
AcDbLine
 10
173.9070917589
 20
134.7610244133
 30
0.0
 11
189.4198336282
 21
134.7610244133
 31
0.0
  0
LINE
  5
142
330
1F
100
AcDbEntity
  8
0
  6
HIDDEN
 62
     7
370
     0
100
AcDbLine
 10
145.1198325136
 20
102.961023485
 30
0.0
 11
145.1198325136
 21
116.9610239171
 31
0.0
  0
LINE
  5
143
330
1F
100
AcDbEntity
  8
0
  6
HIDDEN
 62
     7
370
     0
100
AcDbLine
 10
147.2829316387
 20
106.561023656
 30
0.0
 11
147.2829316387
 21
113.3610237461
 31
0.0
  0
SPLINE
  5
144
330
1F
100
AcDbEntity
  8
0
  6
HIDDEN
 62
     7
370
     0
100
AcDbSpline
210
0.0
220
0.0
230
1.0
 70
     8
 71
     3
 72
    14
 73
    10
 74
     0
 42
0.000000001
 43
0.00000001
 40
0.0
 40
0.0
 40
0.0
 40
0.0
 40
0.25
 40
0.25
 40
0.5
 40
0.5
 40
0.75
 40
0.75
 40
1.0
 40
1.0
 40
1.0
 40
1.0
 10
209.9698333927981
 20
121.7610237010297
 30
0.0
 10
209.9698333927981
 20
121.9452880017672
 30
0.0
 10
209.9699854623145
 20
122.11224885105
 30
0.0
 10
209.9667570130432
 20
122.4126519807333
 30
0.0
 10
209.9639098125312
 20
122.545388437764
 30
0.0
 10
209.9562598921733
 20
122.7615473697377
 30
0.0
 10
209.9511323574522
 20
122.8480314024922
 30
0.0
 10
209.9410943367355
 20
122.9676877515004
 30
0.0
 10
209.9361577418206
 20
123.0018269225694
 30
0.0
 10
209.9325548375554
 20
123.009427654491
 30
0.0
  0
SPLINE
  5
145
330
1F
100
AcDbEntity
  8
0
  6
HIDDEN
 62
     7
370
     0
100
AcDbSpline
210
0.0
220
0.0
230
1.0
 70
     8
 71
     3
 72
    11
 73
     7
 74
     0
 42
0.000000001
 43
0.00000001
 40
0.0
 40
0.0
 40
0.0
 40
0.0
 40
0.2787352176493646
 40
0.6038949569175294
 40
0.9296012588676537
 40
1.0
 40
1.0
 40
1.0
 40
1.0
 10
209.932021481692
 20
122.993200232881
 30
0.0
 10
209.9295658818656
 20
122.9769763072226
 30
0.0
 10
209.9242456917443
 20
122.9418262929217
 30
0.0
 10
209.9467019310015
 20
122.5520836901278
 30
0.0
 10
209.9682075057446
 20
122.1031756844663
 30
0.0
 10
209.9695878526748
 20
121.8126572474599
 30
0.0
 10
209.9698331782214
 20
121.7610241450843
 30
0.0
  0
LINE
  5
146
330
1F
100
AcDbEntity
  8
0
  6
HIDDEN
 62
     7
370
     0
100
AcDbLine
 10
209.9698331782
 20
121.7610241451
 30
0.0
 11
209.9698331782
 21
117.8892293551
 31
0.0
  0
LINE
  5
147
330
1F
100
AcDbEntity
  8
0
  6
HIDDEN
 62
     7
370
     0
100
AcDbLine
 10
209.9698331782
 20
98.161023257
 30
0.0
 11
209.9698331782
 21
102.032818047
 31
0.0
  0
SPLINE
  5
148
330
1F
100
AcDbEntity
  8
0
  6
HIDDEN
 62
     7
370
     0
100
AcDbSpline
210
0.0
220
0.0
230
1.0
 70
     8
 71
     3
 72
    11
 73
     7
 74
     0
 42
0.000000001
 43
0.00000001
 40
0.0
 40
0.0
 40
0.0
 40
0.0
 40
0.2785883385891432
 40
0.6037908404272037
 40
0.9295402830234473
 40
1.0
 40
1.0
 40
1.0
 40
1.0
 10
209.9320177564017
 20
96.92890770514575
 30
0.0
 10
209.9295647182675
 20
96.9451125548822
 30
0.0
 10
209.9242481929448
 20
96.98023369416217
 30
0.0
 10
209.9466786465529
 20
97.36988467384062
 30
0.0
 10
209.9682560247741
 20
97.81879706456448
 30
0.0
 10
209.9695950526658
 20
98.10935244310484
 30
0.0
 10
209.9698331782214
 20
98.16102325697508
 30
0.0
  0
LINE
  5
149
330
1F
100
AcDbEntity
  8
0
  6
HIDDEN
 62
     7
370
     0
100
AcDbLine
 10
201.4698327163
 20
98.161023257
 30
0.0
 11
201.4698327163
 21
102.1477078625
 31
0.0
  0
LINE
  5
14A
330
1F
100
AcDbEntity
  8
0
  6
HIDDEN
 62
     7
370
     0
100
AcDbLine
 10
201.4698327163
 20
121.7610241451
 30
0.0
 11
201.4698327163
 21
117.7743395396
 31
0.0
  0
SPLINE
  5
14B
330
1F
100
AcDbEntity
  8
0
  6
HIDDEN
 62
     7
370
     0
100
AcDbSpline
210
0.0
220
0.0
230
1.0
 70
    11
 71
     3
 72
    56
 73
    52
 74
     0
 42
0.000000001
 43
0.00000001
 40
0.0
 40
0.0
 40
0.0
 40
0.0
 40
0.0312499999999996
 40
0.0312499999999996
 40
0.0624999999999993
 40
0.0624999999999993
 40
0.124999999999999
 40
0.124999999999999
 40
0.1874999999999987
 40
0.1874999999999987
 40
0.2187499999999985
 40
0.2187499999999985
 40
0.2499999999999984
 40
0.2499999999999984
 40
0.2812499999999982
 40
0.2812499999999982
 40
0.3124999999999981
 40
0.3124999999999981
 40
0.3437499999999979
 40
0.3437499999999979
 40
0.3749999999999978
 40
0.3749999999999978
 40
0.4374999999999978
 40
0.4374999999999978
 40
0.4999999999999978
 40
0.4999999999999978
 40
0.5312499999999978
 40
0.5312499999999978
 40
0.5624999999999977
 40
0.5624999999999977
 40
0.6249999999999978
 40
0.6249999999999978
 40
0.6562499999999979
 40
0.6562499999999979
 40
0.6874999999999981
 40
0.6874999999999981
 40
0.7499999999999984
 40
0.7499999999999984
 40
0.7812499999999987
 40
0.7812499999999987
 40
0.8124999999999989
 40
0.8124999999999989
 40
0.8749999999999992
 40
0.8749999999999992
 40
0.9062499999999994
 40
0.9062499999999994
 40
0.9374999999999997
 40
0.9374999999999997
 40
0.9687499999999998
 40
0.9687499999999998
 40
1.0
 40
1.0
 40
1.0
 40
1.0
 10
183.3698333927982
 20
109.4272860670162
 30
0.0
 10
183.4807008825995
 20
109.4272860670162
 30
0.0
 10
183.5892955094442
 20
109.4397989655283
 30
0.0
 10
183.8022825251364
 20
109.4880713799199
 30
0.0
 10
183.9077188766348
 20
109.5244731930764
 30
0.0
 10
184.2056495259957
 20
109.6630378292082
 30
0.0
 10
184.3857326379906
 20
109.7966102451173
 30
0.0
 10
184.6852749629275
 20
110.1149786225188
 30
0.0
 10
184.8075789397904
 20
110.3030977303752
 30
0.0
 10
184.9324770360211
 20
110.6016800278902
 30
0.0
 10
184.965218418925
 20
110.7062410750287
 30
0.0
 10
185.0085909251626
 20
110.9142677695299
 30
0.0
 10
185.0196241106634
 20
111.017867362946
 30
0.0
 10
185.0200368347866
 20
111.2240820036396
 30
0.0
 10
185.0090475779301
 20
111.3265153295656
 30
0.0
 10
184.9662601858598
 20
111.5201118670957
 30
0.0
 10
184.9342107392883
 20
111.6133390209008
 30
0.0
 10
184.8504347518604
 20
111.7887236086204
 30
0.0
 10
184.7995520652664
 20
111.8695711394651
 30
0.0
 10
184.6804717520834
 20
112.0193038989617
 30
0.0
 10
184.6117921226227
 20
112.0883138207027
 30
0.0
 10
184.3870616871791
 20
112.2715206123598
 30
0.0
 10
184.2065450401655
 20
112.3666099884089
 30
0.0
 10
183.8121489663473
 20
112.4940637876279
 30
0.0
 10
183.5922647913056
 20
112.527859842376
 30
0.0
 10
183.2647864009363
 20
112.5284718876926
 30
0.0
 10
183.1535564127054
 20
112.5203484833129
 30
0.0
 10
182.9395460491793
 20
112.4880808644706
 30
0.0
 10
182.8360086895115
 20
112.4641466569691
 30
0.0
 10
182.5352028059163
 20
112.3679449821954
 30
0.0
 10
182.355764681898
 20
112.2735427112719
 30
0.0
 10
182.1299083327326
 20
112.0902419719666
 30
0.0
 10
182.0623884883796
 20
112.0227527799427
 30
0.0
 10
181.942729268064
 20
111.8733983850899
 30
0.0
 10
181.8906928002244
 20
111.7910943211122
 30
0.0
 10
181.765609958625
 20
111.5312559937563
 30
0.0
 10
181.7202660438394
 20
111.3320800450819
 30
0.0
 10
181.7196218531671
 20
111.0243711852952
 30
0.0
 10
181.730415289081
 20
110.9187241870586
 30
0.0
 10
181.7735206388824
 20
110.7094489141079
 30
0.0
 10
181.8053355918341
 20
110.6068630526561
 30
0.0
 10
181.9304891284744
 20
110.3054653047513
 30
0.0
 10
182.0518700527488
 20
110.1179192469969
 30
0.0
 10
182.2787971612104
 20
109.8763406603511
 30
0.0
 10
182.3606249543598
 20
109.8036768684876
 30
0.0
 10
182.5369755440099
 20
109.6743384083584
 30
0.0
 10
182.6327441508889
 20
109.6171692154746
 30
0.0
 10
182.8313674356206
 20
109.5246951482451
 30
0.0
 10
182.9342256265542
 20
109.4890172030888
 30
0.0
 10
183.1476078462285
 20
109.4402016409438
 30
0.0
 10
183.2589659029967
 20
109.4272860670162
 30
0.0
 10
183.3698333927981
 20
109.4272860670162
 30
0.0
  0
LINE
  5
14C
330
1F
100
AcDbEntity
  8
0
  6
HIDDEN
 62
     7
370
     0
100
AcDbLine
 10
201.4698327163
 20
96.9110235177
 30
0.0
 11
201.4698327163
 21
98.161023257
 31
0.0
  0
LINE
  5
14D
330
1F
100
AcDbEntity
  8
0
  6
HIDDEN
 62
     7
370
     0
100
AcDbLine
 10
201.4698327163
 20
123.0110238843
 30
0.0
 11
201.4698327163
 21
121.7610241451
 31
0.0
  0
ELLIPSE
  5
14E
330
1F
100
AcDbEntity
  8
0
  6
HIDDEN
 62
     7
370
     0
100
AcDbEllipse
 10
183.3698333928
 20
116.8486137616
 30
0.0
 11
-1.383467579512143
 21
1.753907414218503
 31
0.0
210
0.0
220
0.0
230
1.0
 40
0.5126701559
 41
5.277237470128679
 42
5.28872459634723
  0
ELLIPSE
  5
14F
330
1F
100
AcDbEntity
  8
0
  6
HIDDEN
 62
     7
370
     0
100
AcDbEllipse
 10
183.3698333928
 20
116.8486137616
 30
0.0
 11
1.383467579512114
 21
1.091267719176599
 31
0.0
210
0.0
220
0.0
230
1.0
 40
0.8239737799
 41
0.9944607108323605
 42
4.136053364422167
  0
ELLIPSE
  5
150
330
1F
100
AcDbEntity
  8
0
  6
HIDDEN
 62
     7
370
     0
100
AcDbEllipse
 10
183.3698333928
 20
116.8486137616
 30
0.0
 11
-1.383467579512143
 21
1.753907414218503
 31
0.0
210
0.0
220
0.0
230
1.0
 40
0.5126701559
 41
2.147131942757424
 42
2.158619068973924
  0
SPLINE
  5
151
330
1F
100
AcDbEntity
  8
0
  6
HIDDEN
 62
     7
370
     0
100
AcDbSpline
210
0.0
220
0.0
230
1.0
 70
     8
 71
     3
 72
     8
 73
     4
 74
     0
 42
0.000000001
 43
0.00000001
 40
0.0
 40
0.0
 40
0.0
 40
0.0
 40
1.0
 40
1.0
 40
1.0
 40
1.0
 10
183.3887867342572
 20
115.2857706113795
 30
0.0
 10
183.4057856183187
 20
115.2937538848853
 30
0.0
 10
183.4227897628419
 20
115.3024902873238
 30
0.0
 10
183.4397744889264
 20
115.3119671391506
 30
0.0
  0
ELLIPSE
  5
152
330
1F
100
AcDbEntity
  8
0
  6
HIDDEN
 62
     7
370
     0
100
AcDbEllipse
 10
183.3698333928
 20
116.8486137616
 30
0.0
 11
1.383467579512114
 21
1.091267719176599
 31
0.0
210
0.0
220
0.0
230
1.0
 40
0.8239737799
 41
4.136053364422167
 42
4.178454611673976
  0
ELLIPSE
  5
153
330
1F
100
AcDbEntity
  8
0
  6
HIDDEN
 62
     7
370
     0
100
AcDbEllipse
 10
183.3698333928
 20
116.8486137616
 30
0.0
 11
-1.383467579512143
 21
1.753907414218503
 31
0.0
210
0.0
220
0.0
230
1.0
 40
0.5126701559
 41
5.28872459634723
 42
8.43031724993701
  0
ELLIPSE
  5
154
330
1F
100
AcDbEntity
  8
0
  6
HIDDEN
 62
     7
370
     0
100
AcDbEllipse
 10
183.3698333928
 20
116.8486137616
 30
0.0
 11
1.383467579512114
 21
1.091267719176599
 31
0.0
210
0.0
220
0.0
230
1.0
 40
0.8239737799
 41
0.9520594635686888
 42
0.9944607108323605
  0
SPLINE
  5
155
330
1F
100
AcDbEntity
  8
0
  6
HIDDEN
 62
     7
370
     0
100
AcDbSpline
210
0.0
220
0.0
230
1.0
 70
     8
 71
     3
 72
     8
 73
     4
 74
     0
 42
0.000000001
 43
0.00000001
 40
0.0
 40
0.0
 40
0.0
 40
0.0
 40
1.0
 40
1.0
 40
1.0
 40
1.0
 10
183.4397744889353
 20
118.4101656273914
 30
0.0
 10
183.422789762845
 20
118.4030499173461
 30
0.0
 10
183.4057856183157
 20
118.39517478783
 30
0.0
 10
183.3887867342482
 20
118.3865516683823
 30
0.0
  0
LWPOLYLINE
  5
156
330
1F
100
AcDbEntity
  8
0
  6
HIDDEN
 62
     7
370
     0
100
AcDbPolyline
 90
       22
 70
   128
 43
0.0
 10
183.369833661
 20
116.4044343472
 10
183.8561796227
 20
116.4733186901
 10
184.2993112856
 20
116.6738501356
 10
184.6598551252
 20
116.98821062
 10
184.9057755077
 20
117.3884688482
 10
185.01521988
 20
117.839059008
 10
184.9784643033
 20
118.2999444731
 10
184.7987749258
 20
118.7301735931
 10
184.4921183416
 20
119.0915193014
 10
184.0857413241
 20
119.3518733211
 10
183.6157531121
 20
119.4881025307
 10
183.1239132786
 20
119.4881025307
 10
182.6539250666
 20
119.3518733211
 10
182.2475480491
 20
119.0915193014
 10
181.9408914649
 20
118.7301735931
 10
181.7612020874
 20
118.2999444731
 10
181.724447442
 20
117.839059008
 10
181.8338918144
 20
117.3884688482
 10
182.0798112655
 20
116.98821062
 10
182.4403551051
 20
116.6738501356
 10
182.8834876993
 20
116.4733186901
 10
183.369833661
 20
116.4044343472
  0
LINE
  5
157
330
1F
100
AcDbEntity
  8
0
  6
HIDDEN
 62
     7
370
     0
100
AcDbLine
 10
179.5598330551
 20
132.1582646646
 30
0.0
 11
179.5598330551
 21
128.3110232629
 31
0.0
  0
SPLINE
  5
158
330
1F
100
AcDbEntity
  8
0
  6
HIDDEN
 62
     7
370
     0
100
AcDbSpline
210
0.0
220
0.0
230
1.0
 70
     8
 71
     3
 72
    14
 73
    10
 74
     0
 42
0.000000001
 43
0.00000001
 40
0.0
 40
0.0
 40
0.0
 40
0.0
 40
0.25
 40
0.25
 40
0.5
 40
0.5
 40
0.75
 40
0.75
 40
1.0
 40
1.0
 40
1.0
 40
1.0
 10
182.579833392798
 20
121.2435028911378
 30
0.0
 10
182.677515643912
 20
121.2820252051702
 30
0.0
 10
182.7796291529494
 20
121.3196405646289
 30
0.0
 10
182.9718013241182
 20
121.3907492902159
 30
0.0
 10
183.0632199974451
 20
121.4249553407199
 30
0.0
 10
183.2147359864593
 20
121.4918448190769
 30
0.0
 10
183.2758831889982
 20
121.5251152816378
 30
0.0
 10
183.3585898906867
 20
121.5945136317316
 30
0.0
 10
183.3798333927981
 20
121.6302907373276
 30
0.0
 10
183.3798333927981
 20
121.6667860695783
 30
0.0
  0
LINE
  5
159
330
1F
100
AcDbEntity
  8
0
  6
HIDDEN
 62
     7
370
     0
100
AcDbLine
 10
183.3798332715
 20
132.1582646646
 30
0.0
 11
183.3798332715
 21
128.3110232629
 31
0.0
  0
LINE
  5
15A
330
1F
100
AcDbEntity
  8
0
  6
HIDDEN
 62
     7
370
     0
100
AcDbLine
 10
183.3798332715
 20
101.9597408899
 30
0.0
 11
183.3798332715
 21
98.2010179736
 31
0.0
  0
SPLINE
  5
15B
330
1F
100
AcDbEntity
  8
0
  6
HIDDEN
 62
     7
370
     0
100
AcDbSpline
210
0.0
220
0.0
230
1.0
 70
     8
 71
     3
 72
    14
 73
    10
 74
     0
 42
0.000000001
 43
0.00000001
 40
0.0
 40
0.0
 40
0.0
 40
0.0
 40
0.2500000000000005
 40
0.2500000000000005
 40
0.5000000000000003
 40
0.5000000000000003
 40
0.7500000000000001
 40
0.7500000000000001
 40
1.0
 40
1.0
 40
1.0
 40
1.0
 10
183.3798333927981
 20
117.9080625713593
 30
0.0
 10
183.3798333927981
 20
117.871573640452
 30
0.0
 10
183.3586640166259
 20
117.8350748487183
 30
0.0
 10
183.2759183987735
 20
117.7696995009814
 30
0.0
 10
183.2150647739457
 20
117.741762666635
 30
0.0
 10
183.0634599072546
 20
117.7078716373883
 30
0.0
 10
182.9722375967874
 20
117.7024461848018
 30
0.0
 10
182.7799070470842
 20
117.7233655086144
 30
0.0
 10
182.6776561626072
 20
117.7499216560549
 30
0.0
 10
182.579833392798
 20
117.7903914143607
 30
0.0
  0
LINE
  5
15C
330
1F
100
AcDbEntity
  8
0
  6
HIDDEN
 62
     7
370
     0
100
AcDbLine
 10
177.9479968005
 20
135.8712540545
 30
0.0
 11
177.9479968005
 21
128.3110232629
 31
0.0
  0
LINE
  5
15D
330
1F
100
AcDbEntity
  8
0
  6
HIDDEN
 62
     7
370
     0
100
AcDbLine
 10
184.9916704574
 20
100.2090034612
 30
0.0
 11
184.9916704574
 21
98.0095240824
 31
0.0
  0
LINE
  5
15E
330
1F
100
AcDbEntity
  8
0
  6
HIDDEN
 62
     7
370
     0
100
AcDbLine
 10
184.9916704574
 20
135.8712540545
 30
0.0
 11
184.9916704574
 21
128.3110232629
 31
0.0
  0
SPLINE
  5
15F
330
1F
100
AcDbEntity
  8
0
  6
HIDDEN
 62
     7
370
     0
100
AcDbSpline
210
0.0
220
0.0
230
1.0
 70
     8
 71
     3
 72
    10
 73
     6
 74
     0
 42
0.000000001
 43
0.00000001
 40
0.0
 40
0.0
 40
0.0
 40
0.0
 40
0.5
 40
0.5
 40
1.0
 40
1.0
 40
1.0
 40
1.0
 10
181.3939426301577
 20
117.7075628704986
 30
0.0
 10
181.3783365791765
 20
117.8128350711071
 30
0.0
 10
181.369832116148
 20
117.916773568898
 30
0.0
 10
181.3698346697376
 20
118.116286840854
 30
0.0
 10
181.3783322573381
 20
118.2074993355243
 30
0.0
 10
181.3939426301577
 20
118.2894312678675
 30
0.0
  0
SPLINE
  5
160
330
1F
100
AcDbEntity
  8
0
  6
HIDDEN
 62
     7
370
     0
100
AcDbSpline
210
0.0
220
0.0
230
1.0
 70
     8
 71
     3
 72
    14
 73
    10
 74
     0
 42
0.000000001
 43
0.00000001
 40
0.0
 40
0.0
 40
0.0
 40
0.0
 40
0.25
 40
0.25
 40
0.5
 40
0.5
 40
0.75
 40
0.75
 40
1.0
 40
1.0
 40
1.0
 40
1.0
 10
181.3939426301577
 20
118.2894312678675
 30
0.0
 10
181.430306458188
 20
118.2439366324657
 30
0.0
 10
181.4627841853982
 20
118.1955448262494
 30
0.0
 10
181.5115378148138
 20
118.0900596823199
 30
0.0
 10
181.5264415924883
 20
118.0334751740769
 30
0.0
 10
181.526452026146
 20
117.9245875801265
 30
0.0
 10
181.5115617303378
 20
117.8724029143639
 30
0.0
 10
181.4626727994602
 20
117.7811255154204
 30
0.0
 10
181.4303006211898
 20
117.7424588100463
 30
0.0
 10
181.3939426301577
 20
117.7075628704985
 30
0.0
  0
LWPOLYLINE
  5
161
330
1F
100
AcDbEntity
  8
0
  6
HIDDEN
 62
     7
370
     0
100
AcDbPolyline
 90
       22
 70
   128
 43
0.0
 10
174.201560823
 20
117.9410695635
 10
174.3215570801
 20
117.5813988388
 10
174.5114775018
 20
117.3324125425
 10
174.7544469887
 20
117.2162337766
 10
175.0288765521
 20
117.2431857862
 10
175.3103818388
 20
117.4108732097
 10
175.5739498527
 20
117.7043967486
 10
175.7961615564
 20
118.0976751797
 10
175.9572724456
 20
118.5557648145
 10
176.0429666953
 20
119.0379608028
 10
176.0456307435
 20
119.5014195122
 10
175.9650275686
 20
119.9049597212
 10
175.8083190413
 20
120.2127255105
 10
175.5894293652
 20
120.3973704555
 10
175.3278078155
 20
120.4424874463
 10
175.0467006692
 20
120.3440690019
 10
174.7710855322
 20
120.1108583786
 10
174.5254519971
 20
119.7635784351
 10
174.3316260742
 20
119.3330866822
 10
174.2068295477
 20
118.8576334693
 10
174.1621512098
 20
118.3794654511
 10
174.201560823
 20
117.9410695635
  0
LWPOLYLINE
  5
162
330
1F
100
AcDbEntity
  8
0
  6
HIDDEN
 62
     7
370
     0
100
AcDbPolyline
 90
       23
 70
   128
 43
0.0
 10
181.3939424807
 20
117.7075627797
 10
181.549324339
 20
117.2203399778
 10
181.8380473757
 20
116.7901127205
 10
182.2389649802
 20
116.4483927727
 10
182.7227116206
 20
116.2202089631
 10
183.2538569921
 20
116.1222743407
 10
183.7934969568
 20
116.1617624179
 10
184.3021052533
 20
116.3357805066
 10
184.7424308413
 20
116.6315829918
 10
185.0822210887
 20
117.0275040508
 10
185.2965891936
 20
117.4945446268
 10
185.3698330575
 20
117.9984967761
 10
185.2965891936
 20
118.5024493911
 10
185.0822210887
 20
118.9694899671
 10
184.7424308413
 20
119.3654110261
 10
184.3021052533
 20
119.6612139769
 10
183.7934969568
 20
119.8352316
 10
183.2538569921
 20
119.8747196772
 10
182.7227116206
 20
119.7767855205
 10
182.2389649802
 20
119.5486012452
 10
181.8380473757
 20
119.2068812974
 10
181.549324339
 20
118.7766540401
 10
181.3939424807
 20
118.2894317039
  0
SPLINE
  5
163
330
1F
100
AcDbEntity
  8
0
  6
HIDDEN
 62
     7
370
     0
100
AcDbSpline
210
0.0
220
0.0
230
1.0
 70
     8
 71
     3
 72
    12
 73
     8
 74
     0
 42
0.000000001
 43
0.00000001
 40
0.0
 40
0.0
 40
0.0
 40
0.0
 40
0.2500000000000008
 40
0.2500000000000008
 40
0.5000000000000017
 40
0.5000000000000017
 40
1.0
 40
1.0
 40
1.0
 40
1.0
 10
184.9916700348549
 20
121.9125234992367
 30
0.0
 10
185.1146175286504
 20
121.7545666505416
 30
0.0
 10
185.2081617317593
 20
121.5827332835641
 30
0.0
 10
185.3371011209215
 20
121.2110605739183
 30
0.0
 10
185.3696538783066
 20
121.017872127727
 30
0.0
 10
185.3701902200404
 20
120.4295755894508
 30
0.0
 10
185.2375665630724
 20
120.0375573515621
 30
0.0
 10
184.9916700348549
 20
119.7130437688534
 30
0.0
  0
SPLINE
  5
164
330
1F
100
AcDbEntity
  8
0
  6
HIDDEN
 62
     7
370
     0
100
AcDbSpline
210
0.0
220
0.0
230
1.0
 70
     8
 71
     3
 72
    12
 73
     8
 74
     0
 42
0.000000001
 43
0.00000001
 40
0.0
 40
0.0
 40
0.0
 40
0.0
 40
0.25
 40
0.25
 40
0.5
 40
0.5
 40
1.0
 40
1.0
 40
1.0
 40
1.0
 10
184.9916700348549
 20
119.7130437688534
 30
0.0
 10
184.8767739835942
 20
119.4933033337968
 30
0.0
 10
184.7500079671215
 20
119.2963349821751
 30
0.0
 10
184.489793033503
 20
118.9426174093362
 30
0.0
 10
184.3562855755408
 20
118.7857921154639
 30
0.0
 10
183.9478873069526
 20
118.3592495445563
 30
0.0
 10
183.664234172015
 20
118.132557365601
 30
0.0
 10
183.3798333927982
 20
117.9623062212056
 30
0.0
  0
SPLINE
  5
165
330
1F
100
AcDbEntity
  8
0
  6
HIDDEN
 62
     7
370
     0
100
AcDbSpline
210
0.0
220
0.0
230
1.0
 70
     8
 71
     3
 72
    12
 73
     8
 74
     0
 42
0.000000001
 43
0.00000001
 40
0.0
 40
0.0
 40
0.0
 40
0.0
 40
0.4999999999999988
 40
0.4999999999999988
 40
0.7499999999999993
 40
0.7499999999999993
 40
1.0
 40
1.0
 40
1.0
 40
1.0
 10
183.3798333927981
 20
121.7210297194266
 30
0.0
 10
183.6640399273635
 20
121.8884938817204
 30
0.0
 10
183.9427356614672
 20
122.0001309812319
 30
0.0
 10
184.3520817046565
 20
122.0674442468713
 30
0.0
 10
184.488221041976
 20
122.0725952868853
 30
0.0
 10
184.7495410909721
 20
122.0348293492659
 30
0.0
 10
184.8749622734039
 20
121.9932795909216
 30
0.0
 10
184.9916700348553
 20
121.9125234992388
 30
0.0
  0
SPLINE
  5
166
330
1F
100
AcDbEntity
  8
0
  6
HIDDEN
 62
     7
370
     0
100
AcDbSpline
210
0.0
220
0.0
230
1.0
 70
     8
 71
     3
 72
    22
 73
    18
 74
     0
 42
0.000000001
 43
0.00000001
 40
0.0
 40
0.0
 40
0.0
 40
0.0
 40
0.125
 40
0.125
 40
0.25
 40
0.25
 40
0.375
 40
0.375
 40
0.5
 40
0.5
 40
0.625
 40
0.625
 40
0.75
 40
0.75
 40
0.875
 40
0.875
 40
1.0
 40
1.0
 40
1.0
 40
1.0
 10
182.5798333927982
 20
117.7903914143606
 30
0.0
 10
182.3998166982287
 20
117.8648652013372
 30
0.0
 10
182.2353848763584
 20
117.9623144633212
 30
0.0
 10
181.9369886425999
 20
118.2016838968856
 30
0.0
 10
181.806684915235
 20
118.341580508956
 30
0.0
 10
181.593466131616
 20
118.6498320990163
 30
0.0
 10
181.5098382745045
 20
118.8199953171355
 30
0.0
 10
181.3987073975863
 20
119.170490051926
 30
0.0
 10
181.3698714027326
 20
119.3556150130773
 30
0.0
 10
181.369795460073
 20
119.7188218876945
 30
0.0
 10
181.3984540855002
 20
119.9021919014021
 30
0.0
 10
181.5096051786129
 20
120.2480830138954
 30
0.0
 10
181.5926722992569
 20
120.4136025411629
 30
0.0
 10
181.8063582573755
 20
120.7141422785666
 30
0.0
 10
181.9353652472999
 20
120.8480141998507
 30
0.0
 10
182.2349745267894
 20
121.0792609692547
 30
0.0
 10
182.3998172250486
 20
121.1725110859136
 30
0.0
 10
182.5798333927982
 20
121.2435028911379
 30
0.0
  0
LWPOLYLINE
  5
167
330
1F
100
AcDbEntity
  8
0
  6
HIDDEN
 62
     7
370
     0
100
AcDbPolyline
 90
       25
 70
   128
 43
0.0
 10
173.820044996
 20
117.7315610998
 10
173.9484494662
 20
117.3240422808
 10
174.1467671578
 20
117.0211421863
 10
174.4014827178
 20
116.8435031154
 10
174.6952376904
 20
116.8032313303
 10
175.0080135295
 20
116.9030709729
 10
175.3184945898
 20
117.1362178006
 10
175.6055226193
 20
117.4867839158
 10
175.8495365845
 20
117.9308781006
 10
176.0339077206
 20
118.4382365622
 10
176.1460715549
 20
118.9742844157
 10
176.1783837916
 20
119.5024886705
 10
176.1286427842
 20
119.9868555718
 10
176.0002380812
 20
120.3943743907
 10
175.8019208552
 20
120.6972740196
 10
175.5472050624
 20
120.8749135562
 10
175.2534500898
 20
120.9151848756
 10
174.9406742507
 20
120.815345233
 10
174.6301931904
 20
120.582198871
 10
174.3431651609
 20
120.2316322901
 10
174.0991511957
 20
119.787538571
 10
173.9147800596
 20
119.280179178
 10
173.8026164582
 20
118.7441322558
 10
173.7703039886
 20
118.215928001
 10
173.820044996
 20
117.7315610998
  0
ARC
  5
168
330
1F
100
AcDbEntity
  8
0
  6
HIDDEN
 62
     7
370
     0
100
AcDbCircle
 10
183.403730864
 20
100.6675421854
 30
0.0
 40
1.937891851018799
100
AcDbArc
 50
336.520148047
 51
116.4916137923
  0
ARC
  5
169
330
1F
100
AcDbEntity
  8
0
  6
HIDDEN
 62
     7
370
     0
100
AcDbCircle
 10
183.2432532072
 20
100.6656180969
 30
0.0
 40
1.873609556595288
100
AcDbArc
 50
112.0687877233
 51
179.1847036925
  0
ARC
  5
16A
330
1F
100
AcDbEntity
  8
0
  6
HIDDEN
 62
     7
370
     0
100
AcDbCircle
 10
183.4013986077
 20
100.6302050891
 30
0.0
 40
1.844627174946035
100
AcDbArc
 50
339.4475699175
 51
116.4133210834
  0
ARC
  5
16B
330
1F
100
AcDbEntity
  8
0
  6
HIDDEN
 62
     7
370
     0
100
AcDbCircle
 10
183.2886066642
 20
100.5891884171
 30
0.0
 40
1.835066939153333
100
AcDbArc
 50
112.6869669029
 51
156.9122932274
  0
ARC
  5
16C
330
1F
100
AcDbEntity
  8
0
  6
HIDDEN
 62
     7
370
     0
100
AcDbCircle
 10
183.4188786356
 20
100.6231248214
 30
0.0
 40
1.445796653421999
100
AcDbArc
 50
354.0547302795
 51
92.4908517332
  0
LWPOLYLINE
  5
16D
330
1F
100
AcDbEntity
  8
0
  6
HIDDEN
 62
     7
370
     0
100
AcDbPolyline
 90
       24
 70
   128
 43
0.0
 10
182.5393016094
 20
102.538762761
 10
183.0609679797
 20
102.6859247663
 10
183.6055420914
 20
102.6953734994
 10
184.1326343471
 20
102.5664081403
 10
184.6031534129
 20
102.3085938372
 10
184.9822026321
 20
101.9410511084
 10
185.2416691014
 20
101.4910388344
 10
185.3623107651
 20
100.9919328221
 10
185.3351794758
 20
100.4807484873
 10
185.1622878218
 20
99.9953999721
 10
184.8564573207
 20
99.5718810313
 10
184.4403712654
 20
99.2416033127
 10
183.9448880979
 20
99.0290624626
 10
183.4067559445
 20
98.9500211157
 10
182.8658847713
 20
99.0103410163
 10
182.3623894358
 20
99.2055490219
 10
181.9336122477
 20
99.5211677231
 10
181.6113522851
 20
99.9337883272
 10
181.4195110106
 20
100.4128085055
 10
181.3723162392
 20
100.9227029585
 10
181.473267881
 20
101.4256544017
 10
181.7148799652
 20
101.884360572
 10
182.0792319828
 20
102.2648016528
 10
182.5393016094
 20
102.538762761
  0
LWPOLYLINE
  5
16E
330
1F
100
AcDbEntity
  8
0
  6
HIDDEN
 62
     7
370
     0
100
AcDbPolyline
 90
       21
 70
   128
 43
0.0
 10
182.7469343895
 20
102.9438117125
 10
183.1990905681
 20
103.0619318203
 10
183.6679602617
 20
103.0429728866
 10
184.1076469624
 20
102.8887910374
 10
184.4751114601
 20
102.6144788206
 10
184.734383283
 20
102.2468876631
 10
184.8600838909
 20
101.8220001437
 10
184.8399086499
 20
101.3814072662
 10
184.675831964
 20
100.9682362505
 10
184.3839144909
 20
100.6229325735
 10
183.9927320012
 20
100.3792967253
 10
183.5405767539
 20
100.2611770832
 10
183.0717070603
 20
100.2801360168
 10
182.6320203596
 20
100.4343174004
 10
182.2645558619
 20
100.7086291515
 10
182.0052831078
 20
101.076220309
 10
181.8795824999
 20
101.501108294
 10
181.8997586721
 20
101.9417011716
 10
182.063835358
 20
102.3548721873
 10
182.3557518998
 20
102.7001758643
 10
182.7469343895
 20
102.9438117125
  0
LWPOLYLINE
  5
16F
330
1F
100
AcDbEntity
  8
0
  6
HIDDEN
 62
     7
370
     0
100
AcDbPolyline
 90
       24
 70
   128
 43
0.0
 10
182.5393016094
 20
102.7311488592
 10
183.0609679797
 20
102.8783108645
 10
183.6055420914
 20
102.8877600633
 10
184.1326343471
 20
102.7587947041
 10
184.6031534129
 20
102.5009799354
 10
184.9822026321
 20
102.1334372066
 10
185.2416691014
 20
101.6834249326
 10
185.3623107651
 20
101.1843189203
 10
185.3351794758
 20
100.6731355168
 10
185.1622878218
 20
100.1877860703
 10
184.8564573207
 20
99.7642671295
 10
184.4403712654
 20
99.4339903422
 10
183.9448880979
 20
99.2214485609
 10
183.4067559445
 20
99.1424072139
 10
182.8658847713
 20
99.2027271145
 10
182.3623894358
 20
99.3979351201
 10
181.9336122477
 20
99.7135538213
 10
181.6113522851
 20
100.1261744254
 10
181.4195110106
 20
100.605195535
 10
181.3723162392
 20
101.1150890567
 10
181.473267881
 20
101.6180404999
 10
181.7148799652
 20
102.0767466702
 10
182.0792319828
 20
102.4571882166
 10
182.5393016094
 20
102.7311488592
  0
LWPOLYLINE
  5
170
330
1F
100
AcDbEntity
  8
0
  6
HIDDEN
 62
     7
370
     0
100
AcDbPolyline
 90
       23
 70
   128
 43
0.0
 10
182.6057440245
 20
102.5462785341
 10
183.1082726473
 20
102.684851417
 10
183.6319907212
 20
102.6847708576
 10
184.1344709152
 20
102.5460429095
 10
184.5750051194
 20
102.2799072393
 10
184.9179031903
 20
101.9079239645
 10
185.1353856379
 20
101.4602288209
 10
185.2098337018
 20
100.9730921664
 10
185.1352152058
 20
100.4859787949
 10
184.9175772274
 20
100.0383507066
 10
184.5745497027
 20
99.6664726712
 10
184.1339223662
 20
99.4004729741
 10
183.6313946748
 20
99.2618996256
 10
183.1076756695
 20
99.2619806506
 10
182.6051954755
 20
99.4007085987
 10
182.1646622026
 20
99.6668442689
 10
181.8217641318
 20
100.0388275438
 10
181.6042816842
 20
100.486521756
 10
181.5298336202
 20
100.9736593418
 10
181.6044511849
 20
101.4607727133
 10
181.8220900947
 20
101.9084008016
 10
182.1651176193
 20
102.2802779057
 10
182.6057440245
 20
102.5462785341
  0
LWPOLYLINE
  5
171
330
1F
100
AcDbEntity
  8
0
  6
HIDDEN
 62
     7
370
     0
100
AcDbPolyline
 90
       24
 70
   128
 43
0.0
 10
182.5393016094
 20
102.923535423
 10
183.0609679797
 20
103.0706974283
 10
183.6055420914
 20
103.0801461615
 10
184.1326343471
 20
102.9511808023
 10
184.6031534129
 20
102.6933664993
 10
184.9822026321
 20
102.3258237705
 10
185.2416691014
 20
101.8758110308
 10
185.3623107651
 20
101.3767050185
 10
185.3351794758
 20
100.865521615
 10
185.1622878218
 20
100.3801721685
 10
184.8564573207
 20
99.9566532277
 10
184.4403712654
 20
99.6263764404
 10
183.9448880979
 20
99.4138355904
 10
183.4067559445
 20
99.3347933121
 10
182.8658847713
 20
99.3951132127
 10
182.3623894358
 20
99.5903212183
 10
181.9336122477
 20
99.9059399195
 10
181.6113522851
 20
100.3185605236
 10
181.4195110106
 20
100.7975816332
 10
181.3723162392
 20
101.3074760862
 10
181.473267881
 20
101.8104265981
 10
181.7148799652
 20
102.2691332341
 10
182.0792319828
 20
102.6495743149
 10
182.5393016094
 20
102.923535423
  0
LWPOLYLINE
  5
172
330
1F
100
AcDbEntity
  8
0
  6
HIDDEN
 62
     7
370
     0
100
AcDbPolyline
 90
       23
 70
   128
 43
0.0
 10
182.6057440245
 20
102.7386646323
 10
183.1082726473
 20
102.8772375152
 10
183.6319907212
 20
102.8771569558
 10
184.1344709152
 20
102.7384294734
 10
184.5750051194
 20
102.4722933375
 10
184.9179031903
 20
102.1003100627
 10
185.1353856379
 20
101.6526158505
 10
185.2098337018
 20
101.1654782646
 10
185.1352152058
 20
100.6783648931
 10
184.9175772274
 20
100.2307368048
 10
184.5745497027
 20
99.8588597008
 10
184.1339223662
 20
99.5928590723
 10
183.6313946748
 20
99.4542866551
 10
183.1076756695
 20
99.4543667488
 10
182.6051954755
 20
99.5930946969
 10
182.1646622026
 20
99.8592303671
 10
181.8217641318
 20
100.231213642
 10
181.6042816842
 20
100.6789087855
 10
181.5298336202
 20
101.16604544
 10
181.6044511849
 20
101.6531588115
 10
181.8220900947
 20
102.1007868998
 10
182.1651176193
 20
102.4726644695
 10
182.6057440245
 20
102.7386646323
  0
LWPOLYLINE
  5
173
330
1F
100
AcDbEntity
  8
0
  6
HIDDEN
 62
     7
370
     0
100
AcDbPolyline
 90
       24
 70
   128
 43
0.0
 10
182.5393016094
 20
103.1159215212
 10
183.0609679797
 20
103.2630835265
 10
183.6055420914
 20
103.2725327254
 10
184.1326343471
 20
103.1435673662
 10
184.6031534129
 20
102.8857525975
 10
184.9822026321
 20
102.5182098687
 10
185.2416691014
 20
102.0681980603
 10
185.3623107651
 20
101.5690911167
 10
185.3351794758
 20
101.0579077133
 10
185.1622878218
 20
100.5725582667
 10
184.8564573207
 20
100.1490402572
 10
184.4403712654
 20
99.8187625386
 10
183.9448880979
 20
99.6062216886
 10
183.4067559445
 20
99.5271803417
 10
182.8658847713
 20
99.5875002422
 10
182.3623894358
 20
99.7827082478
 10
181.9336122477
 20
100.0983260178
 10
181.6113522851
 20
100.5109466218
 10
181.4195110106
 20
100.9899677314
 10
181.3723162392
 20
101.4998621844
 10
181.473267881
 20
102.0028126963
 10
181.7148799652
 20
102.4615193323
 10
182.0792319828
 20
102.8419608787
 10
182.5393016094
 20
103.1159215212
  0
LWPOLYLINE
  5
174
330
1F
100
AcDbEntity
  8
0
  6
HIDDEN
 62
     7
370
     0
100
AcDbPolyline
 90
       23
 70
   128
 43
0.0
 10
182.6057440245
 20
102.9310511962
 10
183.1082726473
 20
103.0696240791
 10
183.6319907212
 20
103.0695435197
 10
184.1344709152
 20
102.9308155716
 10
184.5750051194
 20
102.6646799013
 10
184.9179031903
 20
102.2926966265
 10
185.1353856379
 20
101.8450019487
 10
185.2098337018
 20
101.3578652941
 10
185.1352152058
 20
100.8707509913
 10
184.9175772274
 20
100.4231238343
 10
184.5745497027
 20
100.051245799
 10
184.1339223662
 20
99.7852451705
 10
183.6313946748
 20
99.6466727533
 10
183.1076756695
 20
99.646752847
 10
182.6051954755
 20
99.7854807951
 10
182.1646622026
 20
100.0516164653
 10
181.8217641318
 20
100.4235997402
 10
181.6042816842
 20
100.8712948837
 10
181.5298336202
 20
101.3584315382
 10
181.6044511849
 20
101.8455449097
 10
181.8220900947
 20
102.293172998
 10
182.1651176193
 20
102.6650505677
 10
182.6057440245
 20
102.9310511962
  0
LWPOLYLINE
  5
175
330
1F
100
AcDbEntity
  8
0
  6
HIDDEN
 62
     7
370
     0
100
AcDbPolyline
 90
       24
 70
   128
 43
0.0
 10
182.5393016094
 20
103.3083080851
 10
183.0609679797
 20
103.4554700904
 10
183.6055420914
 20
103.4649188236
 10
184.1326343471
 20
103.3359534644
 10
184.6031534129
 20
103.0781391614
 10
184.9822026321
 20
102.7105964326
 10
185.2416691014
 20
102.2605841585
 10
185.3623107651
 20
101.7614781462
 10
185.3351794758
 20
101.2502938115
 10
185.1622878218
 20
100.7649452962
 10
184.8564573207
 20
100.3414263554
 10
184.4403712654
 20
100.0111486368
 10
183.9448880979
 20
99.7986077868
 10
183.4067559445
 20
99.7195664399
 10
182.8658847713
 20
99.7798863404
 10
182.3623894358
 20
99.975094346
 10
181.9336122477
 20
100.2907130473
 10
181.6113522851
 20
100.7033336513
 10
181.4195110106
 20
101.1823538296
 10
181.3723162392
 20
101.6922482826
 10
181.473267881
 20
102.1951992602
 10
181.7148799652
 20
102.6539058961
 10
182.0792319828
 20
103.0343469769
 10
182.5393016094
 20
103.3083080851
  0
LWPOLYLINE
  5
176
330
1F
100
AcDbEntity
  8
0
  6
HIDDEN
 62
     7
370
     0
100
AcDbPolyline
 90
       23
 70
   128
 43
0.0
 10
182.6057440245
 20
103.1234372944
 10
183.1082726473
 20
103.2620101773
 10
183.6319907212
 20
103.2619296179
 10
184.1344709152
 20
103.1232021355
 10
184.5750051194
 20
102.8570659996
 10
184.9179031903
 20
102.4850827247
 10
185.1353856379
 20
102.0373880469
 10
185.2098337018
 20
101.5502513923
 10
185.1352152058
 20
101.0631370895
 10
184.9175772274
 20
100.6155099325
 10
184.5745497027
 20
100.2436318972
 10
184.1339223662
 20
99.9776322
 10
183.6313946748
 20
99.8390588515
 10
183.1076756695
 20
99.8391398766
 10
182.6051954755
 20
99.9778668933
 10
182.1646622026
 20
100.2440034949
 10
181.8217641318
 20
100.6159867697
 10
181.6042816842
 20
101.0636809819
 10
181.5298336202
 20
101.5508176364
 10
181.6044511849
 20
102.0379319393
 10
181.8220900947
 20
102.4855595619
 10
182.1651176193
 20
102.8574371316
 10
182.6057440245
 20
103.1234372944
  0
LWPOLYLINE
  5
177
330
1F
100
AcDbEntity
  8
0
  6
HIDDEN
 62
     7
370
     0
100
AcDbPolyline
 90
       24
 70
   128
 43
0.0
 10
182.5393016094
 20
103.6332269736
 10
183.0609679797
 20
103.7803889789
 10
183.6055420914
 20
103.7898381778
 10
184.1326343471
 20
103.6608728186
 10
184.6031534129
 20
103.4030580499
 10
184.9822026321
 20
103.0355153211
 10
185.2416691014
 20
102.585503047
 10
185.3623107651
 20
102.0863970347
 10
185.3351794758
 20
101.5752136313
 10
185.1622878218
 20
101.0898641848
 10
184.8564573207
 20
100.6663452439
 10
184.4403712654
 20
100.3360684567
 10
183.9448880979
 20
100.1235266753
 10
183.4067559445
 20
100.0444853284
 10
182.8658847713
 20
100.1048052289
 10
182.3623894358
 20
100.3000132345
 10
181.9336122477
 20
100.6156319358
 10
181.6113522851
 20
101.0282525398
 10
181.4195110106
 20
101.5072736495
 10
181.3723162392
 20
102.0171671711
 10
181.473267881
 20
102.5201186143
 10
181.7148799652
 20
102.9788247847
 10
182.0792319828
 20
103.3592663311
 10
182.5393016094
 20
103.6332269736
  0
LWPOLYLINE
  5
178
330
1F
100
AcDbEntity
  8
0
  6
HIDDEN
 62
     7
370
     0
100
AcDbPolyline
 90
       21
 70
   128
 43
0.0
 10
182.7550797367
 20
103.2916462586
 10
183.2013229483
 20
103.4082213022
 10
183.6640617454
 20
103.389510566
 10
184.0979984605
 20
103.2373450302
 10
184.4606573337
 20
102.9666198023
 10
184.7165391424
 20
102.6038356662
 10
184.840595966
 20
102.1845039517
 10
184.8206842893
 20
101.7496727013
 10
184.6587533706
 20
101.3419052192
 10
184.3706533888
 20
101.001116594
 10
183.984586654
 20
100.7606668003
 10
183.5383434424
 20
100.644091291
 10
183.0756055766
 20
100.6628024929
 10
182.6416679302
 20
100.8149675631
 10
182.279009057
 20
101.0856927909
 10
182.0231272483
 20
101.4484773927
 10
181.8990704247
 20
101.8678081759
 10
181.9189821014
 20
102.3026403577
 10
182.0809130201
 20
102.7104078398
 10
182.3690130019
 20
103.0511959993
 10
182.7550797367
 20
103.2916462586
  0
LWPOLYLINE
  5
179
330
1F
100
AcDbEntity
  8
0
  6
HIDDEN
 62
     7
370
     0
100
AcDbPolyline
 90
       21
 70
   128
 43
0.0
 10
181.8931816721
 20
117.7971671872
 10
181.9979191402
 20
117.3732072652
 10
182.2369495982
 20
117.0004114114
 10
182.5868744978
 20
116.7152711727
 10
183.0134407261
 20
116.5456982866
 10
183.4748933667
 20
116.5082917154
 10
183.9260614121
 20
116.6067134195
 10
184.3227824771
 20
116.831328401
 10
184.6262222731
 20
117.1601499968
 10
184.8066781291
 20
117.5609912329
 10
184.8464856499
 20
117.9946150236
 10
184.7417481819
 20
118.41857448
 10
184.5027177238
 20
118.7913707994
 10
184.1527928242
 20
119.0765110381
 10
183.7262265959
 20
119.2460834586
 10
183.2647739553
 20
119.2834900298
 10
182.8136049786
 20
119.1850687914
 10
182.4168839136
 20
118.9604542755
 10
182.1134441176
 20
118.6316322141
 10
181.9329882616
 20
118.230790978
 10
181.8931816721
 20
117.7971671872
  0
LWPOLYLINE
  5
17A
330
1F
100
AcDbEntity
  8
0
  6
HIDDEN
 62
     7
370
     0
100
AcDbPolyline
 90
       24
 70
   128
 43
0.0
 10
181.3748764449
 20
117.8651211389
 10
181.4871483126
 20
117.3642935768
 10
181.73905058
 20
116.9105019957
 10
182.1119009161
 20
116.5374015995
 10
182.5780455598
 20
116.2726643101
 10
183.1029147485
 20
116.1359242701
 10
183.6475791985
 20
116.1373226509
 10
184.1716446558
 20
116.2767556102
 10
184.636243304
 20
116.5438826733
 10
185.0069180706
 20
116.9188913495
 10
185.2561781758
 20
117.3739695527
 10
185.3655359352
 20
117.8753666185
 10
185.326882323
 20
118.3858953022
 10
185.143083019
 20
118.8676926844
 10
184.8277707228
 20
119.2850248494
 10
184.4043290818
 20
119.6069420852
 10
183.9041632244
 20
119.8095680751
 10
183.3643695915
 20
119.8778749981
 10
182.8249801525
 20
119.8067973905
 10
182.3260008001
 20
119.6016065382
 10
181.9044376367
 20
119.2775202521
 10
181.5915560925
 20
118.8585741051
 10
181.4105610007
 20
118.3758407437
 10
181.3748764449
 20
117.8651211389
  0
LWPOLYLINE
  5
17B
330
1F
100
AcDbEntity
  8
0
  6
HIDDEN
 62
     7
370
     0
100
AcDbPolyline
 90
       24
 70
   128
 43
0.0
 10
181.3748764449
 20
118.1900400274
 10
181.4871483126
 20
117.6892124653
 10
181.73905058
 20
117.2354208842
 10
182.1119009161
 20
116.8623209537
 10
182.5780455598
 20
116.5975836643
 10
183.1029147485
 20
116.4608436242
 10
183.6475791985
 20
116.4622415394
 10
184.1716446558
 20
116.6016749643
 10
184.636243304
 20
116.8688015618
 10
185.0069180706
 20
117.2438107037
 10
185.2561781758
 20
117.6988889069
 10
185.3655359352
 20
118.200285507
 10
185.326882323
 20
118.7108141907
 10
185.143083019
 20
119.1926115729
 10
184.8277707228
 20
119.6099446692
 10
184.4043290818
 20
119.9318609737
 10
183.9041632244
 20
120.1344869636
 10
183.3643695915
 20
120.2027948179
 10
182.8249801525
 20
120.131716279
 10
182.3260008001
 20
119.9265254267
 10
181.9044376367
 20
119.6024391406
 10
181.5915560925
 20
119.1834939249
 10
181.4105610007
 20
118.7007596322
 10
181.3748764449
 20
118.1900400274
  0
LWPOLYLINE
  5
17C
330
1F
100
AcDbEntity
  8
0
  6
HIDDEN
 62
     7
370
     0
100
AcDbPolyline
 90
       21
 70
   128
 43
0.0
 10
181.8736155161
 20
119.1639398762
 10
181.9797406548
 20
118.734362682
 10
182.2219385409
 20
118.3566266276
 10
182.5764995643
 20
118.0677089446
 10
183.0087179893
 20
117.8958892428
 10
183.4762847626
 20
117.8579862766
 10
183.933431899
 20
117.9577122979
 10
184.3354093486
 20
118.1853033208
 10
184.6428696641
 20
118.5184821092
 10
184.8257162252
 20
118.924634678
 10
184.8660508746
 20
119.3640037977
 10
184.7599257359
 20
119.7935809918
 10
184.5177287811
 20
120.1713161149
 10
184.1631668264
 20
120.4602347292
 10
183.7309484014
 20
120.632054431
 10
183.2633816281
 20
120.6699564659
 10
182.8062354231
 20
120.5702313759
 10
182.4042570421
 20
120.342640353
 10
182.0967967266
 20
120.0094615646
 10
181.9139501655
 20
119.6033089959
 10
181.8736155161
 20
119.1639398762
  0
LWPOLYLINE
  5
17D
330
1F
100
AcDbEntity
  8
0
  6
HIDDEN
 62
     7
370
     0
100
AcDbPolyline
 90
       21
 70
   128
 43
0.0
 10
181.8736155161
 20
118.1604612224
 10
181.9797406548
 20
117.7308840283
 10
182.2219385409
 20
117.3531484396
 10
182.5764995643
 20
117.0642302908
 10
183.0087179893
 20
116.8924105891
 10
183.4762847626
 20
116.8545080886
 10
183.933431899
 20
116.9542336442
 10
184.3354093486
 20
117.1818246671
 10
184.6428696641
 20
117.5150034555
 10
184.8257162252
 20
117.9211560242
 10
184.8660508746
 20
118.3605251439
 10
184.7599257359
 20
118.7901023381
 10
184.5177287811
 20
119.1678383925
 10
184.1631668264
 20
119.4567560755
 10
183.7309484014
 20
119.6285757773
 10
183.2633816281
 20
119.6664778121
 10
182.8062354231
 20
119.5667527222
 10
182.4042570421
 20
119.3391616993
 10
182.0967967266
 20
119.0059829109
 10
181.9139501655
 20
118.5998303421
 10
181.8736155161
 20
118.1604612224
  0
LWPOLYLINE
  5
17E
330
1F
100
AcDbEntity
  8
0
  6
HIDDEN
 62
     7
370
     0
100
AcDbPolyline
 90
       24
 70
   128
 43
0.0
 10
181.3748764449
 20
118.3824270569
 10
181.4871483126
 20
117.8815990292
 10
181.73905058
 20
117.4278074481
 10
182.1119009161
 20
117.0547070519
 10
182.5780455598
 20
116.7899697625
 10
183.1029147485
 20
116.6532297224
 10
183.6475791985
 20
116.6546281033
 10
184.1716446558
 20
116.7940610625
 10
184.636243304
 20
117.0611881257
 10
185.0069180706
 20
117.4361968019
 10
185.2561781758
 20
117.8912754708
 10
185.3655359352
 20
118.3926716052
 10
185.326882323
 20
118.9032002889
 10
185.143083019
 20
119.3849976711
 10
184.8277707228
 20
119.8023307674
 10
184.4043290818
 20
120.1242480033
 10
183.9041632244
 20
120.3268739932
 10
183.3643695915
 20
120.3951809161
 10
182.8249801525
 20
120.3241033085
 10
182.3260008001
 20
120.1189115249
 10
181.9044376367
 20
119.7948252388
 10
181.5915560925
 20
119.3758800231
 10
181.4105610007
 20
118.8931457304
 10
181.3748764449
 20
118.3824270569
  0
LWPOLYLINE
  5
17F
330
1F
100
AcDbEntity
  8
0
  6
HIDDEN
 62
     7
370
     0
100
AcDbPolyline
 90
       23
 70
   128
 43
0.0
 10
181.5344725379
 20
118.2488064819
 10
181.6456063294
 20
117.7678803519
 10
181.8964273313
 20
117.3358565733
 10
182.2666140848
 20
116.9877351799
 10
182.7261780033
 20
116.751719413
 10
183.2378857413
 20
116.6469297909
 10
183.7602841312
 20
116.6818553187
 10
184.2510501498
 20
116.8536671043
 10
184.6704256365
 20
117.1484456003
 10
184.984434081
 20
117.5423098334
 10
185.16763827
 20
118.0033508294
 10
185.2051938528
 20
118.4942183622
 10
185.0940600613
 20
118.9751449578
 10
184.8432399908
 20
119.4071687364
 10
184.4730523059
 20
119.7552905955
 10
184.0134893188
 20
119.9913063623
 10
183.5017806494
 20
120.0960959845
 10
182.9793822595
 20
120.0611704566
 10
182.4886162409
 20
119.8893582054
 10
182.0692416856
 20
119.5945797094
 10
181.7552323097
 20
119.200715942
 10
181.5720290521
 20
118.7396740146
 10
181.5344725379
 20
118.2488064819
  0
LWPOLYLINE
  5
180
330
1F
100
AcDbEntity
  8
0
  6
HIDDEN
 62
     7
370
     0
100
AcDbPolyline
 90
       24
 70
   128
 43
0.0
 10
181.3748764449
 20
118.5748131551
 10
181.4871483126
 20
118.0739851274
 10
181.73905058
 20
117.6201935463
 10
182.1119009161
 20
117.2470936157
 10
182.5780455598
 20
116.9823563263
 10
183.1029147485
 20
116.8456162863
 10
183.6475791985
 20
116.8470142015
 10
184.1716446558
 20
116.9864476264
 10
184.636243304
 20
117.2535742239
 10
185.0069180706
 20
117.6285833657
 10
185.2561781758
 20
118.083661569
 10
185.3655359352
 20
118.5850586348
 10
185.326882323
 20
119.0955873184
 10
185.143083019
 20
119.5773837694
 10
184.8277707228
 20
119.9947168656
 10
184.4043290818
 20
120.3166341015
 10
183.9041632244
 20
120.5192600914
 10
183.3643695915
 20
120.5875670143
 10
182.8249801525
 20
120.5164894067
 10
182.3260008001
 20
120.3112985544
 10
181.9044376367
 20
119.9872122683
 10
181.5915560925
 20
119.5682661213
 10
181.4105610007
 20
119.0855327599
 10
181.3748764449
 20
118.5748131551
  0
LWPOLYLINE
  5
181
330
1F
100
AcDbEntity
  8
0
  6
HIDDEN
 62
     7
370
     0
100
AcDbPolyline
 90
       23
 70
   128
 43
0.0
 10
181.5344725379
 20
118.4411935114
 10
181.6456063294
 20
117.9602669158
 10
181.8964273313
 20
117.5282426715
 10
182.2666140848
 20
117.1801217437
 10
182.7261780033
 20
116.9441059769
 10
183.2378857413
 20
116.8393158891
 10
183.7602841312
 20
116.8742418826
 10
184.2510501498
 20
117.0460536682
 10
184.6704256365
 20
117.3408321642
 10
184.984434081
 20
117.7346963972
 10
185.16763827
 20
118.1957378589
 10
185.2051938528
 20
118.6866053917
 10
185.0940600613
 20
119.1675319873
 10
184.8432399908
 20
119.5995557659
 10
184.4730523059
 20
119.9476766937
 10
184.0134893188
 20
120.1836924606
 10
183.5017806494
 20
120.2884820827
 10
182.9793822595
 20
120.2535565548
 10
182.4886162409
 20
120.0817443036
 10
182.0692416856
 20
119.7869658076
 10
181.7552323097
 20
119.3931020402
 10
181.5720290521
 20
118.9320610442
 10
181.5344725379
 20
118.4411935114
  0
LWPOLYLINE
  5
182
330
1F
100
AcDbEntity
  8
0
  6
HIDDEN
 62
     7
370
     0
100
AcDbPolyline
 90
       24
 70
   128
 43
0.0
 10
181.3748764449
 20
118.7671992533
 10
181.4871483126
 20
118.2663712256
 10
181.73905058
 20
117.8125796445
 10
182.1119009161
 20
117.4394797139
 10
182.5780455598
 20
117.1747424245
 10
183.1029147485
 20
117.0380023845
 10
183.6475791985
 20
117.0394007653
 10
184.1716446558
 20
117.1788337246
 10
184.636243304
 20
117.4459607877
 10
185.0069180706
 20
117.8209699296
 10
185.2561781758
 20
118.2760476672
 10
185.3655359352
 20
118.777444733
 10
185.326882323
 20
119.2879734166
 10
185.143083019
 20
119.7697707989
 10
184.8277707228
 20
120.1871029638
 10
184.4043290818
 20
120.5090201997
 10
183.9041632244
 20
120.7116461896
 10
183.3643695915
 20
120.7799531125
 10
182.8249801525
 20
120.7088755049
 10
182.3260008001
 20
120.5036846526
 10
181.9044376367
 20
120.1795983665
 10
181.5915560925
 20
119.7606522196
 10
181.4105610007
 20
119.2779188581
 10
181.3748764449
 20
118.7671992533
  0
LWPOLYLINE
  5
183
330
1F
100
AcDbEntity
  8
0
  6
HIDDEN
 62
     7
370
     0
100
AcDbPolyline
 90
       23
 70
   128
 43
0.0
 10
181.5344725379
 20
118.6335796096
 10
181.6456063294
 20
118.152653014
 10
181.8964273313
 20
117.7206292354
 10
182.2666140848
 20
117.3725078419
 10
182.7261780033
 20
117.1364920751
 10
183.2378857413
 20
117.0317024529
 10
183.7602841312
 20
117.0666279808
 10
184.2510501498
 20
117.2384397664
 10
184.6704256365
 20
117.5332182624
 10
184.984434081
 20
117.9270829611
 10
185.16763827
 20
118.3881239571
 10
185.2051938528
 20
118.8789914899
 10
185.0940600613
 20
119.3599180855
 10
184.8432399908
 20
119.7919418641
 10
184.4730523059
 20
120.1400627919
 10
184.0134893188
 20
120.3760785588
 10
183.5017806494
 20
120.4808681809
 10
182.9793822595
 20
120.445942653
 10
182.4886162409
 20
120.2741313331
 10
182.0692416856
 20
119.9793528371
 10
181.7552323097
 20
119.5854881384
 10
181.5720290521
 20
119.1244471424
 10
181.5344725379
 20
118.6335796096
  0
LWPOLYLINE
  5
184
330
1F
100
AcDbEntity
  8
0
  6
HIDDEN
 62
     7
370
     0
100
AcDbPolyline
 90
       24
 70
   128
 43
0.0
 10
181.3748764449
 20
118.9595853515
 10
181.4871483126
 20
118.4587582551
 10
181.73905058
 20
118.004966674
 10
182.1119009161
 20
117.6318662778
 10
182.5780455598
 20
117.3671289884
 10
183.1029147485
 20
117.2303889484
 10
183.6475791985
 20
117.2317868636
 10
184.1716446558
 20
117.3712202885
 10
184.636243304
 20
117.6383468859
 10
185.0069180706
 20
118.0133560278
 10
185.2561781758
 20
118.4684337654
 10
185.3655359352
 20
118.9698308312
 10
185.326882323
 20
119.4803595149
 10
185.143083019
 20
119.9621568971
 10
184.8277707228
 20
120.3794899934
 10
184.4043290818
 20
120.7014062979
 10
183.9041632244
 20
120.9040322878
 10
183.3643695915
 20
120.972340142
 10
182.8249801525
 20
120.9012616031
 10
182.3260008001
 20
120.6960707509
 10
181.9044376367
 20
120.3719844647
 10
181.5915560925
 20
119.9530392491
 10
181.4105610007
 20
119.4703049563
 10
181.3748764449
 20
118.9595853515
  0
LWPOLYLINE
  5
185
330
1F
100
AcDbEntity
  8
0
  6
HIDDEN
 62
     7
370
     0
100
AcDbPolyline
 90
       23
 70
   128
 43
0.0
 10
181.5344725379
 20
118.8259657078
 10
181.6456063294
 20
118.3450391122
 10
181.8964273313
 20
117.9130153336
 10
182.2666140848
 20
117.5648944058
 10
182.7261780033
 20
117.3288786389
 10
183.2378857413
 20
117.2240885512
 10
183.7602841312
 20
117.2590145447
 10
184.2510501498
 20
117.4308263302
 10
184.6704256365
 20
117.7256048263
 10
184.984434081
 20
118.1194690593
 10
185.16763827
 20
118.5805100553
 10
185.2051938528
 20
119.0713775881
 10
185.0940600613
 20
119.5523041837
 10
184.8432399908
 20
119.9843279623
 10
184.4730523059
 20
120.3324488901
 10
184.0134893188
 20
120.568464657
 10
183.5017806494
 20
120.6732552104
 10
182.9793822595
 20
120.6383287512
 10
182.4886162409
 20
120.4665174313
 10
182.0692416856
 20
120.1717389353
 10
181.7552323097
 20
119.7778742366
 10
181.5720290521
 20
119.3168332406
 10
181.5344725379
 20
118.8259657078
  0
LWPOLYLINE
  5
186
330
1F
100
AcDbEntity
  8
0
  6
HIDDEN
 62
     7
370
     0
100
AcDbPolyline
 90
       24
 70
   128
 43
0.0
 10
181.3748764449
 20
119.0963938438
 10
181.4871483126
 20
118.5955658161
 10
181.73905058
 20
118.141774235
 10
182.1119009161
 20
117.7686743044
 10
182.5780455598
 20
117.503937015
 10
183.1029147485
 20
117.367196975
 10
183.6475791985
 20
117.3685953558
 10
184.1716446558
 20
117.5080283151
 10
184.636243304
 20
117.7751553782
 10
185.0069180706
 20
118.1501635887
 10
185.2561781758
 20
118.6052422576
 10
185.3655359352
 20
119.1066393234
 10
185.326882323
 20
119.6171680071
 10
185.143083019
 20
120.098964458
 10
184.8277707228
 20
120.5162975543
 10
184.4043290818
 20
120.8382147901
 10
183.9041632244
 20
121.04084078
 10
183.3643695915
 20
121.1091477029
 10
182.8249801525
 20
121.0380700954
 10
182.3260008001
 20
120.8328792431
 10
181.9044376367
 20
120.508792957
 10
181.5915560925
 20
120.08984681
 10
181.4105610007
 20
119.6071134486
 10
181.3748764449
 20
119.0963938438
  0
LWPOLYLINE
  5
187
330
1F
100
AcDbEntity
  8
0
  6
HIDDEN
 62
     7
370
     0
100
AcDbPolyline
 90
       24
 70
   128
 43
0.0
 10
181.4746238866
 20
119.1372640037
 10
181.5812826732
 20
118.6614783086
 10
181.820589734
 20
118.2303765394
 10
182.1747977862
 20
117.875931
 10
182.6176351511
 20
117.6244305984
 10
183.116260601
 20
117.4945273974
 10
183.6336913162
 20
117.495855929
 10
184.1315540129
 20
117.6283174731
 10
184.5729226822
 20
117.8820879736
 10
184.9250641295
 20
118.2383458667
 10
185.1618603447
 20
118.6706704624
 10
185.2657512406
 20
119.1469972559
 10
185.2290301228
 20
119.6319993191
 10
185.0544211099
 20
120.0897071116
 10
184.7548733109
 20
120.4861729943
 10
184.3526043573
 20
120.7919941821
 10
183.877447305
 20
120.984489245
 10
183.364642469
 20
121.049381008
 10
182.8522232005
 20
120.9818573274
 10
182.3781921172
 20
120.7869259246
 10
181.9777075776
 20
120.47904372
 10
181.6804694587
 20
120.0810448803
 10
181.5085240284
 20
119.6224476748
 10
181.4746238866
 20
119.1372640037
  0
LINE
  5
188
330
1F
100
AcDbEntity
  8
0
  6
HIDDEN
 62
     7
370
     0
100
AcDbLine
 10
175.6245886551
 20
99.1620096915
 30
0.0
 11
178.1023868003
 21
99.7554055952
 31
0.0
  0
LINE
  5
189
330
1F
100
AcDbEntity
  8
0
  6
HIDDEN
 62
     7
370
     0
100
AcDbLine
 10
177.1707890199
 20
103.6454086729
 30
0.0
 11
174.6929908746
 21
103.0520127692
 31
0.0
  0
LINE
  5
18A
330
1F
100
AcDbEntity
  8
0
  6
HIDDEN
 62
     7
370
     0
100
AcDbLine
 10
178.6653508076
 20
100.3663811438
 30
0.0
 11
178.8939290324
 21
101.0137714051
 31
0.0
  0
LINE
  5
18B
330
1F
100
AcDbEntity
  8
0
  6
HIDDEN
 62
     7
370
     0
100
AcDbLine
 10
178.4464881399
 20
102.8821157828
 30
0.0
 11
177.9494459385
 21
103.3557310306
 31
0.0
  0
LINE
  5
18C
330
1F
100
AcDbEntity
  8
0
  6
HIDDEN
 62
     7
370
     0
100
AcDbLine
 10
177.9494459385
 20
116.5663163715
 30
0.0
 11
178.4464881399
 21
117.0399316192
 31
0.0
  0
LINE
  5
18D
330
1F
100
AcDbEntity
  8
0
  6
HIDDEN
 62
     7
370
     0
100
AcDbLine
 10
178.8939290324
 20
118.9082759969
 30
0.0
 11
178.6653508076
 21
119.5556662582
 31
0.0
  0
LINE
  5
18E
330
1F
100
AcDbEntity
  8
0
  6
HIDDEN
 62
     7
370
     0
100
AcDbLine
 10
174.6929908746
 20
116.8700346329
 30
0.0
 11
177.1707890199
 21
116.2766387292
 31
0.0
  0
LINE
  5
18F
330
1F
100
AcDbEntity
  8
0
  6
HIDDEN
 62
     7
370
     0
100
AcDbLine
 10
178.1023868003
 20
120.1666418069
 30
0.0
 11
175.6245886551
 21
120.7600377106
 31
0.0
  0
LINE
  5
190
330
1F
100
AcDbEntity
  8
0
  6
HIDDEN
 62
     7
370
     0
100
AcDbLine
 10
185.3698330575
 20
99.102180598
 30
0.0
 11
185.3698330575
 21
101.9235506259
 31
0.0
  0
LINE
  5
191
330
1F
100
AcDbEntity
  8
0
  6
HIDDEN
 62
     7
370
     0
100
AcDbLine
 10
181.3698333332
 20
101.9065958985
 30
0.0
 11
181.3698333332
 21
100.3851398431
 31
0.0
  0
LINE
  5
192
330
1F
100
AcDbEntity
  8
0
  6
HIDDEN
 62
     7
370
     0
100
AcDbLine
 10
173.569833312
 20
98.567098526
 30
0.0
 11
175.4634325968
 21
99.0205874272
 31
0.0
  0
LINE
  5
193
330
1F
100
AcDbEntity
  8
0
  6
HIDDEN
 62
     7
370
     0
100
AcDbLine
 10
174.4852551834
 20
103.1050907054
 30
0.0
 11
173.569833312
 21
102.8858610966
 31
0.0
  0
LINE
  5
194
330
1F
100
AcDbEntity
  8
0
  6
HIDDEN
 62
     7
370
     0
100
AcDbLine
 10
175.4927939379
 20
99.4903437399
 30
0.0
 11
182.6998541707
 21
101.2163266145
 31
0.0
  0
LINE
  5
195
330
1F
100
AcDbEntity
  8
0
  6
HIDDEN
 62
     7
370
     0
100
AcDbLine
 10
182.6998541707
 20
104.609640462
 30
0.0
 11
174.7242260368
 21
102.699596116
 31
0.0
  0
LINE
  5
196
330
1F
100
AcDbEntity
  8
0
  6
HIDDEN
 62
     7
370
     0
100
AcDbLine
 10
185.0198336521
 20
101.9671197586
 30
0.0
 11
185.0198336521
 21
108.8017084707
 31
0.0
  0
LINE
  5
197
330
1F
100
AcDbEntity
  8
0
  6
HIDDEN
 62
     7
370
     0
100
AcDbLine
 10
181.71983367
 20
101.9893597417
 30
0.0
 11
181.71983367
 21
101.9671197586
 31
0.0
  0
LINE
  5
198
330
1F
100
AcDbEntity
  8
0
  6
HIDDEN
 62
     7
370
     0
100
AcDbLine
 10
181.71983367
 20
108.8004211501
 30
0.0
 11
181.71983367
 21
103.3672067874
 31
0.0
  0
LINE
  5
199
330
1F
100
AcDbEntity
  8
0
  6
HIDDEN
 62
     7
370
     0
100
AcDbLine
 10
191.2645117024
 20
119.4610233956
 30
0.0
 11
190.6698342988
 21
119.4610233956
 31
0.0
  0
LINE
  5
19A
330
1F
100
AcDbEntity
  8
0
  6
HIDDEN
 62
     7
370
     0
100
AcDbLine
 10
190.6698342988
 20
100.4610240065
 30
0.0
 11
191.2645117024
 21
100.4610240065
 31
0.0
  0
ARC
  5
19B
330
1F
100
AcDbEntity
  8
0
  6
HIDDEN
 62
     7
370
     0
100
AcDbCircle
 10
190.6698333928
 20
118.661023701
 30
0.0
 40
0.7999999999999972
100
AcDbArc
 50
90.0
 51
180.0
  0
ARC
  5
19C
330
1F
100
AcDbEntity
  8
0
  6
HIDDEN
 62
     7
370
     0
100
AcDbCircle
 10
190.6698333928
 20
101.261023701
 30
0.0
 40
0.7999999999999972
100
AcDbArc
 50
180.0
 51
270.0
  0
ARC
  5
19D
330
1F
100
AcDbEntity
  8
0
  6
HIDDEN
 62
     7
370
     0
100
AcDbCircle
 10
191.2645113947
 20
118.661023701
 30
0.0
 40
0.8000000000000257
100
AcDbArc
 50
75.0
 51
90.0
  0
ARC
  5
19E
330
1F
100
AcDbEntity
  8
0
  6
HIDDEN
 62
     7
370
     0
100
AcDbCircle
 10
191.2645113947
 20
101.261023701
 30
0.0
 40
0.8000000000000119
100
AcDbArc
 50
270.0
 51
285.0
  0
LINE
  5
19F
330
1F
100
AcDbEntity
  8
0
  6
HIDDEN
 62
     7
370
     0
100
AcDbLine
 10
191.4715670624
 20
100.4882828869
 30
0.0
 11
193.2358589599
 21
100.9610240885
 31
0.0
  0
LINE
  5
1A0
330
1F
100
AcDbEntity
  8
0
  6
HIDDEN
 62
     7
370
     0
100
AcDbLine
 10
193.2358589599
 20
118.9610233136
 30
0.0
 11
191.4715670624
 21
119.4337645151
 31
0.0
  0
ARC
  5
1A1
330
1F
100
AcDbEntity
  8
0
  6
HIDDEN
 62
     7
370
     0
100
AcDbCircle
 10
102.9198333928
 20
100.661023701
 30
0.0
 40
0.7999999999999972
100
AcDbArc
 50
90.0
 51
180.0
  0
ARC
  5
1A2
330
1F
100
AcDbEntity
  8
0
  6
HIDDEN
 62
     7
370
     0
100
AcDbCircle
 10
102.9198333928
 20
119.261023701
 30
0.0
 40
0.7999999999999972
100
AcDbArc
 50
180.0
 51
270.0
  0
LINE
  5
1A3
330
1F
100
AcDbEntity
  8
0
  6
HIDDEN
 62
     7
370
     0
100
AcDbLine
 10
201.4698327163
 20
118.9610233136
 30
0.0
 11
193.2358589599
 21
118.9610233136
 31
0.0
  0
LINE
  5
1A4
330
1F
100
AcDbEntity
  8
0
  6
HIDDEN
 62
     7
370
     0
100
AcDbLine
 10
193.2358589599
 20
100.9610240885
 30
0.0
 11
201.4698327163
 21
100.9610240885
 31
0.0
  0
LINE
  5
1A5
330
1F
100
AcDbEntity
  8
0
  6
HIDDEN
 62
     7
370
     0
100
AcDbLine
 10
110.0122068653
 20
101.236024087
 30
0.0
 11
110.8888943323
 21
101.236024087
 31
0.0
  0
LINE
  5
1A6
330
1F
100
AcDbEntity
  8
0
  6
HIDDEN
 62
     7
370
     0
100
AcDbLine
 10
110.8888943323
 20
118.6860233151
 30
0.0
 11
110.0122068653
 21
118.6860233151
 31
0.0
  0
ARC
  5
1A7
330
1F
100
AcDbEntity
  8
0
  6
HIDDEN
 62
     7
370
     0
100
AcDbCircle
 10
110.8888932851
 20
101.636023701
 30
0.0
 40
0.4000000000000057
100
AcDbArc
 50
270.0
 51
330.0
  0
ARC
  5
1A8
330
1F
100
AcDbEntity
  8
0
  6
HIDDEN
 62
     7
370
     0
100
AcDbCircle
 10
110.8888932851
 20
118.286023701
 30
0.0
 40
0.4000000000000199
100
AcDbArc
 50
30.0
 51
90.0
  0
ARC
  5
1A9
330
1F
100
AcDbEntity
  8
0
  6
HIDDEN
 62
     7
370
     0
100
AcDbCircle
 10
110.0122058235
 20
101.636023701
 30
0.0
 40
0.3999999999999986
100
AcDbArc
 50
255.0
 51
270.0
  0
ARC
  5
1AA
330
1F
100
AcDbEntity
  8
0
  6
HIDDEN
 62
     7
370
     0
100
AcDbCircle
 10
110.0122058235
 20
118.286023701
 30
0.0
 40
0.4000000000000057
100
AcDbArc
 50
90.0
 51
105.0
  0
LINE
  5
1AB
330
1F
100
AcDbEntity
  8
0
  6
HIDDEN
 62
     7
370
     0
100
AcDbLine
 10
109.9086773226
 20
118.6723943405
 30
0.0
 11
109.1198322007
 21
118.461024163
 31
0.0
  0
LINE
  5
1AC
330
1F
100
AcDbEntity
  8
0
  6
HIDDEN
 62
     7
370
     0
100
AcDbLine
 10
109.1198322007
 20
101.4610232391
 30
0.0
 11
109.9086773226
 21
101.2496530615
 31
0.0
  0
LINE
  5
1AD
330
1F
100
AcDbEntity
  8
0
  6
HIDDEN
 62
     7
370
     0
100
AcDbLine
 10
111.2353016266
 20
101.4360237472
 30
0.0
 11
112.1157628128
 21
102.961023485
 31
0.0
  0
LINE
  5
1AE
330
1F
100
AcDbEntity
  8
0
  6
HIDDEN
 62
     7
370
     0
100
AcDbLine
 10
112.1157628128
 20
116.9610239171
 30
0.0
 11
111.2353016266
 21
118.4860236548
 31
0.0
  0
LINE
  5
1AF
330
1F
100
AcDbEntity
  8
0
  6
HIDDEN
 62
     7
370
     0
100
AcDbLine
 10
102.919831557
 20
101.4610232391
 30
0.0
 11
109.1198322007
 21
101.4610232391
 31
0.0
  0
LINE
  5
1B0
330
1F
100
AcDbEntity
  8
0
  6
HIDDEN
 62
     7
370
     0
100
AcDbLine
 10
109.1198322007
 20
118.461024163
 30
0.0
 11
102.919831557
 21
118.461024163
 31
0.0
  0
LINE
  5
1B1
330
1F
100
AcDbEntity
  8
0
  6
HIDDEN
 62
     7
370
     0
100
AcDbLine
 10
145.1198325136
 20
102.961023485
 30
0.0
 11
147.2829316387
 21
106.561023656
 31
0.0
  0
LINE
  5
1B2
330
1F
100
AcDbEntity
  8
0
  6
HIDDEN
 62
     7
370
     0
100
AcDbLine
 10
147.2829316387
 20
113.3610237461
 30
0.0
 11
145.1198325136
 21
116.9610239171
 31
0.0
  0
LINE
  5
1B3
330
1F
100
AcDbEntity
  8
0
  6
HIDDEN
 62
     7
370
     0
100
AcDbLine
 10
112.1157628128
 20
102.961023485
 30
0.0
 11
145.1198325136
 21
102.961023485
 31
0.0
  0
LINE
  5
1B4
330
1F
100
AcDbEntity
  8
0
  6
HIDDEN
 62
     7
370
     0
100
AcDbLine
 10
145.1198325136
 20
116.9610239171
 30
0.0
 11
112.1157628128
 21
116.9610239171
 31
0.0
  0
LINE
  5
1B5
330
1F
100
AcDbEntity
  8
0
  6
HIDDEN
 62
     7
370
     0
100
AcDbLine
 10
210.3698324987
 20
123.4499729775
 30
0.0
 11
209.9234123358
 21
123.0035500207
 31
0.0
  0
LINE
  5
1B6
330
1F
100
AcDbEntity
  8
0
  6
HIDDEN
 62
     7
370
     0
100
AcDbLine
 10
209.9234086105
 20
96.9184983127
 30
0.0
 11
210.3698324987
 21
96.4720753558
 31
0.0
  0
LINE
  5
1B7
330
1F
100
AcDbEntity
  8
0
  6
HIDDEN
 62
     7
370
     0
100
AcDbLine
 10
147.2829316387
 20
106.561023656
 30
0.0
 11
189.8698337951
 21
106.561023656
 31
0.0
  0
LINE
  5
1B8
330
1F
100
AcDbEntity
  8
0
  6
HIDDEN
 62
     7
370
     0
100
AcDbLine
 10
189.8698337951
 20
113.3610237461
 30
0.0
 11
147.2829316387
 21
113.3610237461
 31
0.0
  0
LINE
  5
1B9
330
1F
100
AcDbEntity
  8
0
  6
HIDDEN
 62
     7
370
     0
100
AcDbLine
 10
201.4698327163
 20
96.9110235177
 30
0.0
 11
209.9321704933
 21
96.9110235177
 31
0.0
  0
LINE
  5
1BA
330
1F
100
AcDbEntity
  8
0
  6
HIDDEN
 62
     7
370
     0
100
AcDbLine
 10
209.9321704933
 20
123.0110238843
 30
0.0
 11
201.4698327163
 21
123.0110238843
 31
0.0
  0
LINE
  5
1BB
330
1F
100
AcDbEntity
  8
0
  6
HIDDEN
 62
     7
370
     0
100
AcDbLine
 10
185.0198336521
 20
111.121626252
 30
0.0
 11
185.0198336521
 21
117.9549276434
 31
0.0
  0
LINE
  5
1BC
330
1F
100
AcDbEntity
  8
0
  6
HIDDEN
 62
     7
370
     0
100
AcDbLine
 10
181.71983367
 20
116.5548406147
 30
0.0
 11
181.71983367
 21
111.1203389314
 31
0.0
  0
LINE
  5
1BD
330
1F
100
AcDbEntity
  8
0
  6
HIDDEN
 62
     7
370
     0
100
AcDbLine
 10
181.71983367
 20
117.9549276434
 30
0.0
 11
181.71983367
 21
117.9326876604
 31
0.0
  0
LINE
  5
1BE
330
1F
100
AcDbEntity
  8
0
  6
HIDDEN
 62
     7
370
     0
100
AcDbLine
 10
174.7242260368
 20
117.2224512861
 30
0.0
 11
182.6998541707
 21
115.3124069401
 31
0.0
  0
LINE
  5
1BF
330
1F
100
AcDbEntity
  8
0
  6
HIDDEN
 62
     7
370
     0
100
AcDbLine
 10
182.6998541707
 20
118.7057207875
 30
0.0
 11
175.4927939379
 21
120.4317036622
 31
0.0
  0
LINE
  5
1C0
330
1F
100
AcDbEntity
  8
0
  6
HIDDEN
 62
     7
370
     0
100
AcDbLine
 10
185.3698330575
 20
117.9984967761
 30
0.0
 11
185.3698330575
 21
120.8198668041
 31
0.0
  0
LINE
  5
1C1
330
1F
100
AcDbEntity
  8
0
  6
HIDDEN
 62
     7
370
     0
100
AcDbLine
 10
181.3698333332
 20
119.5369075589
 30
0.0
 11
181.3698333332
 21
118.0154515036
 31
0.0
  0
LINE
  5
1C2
330
1F
100
AcDbEntity
  8
0
  6
HIDDEN
 62
     7
370
     0
100
AcDbLine
 10
173.569833312
 20
117.0361863055
 30
0.0
 11
174.4852551834
 21
116.8169566967
 31
0.0
  0
LINE
  5
1C3
330
1F
100
AcDbEntity
  8
0
  6
HIDDEN
 62
     7
370
     0
100
AcDbLine
 10
175.4634325968
 20
120.9014599748
 30
0.0
 11
173.569833312
 21
121.3549488761
 31
0.0
  0
LINE
  5
1C4
330
1F
100
AcDbEntity
  8
0
  6
HIDDEN
 62
     7
370
     0
100
AcDbLine
 10
181.3698333332
 20
100.829085482
 30
0.0
 11
181.3698333332
 21
100.692277921
 31
0.0
  0
LINE
  5
1C5
330
1F
100
AcDbEntity
  8
0
  6
HIDDEN
 62
     7
370
     0
100
AcDbLine
 10
185.3698330575
 20
100.692277921
 30
0.0
 11
185.3698330575
 21
100.829085482
 31
0.0
  0
LINE
  5
1C6
330
1F
100
AcDbEntity
  8
0
  6
HIDDEN
 62
     7
370
     0
100
AcDbLine
 10
181.8698334151
 20
101.6615537532
 30
0.0
 11
181.8698334151
 21
100.6580760308
 31
0.0
  0
LINE
  5
1C7
330
1F
100
AcDbEntity
  8
0
  6
HIDDEN
 62
     7
370
     0
100
AcDbLine
 10
184.8698329756
 20
100.6580760308
 30
0.0
 11
184.8698329756
 21
101.6615537532
 31
0.0
  0
LINE
  5
1C8
330
1F
100
AcDbEntity
  8
0
  6
HIDDEN
 62
     7
370
     0
100
AcDbLine
 10
181.3698333332
 20
101.9235506259
 30
0.0
 11
181.3698333332
 21
101.5986308061
 31
0.0
  0
LINE
  5
1C9
330
1F
100
AcDbEntity
  8
0
  6
HIDDEN
 62
     7
370
     0
100
AcDbLine
 10
185.3698330575
 20
101.5986308061
 30
0.0
 11
185.3698330575
 21
101.9235506259
 31
0.0
  0
LINE
  5
1CA
330
1F
100
AcDbEntity
  8
0
  6
HIDDEN
 62
     7
370
     0
100
AcDbLine
 10
185.3698330575
 20
117.9984967761
 30
0.0
 11
185.3698330575
 21
118.323416596
 31
0.0
  0
LINE
  5
1CB
330
1F
100
AcDbEntity
  8
0
  6
HIDDEN
 62
     7
370
     0
100
AcDbLine
 10
181.3698333332
 20
118.323416596
 30
0.0
 11
181.3698333332
 21
117.9984967761
 31
0.0
  0
LINE
  5
1CC
330
1F
100
AcDbEntity
  8
0
  6
HIDDEN
 62
     7
370
     0
100
AcDbLine
 10
184.8698329756
 20
118.2604936488
 30
0.0
 11
184.8698329756
 21
119.2639713713
 31
0.0
  0
LINE
  5
1CD
330
1F
100
AcDbEntity
  8
0
  6
HIDDEN
 62
     7
370
     0
100
AcDbLine
 10
181.8698334151
 20
119.2639713713
 30
0.0
 11
181.8698334151
 21
118.2604936488
 31
0.0
  0
LINE
  5
1CE
330
1F
100
AcDbEntity
  8
0
  6
HIDDEN
 62
     7
370
     0
100
AcDbLine
 10
185.3698330575
 20
119.0929619201
 30
0.0
 11
185.3698330575
 21
119.229769481
 31
0.0
  0
LINE
  5
1CF
330
1F
100
AcDbEntity
  8
0
  6
HIDDEN
 62
     7
370
     0
100
AcDbLine
 10
181.3698333332
 20
119.229769481
 30
0.0
 11
181.3698333332
 21
119.0929619201
 31
0.0
  0
CIRCLE
  5
1D0
330
1F
100
AcDbEntity
  8
0
  6
HIDDEN
 62
     7
370
     0
100
AcDbCircle
 10
183.3698333928
 20
118.6825373558
 30
0.0
 40
1.500000000000002
  0
ARC
  5
1D1
330
1F
100
AcDbEntity
  8
0
  6
HIDDEN
 62
     7
370
     0
100
AcDbCircle
 10
183.3698333928
 20
101.2395100462
 30
0.0
 40
1.500000000000032
100
AcDbArc
 50
336.2941551587
 51
191.5274417161
  0
DIMENSION
  5
1D2
330
1F
100
AcDbEntity
  8
VERMASSUNG
100
AcDbDimension
  2
_D
 10
96.0337723203
 20
141.711023701
 30
0.0
 11
96.0337723203
 21
109.961023701
 31
0.0
 70
   160
  1
ISO 40 %%c<>
 71
     2
 42
-1.0
  3
SLDDIMSTYLE0
100
AcDbAlignedDimension
 13
188.8198333928
 23
78.211023701
 33
0.0
 14
188.8198333928
 24
141.711023701
 34
0.0
 50
90.0
100
AcDbRotatedDimension
  0
DIMENSION
  5
1DF
330
1F
100
AcDbEntity
  8
VERMASSUNG
100
AcDbDimension
  2
_D_1
 10
217.2183145688
 20
100.961023701
 30
0.0
 11
217.2183145688
 21
109.961023701
 31
0.0
 70
   160
  1
%%c<>
 71
     2
 42
-1.0
  3
SLDDIMSTYLE0
100
AcDbAlignedDimension
 13
201.4698333928
 23
118.961023701
 33
0.0
 14
201.4698333928
 24
100.961023701
 34
0.0
 50
90.0
100
AcDbRotatedDimension
  0
DIMENSION
  5
1EA
330
1F
100
AcDbEntity
  8
VERMASSUNG
100
AcDbDimension
  2
_D_2
 10
210.3698333928
 20
145.1411064435
 30
0.0
 11
199.8948333928
 21
145.1411064435
 31
0.0
 70
   160
  1
(<>)
 71
     2
 42
-1.0
  3
SLDDIMSTYLE0
100
AcDbAlignedDimension
 13
189.4198333928
 23
135.1324360571
 33
0.0
 14
210.3698333928
 24
125.661023701
 34
0.0
100
AcDbRotatedDimension
  0
DIMENSION
  5
1F6
330
1F
100
AcDbEntity
  8
VERMASSUNG
100
AcDbDimension
  2
_D_3
 10
210.3698333928
 20
151.1411064435
 30
0.0
 11
190.3698333928
 21
151.1411064435
 31
0.0
 70
   160
  1
<>
 71
     2
 42
-1.0
  3
SLDDIMSTYLE0
100
AcDbAlignedDimension
 13
170.3698333928
 23
132.186023701
 33
0.0
 14
210.3698333928
 24
125.661023701
 34
0.0
100
AcDbRotatedDimension
  0
DIMENSION
  5
200
330
1F
100
AcDbEntity
  8
VERMASSUNG
100
AcDbDimension
  2
_D_4
 10
210.3698333928
 20
157.1411064435
 30
0.0
 11
156.2448333928
 21
157.1411064435
 31
0.0
 70
   160
  1
(<>)
 71
     2
 42
-1.0
  3
SLDDIMSTYLE0
100
AcDbAlignedDimension
 13
102.1198333928
 23
121.3681542981
 33
0.0
 14
210.3698333928
 24
125.661023701
 34
0.0
100
AcDbRotatedDimension
  0
DIMENSION
  5
20C
330
1F
100
AcDbEntity
  8
VERMASSUNG
100
AcDbDimension
  2
_D_5
 10
223.2183145688
 20
93.961023701
 30
0.0
 11
223.2183145688
 21
109.961023701
 31
0.0
 70
   160
  1
ST3 %%c<>
 71
     2
 42
-1.0
  3
SLDDIMSTYLE0
100
AcDbAlignedDimension
 13
210.0698333928
 23
125.961023701
 33
0.0
 14
210.0698333928
 24
93.961023701
 34
0.0
 50
90.0
100
AcDbRotatedDimension
  0
LINE
  5
218
330
1F
100
AcDbEntity
  8
VERMASSUNG
  6
CENTERX2
 62
     7
370
     0
100
AcDbLine
 10
100.1198333928
 20
109.961023701
 30
0.0
 11
212.4315013095
 21
109.961023701
 31
0.0
  0
LINE
  5
219
330
1F
100
AcDbEntity
  8
0
  6
Continuous
 62
     7
370
    15
100
AcDbLine
 10
260.9119039853
 20
45.776562472
 30
0.0
 11
260.7704589147
 21
45.8582439885
 31
0.0
  0
LINE
  5
21A
330
1F
100
AcDbEntity
  8
0
  6
Continuous
 62
     7
370
    15
100
AcDbLine
 10
258.9316826581
 20
45.8582439104
 30
0.0
 11
258.7902385609
 21
45.7765626707
 31
0.0
  0
LINE
  5
21B
330
1F
100
AcDbEntity
  8
0
  6
Continuous
 62
     7
370
    15
100
AcDbLine
 10
261.3510704425
 20
45.0214620156
 30
0.0
 11
261.3510704425
 21
45.164356415
 31
0.0
  0
LINE
  5
21C
330
1F
100
AcDbEntity
  8
0
  6
Continuous
 62
     7
370
    15
100
AcDbLine
 10
258.3510707717
 20
45.1643563199
 30
0.0
 11
258.3510707717
 21
45.0214619206
 31
0.0
  0
LINE
  5
21D
330
1F
100
AcDbEntity
  8
0
  6
Continuous
 62
     7
370
    15
100
AcDbLine
 10
262.5920297251
 20
30.6817516587
 30
0.0
 11
262.6980776649
 21
30.7429924965
 31
0.0
  0
LINE
  5
21E
330
1F
100
AcDbEntity
  8
0
  6
Continuous
 62
     7
370
    15
100
AcDbLine
 10
268.2479635283
 20
40.3567185401
 30
0.0
 11
268.2479648454
 21
40.4791795488
 31
0.0
  0
LINE
  5
21F
330
1F
100
AcDbEntity
  8
0
  6
Continuous
 62
     7
370
    15
100
AcDbLine
 10
266.5907853355
 20
44.1419378312
 30
0.0
 11
260.7041211746
 21
47.5402367164
 31
0.0
  0
LINE
  5
220
330
1F
100
AcDbEntity
  8
0
  6
Continuous
 62
     7
370
    15
100
AcDbLine
 10
252.7047711579
 20
33.683454947
 30
0.0
 11
258.5914353189
 21
30.2851560617
 31
0.0
  0
SPLINE
  5
221
330
1F
100
AcDbEntity
  8
0
  6
Continuous
 62
     7
370
    15
100
AcDbSpline
210
0.0
220
0.0
230
1.0
 70
     8
 71
     3
 72
    33
 73
    29
 74
     0
 42
0.000000001
 43
0.00000001
 40
0.0
 40
0.0
 40
0.0
 40
0.0
 40
0.0089259158884968
 40
0.0497321421771076
 40
0.0906433121905012
 40
0.1317139684153646
 40
0.1729310582350153
 40
0.2142636556255592
 40
0.2556756835162358
 40
0.2971346848670213
 40
0.3386156639044641
 40
0.3800995541812526
 40
0.4215754302059973
 40
0.4630389237628998
 40
0.5044885325895221
 40
0.5459246327600165
 40
0.587348689836993
 40
0.6287627685584216
 40
0.6701694027132603
 40
0.7115712161101969
 40
0.7529709773574739
 40
0.7943714957606205
 40
0.8357747653179638
 40
0.8771835676097921
 40
0.9186007953593947
 40
0.9600292598255764
 40
0.9992951912639405
 40
1.0
 40
1.0
 40
1.0
 40
1.0
 10
256.3367764869196
 20
58.8813029004078
 30
0.0
 10
256.2836749280979
 20
58.89488397083348
 30
0.0
 10
255.9878112535872
 20
58.97055303760094
 30
0.0
 10
255.422532253625
 20
59.04629898316178
 30
0.0
 10
254.6308980826473
 20
59.07194014917359
 30
0.0
 10
253.8084987390017
 20
59.00417706199616
 30
0.0
 10
252.9619454640916
 20
58.8475613172017
 30
0.0
 10
252.0960579843887
 20
58.60167850689894
 30
0.0
 10
251.2165655074286
 20
58.26834149953466
 30
0.0
 10
250.3291118450358
 20
57.8496406495673
 30
0.0
 10
249.4393808008495
 20
57.34839326965633
 30
0.0
 10
248.5529633904063
 20
56.76792366122622
 30
0.0
 10
247.6753380596586
 20
56.11202861520286
 30
0.0
 10
246.8118444281692
 20
55.38491760788575
 30
0.0
 10
245.967692430319
 20
54.59118000290142
 30
0.0
 10
245.1479634995748
 20
53.73577516952556
 30
0.0
 10
244.3575924404311
 20
52.82400736633249
 30
0.0
 10
243.6013414004182
 20
51.86150339579281
 30
0.0
 10
242.8837792364047
 20
50.85417739557262
 30
0.0
 10
242.2092513016273
 20
49.80820399292777
 30
0.0
 10
241.5818555115696
 20
48.72997916238042
 30
0.0
 10
241.0054264482574
 20
47.62609516184602
 30
0.0
 10
240.4834781189241
 20
46.50328170395096
 30
0.0
 10
240.0193081270259
 20
45.36840341742096
 30
0.0
 10
239.6154914443413
 20
44.22826916632274
 30
0.0
 10
239.2816406868727
 20
43.11004805465983
 30
0.0
 10
239.098678298052
 20
42.36977655257301
 30
0.0
 10
239.0212123923828
 20
42.00927096453121
 30
0.0
 10
239.0198464270086
 20
42.00291412733627
 30
0.0
  0
SPLINE
  5
222
330
1F
100
AcDbEntity
  8
0
  6
Continuous
 62
     7
370
    15
100
AcDbSpline
210
0.0
220
0.0
230
1.0
 70
     8
 71
     3
 72
    21
 73
    17
 74
     0
 42
0.000000001
 43
0.00000001
 40
0.0
 40
0.0
 40
0.0
 40
0.0
 40
0.0096680414449862
 40
0.0890494913094056
 40
0.1685432424263326
 40
0.2480543971414399
 40
0.327492189590363
 40
0.4067789100935064
 40
0.4858446694490681
 40
0.5646338243896941
 40
0.6431336125069264
 40
0.7214382926410098
 40
0.7997705611464948
 40
0.8786944938874888
 40
0.9593468336425899
 40
1.0
 40
1.0
 40
1.0
 40
1.0
 10
259.8063649838866
 20
37.431370116092
 30
0.0
 10
259.8154464111798
 20
37.4558893475037
 30
0.0
 10
259.8990927717612
 20
37.68172878943552
 30
0.0
 10
260.0963283221833
 20
38.10687391760121
 30
0.0
 10
260.4170928467256
 20
38.6898810108117
 30
0.0
 10
260.7863717949033
 20
39.24189126024577
 30
0.0
 10
261.1920165931695
 20
39.75044291181943
 30
0.0
 10
261.6254107200621
 20
40.20420543465393
 30
0.0
 10
262.0758326453673
 20
40.59336139882033
 30
0.0
 10
262.5322216619847
 20
40.90986954661286
 30
0.0
 10
262.9831703036191
 20
41.14801768447549
 30
0.0
 10
263.4171148293718
 20
41.30417269096404
 30
0.0
 10
263.8244336726069
 20
41.37924754553494
 30
0.0
 10
264.1945794243332
 20
41.37043647736499
 30
0.0
 10
264.4752814425694
 20
41.31189684810183
 30
0.0
 10
264.6160260014397
 20
41.22781876112677
 30
0.0
 10
264.6631937858958
 20
41.19964163573199
 30
0.0
  0
LINE
  5
223
330
1F
100
AcDbEntity
  8
0
  6
Continuous
 62
     7
370
    15
100
AcDbLine
 10
248.8003470394
 20
56.9163781667
 30
0.0
 11
227.4903077423
 21
64.5956718309
 31
0.0
  0
LINE
  5
224
330
1F
100
AcDbEntity
  8
0
  6
Continuous
 62
     7
370
    15
100
AcDbLine
 10
221.3255257476
 20
53.9167991857
 30
0.0
 11
241.6217638452
 21
36.7788240981
 31
0.0
  0
SPLINE
  5
225
330
1F
100
AcDbEntity
  8
0
  6
Continuous
 62
     7
370
    15
100
AcDbSpline
210
0.0
220
0.0
230
1.0
 70
     8
 71
     3
 72
    10
 73
     6
 74
     0
 42
0.000000001
 43
0.00000001
 40
0.0
 40
0.0
 40
0.0
 40
0.0
 40
0.2679604252792279
 40
0.8068864935013519
 40
1.0
 40
1.0
 40
1.0
 40
1.0
 10
260.2361923744353
 20
33.39072970380066
 30
0.0
 10
260.1839885898692
 20
33.41683717496914
 30
0.0
 10
260.0267917626428
 20
33.49545238780656
 30
0.0
 10
259.8663597566285
 20
33.65474372332044
 30
0.0
 10
259.767823626333
 20
33.80502673484975
 30
0.0
 10
259.7418295977378
 20
33.84467169439264
 30
0.0
  0
SPLINE
  5
226
330
1F
100
AcDbEntity
  8
0
  6
Continuous
 62
     7
370
    15
100
AcDbSpline
210
0.0
220
0.0
230
1.0
 70
     8
 71
     3
 72
    18
 73
    14
 74
     0
 42
0.000000001
 43
0.00000001
 40
0.0
 40
0.0
 40
0.0
 40
0.0
 40
0.0120720462481501
 40
0.1147587750509286
 40
0.2178418255948523
 40
0.3212707519766668
 40
0.4249608664167459
 40
0.5288228656535815
 40
0.63278068491384
 40
0.736778051985174
 40
0.8407705678308457
 40
0.9447385250496331
 40
1.0
 40
1.0
 40
1.0
 40
1.0
 10
249.7128065533754
 20
27.05112936762773
 30
0.0
 10
249.7429824488881
 20
27.04764816343215
 30
0.0
 10
250.0298392695072
 20
27.01455528746267
 30
0.0
 10
250.6038729348107
 20
27.03722564931554
 30
0.0
 10
251.4316948335658
 20
27.12537842789876
 30
0.0
 10
252.2856638749519
 20
27.31226755835108
 30
0.0
 10
253.1562435024621
 20
27.5853415598096
 30
0.0
 10
254.0389220886187
 20
27.94591592400649
 30
0.0
 10
254.9276399024426
 20
28.39108763926689
 30
0.0
 10
255.817122319127
 20
28.9169608443125
 30
0.0
 10
256.7006430010564
 20
29.5242628644973
 30
0.0
 10
257.4402822695878
 20
30.08876352796727
 30
0.0
 10
257.8767070043207
 20
30.47594766967252
 30
0.0
 10
258.0281706766935
 20
30.61032211575668
 30
0.0
  0
LINE
  5
227
330
1F
100
AcDbEntity
  8
0
  6
Continuous
 62
     7
370
    15
100
AcDbLine
 10
245.7877854676
 20
28.5835256859
 30
0.0
 11
247.1412452382
 21
27.8021899916
 31
0.0
  0
LINE
  5
228
330
1F
100
AcDbEntity
  8
0
  6
Continuous
 62
     7
370
    15
100
AcDbLine
 10
241.9616883036
 20
30.7922845639
 30
0.0
 11
243.2974707639
 21
30.0211537636
 31
0.0
  0
SPLINE
  5
229
330
1F
100
AcDbEntity
  8
0
  6
Continuous
 62
     7
370
    15
100
AcDbSpline
210
0.0
220
0.0
230
1.0
 70
     8
 71
     3
 72
    11
 73
     7
 74
     0
 42
0.000000001
 43
0.00000001
 40
0.0
 40
0.0
 40
0.0
 40
0.0
 40
0.113468149218633
 40
0.4670667979894443
 40
0.8201305918504332
 40
1.0
 40
1.0
 40
1.0
 40
1.0
 10
239.041654869253
 20
34.78937534915343
 30
0.0
 10
239.0683698717905
 20
34.69847227111672
 30
0.0
 10
239.1783363318008
 20
34.32428964913546
 30
0.0
 10
239.4228726906859
 20
33.7128891757158
 30
0.0
 10
239.7263549451686
 20
33.0895201969205
 30
0.0
 10
239.9519434415342
 20
32.76228773163149
 30
0.0
 10
240.0280814437707
 20
32.65184404068334
 30
0.0
  0
SPLINE
  5
22A
330
1F
100
AcDbEntity
  8
0
  6
Continuous
 62
     7
370
    15
100
AcDbSpline
210
0.0
220
0.0
230
1.0
 70
     8
 71
     3
 72
    12
 73
     8
 74
     0
 42
0.000000001
 43
0.00000001
 40
0.0
 40
0.0
 40
0.0
 40
0.0
 40
0.0916859033231252
 40
0.3254528771610591
 40
0.5588628890072695
 40
0.7915478438491751
 40
1.0
 40
1.0
 40
1.0
 40
1.0
 10
265.9487890632199
 20
51.25704459589627
 30
0.0
 10
265.9160426969437
 20
51.36805522400437
 30
0.0
 10
265.7998045541665
 20
51.76210411269678
 30
0.0
 10
265.5503047627934
 20
52.39516699117574
 30
0.0
 10
265.1755653157005
 20
53.12548238086871
 30
0.0
 10
264.7547365903582
 20
53.76615295628421
 30
0.0
 10
264.4319954430266
 20
54.1266594877782
 30
0.0
 10
264.279489370961
 20
54.29701097697226
 30
0.0
  0
SPLINE
  5
22B
330
1F
100
AcDbEntity
  8
0
  6
Continuous
 62
     7
370
    15
100
AcDbSpline
210
0.0
220
0.0
230
1.0
 70
     8
 71
     3
 72
    26
 73
    22
 74
     0
 42
0.000000001
 43
0.00000001
 40
0.0
 40
0.0
 40
0.0
 40
0.0
 40
0.0246761880887352
 40
0.0785089107128239
 40
0.1331530368668115
 40
0.1889423662181358
 40
0.2457792821564489
 40
0.3033006577179813
 40
0.3611248616238587
 40
0.4189620485153151
 40
0.4767060418584576
 40
0.5343425517362512
 40
0.5918928389428194
 40
0.6493936508698328
 40
0.7068878892940601
 40
0.7644141866852256
 40
0.822011430220247
 40
0.8797269287784799
 40
0.9376047907069126
 40
0.9925721974572534
 40
1.0
 40
1.0
 40
1.0
 40
1.0
 10
227.4262782829541
 20
64.60520225243128
 30
0.0
 10
227.3563422726818
 20
64.63115423949023
 30
0.0
 10
227.1338362694719
 20
64.71372218829598
 30
0.0
 10
226.7205484834531
 20
64.75755566402195
 30
0.0
 10
226.1979593361668
 20
64.74052227409817
 30
0.0
 10
225.6508919783291
 20
64.62877759531544
 30
0.0
 10
225.0887861104939
 20
64.42899519662795
 30
0.0
 10
224.5199652605157
 20
64.14156838621444
 30
0.0
 10
223.9548909683694
 20
63.77197717621357
 30
0.0
 10
223.4034190469237
 20
63.32713715801501
 30
0.0
 10
222.8744682816292
 20
62.81527868588324
 30
0.0
 10
222.3759156701897
 20
62.24506668295
 30
0.0
 10
221.9150019027213
 20
61.62564482901401
 30
0.0
 10
221.4984493645237
 20
60.96662664027468
 30
0.0
 10
221.1324468484193
 20
60.27806699857022
 30
0.0
 10
220.8225994901238
 20
59.5703315619346
 30
0.0
 10
220.5738694131891
 20
58.85396509881555
 30
0.0
 10
220.3903795689812
 20
58.1393663075491
 30
0.0
 10
220.2781981080266
 20
57.44966732230372
 30
0.0
 10
220.2467615587996
 20
56.97919433867842
 30
0.0
 10
220.2456756157857
 20
56.74224722933518
 30
0.0
 10
220.2455463403113
 20
56.71403999417697
 30
0.0
  0
SPLINE
  5
22C
330
1F
100
AcDbEntity
  8
0
  6
Continuous
 62
     7
370
    15
100
AcDbSpline
210
0.0
220
0.0
230
1.0
 70
     8
 71
     3
 72
    13
 73
     9
 74
     0
 42
0.000000001
 43
0.00000001
 40
0.0
 40
0.0
 40
0.0
 40
0.0
 40
0.0985031745956234
 40
0.2847045476392329
 40
0.4709374044110255
 40
0.6557076184034092
 40
0.8374021543234395
 40
1.0
 40
1.0
 40
1.0
 40
1.0
 10
220.2455463403113
 20
56.71403999417697
 30
0.0
 10
220.2476448486929
 20
56.59818198306144
 30
0.0
 10
220.2537101849824
 20
56.26331660658558
 30
0.0
 10
220.3216714024662
 20
55.73901765864407
 30
0.0
 10
220.4745065455761
 20
55.16495768340519
 30
0.0
 10
220.7054766424667
 20
54.65479771056315
 30
0.0
 10
220.9935756534938
 20
54.22245059848905
 30
0.0
 10
221.2365069501647
 20
54.00376680955595
 30
0.0
 10
221.3512353252247
 20
53.90048972628149
 30
0.0
  0
LWPOLYLINE
  5
22D
330
1F
100
AcDbEntity
  8
0
  6
Continuous
 62
     7
370
    15
100
AcDbPolyline
 90
       22
 70
   128
 43
0.0
 10
258.5786426802
 20
45.4814086141
 10
258.7136729099
 20
45.6910924927
 10
258.9497655175
 20
45.8684844744
 10
259.26594274
 20
45.9978224447
 10
259.634111843
 20
46.0676135618
 10
260.0215586429
 20
46.07165707
 10
260.3938564907
 20
46.0095937565
 10
260.7179258315
 20
45.8869378632
 10
260.9649713127
 20
45.714588189
 10
261.1130419996
 20
45.5078585375
 10
261.1489798435
 20
45.2851185163
 10
261.0695944434
 20
45.0661579992
 10
260.8819372159
 20
44.8704339087
 10
260.6026827961
 20
44.7153368916
 10
260.2566439269
 20
44.6146481573
 10
259.8745689157
 20
44.5773135966
 10
259.4904062773
 20
44.6066508847
 10
259.1382898551
 20
44.7000536736
 10
258.8495068108
 20
44.8492226934
 10
258.6497179896
 20
45.0409029491
 10
258.5566738001
 20
45.2580636004
 10
258.5786426802
 20
45.4814086141
  0
ARC
  5
22E
330
1F
100
AcDbEntity
  8
0
  6
Continuous
 62
     7
370
    15
100
AcDbCircle
 10
259.2364994304
 20
44.9502609868
 30
0.0
 40
0.9391076809813935
100
AcDbArc
 50
118.3721578164
 51
155.3624778164
  0
LWPOLYLINE
  5
22F
330
1F
100
AcDbEntity
  8
0
  6
Continuous
 62
     7
370
    15
100
AcDbPolyline
 90
       18
 70
   128
 43
0.0
 10
260.9119039853
 20
45.776562472
 10
260.9487945785
 20
45.7544907249
 10
261.1838887117
 20
45.5616361727
 10
261.3201335032
 20
45.339317427
 10
261.347425234
 20
45.1040222556
 10
261.2637398674
 20
44.8732013958
 10
261.0752816337
 20
44.6639750752
 10
260.7960305684
 20
44.4918590389
 10
260.4466960441
 20
44.369619075
 10
260.0531856956
 20
44.3063217546
 10
259.6446867095
 20
44.3066601769
 10
259.2514931622
 20
44.370610605
 10
258.9027687382
 20
44.4934289257
 10
258.6243747274
 20
44.666007177
 10
258.4369597928
 20
44.8755454268
 10
258.3544221047
 20
45.1065040031
 10
258.3828850157
 20
45.34175258
 10
258.3828850157
 20
45.34175258
  0
LWPOLYLINE
  5
230
330
1F
100
AcDbEntity
  8
0
  6
Continuous
 62
     7
370
    15
100
AcDbPolyline
 90
       19
 70
   128
 43
0.0
 10
258.9212194678
 20
45.4400160988
 10
259.0438603658
 20
45.6168338535
 10
259.2638624905
 20
45.7587737216
 10
259.5546901817
 20
45.848715749
 10
259.8812661899
 20
45.8758111054
 10
260.2042003234
 20
45.8367918466
 10
260.4845419796
 20
45.7363642829
 10
260.6884777379
 20
45.5866414985
 10
260.7914091088
 20
45.4056827636
 10
260.7809224049
 20
45.2153135468
 10
260.6582815069
 20
45.0384957921
 10
260.4382800408
 20
44.8965555437
 10
260.147451691
 20
44.8066138966
 10
259.8208763414
 20
44.77951816
 10
259.4979422079
 20
44.8185374188
 10
259.2176005517
 20
44.9189649825
 10
259.0136647933
 20
45.0686877669
 10
258.9107327639
 20
45.2496468819
 10
258.9212194678
 20
45.4400160988
  0
SPLINE
  5
231
330
1F
100
AcDbEntity
  8
0
  6
Continuous
 62
     7
370
    15
100
AcDbSpline
210
0.0
220
0.0
230
1.0
 70
     8
 71
     3
 72
    11
 73
     7
 74
     0
 42
0.000000001
 43
0.00000001
 40
0.0
 40
0.0
 40
0.0
 40
0.0
 40
0.1183360814115707
 40
0.4755395481499631
 40
0.8141711270312346
 40
1.0
 40
1.0
 40
1.0
 40
1.0
 10
259.0282701580811
 20
45.10312313038263
 30
0.0
 10
259.0348409226739
 20
45.10878520499794
 30
0.0
 10
259.0612458736256
 20
45.1315385391631
 30
0.0
 10
259.1111400039514
 20
45.21880769083076
 30
0.0
 10
259.1660265462179
 20
45.40970930920763
 30
0.0
 10
259.1953102164464
 20
45.54465199310963
 30
0.0
 10
259.2056861207033
 20
45.59246541121663
 30
0.0
  0
SPLINE
  5
232
330
1F
100
AcDbEntity
  8
0
  6
Continuous
 62
     7
370
    15
100
AcDbSpline
210
0.0
220
0.0
230
1.0
 70
     8
 71
     3
 72
     9
 73
     5
 74
     0
 42
0.000000001
 43
0.00000001
 40
0.0
 40
0.0
 40
0.0
 40
0.0
 40
0.4520981276655254
 40
1.0
 40
1.0
 40
1.0
 40
1.0
 10
259.3200713942044
 20
44.86796545031884
 30
0.0
 10
259.2737848922261
 20
44.89447399094341
 30
0.0
 10
259.1714033534719
 20
44.95310847536706
 30
0.0
 10
259.0789341873387
 20
45.05002331066558
 30
0.0
 10
259.0282701580811
 20
45.10312313038263
 30
0.0
  0
SPLINE
  5
233
330
1F
100
AcDbEntity
  8
0
  6
Continuous
 62
     7
370
    15
100
AcDbSpline
210
0.0
220
0.0
230
1.0
 70
     8
 71
     3
 72
    11
 73
     7
 74
     0
 42
0.000000001
 43
0.00000001
 40
0.0
 40
0.0
 40
0.0
 40
0.0
 40
0.1858294683356974
 40
0.5244601083170191
 40
0.8816648644818227
 40
0.9999999999999999
 40
0.9999999999999999
 40
0.9999999999999999
 40
0.9999999999999999
 10
260.6738723731744
 20
45.41506881996973
 30
0.0
 10
260.6634968473341
 20
45.36725525721183
 30
0.0
 10
260.6342143580994
 20
45.23231268579077
 30
0.0
 10
260.5793236079609
 20
45.041411508568
 30
0.0
 10
260.529434490469
 20
44.95414114822094
 30
0.0
 10
260.5030270730875
 20
44.93138871930599
 30
0.0
 10
260.4964557520076
 20
44.92572691930538
 30
0.0
  0
SPLINE
  5
234
330
1F
100
AcDbEntity
  8
0
  6
Continuous
 62
     7
370
    15
100
AcDbSpline
210
0.0
220
0.0
230
1.0
 70
     8
 71
     3
 72
    10
 73
     6
 74
     0
 42
0.000000001
 43
0.00000001
 40
0.0
 40
0.0
 40
0.0
 40
0.0
 40
0.4391172656395321
 40
0.7513655787546006
 40
1.0
 40
1.0
 40
1.0
 40
1.0
 10
260.0284865722779
 20
45.74843863766487
 30
0.0
 10
260.1208786743544
 20
45.65877051375585
 30
0.0
 10
260.2789691223534
 20
45.50534101533106
 30
0.0
 10
260.5087821242452
 20
45.41853294416023
 30
0.0
 10
260.6231666923725
 20
45.41613278817258
 30
0.0
 10
260.6738723731744
 20
45.41506881996973
 30
0.0
  0
SPLINE
  5
235
330
1F
100
AcDbEntity
  8
0
  6
Continuous
 62
     7
370
    15
100
AcDbSpline
210
0.0
220
0.0
230
1.0
 70
     8
 71
     3
 72
    10
 73
     6
 74
     0
 42
0.000000001
 43
0.00000001
 40
0.0
 40
0.0
 40
0.0
 40
0.0
 40
0.4391163543526634
 40
0.7513667818491374
 40
1.0
 40
1.0
 40
1.0
 40
1.0
 10
259.2056861207033
 20
45.59246541121663
 30
0.0
 10
259.3234762130253
 20
45.57285080568084
 30
0.0
 10
259.5250254418899
 20
45.53928848696379
 30
0.0
 10
259.8180137985823
 20
45.62672775482749
 30
0.0
 10
259.9638424303245
 20
45.71105662644665
 30
0.0
 10
260.0284865722779
 20
45.74843863766487
 30
0.0
  0
LINE
  5
236
330
1F
100
AcDbEntity
  8
0
  6
Continuous
 62
     7
370
    15
100
AcDbLine
 10
259.2056861207
 20
44.9409855976
 30
0.0
 11
259.2056861207
 21
45.5924654112
 31
0.0
  0
LINE
  5
237
330
1F
100
AcDbEntity
  8
0
  6
Continuous
 62
     7
370
    15
100
AcDbLine
 10
260.0284865723
 20
44.7888896034
 30
0.0
 11
260.0284865723
 21
45.7484386377
 31
0.0
  0
SPLINE
  5
238
330
1F
100
AcDbEntity
  8
0
  6
Continuous
 62
     7
370
    15
100
AcDbSpline
210
0.0
220
0.0
230
1.0
 70
     8
 71
     3
 72
    12
 73
     8
 74
     0
 42
0.000000001
 43
0.00000001
 40
0.0
 40
0.0
 40
0.0
 40
0.0
 40
0.250000000000001
 40
0.250000000000001
 40
0.500000000000002
 40
0.500000000000002
 40
1.0
 40
1.0
 40
1.0
 40
1.0
 10
244.3130739675312
 20
39.01009110836816
 30
0.0
 10
244.3468531338036
 20
38.99059081075465
 30
0.0
 10
244.3851778302791
 20
38.96375106217748
 30
0.0
 10
244.4594009543916
 20
38.90535055885483
 30
0.0
 10
244.4947843188864
 20
38.87436090037394
 30
0.0
 10
244.5905942772714
 20
38.78362154735318
 30
0.0
 10
244.6395980354256
 20
38.72772741863565
 30
0.0
 10
244.6734070930404
 20
38.68046755486899
 30
0.0
  0
SPLINE
  5
239
330
1F
100
AcDbEntity
  8
0
  6
Continuous
 62
     7
370
    15
100
AcDbSpline
210
0.0
220
0.0
230
1.0
 70
     8
 71
     3
 72
    12
 73
     8
 74
     0
 42
0.000000001
 43
0.00000001
 40
0.0
 40
0.0
 40
0.0
 40
0.0
 40
0.4999999999999931
 40
0.4999999999999931
 40
0.7499999999999966
 40
0.7499999999999966
 40
1.0
 40
1.0
 40
1.0
 40
1.0
 10
261.7779370062314
 20
55.45026907919053
 30
0.0
 10
261.7779370062314
 20
55.52168811091521
 30
0.0
 10
261.7603724755704
 20
55.60421787010841
 30
0.0
 10
261.7052469410804
 20
55.72316258614127
 30
0.0
 10
261.6819544673237
 20
55.76179547336588
 30
0.0
 10
261.6279860782662
 20
55.82835798464292
 30
0.0
 10
261.5971385775131
 20
55.85627902289558
 30
0.0
 10
261.5658049718754
 20
55.87436752840554
 30
0.0
  0
LWPOLYLINE
  5
23A
330
1F
100
AcDbEntity
  8
0
  6
Continuous
 62
     7
370
    15
100
AcDbPolyline
 90
       12
 70
   128
 43
0.0
 10
250.276780448
 20
52.677631247
 10
251.1896179665
 20
53.4963314248
 10
252.1205032265
 20
54.235548419
 10
253.0628088418
 20
54.8900205671
 10
254.009826302
 20
55.4550872888
 10
254.9548134283
 20
55.9267271285
 10
255.8910424477
 20
56.3015801845
 10
256.8118481901
 20
56.5769804952
 10
257.7106748449
 20
56.750965541
 10
258.5811234997
 20
56.8222968429
 10
259.4169975801
 20
56.7904679438
 10
260.2123448314
 20
56.6557035487
  0
LINE
  5
23B
330
1F
100
AcDbEntity
  8
0
  6
Continuous
 62
     7
370
    15
100
AcDbLine
 10
261.565804602
 20
55.8743678543
 30
0.0
 11
260.2123448314
 21
56.6557035487
 31
0.0
  0
LINE
  5
23C
330
1F
100
AcDbEntity
  8
0
  6
Continuous
 62
     7
370
    15
100
AcDbLine
 10
242.959614053
 20
39.7914269924
 30
0.0
 11
244.3130738236
 21
39.010091298
 31
0.0
  0
ARC
  5
23D
330
1F
100
AcDbEntity
  8
0
  6
Continuous
 62
     7
370
    15
100
AcDbCircle
 10
268.5755614588
 20
33.7799134804
 30
0.0
 40
26.31188051429217
100
AcDbArc
 50
136.4697995832
 51
166.7929036469
  0
SPLINE
  5
23E
330
1F
100
AcDbEntity
  8
0
  6
Continuous
 62
     7
370
    15
100
AcDbSpline
210
0.0
220
0.0
230
1.0
 70
     8
 71
     3
 72
    12
 73
     8
 74
     0
 42
0.000000001
 43
0.00000001
 40
0.0
 40
0.0
 40
0.0
 40
0.0
 40
0.2499999999999997
 40
0.2499999999999997
 40
0.4999999999999993
 40
0.4999999999999993
 40
1.0
 40
1.0
 40
1.0
 40
1.0
 10
249.4991468432121
 20
51.90187447150268
 30
0.0
 10
249.5984615259321
 20
51.9352225557985
 30
0.0
 10
249.6922866656236
 20
51.97910475730302
 30
0.0
 10
249.8692797705291
 20
52.08723502609875
 30
0.0
 10
249.9490913384502
 20
52.14964051627992
 30
0.0
 10
250.1572751996705
 20
52.35703809406969
 30
0.0
 10
250.2489850332566
 20
52.51844863186347
 30
0.0
 10
250.2767803594303
 20
52.67763163940257
 30
0.0
  0
LINE
  5
23F
330
1F
100
AcDbEntity
  8
0
  6
Continuous
 62
     7
370
    15
100
AcDbLine
 10
265.7952006789
 20
50.779220085
 30
0.0
 11
265.9005645074
 21
50.9617152086
 31
0.0
  0
LINE
  5
240
330
1F
100
AcDbEntity
  8
0
  6
Continuous
 62
     7
370
    15
100
AcDbLine
 10
264.6240418332
 20
50.1031244745
 30
0.0
 11
265.7952006789
 21
50.779220085
 31
0.0
  0
ARC
  5
241
330
1F
100
AcDbEntity
  8
0
  6
Continuous
 62
     7
370
    15
100
AcDbCircle
 10
265.2865296609
 20
49.0674400548
 30
0.0
 40
1.22944391455469
100
AcDbArc
 50
122.6054968531
 51
177.3945222572
  0
LINE
  5
242
330
1F
100
AcDbEntity
  8
0
  6
Continuous
 62
     7
370
    15
100
AcDbLine
 10
264.0583567106
 20
45.603878041
 30
0.0
 11
264.0583567106
 21
49.1233287238
 31
0.0
  0
LINE
  5
243
330
1F
100
AcDbEntity
  8
0
  6
Continuous
 62
     7
370
    15
100
AcDbLine
 10
244.7213022714
 20
32.0403637121
 30
0.0
 11
244.6734069879
 21
31.9181150511
 31
0.0
  0
LINE
  5
244
330
1F
100
AcDbEntity
  8
0
  6
Continuous
 62
     7
370
    15
100
AcDbLine
 10
244.7213022714
 20
32.0403637121
 30
0.0
 11
246.7342403661
 21
33.2024081393
 31
0.0
  0
ARC
  5
245
330
1F
100
AcDbEntity
  8
0
  6
Continuous
 62
     7
370
    15
100
AcDbCircle
 10
246.0717525384
 20
34.238092559
 30
0.0
 40
1.229443914554902
100
AcDbArc
 50
302.6054968531
 51
357.3945222572
  0
LINE
  5
246
330
1F
100
AcDbEntity
  8
0
  6
Continuous
 62
     7
370
    15
100
AcDbLine
 10
247.2999254886
 20
39.4488923055
 30
0.0
 11
247.2999254886
 21
34.18220389
 31
0.0
  0
ARC
  5
247
330
1F
100
AcDbEntity
  8
0
  6
Continuous
 62
     7
370
    15
100
AcDbCircle
 10
246.9550660455
 20
39.5048341171
 30
0.0
 40
0.3493673163990063
100
AcDbArc
 50
350.7859529282
 51
129.2032375553
  0
LINE
  5
248
330
1F
100
AcDbEntity
  8
0
  6
Continuous
 62
     7
370
    15
100
AcDbLine
 10
246.7342403661
 20
39.7755619159
 30
0.0
 11
244.7213022714
 21
38.6135174887
 31
0.0
  0
LINE
  5
249
330
1F
100
AcDbEntity
  8
0
  6
Continuous
 62
     7
370
    15
100
AcDbLine
 10
244.6734069879
 20
38.6804674323
 30
0.0
 11
244.7213022714
 21
38.6135174887
 31
0.0
  0
LINE
  5
24A
330
1F
100
AcDbEntity
  8
0
  6
Continuous
 62
     7
370
    15
100
AcDbLine
 10
261.7779369346
 20
52.6652879711
 30
0.0
 11
261.7779369346
 21
55.4502688596
 31
0.0
  0
LINE
  5
24B
330
1F
100
AcDbEntity
  8
0
  6
Continuous
 62
     7
370
    15
100
AcDbLine
 10
264.1896704855
 20
54.0575521149
 30
0.0
 11
261.7779369346
 21
52.6652879711
 31
0.0
  0
LWPOLYLINE
  5
24C
330
1F
100
AcDbEntity
  8
0
  6
Continuous
 62
     7
370
    15
100
AcDbPolyline
 90
       54
 70
   128
 43
0.0
 10
262.6971755057
 20
43.5621619534
 10
262.0406661883
 20
43.1381774465
 10
261.3933727898
 20
42.6301641099
 10
260.7643819483
 20
42.0452538762
 10
260.1625233052
 20
41.3916577043
 10
259.5962454926
 20
40.6785502615
 10
259.0734981305
 20
39.9159424859
 10
258.6016193804
 20
39.1145391052
 10
258.187232883
 20
38.2855905465
 10
257.8361562203
 20
37.4407334374
 10
257.5533176103
 20
36.5918274947
 10
257.3426877471
 20
35.7507897499
 10
257.2072228369
 20
34.929426207
 10
257.1488247563
 20
34.1392671587
 10
257.1683137224
 20
33.3914048773
 10
257.2654157809
 20
32.6963376264
 10
257.4387674151
 20
32.0638222252
 10
257.6859359619
 20
31.5027384469
 10
258.0034512208
 20
31.020962256
 10
258.3868558333
 20
30.6252566772
 10
258.8307681738
 20
30.3211766364
 10
259.3289564355
 20
30.1129911965
 10
259.8744268759
 20
30.003622332
 10
260.4595227624
 20
29.9946054705
 10
261.0760302342
 20
30.0860673345
 10
261.7152950285
 20
30.2767233635
 10
262.368343324
 20
30.5638980455
 10
263.0260076873
 20
30.943559601
 10
263.6790559828
 20
31.4103784318
 10
264.3183207771
 20
31.9578018239
 10
264.9348282489
 20
32.5781443357
 10
265.5199241355
 20
33.2626985286
 10
266.0653945758
 20
34.0018541581
 10
266.5635828375
 20
34.7852355216
 10
267.007495178
 20
35.6018458412
 10
267.3908997906
 20
36.4402209632
 10
267.7084150495
 20
37.2885924688
 10
267.9555835962
 20
38.1350509767
 10
268.1289352305
 20
38.9677139147
 10
268.2260372889
 20
39.7748928159
 10
268.2455262551
 20
40.5452565786
 10
268.1871281745
 20
41.2679906383
 10
268.0516632643
 20
41.932949725
 10
267.841033401
 20
42.5307994061
 10
267.558194791
 20
43.0531468407
 10
267.2071181284
 20
43.4926594631
 10
266.7927316309
 20
43.8431675557
 10
266.3208528808
 20
44.0997513283
 10
265.7981055187
 20
44.2588078466
 10
265.2318277061
 20
44.3181048438
 10
264.629969063
 20
44.2768098175
 10
264.0009782216
 20
44.1355026836
 10
263.353684823
 20
43.8961669701
 10
262.6971755057
 20
43.5621619534
  0
LWPOLYLINE
  5
24D
330
1F
100
AcDbEntity
  8
0
  6
Continuous
 62
     7
370
    15
100
AcDbPolyline
 90
       28
 70
   128
 43
0.0
 10
262.5911103272
 20
43.7458737518
 10
261.9220562309
 20
43.3137872146
 10
261.2623942141
 20
42.7960666841
 10
260.6213844414
 20
42.1999796293
 10
260.0080253063
 20
41.5338941236
 10
259.4309271135
 20
40.8071606764
 10
258.8981906191
 20
40.0299805173
 10
258.4172950776
 20
39.2132641613
 10
257.9949905702
 20
38.3684757134
 10
257.6372053146
 20
37.5074747967
 10
257.3489623591
 20
36.6423477371
 10
257.1343074719
 20
35.7852391274
 10
256.9962538232
 20
34.9481806338
 10
256.9367404975
 20
34.1429232936
 10
256.9566015413
 20
33.3807704775
 10
257.0555590489
 20
32.6724216156
 10
257.232223162
 20
32.0278200569
 10
257.4841144607
 20
31.4560146395
 10
257.8076968901
 20
30.9650324761
 10
258.1984281396
 20
30.5617658778
 10
258.6508225334
 20
30.2518754849
 10
259.1585303852
 20
30.0397121209
 10
259.7144239388
 20
29.9282530967
 10
260.3106997708
 20
29.919063987
 10
260.9389877806
 20
30.0122733349
 10
261.5904678347
 20
30.2065730688
 10
262.2559947255
 20
30.4992351257
 10
262.5920297251
 20
30.6817516587
  0
LWPOLYLINE
  5
24E
330
1F
100
AcDbEntity
  8
0
  6
Continuous
 62
     7
370
    15
100
AcDbPolyline
 90
       15
 70
   128
 43
0.0
 10
268.2479648454
 20
40.4791795488
 10
268.245480157
 20
40.6713197382
 10
268.1859668312
 20
41.4078644551
 10
268.0479131826
 20
42.0855295988
 10
267.8332582953
 20
42.6948029509
 10
267.5450153398
 20
43.2271317779
 10
267.1872300842
 20
43.6750426314
 10
266.7649255769
 20
44.0322486736
 10
266.2840300354
 20
44.2937348558
 10
265.7512935409
 20
44.4558305508
 10
265.1741953481
 20
44.5162606073
 10
264.560836213
 20
44.4741767294
 10
263.9198264404
 20
44.3301696541
 10
263.2601644235
 20
44.0862606317
 10
262.5911103272
 20
43.7458737518
  0
SPLINE
  5
24F
330
1F
100
AcDbEntity
  8
0
  6
Continuous
 62
     7
370
    15
100
AcDbSpline
210
0.0
220
0.0
230
1.0
 70
    11
 71
     3
 72
    66
 73
    62
 74
     0
 42
0.000000001
 43
0.00000001
 40
0.0
 40
0.0
 40
0.0
 40
0.0
 40
0.0312499999999996
 40
0.0312499999999996
 40
0.0624999999999993
 40
0.0624999999999993
 40
0.0937499999999989
 40
0.0937499999999989
 40
0.124999999999999
 40
0.124999999999999
 40
0.1562499999999991
 40
0.1562499999999991
 40
0.1874999999999991
 40
0.1874999999999991
 40
0.2187499999999992
 40
0.2187499999999992
 40
0.2499999999999993
 40
0.2499999999999993
 40
0.2812499999999993
 40
0.2812499999999993
 40
0.3124999999999995
 40
0.3124999999999995
 40
0.3437499999999996
 40
0.3437499999999996
 40
0.3749999999999997
 40
0.3749999999999997
 40
0.4062499999999998
 40
0.4062499999999998
 40
0.4374999999999999
 40
0.4374999999999999
 40
0.46875
 40
0.46875
 40
0.5
 40
0.5
 40
0.5312500000000001
 40
0.5312500000000001
 40
0.5625000000000001
 40
0.5625000000000001
 40
0.6249999999999994
 40
0.6249999999999994
 40
0.656249999999999
 40
0.656249999999999
 40
0.6874999999999991
 40
0.6874999999999991
 40
0.7187499999999992
 40
0.7187499999999992
 40
0.7499999999999992
 40
0.7499999999999992
 40
0.7812499999999993
 40
0.7812499999999993
 40
0.8124999999999994
 40
0.8124999999999994
 40
0.8437499999999996
 40
0.8437499999999996
 40
0.8749999999999996
 40
0.8749999999999996
 40
0.9062499999999997
 40
0.9062499999999997
 40
0.9374999999999998
 40
0.9374999999999998
 40
1.0
 40
1.0
 40
1.0
 40
1.0
 10
259.8476972678544
 20
46.2723341921713
 30
0.0
 10
259.9646421257082
 20
46.2559893240315
 30
0.0
 10
260.0786214199661
 20
46.23374305075405
 30
0.0
 10
260.3012687455972
 20
46.17943906484854
 30
0.0
 10
260.4106833461669
 20
46.14709903315753
 30
0.0
 10
260.6206613721953
 20
46.07438922041844
 30
0.0
 10
260.7199532578076
 20
46.03455022542467
 30
0.0
 10
260.9076261834844
 20
45.94868448538146
 30
0.0
 10
260.9967643151351
 20
45.90216874542374
 30
0.0
 10
261.1589920320157
 20
45.80548313044018
 30
0.0
 10
261.2321614134862
 20
45.75542635472731
 30
0.0
 10
261.3627187597043
 20
45.65166774801407
 30
0.0
 10
261.4205188804394
 20
45.59740438343331
 30
0.0
 10
261.5157843782523
 20
45.4880156842538
 30
0.0
 10
261.5536626643653
 20
45.43275465709953
 30
0.0
 10
261.6093941415665
 20
45.3201398527469
 30
0.0
 10
261.62718691071
 20
45.26219386672439
 30
0.0
 10
261.6397520557471
 20
45.14756790641423
 30
0.0
 10
261.6349387093303
 20
45.09051670682057
 30
0.0
 10
261.6016357779257
 20
44.97579469888394
 30
0.0
 10
261.5725708608023
 20
44.91774608164588
 30
0.0
 10
261.4916131588563
 20
44.80601565741728
 30
0.0
 10
261.4396914861539
 20
44.75160503799661
 30
0.0
 10
261.3110008983481
 20
44.64524511157289
 30
0.0
 10
261.2354298486842
 20
44.59452368296942
 30
0.0
 10
261.0666907041084
 20
44.50077821492756
 30
0.0
 10
260.9714758829579
 20
44.45675492629074
 30
0.0
 10
260.7695745553457
 20
44.37932822274355
 30
0.0
 10
260.6630108132288
 20
44.34571030873948
 30
0.0
 10
260.4389779960056
 20
44.28903482243928
 30
0.0
 10
260.3240747794296
 20
44.26669991100198
 30
0.0
 10
260.0924096166268
 20
44.23461728339596
 30
0.0
 10
259.9739750479167
 20
44.22476514987132
 30
0.0
 10
259.7419729387145
 20
44.21863339339263
 30
0.0
 10
259.6278159885051
 20
44.22215345287296
 30
0.0
 10
259.4029373076977
 20
44.24289559220563
 30
0.0
 10
259.2931196126721
 20
44.26017704636983
 30
0.0
 10
258.9802659341219
 20
44.33143250318071
 30
0.0
 10
258.7875117113294
 20
44.40681031082278
 30
0.0
 10
258.5451324648496
 20
44.55335903568186
 30
0.0
 10
258.471136483859
 20
44.6081093361128
 30
0.0
 10
258.3390265550207
 20
44.72843367870134
 30
0.0
 10
258.2823134030369
 20
44.79263416396078
 30
0.0
 10
258.1872267258508
 20
44.92840949688816
 30
0.0
 10
258.1486538931197
 20
45.00050687789037
 30
0.0
 10
258.0924330937531
 20
45.14956215229535
 30
0.0
 10
258.0751100154071
 20
45.22521937494832
 30
0.0
 10
258.0623936523958
 20
45.37785355639355
 30
0.0
 10
258.0672086185482
 20
45.45571904282017
 30
0.0
 10
258.1008782344757
 20
45.60744103161628
 30
0.0
 10
258.1292729031571
 20
45.68059804006641
 30
0.0
 10
258.2101876092131
 20
45.82036555080938
 30
0.0
 10
258.263739902301
 20
45.88771157846663
 30
0.0
 10
258.3917154948549
 20
46.00781285035892
 30
0.0
 10
258.4661719324748
 20
46.06128327453411
 30
0.0
 10
258.6369121084908
 20
46.15430827459211
 30
0.0
 10
258.7314664318951
 20
46.19268115946859
 30
0.0
 10
258.9329062108452
 20
46.2520977693835
 30
0.0
 10
259.0418750912995
 20
46.27359780105754
 30
0.0
 10
259.3759402385626
 20
46.31234216108278
 30
0.0
 10
259.6138075521468
 20
46.30502392845094
 30
0.0
 10
259.8476972678544
 20
46.27233419217131
 30
0.0
  0
LINE
  5
250
330
1F
100
AcDbEntity
  8
0
  6
Continuous
 62
     7
370
    15
100
AcDbLine
 10
265.7409389163
 20
37.0847888062
 30
0.0
 11
266.9398162297
 21
38.5761808306
 31
0.0
  0
SPLINE
  5
251
330
1F
100
AcDbEntity
  8
0
  6
Continuous
 62
     7
370
    15
100
AcDbSpline
210
0.0
220
0.0
230
1.0
 70
     8
 71
     3
 72
    22
 73
    18
 74
     0
 42
0.000000001
 43
0.00000001
 40
0.0
 40
0.0
 40
0.0
 40
0.0
 40
0.0416666666666667
 40
0.0833333333333333
 40
0.1250000000000036
 40
0.166666666666668
 40
0.2083333333333338
 40
0.2499999999998967
 40
0.2968749999997767
 40
0.34375
 40
0.3906250000000001
 40
0.4374999999999999
 40
0.4847037825276523
 40
0.4847037825276523
 40
0.53125
 40
0.6249999999999851
 40
0.8414337678076789
 40
0.8414337678076789
 40
0.8414337678076789
 40
0.8414337678076789
 10
266.9398165088932
 20
38.57618060006301
 30
0.0
 10
266.9852958367064
 20
38.63275645149884
 30
0.0
 10
267.0745662466483
 20
38.75467706009218
 30
0.0
 10
267.1990589561653
 20
38.9615847324338
 30
0.0
 10
267.3087006042209
 20
39.19055710461899
 30
0.0
 10
267.3957061999961
 20
39.43396147375352
 30
0.0
 10
267.4523818066498
 20
39.6809303388278
 30
0.0
 10
267.4736512506275
 20
39.92897667434707
 30
0.0
 10
267.4504177180297
 20
40.16133952737656
 30
0.0
 10
267.3773325942781
 20
40.35947017469209
 30
0.0
 10
267.2624660318883
 20
40.50480806123655
 30
0.0
 10
267.1131624316502
 20
40.59544769192902
 30
0.0
 10
267.0022390520434
 20
40.62125129211093
 30
0.0
 10
266.8917572685108
 20
40.63166077355562
 30
0.0
 10
266.7435235990722
 20
40.64402050757987
 30
0.0
 10
266.4624282040135
 20
40.66991526465136
 30
0.0
 10
266.0454300340058
 20
40.70713314794916
 30
0.0
 10
265.7408332600291
 20
40.73427353651723
 30
0.0
  0
SPLINE
  5
252
330
1F
100
AcDbEntity
  8
0
  6
Continuous
 62
     7
370
    15
100
AcDbSpline
210
0.0
220
0.0
230
1.0
 70
     8
 71
     3
 72
    22
 73
    18
 74
     0
 42
0.000000001
 43
0.00000001
 40
0.0
 40
0.0
 40
0.0
 40
0.0
 40
0.0416666666666667
 40
0.0833333333333333
 40
0.1250000000000036
 40
0.166666666666668
 40
0.2083333333333338
 40
0.2499999999998967
 40
0.2968749999997767
 40
0.34375
 40
0.3906250000000001
 40
0.4374999999999999
 40
0.4847037825276523
 40
0.4847037825276523
 40
0.53125
 40
0.6249999999999851
 40
0.8393173095865003
 40
0.8393173095865003
 40
0.8393173095865003
 40
0.8393173095865003
 10
258.4545351346546
 20
33.67773192912676
 30
0.0
 10
258.4098624778139
 20
33.68172633782089
 30
0.0
 10
258.3194110197886
 20
33.70068312867937
 30
0.0
 10
258.1953930008117
 20
33.76381213276471
 30
0.0
 10
258.085624162721
 20
33.86620632854287
 30
0.0
 10
257.9986526365462
 20
34.00915311677534
 30
0.0
 10
257.9419679415256
 20
34.19068657637188
 30
0.0
 10
257.9207008765766
 20
34.41417534896012
 30
0.0
 10
257.9439342003196
 20
34.6733638107132
 30
0.0
 10
258.0170174583745
 20
34.95587414596672
 30
0.0
 10
258.1318917004388
 20
35.23384377023256
 30
0.0
 10
258.2811663802171
 20
35.49682967344943
 30
0.0
 10
258.3921621537143
 20
35.65079273813213
 30
0.0
 10
258.5026726744476
 20
35.78879752167492
 30
0.0
 10
258.6508853004096
 20
35.97227803445394
 30
0.0
 10
258.9287824184743
 20
36.3187354836623
 30
0.0
 10
259.3507258422678
 20
36.84356646207132
 30
0.0
 10
259.6535201663993
 20
37.22014645316038
 30
0.0
  0
LINE
  5
253
330
1F
100
AcDbEntity
  8
0
  6
Continuous
 62
     7
370
    15
100
AcDbLine
 10
259.653412095
 20
33.5705343753
 30
0.0
 11
258.4545347817
 21
33.6777321171
 31
0.0
  0
SPLINE
  5
254
330
1F
100
AcDbEntity
  8
0
  6
Continuous
 62
     7
370
    15
100
AcDbSpline
210
0.0
220
0.0
230
1.0
 70
     8
 71
     3
 72
     8
 73
     4
 74
     0
 42
0.000000001
 43
0.00000001
 40
0.0
 40
0.0
 40
0.0
 40
0.0
 40
1.0
 40
1.0
 40
1.0
 40
1.0
 10
241.9694625472937
 20
41.04980619723784
 30
0.0
 10
241.5887646812933
 20
40.98683935956725
 30
0.0
 10
241.2079267090534
 20
40.92413923743221
 30
0.0
 10
240.8269860583137
 20
40.86165835875918
 30
0.0
  0
SPLINE
  5
255
330
1F
100
AcDbEntity
  8
0
  6
Continuous
 62
     7
370
    15
100
AcDbSpline
210
0.0
220
0.0
230
1.0
 70
     8
 71
     3
 72
     8
 73
     4
 74
     0
 42
0.000000001
 43
0.00000001
 40
0.0
 40
0.0
 40
0.0
 40
0.0
 40
0.0011901715795577
 40
0.0011901715795577
 40
0.0011901715795577
 40
0.0011901715795577
 10
240.4692992607559
 20
41.22905501461478
 30
0.0
 10
240.5889457682507
 20
41.1064401048593
 30
0.0
 10
240.7081889423988
 20
40.98396806436359
 30
0.0
 10
240.8269860583137
 20
40.86165835875918
 30
0.0
  0
LWPOLYLINE
  5
256
330
1F
100
AcDbEntity
  8
0
  6
Continuous
 62
     7
370
    15
100
AcDbPolyline
 90
       23
 70
   128
 43
0.0
 10
240.4692993494
 20
41.22905507
 10
240.7837813523
 20
42.4689755145
 10
241.1761342676
 20
43.7185879761
 10
241.6434334992
 20
44.9685812414
 10
242.1821979808
 20
46.2096411072
 10
242.7884125666
 20
47.432519961
 10
243.4575602997
 20
48.6281059802
 10
244.1846553397
 20
49.7874904296
 10
244.9642791823
 20
50.9020334382
 10
245.7906237944
 20
51.9634322468
 10
246.6575311262
 20
52.9637759575
 10
247.5585411853
 20
53.8956113094
 10
248.4869410983
 20
54.7519960963
 10
249.4358123612
 20
55.5265469765
 10
250.3980850872
 20
56.2134951239
 10
251.3665888482
 20
56.8077186206
 10
252.3341070767
 20
57.3047928733
 10
253.2934304288
 20
57.7010115338
 10
254.237411011
 20
57.9934246469
 10
255.1590144154
 20
58.1798511999
 10
256.0513735046
 20
58.2589033268
 10
256.9078392839
 20
58.2299913422
 10
257.7220301278
 20
58.0933316263
  0
SPLINE
  5
257
330
1F
100
AcDbEntity
  8
0
  6
Continuous
 62
     7
370
    15
100
AcDbSpline
210
0.0
220
0.0
230
1.0
 70
     8
 71
     3
 72
     9
 73
     5
 74
     0
 42
0.000000001
 43
0.00000001
 40
0.0
 40
0.0
 40
0.0
 40
0.0
 40
0.005230952363665
 40
1.0
 40
1.0
 40
1.0
 40
1.0
 10
258.1569915313503
 20
56.75616954922432
 30
0.0
 10
258.1562501647135
 20
56.75850023278943
 30
0.0
 10
258.0145232696246
 20
57.20405649158845
 30
0.0
 10
257.8678931912434
 20
57.6498600475482
 30
0.0
 10
257.7220301278173
 20
58.09333162634316
 30
0.0
  0
LWPOLYLINE
  5
258
330
1F
100
AcDbEntity
  8
0
  6
Continuous
 62
     7
370
    15
100
AcDbPolyline
 90
       22
 70
   128
 43
0.0
 10
241.9694624215
 20
41.0498063829
 10
242.2642908221
 20
42.2251281095
 10
242.6359812449
 20
43.4102434696
 10
243.0815392881
 20
44.5956047523
 10
243.5973745671
 20
45.7716608808
 10
244.1793316659
 20
46.9289364969
 10
244.8227210891
 20
48.0581076251
 10
245.5223600914
 20
49.1500765736
 10
246.2726108734
 20
50.1960464564
 10
247.0674296428
 20
51.1875882997
 10
247.9004113957
 20
52.1167148022
 10
248.7648458928
 20
52.975939266
 10
249.6537682029
 20
53.758339756
 10
250.5600161604
 20
54.4576112809
 10
251.4762883589
 20
55.0681213257
 10
252.3952024733
 20
55.584949604
 10
253.3093548582
 20
56.0039331098
 10
254.211380393
 20
56.3216961027
 10
255.0940114627
 20
56.5356780732
 10
255.9501367745
 20
56.6441555291
 10
256.7728587332
 20
56.6462538247
 10
257.0182406487
 20
56.6254733948
  0
LINE
  5
259
330
1F
100
AcDbEntity
  8
0
  6
Continuous
 62
     7
370
    15
100
AcDbLine
 10
239.133516889
 20
42.0001858704
 30
0.0
 11
240.4692993494
 21
41.22905507
 31
0.0
  0
LINE
  5
25A
330
1F
100
AcDbEntity
  8
0
  6
Continuous
 62
     7
370
    15
100
AcDbLine
 10
257.7220301278
 20
58.0933316263
 30
0.0
 11
256.3862476674
 21
58.8644624267
 31
0.0
  0
LINE
  5
25B
330
1F
100
AcDbEntity
  8
0
  6
Continuous
 62
     7
370
    15
100
AcDbLine
 10
243.1960045311
 20
40.7495215895
 30
0.0
 11
242.6054939269
 21
41.0904161052
 31
0.0
  0
SPLINE
  5
25C
330
1F
100
AcDbEntity
  8
0
  6
Continuous
 62
     7
370
    15
100
AcDbSpline
210
0.0
220
0.0
230
1.0
 70
     8
 71
     3
 72
    14
 73
    10
 74
     0
 42
0.000000001
 43
0.00000001
 40
0.0
 40
0.0
 40
0.0
 40
0.0
 40
0.113125782896956
 40
0.2875311562374379
 40
0.4619663935674173
 40
0.6360401746573121
 40
0.80987748798876
 40
0.9839697894691901
 40
0.9999999999999999
 40
0.9999999999999999
 40
0.9999999999999999
 40
0.9999999999999999
 10
249.9902292933475
 20
52.20218196937433
 30
0.0
 10
249.9206786496348
 20
52.20553194328148
 30
0.0
 10
249.7439021757695
 20
52.21404655282691
 30
0.0
 10
249.4490715584603
 20
52.12890200823235
 30
0.0
 10
249.156405438086
 20
51.9654602685295
 30
0.0
 10
248.9309373894181
 20
51.73479533015046
 30
0.0
 10
248.8115689564112
 20
51.47197686456224
 30
0.0
 10
248.7779223413351
 20
51.27551717825002
 30
0.0
 10
248.8103832241141
 20
51.18835676184504
 30
0.0
 10
248.8131201687266
 20
51.18100781715593
 30
0.0
  0
SPLINE
  5
25D
330
1F
100
AcDbEntity
  8
0
  6
Continuous
 62
     7
370
    15
100
AcDbSpline
210
0.0
220
0.0
230
1.0
 70
     8
 71
     3
 72
    12
 73
     8
 74
     0
 42
0.000000001
 43
0.00000001
 40
0.0
 40
0.0
 40
0.0
 40
0.0
 40
0.2500000000000015
 40
0.2500000000000015
 40
0.500000000000003
 40
0.500000000000003
 40
1.0
 40
1.0
 40
1.0
 40
1.0
 10
242.6054939965311
 20
41.09041609265348
 30
0.0
 10
242.5678752615718
 20
41.11213292608968
 30
0.0
 10
242.5218828531845
 20
41.12938866007232
 30
0.0
 10
242.4222817232086
 20
41.15168244790014
 30
0.0
 10
242.3675309979546
 20
41.15688823247958
 30
0.0
 10
242.2080250991352
 20
41.15388633305246
 30
0.0
 10
242.1030222939177
 20
41.12690859779325
 30
0.0
 10
242.0277093977257
 20
41.08343138825995
 30
0.0
  0
SPLINE
  5
25E
330
1F
100
AcDbEntity
  8
0
  6
Continuous
 62
     7
370
    15
100
AcDbSpline
210
0.0
220
0.0
230
1.0
 70
     8
 71
     3
 72
    10
 73
     6
 74
     0
 42
0.000000001
 43
0.00000001
 40
0.0
 40
0.0
 40
0.0
 40
0.0
 40
0.5
 40
0.5
 40
1.0
 40
1.0
 40
1.0
 40
1.0
 10
239.0318726847424
 20
42.03090786921261
 30
0.0
 10
239.039135366391
 20
42.03490447470044
 30
0.0
 10
239.0509290303567
 20
42.03508625308561
 30
0.0
 10
239.084988041124
 20
42.02536462357585
 30
0.0
 10
239.1071605286762
 20
42.01540096680016
 30
0.0
 10
239.1335167953398
 20
42.00018581791885
 30
0.0
  0
LINE
  5
25F
330
1F
100
AcDbEntity
  8
0
  6
Continuous
 62
     7
370
    15
100
AcDbLine
 10
242.0277093661
 20
41.0834316283
 30
0.0
 11
241.9694624215
 21
41.0498063829
 31
0.0
  0
SPLINE
  5
260
330
1F
100
AcDbEntity
  8
0
  6
Continuous
 62
     7
370
    15
100
AcDbSpline
210
0.0
220
0.0
230
1.0
 70
     8
 71
     3
 72
    10
 73
     6
 74
     0
 42
0.000000001
 43
0.00000001
 40
0.0
 40
0.0
 40
0.0
 40
0.0
 40
0.3551331094599833
 40
0.7102708535308621
 40
1.0
 40
1.0
 40
1.0
 40
1.0
 10
258.3838242236746
 20
33.94162211318069
 30
0.0
 10
258.3031690329242
 20
33.96233505099723
 30
0.0
 10
258.1418575988449
 20
34.0037611969414
 30
0.0
 10
257.9845316533862
 20
34.20483086092666
 30
0.0
 10
257.9548895174409
 20
34.39865407678665
 30
0.0
 10
257.9415717446215
 20
34.48573597806086
 30
0.0
  0
SPLINE
  5
261
330
1F
100
AcDbEntity
  8
0
  6
Continuous
 62
     7
370
    15
100
AcDbSpline
210
0.0
220
0.0
230
1.0
 70
     8
 71
     3
 72
    11
 73
     7
 74
     0
 42
0.000000001
 43
0.00000001
 40
0.0
 40
0.0
 40
0.0
 40
0.0
 40
0.0203218711780015
 40
0.1874413643991438
 40
0.4527354596685146
 40
1.0
 40
1.0
 40
1.0
 40
1.0
 10
259.8047485863917
 20
37.43195507661954
 30
0.0
 10
259.8046553516287
 20
37.43137384287931
 30
0.0
 10
259.8037953889295
 20
37.42601275952489
 30
0.0
 10
259.7867964902143
 20
37.3976624721751
 30
0.0
 10
259.7401865540488
 20
37.32945390095549
 30
0.0
 10
259.6883990514859
 20
37.26413758617749
 30
0.0
 10
259.653519767034
 20
37.22014654181835
 30
0.0
  0
LINE
  5
262
330
1F
100
AcDbEntity
  8
0
  6
Continuous
 62
     7
370
    15
100
AcDbLine
 10
244.7213022714
 20
38.6135174887
 30
0.0
 11
242.9941194803
 21
39.6105988905
 31
0.0
  0
SPLINE
  5
263
330
1F
100
AcDbEntity
  8
0
  6
Continuous
 62
     7
370
    15
100
AcDbSpline
210
0.0
220
0.0
230
1.0
 70
     8
 71
     3
 72
     8
 73
     4
 74
     0
 42
0.000000001
 43
0.00000001
 40
0.0
 40
0.0
 40
0.0
 40
0.0
 40
0.0011901715795577
 40
0.0011901715795577
 40
0.0011901715795577
 40
0.0011901715795577
 10
242.9941195700026
 20
39.61059881201238
 30
0.0
 10
242.981958103184
 20
39.67134906772322
 30
0.0
 10
242.970474656228
 20
39.73161274185327
 30
0.0
 10
242.9596138325854
 20
39.79142701307001
 30
0.0
  0
SPLINE
  5
264
330
1F
100
AcDbEntity
  8
0
  6
Continuous
 62
     7
370
    15
100
AcDbSpline
210
0.0
220
0.0
230
1.0
 70
     8
 71
     3
 72
    16
 73
    12
 74
     0
 42
0.000000001
 43
0.00000001
 40
0.0
 40
0.0
 40
0.0
 40
0.0
 40
0.2500000000000064
 40
0.2500000000000064
 40
0.5000000000000129
 40
0.5000000000000129
 40
0.6250000000000138
 40
0.6250000000000138
 40
0.7500000000000147
 40
0.7500000000000147
 40
1.0
 40
1.0
 40
1.0
 40
1.0
 10
265.7408332600302
 20
40.73427353651713
 30
0.0
 10
265.7148379604243
 20
40.73658978735274
 30
0.0
 10
265.6868504400211
 20
40.7378214361326
 30
0.0
 10
265.6241986766856
 20
40.73665216265516
 30
0.0
 10
265.5891641416602
 20
40.73433959838759
 30
0.0
 10
265.5303733824172
 20
40.72467223212771
 30
0.0
 10
265.5093753775764
 20
40.72027030492306
 30
0.0
 10
265.4678666807075
 20
40.70866010862597
 30
0.0
 10
265.4480643392025
 20
40.70158239061597
 30
0.0
 10
265.3971541272444
 20
40.67905052085849
 30
0.0
 10
265.3749926892678
 20
40.66325520479054
 30
0.0
 10
265.3587985029054
 20
40.64869177234176
 30
0.0
  0
SPLINE
  5
265
330
1F
100
AcDbEntity
  8
0
  6
Continuous
 62
     7
370
    15
100
AcDbSpline
210
0.0
220
0.0
230
1.0
 70
     8
 71
     3
 72
    10
 73
     6
 74
     0
 42
0.000000001
 43
0.00000001
 40
0.0
 40
0.0
 40
0.0
 40
0.0
 40
0.5
 40
0.5
 40
1.0
 40
1.0
 40
1.0
 40
1.0
 10
265.3587985029148
 20
40.64869177233763
 30
0.0
 10
265.3326057452861
 20
40.65813966820947
 30
0.0
 10
265.3064735566439
 20
40.6683137436812
 30
0.0
 10
265.25586406774
 20
40.69037645962493
 30
0.0
 10
265.2320999814582
 20
40.70201604394241
 30
0.0
 10
265.2121128112209
 20
40.71355439171978
 30
0.0
  0
LINE
  5
266
330
1F
100
AcDbEntity
  8
0
  6
Continuous
 62
     7
370
    15
100
AcDbLine
 10
264.6995051069
 20
41.1924083351
 30
0.0
 11
264.6636193703
 21
41.2124742344
 31
0.0
  0
LINE
  5
267
330
1F
100
AcDbEntity
  8
0
  6
Continuous
 62
     7
370
    15
100
AcDbLine
 10
264.089285912
 20
41.3617485575
 30
0.0
 11
265.2121122006
 21
40.7135547383
 31
0.0
  0
ARC
  5
268
330
1F
100
AcDbEntity
  8
0
  6
Continuous
 62
     7
370
    15
100
AcDbCircle
 10
257.1036179023
 20
40.8642479854
 30
0.0
 40
5.625861140378325
100
AcDbArc
 50
337.814491413
 51
1.4333119706
  0
LINE
  5
269
330
1F
100
AcDbEntity
  8
0
  6
Continuous
 62
     7
370
    15
100
AcDbLine
 10
262.3129747128
 20
38.7398856831
 30
0.0
 11
265.2121122006
 21
37.0662492357
 31
0.0
  0
LINE
  5
26A
330
1F
100
AcDbEntity
  8
0
  6
Continuous
 62
     7
370
    15
100
AcDbLine
 10
260.1998706814
 20
33.3979684235
 30
0.0
 11
260.2357653083
 21
33.3778977705
 31
0.0
  0
LINE
  5
26B
330
1F
100
AcDbEntity
  8
0
  6
Continuous
 62
     7
370
    15
100
AcDbLine
 10
258.0051552047
 20
34.8478825201
 30
0.0
 11
259.6872635876
 21
33.8768220203
 31
0.0
  0
LINE
  5
26C
330
1F
100
AcDbEntity
  8
0
  6
Continuous
 62
     7
370
    15
100
AcDbLine
 10
259.7527103994
 20
33.8192231157
 30
0.0
 11
258.3838242237
 21
33.9416221132
 31
0.0
  0
SPLINE
  5
26D
330
1F
100
AcDbEntity
  8
0
  6
Continuous
 62
     7
370
    15
100
AcDbSpline
210
0.0
220
0.0
230
1.0
 70
     8
 71
     3
 72
    16
 73
    12
 74
     0
 42
0.000000001
 43
0.00000001
 40
0.0
 40
0.0
 40
0.0
 40
0.0
 40
0.2499999999999995
 40
0.2499999999999995
 40
0.499999999999999
 40
0.499999999999999
 40
0.6249999999999988
 40
0.6249999999999988
 40
0.7499999999999984
 40
0.7499999999999984
 40
1.0
 40
1.0
 40
1.0
 40
1.0
 10
259.6534124361673
 20
33.57053423248092
 30
0.0
 10
259.67896992153
 20
33.56824900816357
 30
0.0
 10
259.703969458716
 20
33.56860359009426
 30
0.0
 10
259.7513678772939
 20
33.57905790277933
 30
0.0
 10
259.7736198923729
 20
33.58883175752039
 30
0.0
 10
259.7972193362208
 20
33.61914415280916
 30
0.0
 10
259.8032919878733
 20
33.6321495674448
 30
0.0
 10
259.8084588380634
 20
33.66453686016542
 30
0.0
 10
259.8073045496166
 20
33.68374669591412
 30
0.0
 10
259.7940849539775
 20
33.74315662625197
 30
0.0
 10
259.7743747686662
 20
33.78281966828112
 30
0.0
 10
259.7527104281419
 20
33.81922312955051
 30
0.0
  0
SPLINE
  5
26E
330
1F
100
AcDbEntity
  8
0
  6
Continuous
 62
     7
370
    15
100
AcDbSpline
210
0.0
220
0.0
230
1.0
 70
     8
 71
     3
 72
     8
 73
     4
 74
     0
 42
0.000000001
 43
0.00000001
 40
0.0
 40
0.0
 40
0.0
 40
0.0
 40
1.0
 40
1.0
 40
1.0
 40
1.0
 10
259.6872640854959
 20
33.8768217269355
 30
0.0
 10
259.727298385205
 20
33.85371041765151
 30
0.0
 10
259.7468618258961
 20
33.83389513328034
 30
0.0
 10
259.7527104281415
 20
33.81922312955174
 30
0.0
  0
ARC
  5
26F
330
1F
100
AcDbEntity
  8
0
  6
Continuous
 62
     7
370
    15
100
AcDbCircle
 10
251.9720840117
 20
40.0353786143
 30
0.0
 40
10.35663897840913
100
AcDbArc
 50
174.7078119628
 51
187.1554536121
  0
LINE
  5
270
330
1F
100
AcDbEntity
  8
0
  6
Continuous
 62
     7
370
    15
100
AcDbLine
 10
241.6961041359
 20
41.0046642923
 30
0.0
 11
241.6961041359
 21
38.7453365521
 31
0.0
  0
LINE
  5
271
330
1F
100
AcDbEntity
  8
0
  6
Continuous
 62
     7
370
    15
100
AcDbLine
 10
241.6961041359
 20
38.7453365521
 30
0.0
 11
241.6961041359
 21
37.2795286447
 31
0.0
  0
LINE
  5
272
330
1F
100
AcDbEntity
  8
0
  6
Continuous
 62
     7
370
    15
100
AcDbLine
 10
239.4710342849
 20
41.6444326824
 30
0.0
 11
239.0318726022
 21
42.0309078017
 31
0.0
  0
LINE
  5
273
330
1F
100
AcDbEntity
  8
0
  6
Continuous
 62
     7
370
    15
100
AcDbLine
 10
240.8269858233
 20
40.8616585211
 30
0.0
 11
239.4710342849
 21
41.6444326824
 31
0.0
  0
LINE
  5
274
330
1F
100
AcDbEntity
  8
0
  6
Continuous
 62
     7
370
    15
100
AcDbLine
 10
240.6973161048
 20
40.780230194
 30
0.0
 11
240.6984619722
 21
40.9358536484
 31
0.0
  0
ARC
  5
275
330
1F
100
AcDbEntity
  8
0
  6
Continuous
 62
     7
370
    15
100
AcDbCircle
 10
247.4704237385
 20
40.4786619521
 30
0.0
 40
6.779817875307836
100
AcDbArc
 50
177.4506261827
 51
211.1387319524
  0
LINE
  5
276
330
1F
100
AcDbEntity
  8
0
  6
Continuous
 62
     7
370
    15
100
AcDbLine
 10
227.4387756467
 20
64.6135028671
 30
0.0
 11
227.4903077423
 21
64.5956718309
 31
0.0
  0
SPLINE
  5
277
330
1F
100
AcDbEntity
  8
0
  6
Continuous
 62
     7
370
    15
100
AcDbSpline
210
0.0
220
0.0
230
1.0
 70
     8
 71
     3
 72
     8
 73
     4
 74
     0
 42
0.000000001
 43
0.00000001
 40
0.0
 40
0.0
 40
0.0
 40
0.0
 40
1.0
 40
1.0
 40
1.0
 40
1.0
 10
265.2121128112213
 20
37.06624900742823
 30
0.0
 10
265.2521471109311
 20
37.04313769814381
 30
0.0
 10
265.3066440555819
 20
37.04348909634841
 30
0.0
 10
265.3587985029281
 20
37.05554888799435
 30
0.0
  0
SPLINE
  5
278
330
1F
100
AcDbEntity
  8
0
  6
Continuous
 62
     7
370
    15
100
AcDbSpline
210
0.0
220
0.0
230
1.0
 70
     8
 71
     3
 72
    16
 73
    12
 74
     0
 42
0.000000001
 43
0.00000001
 40
0.0
 40
0.0
 40
0.0
 40
0.0
 40
0.2499999999999813
 40
0.2499999999999813
 40
0.3749999999999801
 40
0.3749999999999801
 40
0.499999999999979
 40
0.499999999999979
 40
0.7499999999999895
 40
0.7499999999999895
 40
1.0
 40
1.0
 40
1.0
 40
1.0
 10
265.3587985029314
 20
37.05554888799288
 30
0.0
 10
265.3748665695617
 20
37.01626567141284
 30
0.0
 10
265.397122136753
 20
36.97737483541739
 30
0.0
 10
265.4476385492679
 20
36.9398318444831
 30
0.0
 10
265.4672517586751
 20
36.93144945830085
 30
0.0
 10
265.5085782566496
 20
36.9257895016371
 30
0.0
 10
265.5295721266539
 20
36.92838998925967
 30
0.0
 10
265.588648641646
 20
36.9458049286871
 30
0.0
 10
265.6238100578206
 20
36.96917099857615
 30
0.0
 10
265.6867008751072
 20
37.02206295066786
 30
0.0
 10
265.7151568669402
 20
37.05271564808861
 30
0.0
 10
265.7409392073832
 20
37.08478863449205
 30
0.0
  0
LINE
  5
279
330
1F
100
AcDbEntity
  8
0
  6
Continuous
 62
     7
370
    15
100
AcDbLine
 10
242.9941194803
 20
33.0374451139
 30
0.0
 11
244.7213022714
 21
32.0403637121
 31
0.0
  0
SPLINE
  5
27A
330
1F
100
AcDbEntity
  8
0
  6
Continuous
 62
     7
370
    15
100
AcDbSpline
210
0.0
220
0.0
230
1.0
 70
     8
 71
     3
 72
    14
 73
    10
 74
     0
 42
0.000000001
 43
0.00000001
 40
0.0
 40
0.0
 40
0.0
 40
0.0
 40
0.25
 40
0.25
 40
0.5
 40
0.5
 40
0.75
 40
0.75
 40
1.0
 40
1.0
 40
1.0
 40
1.0
 10
244.6734070930404
 20
31.91811524219504
 30
0.0
 10
244.6564988955023
 20
31.8749583926459
 30
0.0
 10
244.6359757046213
 20
31.83494242015689
 30
0.0
 10
244.587192269059
 20
31.76163279317197
 30
0.0
 10
244.5587352906831
 20
31.7283456345659
 30
0.0
 10
244.495372668175
 20
31.67542278823557
 30
0.0
 10
244.460053607434
 20
31.65535912181031
 30
0.0
 10
244.3852355303829
 20
31.63860013132829
 30
0.0
 10
244.3468660563182
 20
31.64279702693947
 30
0.0
 10
244.3130739675312
 20
31.6623047845619
 30
0.0
  0
LINE
  5
27B
330
1F
100
AcDbEntity
  8
0
  6
Continuous
 62
     7
370
    15
100
AcDbLine
 10
244.3130738236
 20
31.6623049251
 30
0.0
 11
242.959614053
 21
32.4436406195
 31
0.0
  0
SPLINE
  5
27C
330
1F
100
AcDbEntity
  8
0
  6
Continuous
 62
     7
370
    15
100
AcDbSpline
210
0.0
220
0.0
230
1.0
 70
     8
 71
     3
 72
     8
 73
     4
 74
     0
 42
0.000000001
 43
0.00000001
 40
0.0
 40
0.0
 40
0.0
 40
0.0
 40
0.0011901715795577
 40
0.0011901715795577
 40
0.0011901715795577
 40
0.0011901715795577
 10
242.9596138325855
 20
32.44364068926374
 30
0.0
 10
242.970474656228
 20
32.6415958776219
 30
0.0
 10
242.981958103184
 20
32.83953479012347
 30
0.0
 10
242.9941195700026
 20
33.03744527633209
 30
0.0
  0
ARC
  5
27D
330
1F
100
AcDbEntity
  8
0
  6
Continuous
 62
     7
370
    15
100
AcDbCircle
 10
249.9131755978
 20
32.6037934563
 30
0.0
 40
5.538934699125813
100
AcDbArc
 50
212.971775981
 51
267.0488212748
  0
SPLINE
  5
27E
330
1F
100
AcDbEntity
  8
0
  6
Continuous
 62
     7
370
    15
100
AcDbSpline
210
0.0
220
0.0
230
1.0
 70
     8
 71
     3
 72
     8
 73
     4
 74
     0
 42
0.000000001
 43
0.00000001
 40
0.0
 40
0.0
 40
0.0
 40
0.0
 40
1.0
 40
1.0
 40
1.0
 40
1.0
 10
243.32003649936
 20
33.69698291476687
 30
0.0
 10
243.210962918973
 20
33.47721071470765
 30
0.0
 10
243.102351353505
 20
33.25735763303798
 30
0.0
 10
242.9941195700026
 20
33.03744527633209
 30
0.0
  0
LINE
  5
27F
330
1F
100
AcDbEntity
  8
0
  6
Continuous
 62
     7
370
    15
100
AcDbLine
 10
243.3782833947
 20
33.7306080608
 30
0.0
 11
243.3200364501
 21
33.6969828154
 31
0.0
  0
SPLINE
  5
280
330
1F
100
AcDbEntity
  8
0
  6
Continuous
 62
     7
370
    15
100
AcDbSpline
210
0.0
220
0.0
230
1.0
 70
     8
 71
     3
 72
    12
 73
     8
 74
     0
 42
0.000000001
 43
0.00000001
 40
0.0
 40
0.0
 40
0.0
 40
0.0
 40
0.2499999999999986
 40
0.2499999999999986
 40
0.4999999999999971
 40
0.4999999999999971
 40
1.0
 40
1.0
 40
1.0
 40
1.0
 10
243.3903825236482
 20
34.06415605491159
 30
0.0
 10
243.4284201312008
 20
34.04219741147434
 30
0.0
 10
243.4578935351124
 20
34.01594047486968
 30
0.0
 10
243.4966872451554
 20
33.95807246557037
 30
0.0
 10
243.5055094481019
 20
33.92729033076124
 30
0.0
 10
243.5004001754152
 20
33.8343103473745
 30
0.0
 10
243.4537764336458
 20
33.77418933544518
 30
0.0
 10
243.3782833497925
 20
33.73060810578925
 30
0.0
  0
LINE
  5
281
330
1F
100
AcDbEntity
  8
0
  6
Continuous
 62
     7
370
    15
100
AcDbLine
 10
242.6054939269
 20
34.5172623286
 30
0.0
 11
243.3903825037
 21
34.0641557979
 31
0.0
  0
SPLINE
  5
282
330
1F
100
AcDbEntity
  8
0
  6
Continuous
 62
     7
370
    15
100
AcDbSpline
210
0.0
220
0.0
230
1.0
 70
     8
 71
     3
 72
    12
 73
     8
 74
     0
 42
0.000000001
 43
0.00000001
 40
0.0
 40
0.0
 40
0.0
 40
0.0
 40
0.5
 40
0.5
 40
0.75
 40
0.75
 40
1.0
 40
1.0
 40
1.0
 40
1.0
 10
242.0277093977262
 20
34.51027785257995
 30
0.0
 10
242.1036402054775
 20
34.55411177486349
 30
0.0
 10
242.2075301649017
 20
34.58076911737269
 30
0.0
 10
242.368232244734
 20
34.58372498014642
 30
0.0
 10
242.4220170451569
 20
34.57857170851047
 30
0.0
 10
242.5217859305994
 20
34.55627320590711
 30
0.0
 10
242.5673381564268
 20
34.5392894546097
 30
0.0
 10
242.6054939965311
 20
34.51726255697319
 30
0.0
  0
LINE
  5
283
330
1F
100
AcDbEntity
  8
0
  6
Continuous
 62
     7
370
    15
100
AcDbLine
 10
241.9694624215
 20
34.4766526063
 30
0.0
 11
242.0277093661
 21
34.5102778517
 31
0.0
  0
SPLINE
  5
284
330
1F
100
AcDbEntity
  8
0
  6
Continuous
 62
     7
370
    15
100
AcDbSpline
210
0.0
220
0.0
230
1.0
 70
     8
 71
     3
 72
     8
 73
     4
 74
     0
 42
0.000000001
 43
0.00000001
 40
0.0
 40
0.0
 40
0.0
 40
0.0
 40
1.0
 40
1.0
 40
1.0
 40
1.0
 10
240.8269860583137
 20
34.28850482307889
 30
0.0
 10
241.2079267090534
 20
34.35098570175192
 30
0.0
 10
241.5887646812933
 20
34.41368582388696
 30
0.0
 10
241.9694625472937
 20
34.47665266155756
 30
0.0
  0
LINE
  5
285
330
1F
100
AcDbEntity
  8
0
  6
Continuous
 62
     7
370
    15
100
AcDbLine
 10
239.4710342849
 20
35.0712789058
 30
0.0
 11
240.8269858233
 21
34.2885047445
 31
0.0
  0
LINE
  5
286
330
1F
100
AcDbEntity
  8
0
  6
Continuous
 62
     7
370
    15
100
AcDbLine
 10
239.4710342849
 20
35.0712789058
 30
0.0
 11
241.4839723796
 21
36.2333233331
 31
0.0
  0
ARC
  5
287
330
1F
100
AcDbEntity
  8
0
  6
Continuous
 62
     7
370
    15
100
AcDbCircle
 10
249.1960668396
 20
34.0467631121
 30
0.0
 40
6.439203761766334
100
AcDbArc
 50
194.4161472332
 51
238.0417156746
  0
SPLINE
  5
288
330
1F
100
AcDbEntity
  8
0
  6
Continuous
 62
     7
370
    15
100
AcDbSpline
210
0.0
220
0.0
230
1.0
 70
     8
 71
     3
 72
    22
 73
    18
 74
     0
 42
0.000000001
 43
0.00000001
 40
0.0
 40
0.0
 40
0.0
 40
0.0
 40
0.125
 40
0.125
 40
0.25
 40
0.25
 40
0.375
 40
0.375
 40
0.5
 40
0.5
 40
0.625
 40
0.625
 40
0.75
 40
0.75
 40
0.875
 40
0.875
 40
1.0
 40
1.0
 40
1.0
 40
1.0
 10
266.7276844745372
 20
38.75843002291812
 30
0.0
 10
266.7951138324654
 20
38.84231150314187
 30
0.0
 10
266.8560465866902
 20
38.93150417191401
 30
0.0
 10
266.9638438562557
 20
39.12103040005285
 30
0.0
 10
267.0104518859882
 20
39.22097869378524
 30
0.0
 10
267.0843247902314
 20
39.42048357467939
 30
0.0
 10
267.1125095029369
 20
39.522855962271
 30
0.0
 10
267.1486318535092
 20
39.71940454724469
 30
0.0
 10
267.1570818427267
 20
39.81524533624957
 30
0.0
 10
267.154809334092
 20
39.99539696687339
 30
0.0
 10
267.1443561815365
 20
40.07776132375734
 30
0.0
 10
267.1054015967105
 20
40.22677460228849
 30
0.0
 10
267.077063436717
 20
40.29172397892464
 30
0.0
 10
267.0043862612293
 20
40.3988140359444
 30
0.0
 10
266.9591746582871
 20
40.44173529951129
 30
0.0
 10
266.8551020108756
 20
40.5019569963114
 30
0.0
 10
266.7951208903811
 20
40.52026290948781
 30
0.0
 10
266.7276844704031
 20
40.52629274110435
 30
0.0
  0
LWPOLYLINE
  5
289
330
1F
100
AcDbEntity
  8
0
  6
Continuous
 62
     7
370
    15
100
AcDbPolyline
 90
        3
 70
   128
 43
0.0
 10
266.7276845557
 20
40.5262928763
 10
266.3610514254
 20
40.5590752822
 10
265.35879838
 20
40.6486918738
  0
ELLIPSE
  5
28A
330
1F
100
AcDbEntity
  8
0
  6
Continuous
 62
     7
370
    15
100
AcDbEllipse
 10
241.2496578111
 20
37.0218229707
 30
0.0
 11
-6.005970385558612E-5
 21
0.8534489614827264
 31
0.0
210
0.0
220
0.0
230
1.0
 40
0.7174342186
 41
3.534193645557428
 42
5.104989972352351
  0
ARC
  5
28B
330
1F
100
AcDbEntity
  8
0
  6
Continuous
 62
     7
370
    15
100
AcDbCircle
 10
248.628487418
 20
36.3404907555
 30
0.0
 40
6.914948051165484
100
AcDbArc
 50
195.6367501838
 51
215.4284682093
  0
ARC
  5
28C
330
1F
100
AcDbEntity
  8
0
  6
Continuous
 62
     7
370
    15
100
AcDbCircle
 10
246.3429769806
 20
35.2610237658
 30
0.0
 40
6.03355723968322
100
AcDbArc
 50
193.2193819823
 51
253.6140846436
  0
SPLINE
  5
28D
330
1F
100
AcDbEntity
  8
0
  6
Continuous
 62
     7
370
    15
100
AcDbSpline
210
0.0
220
0.0
230
1.0
 70
     8
 71
     3
 72
     8
 73
     4
 74
     0
 42
0.000000001
 43
0.00000001
 40
0.0
 40
0.0
 40
0.0
 40
0.0
 40
0.0011901715795577
 40
0.0011901715795577
 40
0.0011901715795577
 40
0.0011901715795577
 10
240.8269860583137
 20
34.28850482307889
 30
0.0
 10
240.7081889423988
 20
34.15215378676385
 30
0.0
 10
240.5889457682507
 20
34.01642324062794
 30
0.0
 10
240.4692992607559
 20
33.88126869080852
 30
0.0
  0
LINE
  5
28E
330
1F
100
AcDbEntity
  8
0
  6
Continuous
 62
     7
370
    15
100
AcDbLine
 10
239.0318726022
 20
34.817704349
 30
0.0
 11
239.4710342849
 21
35.0712789058
 31
0.0
  0
LINE
  5
28F
330
1F
100
AcDbEntity
  8
0
  6
Continuous
 62
     7
370
    15
100
AcDbLine
 10
240.4692993494
 20
33.8812686971
 30
0.0
 11
239.133516889
 21
34.6523994975
 31
0.0
  0
SPLINE
  5
290
330
1F
100
AcDbEntity
  8
0
  6
Continuous
 62
     7
370
    15
100
AcDbSpline
210
0.0
220
0.0
230
1.0
 70
     8
 71
     3
 72
    10
 73
     6
 74
     0
 42
0.000000001
 43
0.00000001
 40
0.0
 40
0.0
 40
0.0
 40
0.0
 40
0.5
 40
0.5
 40
1.0
 40
1.0
 40
1.0
 40
1.0
 10
239.1335167953398
 20
34.65239949411258
 30
0.0
 10
239.1072125429629
 20
34.66758461578534
 30
0.0
 10
239.0850144288443
 20
34.69121426671921
 30
0.0
 10
239.0510025424126
 20
34.74865665952912
 30
0.0
 10
239.0391316620065
 20
34.78229493767973
 30
0.0
 10
239.0318726847424
 20
34.81770436092285
 30
0.0
  0
ARC
  5
291
330
1F
100
AcDbEntity
  8
0
  6
Continuous
 62
     7
370
    15
100
AcDbCircle
 10
262.1105793811
 20
41.7955233987
 30
0.0
 40
2.072201191385558
100
AcDbArc
 50
321.06588042
 51
347.2268884793
  0
LINE
  5
292
330
1F
100
AcDbEntity
  8
0
  6
Continuous
 62
     7
370
    15
100
AcDbLine
 10
265.35879838
 20
37.0555488197
 30
0.0
 11
266.7276845557
 21
38.7584301542
 31
0.0
  0
LINE
  5
293
330
1F
100
AcDbEntity
  8
0
  6
Continuous
 62
     7
370
    15
100
AcDbLine
 10
262.3129747128
 20
38.7398856831
 30
0.0
 11
263.7224805723
 21
40.4932974861
 31
0.0
  0
ARC
  5
294
330
1F
100
AcDbEntity
  8
0
  6
Continuous
 62
     7
370
    15
100
AcDbCircle
 10
244.8351598948
 20
35.6839848727
 30
0.0
 40
5.673232843470998
100
AcDbArc
 50
213.1287609099
 51
239.569267722
  0
ELLIPSE
  5
295
330
1F
100
AcDbEntity
  8
0
  6
Continuous
 62
     7
370
    15
100
AcDbEllipse
 10
241.1304189956
 20
36.9529654905
 30
0.0
 11
0.26000757892092
 21
0.9705436209909237
 31
0.0
210
0.0
220
0.0
230
1.0
 40
0.5176380889
 41
3.619174351347694
 42
5.189970678142637
  0
SPLINE
  5
296
330
1F
100
AcDbEntity
  8
0
  6
Continuous
 62
     7
370
    15
100
AcDbSpline
210
0.0
220
0.0
230
1.0
 70
     8
 71
     3
 72
    12
 73
     8
 74
     0
 42
0.000000001
 43
0.00000001
 40
0.0
 40
0.0
 40
0.0
 40
0.0
 40
0.5000000000000003
 40
0.5000000000000003
 40
0.7500000000000001
 40
0.7500000000000001
 40
1.0
 40
1.0
 40
1.0
 40
1.0
 10
258.5858492324563
 20
57.2925695259646
 30
0.0
 10
258.6482925582808
 20
57.32861729066491
 30
0.0
 10
258.727629163503
 20
57.35427629072272
 30
0.0
 10
258.8585025268441
 20
57.36606005072918
 30
0.0
 10
258.9032748392151
 20
57.36524977852564
 30
0.0
 10
258.9885367552184
 20
57.3517012981383
 30
0.0
 10
259.0279529623367
 20
57.33893668712889
 30
0.0
 10
259.0591926225866
 20
57.32090241513694
 30
0.0
  0
LINE
  5
297
330
1F
100
AcDbEntity
  8
0
  6
Continuous
 62
     7
370
    15
100
AcDbLine
 10
259.0591928975
 20
57.3209023688
 30
0.0
 11
260.2108561916
 21
56.6560613007
 31
0.0
  0
SPLINE
  5
298
330
1F
100
AcDbEntity
  8
0
  6
Continuous
 62
     7
370
    15
100
AcDbSpline
210
0.0
220
0.0
230
1.0
 70
     8
 71
     3
 72
     9
 73
     5
 74
     0
 42
0.000000001
 43
0.00000001
 40
0.0
 40
0.0
 40
0.0
 40
0.0
 40
0.8664443272572582
 40
1.0
 40
1.0
 40
1.0
 40
1.0
 10
261.7779369345818
 20
54.87574715792611
 30
0.0
 10
262.0971136327077
 20
54.94503714916202
 30
0.0
 10
262.4654889432557
 20
55.02500765512085
 30
0.0
 10
262.8358290406197
 20
55.10187713561195
 30
0.0
 10
262.8852900614668
 20
55.11214349079233
 30
0.0
  0
LINE
  5
299
330
1F
100
AcDbEntity
  8
0
  6
Continuous
 62
     7
370
    15
100
AcDbLine
 10
262.8852900615
 20
55.1121434908
 30
0.0
 11
264.2387498321
 21
54.3308077964
 31
0.0
  0
SPLINE
  5
29A
330
1F
100
AcDbEntity
  8
0
  6
Continuous
 62
     7
370
    15
100
AcDbSpline
210
0.0
220
0.0
230
1.0
 70
     8
 71
     3
 72
    14
 73
    10
 74
     0
 42
0.000000001
 43
0.00000001
 40
0.0
 40
0.0
 40
0.0
 40
0.0
 40
0.25
 40
0.25
 40
0.5
 40
0.5
 40
0.75
 40
0.75
 40
1.0
 40
1.0
 40
1.0
 40
1.0
 10
264.238749794778
 20
54.33080770558627
 30
0.0
 10
264.2700118829361
 20
54.31276048623847
 30
0.0
 10
264.2922792550323
 20
54.28967117079816
 30
0.0
 10
264.3154326530205
 20
54.24105981752945
 30
0.0
 10
264.3169528230165
 20
54.21506003596433
 30
0.0
 10
264.3035076522456
 20
54.16492710657692
 30
0.0
 10
264.2888081465975
 20
54.14073679146552
 30
0.0
 10
264.2471631516218
 20
54.09578634869293
 30
0.0
 10
264.2208508681043
 20
54.07555244161117
 30
0.0
 10
264.1896704733596
 20
54.05755238286711
 30
0.0
  0
LINE
  5
29B
330
1F
100
AcDbEntity
  8
0
  6
Continuous
 62
     7
370
    15
100
AcDbLine
 10
258.5858491328
 20
57.2925693226
 30
0.0
 11
258.0779282418
 21
56.9993528335
 31
0.0
  0
SPLINE
  5
29C
330
1F
100
AcDbEntity
  8
0
  6
Continuous
 62
     7
370
    15
100
AcDbSpline
210
0.0
220
0.0
230
1.0
 70
     8
 71
     3
 72
    10
 73
     6
 74
     0
 42
0.000000001
 43
0.00000001
 40
0.0
 40
0.0
 40
0.0
 40
0.0
 40
0.4051951941075962
 40
0.8115078094624675
 40
1.0
 40
1.0
 40
1.0
 40
1.0
 10
265.9005645074448
 20
50.96171520861049
 30
0.0
 10
265.9188842426805
 20
51.00064168767931
 30
0.0
 10
265.9555742341396
 20
51.07860199475748
 30
0.0
 10
265.9695887144412
 20
51.18616148627487
 30
0.0
 10
265.9514959466072
 20
51.23932297993434
 30
0.0
 10
265.9457623926612
 20
51.25616972746034
 30
0.0
  0
ARC
  5
29D
330
1F
100
AcDbEntity
  8
0
  6
Continuous
 62
     7
370
    15
100
AcDbCircle
 10
249.9210458199
 20
50.8272146086
 30
0.0
 40
1.063278472152705
100
AcDbArc
 50
125.8548573623
 51
149.1957726615
  0
LWPOLYLINE
  5
29E
330
1F
100
AcDbEntity
  8
0
  6
Continuous
 62
     7
370
    15
100
AcDbPolyline
 90
        3
 70
   128
 43
0.0
 10
249.0657404762
 20
51.4359574303
 10
249.2535524308
 20
51.6455581825
 10
249.2725389275
 20
51.6613823853
  0
LWPOLYLINE
  5
29F
330
1F
100
AcDbEntity
  8
0
  6
Continuous
 62
     7
370
     0
100
AcDbPolyline
 90
       23
 70
   128
 43
0.0
 10
244.3130738236
 20
39.010091298
 10
244.6275558265
 20
40.2500117425
 10
245.0199087418
 20
41.4996242041
 10
245.4872079734
 20
42.7496174694
 10
246.025972455
 20
43.9906773352
 10
246.6321870408
 20
45.213556189
 10
247.3013347739
 20
46.4091422082
 10
248.0284298139
 20
47.5685266576
 10
248.8080536566
 20
48.6830696662
 10
249.6343982686
 20
49.7444684748
 10
250.5013056004
 20
50.7448121855
 10
251.4023156595
 20
51.6766475374
 10
252.3307155725
 20
52.5330323243
 10
253.2795868355
 20
53.3075832045
 10
254.2418595615
 20
53.994531352
 10
255.2103633224
 20
54.5887548486
 10
256.1778815509
 20
55.0858291013
 10
257.1372049031
 20
55.4820477618
 10
258.0811854852
 20
55.7744608749
 10
259.0027888896
 20
55.9608874279
 10
259.8951479788
 20
56.0399395548
 10
260.7516137581
 20
56.0110275702
 10
261.565804602
 20
55.8743678543
  0
LWPOLYLINE
  5
2A0
330
1F
100
AcDbEntity
  8
0
  6
Continuous
 62
     7
370
     0
100
AcDbPolyline
 90
       24
 70
   128
 43
0.0
 10
244.6734069879
 20
38.6804674323
 10
244.9564434905
 20
39.8603648298
 10
245.3123235768
 20
41.0513144238
 10
245.7385388507
 20
42.2449209393
 10
246.2320850322
 20
43.4327712771
 10
246.7894830307
 20
44.6064915461
 10
247.406803311
 20
45.7578075184
 10
248.0796942111
 20
46.8786039424
 10
248.8034128934
 20
47.9609808141
 10
249.5728582722
 20
48.9973081276
 10
250.382605587
 20
49.9802808149
 10
251.2269472327
 20
50.9029689331
 10
252.0999312839
 20
51.7588688015
 10
252.9954039715
 20
52.5419472949
 10
253.9070531464
 20
53.2466851857
 10
254.8284525255
 20
53.868113333
 10
255.7531070078
 20
54.4018517711
 10
256.6744986901
 20
54.8441377947
 10
257.5861325539
 20
55.1918546144
 10
258.4815821924
 20
55.4425509107
 10
259.3545359506
 20
55.5944591046
 10
260.1988400592
 20
55.6465080912
 10
261.0085429223
 20
55.5983313154
 10
261.7779369346
 20
55.4502688596
  0
LWPOLYLINE
  5
2A1
330
1F
100
AcDbEntity
  8
0
  6
Continuous
 62
     7
370
     0
100
AcDbPolyline
 90
       20
 70
   128
 43
0.0
 10
257.9728035472
 20
30.6422845532
 10
257.5716942948
 20
30.3035662009
 10
256.6606676914
 20
29.60061206
 10
255.7399978562
 20
28.9808849284
 10
254.8161632206
 20
28.4487445024
 10
253.8956644423
 20
28.0079359269
 10
252.984978718
 20
27.6615603797
 10
252.0905140974
 20
27.4120563017
 10
251.2185646196
 20
27.2611780606
 10
250.3752657792
 20
27.2099877324
 10
249.5665513914
 20
27.2588461703
 10
248.7981129272
 20
27.4074093013
 10
248.0753563784
 20
27.6546306013
 10
247.4033683429
 20
27.9987719353
 10
246.7868765115
 20
28.4374111657
 10
246.2302200342
 20
28.9674615466
 10
245.7373146165
 20
29.5851937808
 10
245.3116294709
 20
30.286260737
 10
244.9561603164
 20
31.0657297716
 10
244.6734069879
 20
31.9181150511
  0
ARC
  5
2A2
330
1F
100
AcDbEntity
  8
0
  6
Continuous
 62
     7
370
     0
100
AcDbCircle
 10
259.1018067842
 20
49.2251018612
 30
0.0
 40
7.017045852610182
100
AcDbArc
 50
14.3287351339
 51
43.52515955
  0
LWPOLYLINE
  5
2A3
330
1F
100
AcDbEntity
  8
0
  6
Continuous
 62
     7
370
     0
100
AcDbPolyline
 90
       30
 70
   128
 43
0.0
 10
248.2191647183
 20
37.3462136095
 10
248.2579003062
 20
38.2220927867
 10
248.3736842845
 20
39.1330996408
 10
248.5652469794
 20
40.0692525499
 10
248.8304902679
 20
41.0202950629
 10
249.1665079933
 20
41.9758072095
 10
249.5696182332
 20
42.9253202328
 10
250.0354047881
 20
43.8584310346
 10
250.5587645965
 20
44.7649168109
 10
251.133963053
 20
45.6348449334
 10
251.7546985452
 20
46.4586847318
 10
252.4141699546
 20
47.2274103399
 10
253.1051522247
 20
47.9325990734
 10
253.820074728
 20
48.5665245791
 10
254.5511044892
 20
49.122242142
 10
255.2902323721
 20
49.5936620137
 10
256.029360255
 20
49.9756210309
 10
256.7603900161
 20
50.2639324646
 10
257.4753125194
 20
50.4554389113
 10
258.1662947896
 20
50.5480413256
 10
258.825766199
 20
50.5407251997
 10
259.4465016911
 20
50.4335713454
 10
260.0217001476
 20
50.2277532248
 10
260.5450599561
 20
49.9255258214
 10
261.010846511
 20
49.5302007287
 10
261.4139567508
 20
49.0461088816
 10
261.7499744762
 20
48.4785545428
 10
262.0152177648
 20
47.8337554123
 10
262.2067804596
 20
47.1187760828
 10
262.2901508773
 20
46.6246409562
  0
LWPOLYLINE
  5
2A4
330
1F
100
AcDbEntity
  8
0
  6
Continuous
 62
     7
370
     0
100
AcDbPolyline
 90
       15
 70
   128
 43
0.0
 10
254.2908011899
 20
32.7678593769
 10
253.820074728
 20
32.5925756902
 10
253.1051522247
 20
32.4010692434
 10
252.4141699546
 20
32.3084668292
 10
251.7546985452
 20
32.3157829551
 10
251.133963053
 20
32.4229368094
 10
250.5587645965
 20
32.62875493
 10
250.0354047881
 20
32.9309823334
 10
249.5696182332
 20
33.326307426
 10
249.1665079933
 20
33.8103992731
 10
248.8304902679
 20
34.377953612
 10
248.5652469794
 20
35.0227527425
 10
248.3736842845
 20
35.737732072
 10
248.2579003062
 20
36.5150575902
 10
248.2191647183
 20
37.3462136095
  0
LWPOLYLINE
  5
2A5
330
1F
100
AcDbEntity
  8
0
  6
Continuous
 62
     7
370
     0
100
AcDbPolyline
 90
        8
 70
   128
 43
0.0
 10
251.0475916481
 20
37.3462132293
 10
251.0872966136
 20
36.5965354421
 10
251.2058540521
 20
35.9032238453
 10
251.4015998216
 20
35.2760110468
 10
251.671785816
 20
34.7237016109
 10
252.0126191481
 20
34.2540488128
 10
252.4193154921
 20
33.8736451741
 10
252.7047711579
 20
33.683454947
  0
LWPOLYLINE
  5
2A6
330
1F
100
AcDbEntity
  8
0
  6
Continuous
 62
     7
370
     0
100
AcDbPolyline
 90
       21
 70
   128
 43
0.0
 10
260.7041211746
 20
47.5402367164
 10
260.2687613516
 20
47.7419884483
 10
259.724207276
 20
47.8788260971
 10
259.1372623611
 20
47.9136510562
 10
258.5161659865
 20
47.8459745257
 10
257.8696371993
 20
47.6767465986
 10
257.2067516071
 20
47.408343369
 10
256.5368147525
 20
47.0445318553
 10
255.869231042
 20
46.5904201905
 10
255.2133719962
 20
46.0523815645
 10
254.578444376
 20
45.4379701103
 10
253.9733610051
 20
44.7558105894
 10
253.4066162844
 20
44.0154786189
 10
252.8861655963
 20
43.2273671739
 10
252.4193154921
 20
42.4025399236
 10
252.0126191481
 20
41.552574681
 10
251.671785816
 20
40.6894040939
 10
251.4015998216
 20
39.825144549
 10
251.2058540521
 20
38.9719284955
 10
251.0872966136
 20
38.1417333939
 10
251.0475916481
 20
37.3462132293
  0
LWPOLYLINE
  5
2A7
330
1F
100
AcDbEntity
  8
0
  6
Continuous
 62
     7
370
     0
100
AcDbPolyline
 90
       15
 70
   128
 43
0.0
 10
259.653412095
 20
33.5705343753
 10
259.9358611759
 20
33.2096722227
 10
260.2853688563
 20
32.9445572727
 10
260.6934469913
 20
32.781627545
 10
261.1501856385
 20
32.7248396123
 10
261.6444929328
 20
32.7755730444
 10
262.1643645957
 20
32.9325956871
 10
262.6971755057
 20
33.1920937678
 10
263.2299864157
 20
33.5477660694
 10
263.7498580785
 20
33.9909744724
 10
264.2441653728
 20
34.5109560943
 10
264.7009040201
 20
35.0950832444
 10
265.108982155
 20
35.729169958
 10
265.4584898354
 20
36.3978178863
 10
265.7409389163
 20
37.0847888062
  0
LWPOLYLINE
  5
2A8
330
1F
100
AcDbEntity
  8
0
  6
Continuous
 62
     7
370
     0
100
AcDbPolyline
 90
       15
 70
   128
 43
0.0
 10
265.7408328907
 20
40.7342736153
 10
265.4583731084
 20
41.095076928
 10
265.1088659219
 20
41.3601421627
 10
264.7007979944
 20
41.5230331058
 10
264.2440784449
 20
41.5797944206
 10
263.7497968339
 20
41.5290480582
 10
263.2299556287
 20
41.372025888
 10
262.6971774402
 20
41.1125409935
 10
262.1643992104
 20
40.7568940216
 10
261.6445577995
 20
40.3137205733
 10
261.1502760238
 20
39.7937822004
 10
260.693556145
 20
39.2097042885
 10
260.2854878882
 20
38.575668525
 10
259.9359802079
 20
37.9070709774
 10
259.653519767
 20
37.2201465418
  0
LWPOLYLINE
  5
2A9
330
1F
100
AcDbEntity
  8
0
  6
Continuous
 62
     7
370
     0
100
AcDbPolyline
 90
       23
 70
   128
 43
0.0
 10
239.133516889
 20
42.0001858704
 10
239.4479988919
 20
43.2401063149
 10
239.8403518072
 20
44.4897187765
 10
240.3076510388
 20
45.7397120418
 10
240.8464155204
 20
46.9807719076
 10
241.4526301062
 20
48.2036507614
 10
242.1217778393
 20
49.3992367806
 10
242.8488728793
 20
50.55862123
 10
243.628496722
 20
51.6731642385
 10
244.454841334
 20
52.7345630471
 10
245.3217486658
 20
53.7349067579
 10
246.2227587249
 20
54.6667421098
 10
247.1511586379
 20
55.5231268967
 10
248.1000299009
 20
56.2976777769
 10
249.0623026269
 20
56.9846259243
 10
250.0308063878
 20
57.578849421
 10
250.9983246164
 20
58.0759236737
 10
251.9576479685
 20
58.4721423342
 10
252.9016285506
 20
58.7645554473
 10
253.823231955
 20
58.9509820003
 10
254.7155910442
 20
59.0300341272
 10
255.5720568235
 20
59.0011221426
 10
256.3862476674
 20
58.8644624267
  0
LWPOLYLINE
  5
2AA
330
1F
100
AcDbEntity
  8
0
  6
Continuous
 62
     7
370
     0
100
AcDbPolyline
 90
       19
 70
   128
 43
0.0
 10
242.6054939269
 20
41.0904161052
 10
242.9019923964
 20
42.2390252753
 10
243.2738816997
 20
43.3961578637
 10
243.718109483
 20
44.5523159753
 10
244.2310287268
 20
45.6980097558
 10
244.8084300147
 20
46.8238345752
 10
245.4455744604
 20
47.9205516343
 10
246.1372312447
 20
48.9791571631
 10
246.8777243728
 20
49.9909630255
 10
247.6609754786
 20
50.9476647765
 10
248.4805555215
 20
51.8414087685
 10
249.3297373046
 20
52.6648597324
 10
250.2015511222
 20
53.4112587578
 10
251.0888409004
 20
54.0744800369
 10
251.9843239087
 20
54.6490782634
 10
252.8806500391
 20
55.1303388234
 10
253.7704621251
 20
55.5143110955
 10
254.6464568771
 20
55.797842868
 10
254.7155156409
 20
55.8160569839
  0
LWPOLYLINE
  5
2AB
330
1F
100
AcDbEntity
  8
0
  6
Continuous
 62
     7
370
     0
100
AcDbPolyline
 90
       22
 70
   128
 43
0.0
 10
242.0277093661
 20
41.0834316283
 10
242.3227952576
 20
42.2543228739
 10
242.6944981928
 20
43.4348016906
 10
243.1398132331
 20
44.6153272126
 10
243.6551427498
 20
45.7863616718
 10
244.2363227661
 20
46.938441118
 10
244.878655884
 20
48.0622564051
 10
245.5769527726
 20
49.1487265724
 10
246.3255700349
 20
50.1890712744
 10
247.1184586104
 20
51.174885112
 10
247.9492111901
 20
52.0982007465
 10
248.8111145714
 20
52.9515579063
 10
249.6972043169
 20
53.7280600366
 10
250.6003200721
 20
54.4214336101
 10
251.5131639496
 20
55.0260747597
 10
252.4283595719
 20
55.5370985717
 10
253.3385114224
 20
55.9503741094
 10
254.2362651436
 20
56.262563025
 10
255.1143657563
 20
56.4711425219
 10
255.9657179375
 20
56.5744264641
 10
256.783442202
 20
56.5715803187
 10
256.7886279107
 20
56.5712150001
  0
LINE
  5
2AC
330
1F
100
AcDbEntity
  8
0
  6
Continuous
 62
     7
370
     0
100
AcDbLine
 10
258.3838242237
 20
33.9416221132
 30
0.0
 11
258.4545347817
 21
33.6777321171
 31
0.0
  0
LWPOLYLINE
  5
2AD
330
1F
100
AcDbEntity
  8
0
  6
Continuous
 62
     7
370
     0
100
AcDbPolyline
 90
        3
 70
   128
 43
0.0
 10
265.2121122006
 20
40.7135547383
 10
264.921699341
 20
41.0358604584
 10
264.6995051069
 20
41.1924083351
  0
LWPOLYLINE
  5
2AE
330
1F
100
AcDbEntity
  8
0
  6
Continuous
 62
     7
370
     0
100
AcDbPolyline
 90
       13
 70
   128
 43
0.0
 10
260.2357653083
 20
33.3778977705
 10
260.3326337481
 20
33.3298794229
 10
260.7428672993
 20
33.2087770432
 10
261.197666039
 20
33.1943711252
 10
261.6851551751
 20
33.2870373586
 10
262.192606174
 20
33.4843566575
 10
262.7067696142
 20
33.7811768936
 10
263.2142206132
 20
34.1697480469
 10
263.7017097493
 20
34.6399247897
 10
264.156508489
 20
35.1794301556
 10
264.5667420402
 20
35.7741781116
 10
264.921699341
 20
36.4086399649
 10
265.2121122006
 20
37.0662492357
  0
LINE
  5
2AF
330
1F
100
AcDbEntity
  8
0
  6
Continuous
 62
     7
370
     0
100
AcDbLine
 10
258.0933270703
 20
34.1093225502
 30
0.0
 11
258.3838242237
 21
33.9416221132
 31
0.0
  0
LINE
  5
2B0
330
1F
100
AcDbEntity
  8
0
  6
Continuous
 62
     7
370
     0
100
AcDbLine
 10
247.2999254886
 20
39.4488923055
 30
0.0
 11
246.7341481699
 21
39.7755085994
 31
0.0
  0
LWPOLYLINE
  5
2B1
330
1F
100
AcDbEntity
  8
0
  6
Continuous
 62
     7
370
     0
100
AcDbPolyline
 90
        3
 70
   128
 43
0.0
 10
241.6172608825
 20
40.1283268214
 10
241.6165549228
 20
40.2495649198
 10
241.6413675628
 20
40.9844192714
  0
LINE
  5
2B2
330
1F
100
AcDbEntity
  8
0
  6
Continuous
 62
     7
370
     0
100
AcDbLine
 10
241.8153430033
 20
37.3483859647
 30
0.0
 11
247.2999254886
 21
34.18220389
 31
0.0
  0
LINE
  5
2B3
330
1F
100
AcDbEntity
  8
0
  6
Continuous
 62
     7
370
     0
100
AcDbLine
 10
241.6961041359
 20
37.2795286447
 30
0.0
 11
241.8153430033
 21
37.3483859647
 31
0.0
  0
LWPOLYLINE
  5
2B4
330
1F
100
AcDbEntity
  8
0
  6
Continuous
 62
     7
370
     0
100
AcDbPolyline
 90
       18
 70
   128
 43
0.0
 10
220.3446714475
 20
56.5415287003
 10
220.383777796
 20
57.2386950233
 10
220.5003987844
 20
57.968571563
 10
220.6924537412
 20
58.7181338289
 10
220.9565149424
 20
59.4740055528
 10
221.2878705019
 20
60.2226984665
 10
221.6806070194
 20
60.9508517917
 10
222.1277167581
 20
61.6454718715
 10
222.6212204635
 20
62.294163339
 10
223.1523117492
 20
62.8853503039
 10
223.7115133364
 20
63.408482518
 10
224.2888461768
 20
63.8542250238
 10
224.8740077532
 20
64.214623443
 10
225.4565558545
 20
64.4832465702
 10
226.0260948618
 20
64.6553007574
 10
226.5724613343
 20
64.7277153774
 10
227.0859056027
 20
64.6991989858
 10
227.4387756467
 20
64.6135028671
  0
ARC
  5
2B5
330
1F
100
AcDbEntity
  8
0
  6
Continuous
 62
     7
370
     0
100
AcDbCircle
 10
223.610001
 20
56.266137444
 30
0.0
 40
3.276921944515681
100
AcDbArc
 50
175.1791987811
 51
225.801960153
  0
ARC
  5
2B6
330
1F
100
AcDbEntity
  8
0
  6
Continuous
 62
     7
370
     0
100
AcDbCircle
 10
251.6880102609
 20
33.7981228624
 30
0.0
 40
7.677981877784012
100
AcDbArc
 50
196.1512768652
 51
213.2408569188
  0
LINE
  5
2B7
330
1F
100
AcDbEntity
  8
0
  6
Continuous
 62
     7
370
     0
100
AcDbLine
 10
246.7342403661
 20
33.2024081393
 30
0.0
 11
241.4839723796
 21
36.2333233331
 31
0.0
  0
LINE
  5
2B8
330
1F
100
AcDbEntity
  8
0
  6
Continuous
 62
     7
370
     0
100
AcDbLine
 10
266.9398162297
 20
38.5761808306
 30
0.0
 11
266.7276845557
 21
38.7584301542
 31
0.0
  0
LINE
  5
2B9
330
1F
100
AcDbEntity
  8
0
  6
Continuous
 62
     7
370
     0
100
AcDbLine
 10
243.4680090961
 20
33.8239247505
 30
0.0
 11
243.3903825037
 21
34.0641557979
 31
0.0
  0
LWPOLYLINE
  5
2BA
330
1F
100
AcDbEntity
  8
0
  6
Continuous
 62
     7
370
     0
100
AcDbPolyline
 90
        3
 70
   128
 43
0.0
 10
243.1048748128
 20
33.2862119824
 10
242.8931218019
 20
33.7314315434
 10
242.6054939269
 20
34.5172623286
  0
LINE
  5
2BB
330
1F
100
AcDbEntity
  8
0
  6
Continuous
 62
     7
370
     0
100
AcDbLine
 10
263.7224805723
 20
40.4932974861
 30
0.0
 11
266.7276845557
 21
38.7584301542
 31
0.0
  0
ARC
  5
2BC
330
1F
100
AcDbEntity
  8
0
  6
Continuous
 62
     7
370
     0
100
AcDbCircle
 10
248.7065347718
 20
36.4011437438
 30
0.0
 40
6.94133147324649
100
AcDbArc
 50
195.8075357836
 51
213.742558797
  0
ARC
  5
2BD
330
1F
100
AcDbEntity
  8
0
  6
Continuous
 62
     7
370
     0
100
AcDbCircle
 10
246.5102480712
 20
36.7889085327
 30
0.0
 40
7.679898032565299
100
AcDbArc
 50
196.1525046272
 51
213.202164706
  0
OLE2FRAME
  5
2BE
330
1F
100
AcDbEntity
  8
0
100
AcDbOle2Frame
 70
     2
  3
Paintbrush-Bild
 10
13.8511154363
 20
38.264191557
 30
0.0
 11
51.6290888628
 21
31.9806341108
 31
0.0
 71
     2
 72
     0
 73
     1
 90
    12928
310
80552BED0767C5B32B40DDAF6807D121434000000000000000006FFBDDFB85D0
310
4940DDAF6807D121434000000000000000006FFBDDFB85D04940416F4BD60AFB
310
3F4000000000000000002BED0767C5B32B40416F4BD60AFB3F40000000000000
310
0000000000000100000000010000010000000100000000000100000000320000
310
D0CF11E0A1B11AE1000000000000000000000000000000003E000300FEFF0900
310
0600000000000000000000000100000001000000000000000010000002000000
310
01000000FEFFFFFF0000000000000000FFFFFFFFFFFFFFFFFFFFFFFFFFFFFFFF
310
FFFFFFFFFFFFFFFFFFFFFFFFFFFFFFFFFFFFFFFFFFFFFFFFFFFFFFFFFFFFFFFF
310
FFFFFFFFFFFFFFFFFFFFFFFFFFFFFFFFFFFFFFFFFFFFFFFFFFFFFFFFFFFFFFFF
310
FFFFFFFFFFFFFFFFFFFFFFFFFFFFFFFFFFFFFFFFFFFFFFFFFFFFFFFFFFFFFFFF
310
FFFFFFFFFFFFFFFFFFFFFFFFFFFFFFFFFFFFFFFFFFFFFFFFFFFFFFFFFFFFFFFF
310
FFFFFFFFFFFFFFFFFFFFFFFFFFFFFFFFFFFFFFFFFFFFFFFFFFFFFFFFFFFFFFFF
310
FFFFFFFFFFFFFFFFFFFFFFFFFFFFFFFFFFFFFFFFFFFFFFFFFFFFFFFFFFFFFFFF
310
FFFFFFFFFFFFFFFFFFFFFFFFFFFFFFFFFFFFFFFFFFFFFFFFFFFFFFFFFFFFFFFF
310
FFFFFFFFFFFFFFFFFFFFFFFFFFFFFFFFFFFFFFFFFFFFFFFFFFFFFFFFFFFFFFFF
310
FFFFFFFFFFFFFFFFFFFFFFFFFFFFFFFFFFFFFFFFFFFFFFFFFFFFFFFFFFFFFFFF
310
FFFFFFFFFFFFFFFFFFFFFFFFFFFFFFFFFFFFFFFFFFFFFFFFFFFFFFFFFFFFFFFF
310
FFFFFFFFFFFFFFFFFFFFFFFFFFFFFFFFFFFFFFFFFFFFFFFFFFFFFFFFFFFFFFFF
310
FFFFFFFFFFFFFFFFFFFFFFFFFFFFFFFFFFFFFFFFFFFFFFFFFFFFFFFFFFFFFFFF
310
FFFFFFFFFFFFFFFFFFFFFFFFFFFFFFFFFFFFFFFFFFFFFFFFFFFFFFFFFFFFFFFF
310
FDFFFFFFFEFFFFFFFEFFFFFFFEFFFFFF05000000060000000700000008000000
310
090000000A0000000B0000000C0000000D0000000E0000000F00000010000000
310
11000000120000001300000014000000150000001600000017000000FEFFFFFF
310
FFFFFFFFFFFFFFFFFFFFFFFFFFFFFFFFFFFFFFFFFFFFFFFFFFFFFFFFFFFFFFFF
310
FFFFFFFFFFFFFFFFFFFFFFFFFFFFFFFFFFFFFFFFFFFFFFFFFFFFFFFFFFFFFFFF
310
FFFFFFFFFFFFFFFFFFFFFFFFFFFFFFFFFFFFFFFFFFFFFFFFFFFFFFFFFFFFFFFF
310
FFFFFFFFFFFFFFFFFFFFFFFFFFFFFFFFFFFFFFFFFFFFFFFFFFFFFFFFFFFFFFFF
310
FFFFFFFFFFFFFFFFFFFFFFFFFFFFFFFFFFFFFFFFFFFFFFFFFFFFFFFFFFFFFFFF
310
FFFFFFFFFFFFFFFFFFFFFFFFFFFFFFFFFFFFFFFFFFFFFFFFFFFFFFFFFFFFFFFF
310
FFFFFFFFFFFFFFFFFFFFFFFFFFFFFFFFFFFFFFFFFFFFFFFFFFFFFFFFFFFFFFFF
310
FFFFFFFFFFFFFFFFFFFFFFFFFFFFFFFFFFFFFFFFFFFFFFFFFFFFFFFFFFFFFFFF
310
FFFFFFFFFFFFFFFFFFFFFFFFFFFFFFFFFFFFFFFFFFFFFFFFFFFFFFFFFFFFFFFF
310
FFFFFFFFFFFFFFFFFFFFFFFFFFFFFFFFFFFFFFFFFFFFFFFFFFFFFFFFFFFFFFFF
310
FFFFFFFFFFFFFFFFFFFFFFFFFFFFFFFFFFFFFFFFFFFFFFFFFFFFFFFFFFFFFFFF
310
FFFFFFFFFFFFFFFFFFFFFFFFFFFFFFFFFFFFFFFFFFFFFFFFFFFFFFFFFFFFFFFF
310
FFFFFFFFFFFFFFFFFFFFFFFFFFFFFFFFFFFFFFFFFFFFFFFFFFFFFFFFFFFFFFFF
310
52006F006F007400200045006E00740072007900000000000000000000000000
310
0000000000000000000000000000000000000000000000000000000000000000
310
16000500FFFFFFFFFFFFFFFF020000000A00030000000000C000000000000046
310
0000000000000000000000005074F9279A1FD20103000000C000000000000000
310
01004F006C006500000000000000000000000000000000000000000000000000
310
0000000000000000000000000000000000000000000000000000000000000000
310
0A000200FFFFFFFFFFFFFFFFFFFFFFFF00000000000000000000000000000000
310
0000000000000000000000000000000000000000000000001400000000000000
310
010043006F006D0070004F0062006A0000000000000000000000000000000000
310
0000000000000000000000000000000000000000000000000000000000000000
310
120002010100000003000000FFFFFFFF00000000000000000000000000000000
310
0000000000000000000000000000000000000000010000004D00000000000000
310
01004F006C006500310030004E00610074006900760065000000000000000000
310
0000000000000000000000000000000000000000000000000000000000000000
310
1A000200FFFFFFFFFFFFFFFFFFFFFFFF00000000000000000000000000000000
310
0000000000000000000000000000000000000000040000002426000000000000
310
FEFFFFFF02000000FEFFFFFFFFFFFFFFFFFFFFFFFFFFFFFFFFFFFFFFFFFFFFFF
310
FFFFFFFFFFFFFFFFFFFFFFFFFFFFFFFFFFFFFFFFFFFFFFFFFFFFFFFFFFFFFFFF
310
FFFFFFFFFFFFFFFFFFFFFFFFFFFFFFFFFFFFFFFFFFFFFFFFFFFFFFFFFFFFFFFF
310
FFFFFFFFFFFFFFFFFFFFFFFFFFFFFFFFFFFFFFFFFFFFFFFFFFFFFFFFFFFFFFFF
310
FFFFFFFFFFFFFFFFFFFFFFFFFFFFFFFFFFFFFFFFFFFFFFFFFFFFFFFFFFFFFFFF
310
FFFFFFFFFFFFFFFFFFFFFFFFFFFFFFFFFFFFFFFFFFFFFFFFFFFFFFFFFFFFFFFF
310
FFFFFFFFFFFFFFFFFFFFFFFFFFFFFFFFFFFFFFFFFFFFFFFFFFFFFFFFFFFFFFFF
310
FFFFFFFFFFFFFFFFFFFFFFFFFFFFFFFFFFFFFFFFFFFFFFFFFFFFFFFFFFFFFFFF
310
FFFFFFFFFFFFFFFFFFFFFFFFFFFFFFFFFFFFFFFFFFFFFFFFFFFFFFFFFFFFFFFF
310
FFFFFFFFFFFFFFFFFFFFFFFFFFFFFFFFFFFFFFFFFFFFFFFFFFFFFFFFFFFFFFFF
310
FFFFFFFFFFFFFFFFFFFFFFFFFFFFFFFFFFFFFFFFFFFFFFFFFFFFFFFFFFFFFFFF
310
FFFFFFFFFFFFFFFFFFFFFFFFFFFFFFFFFFFFFFFFFFFFFFFFFFFFFFFFFFFFFFFF
310
FFFFFFFFFFFFFFFFFFFFFFFFFFFFFFFFFFFFFFFFFFFFFFFFFFFFFFFFFFFFFFFF
310
FFFFFFFFFFFFFFFFFFFFFFFFFFFFFFFFFFFFFFFFFFFFFFFFFFFFFFFFFFFFFFFF
310
FFFFFFFFFFFFFFFFFFFFFFFFFFFFFFFFFFFFFFFFFFFFFFFFFFFFFFFFFFFFFFFF
310
FFFFFFFFFFFFFFFFFFFFFFFFFFFFFFFFFFFFFFFFFFFFFFFFFFFFFFFFFFFFFFFF
310
0100000200000000000000000000000000000000000000000000000000000000
310
0000000000000000000000000000000000000000000000000000000000000000
310
0100FEFF030A0000FFFFFFFF0A00030000000000C00000000000004607000000
310
5042727573680007000000504272757368000700000050427275736800F439B2
310
7100000000000000000000000000000000000000000000000000000000000000
310
0000000000000000000000000000000000000000000000000000000000000000
310
0000000000000000000000000000000000000000000000000000000000000000
310
0000000000000000000000000000000000000000000000000000000000000000
310
0000000000000000000000000000000000000000000000000000000000000000
310
0000000000000000000000000000000000000000000000000000000000000000
310
0000000000000000000000000000000000000000000000000000000000000000
310
0000000000000000000000000000000000000000000000000000000000000000
310
0000000000000000000000000000000000000000000000000000000000000000
310
0000000000000000000000000000000000000000000000000000000000000000
310
0000000000000000000000000000000000000000000000000000000000000000
310
0000000000000000000000000000000000000000000000000000000000000000
310
20260000424D0E260000000000003E00000028000000B40200006E0000000100
310
01000000000000000000130B0000130B00000200000002000000000000FFFFFF
310
FFFFFFFFFFFFFFFFFFFFFFFFFFFFFFFFFFFFFFFFFFFFFFFFFFFFFFFFFFFFFFFF
310
FFFFFFFFFFFFFFFFFFFFFFFFFFFFFFFFFFFFFFFFFFFFFFFFFFFFFFFFFFFFFFFF
310
FFFFFFFFFFFFFFFFFFFFFFFFFFFFFFFFFFFFFFFFFFFFFFFFF000FFFFFFFFFFFF
310
FFFFFFFFFFFFFFFFFFFFFFFFFFFFFFFFFFFFFFFFFFFFFFFFFFFFFFFFFFFFFFFF
310
FFFFFFFFFFFFFFFFFFFFFFFFFFFFFFFFFFFFFFFFFFFFFFFFFFFFFFFFFFFFFFFF
310
FFFFFFFFFFFFFFFFFFFFFFFFFFFFFFFFF000FFFFFFFFFFFFFFFFFFFFFFFFFFFF
310
FFFFFFFFFFFFFFFFFFFFFFFFFFFFFFFFFFFFFFFFFFFFFFFFFFFFFFFFFFFFFFFF
310
FFFFFFFFFFFFFFFFFFFFFFFFFFFFFFFFFFFFFFFFFFFFFFFFFFFFFFFFFFFFFFFF
310
FFFFFFFFFFFFFFFFF000FFFFFFFFFFFFFFFFFFFFFFFFFFFFFFFFFFFFFFFFFFFF
310
FFFFFFFFFFFFFFFFFFFFFFFFFFFFFFFFFFFFFFFFFFFFFFFFFFFFFFFFFFFFFFFF
310
FFFFFFFFFFFFFFFFFFFFFFFFFFFFFFFFFFFFFFFFFFFFFFFFFFFFFFFFFFFFFFFF
310
F000FFFFFFFFFFFFFFFFFFFFFFFFFFFFFFFFFFFFFFFFFFFFFFFFFFFFFFFFFFFF
310
FFFFFFFFFFFFFFFFFFFFFFFFFFFFFFFFFFFFFFFFFFFFFFFFFFFFFFFFFFFFFFFF
310
FFFFFFFFFFFFFFFFFFFFFFFFFFFFFFFFFFFFFFFFFFFFFFFFF000FFFFFFFFFFFF
310
FFFFFFFFFFFFFFFFFFFFFFFFFFFFFFFFFFFFFFFFFFFFFFFFFFFFFFFFFFFFFFFF
310
FFFFFFFFFFFFFFFFFFFFFFFFFFFFFFFFFFFFFFFFFFFFFFFFFFFFFFFFFFFFFFFF
310
FFFFFFFFFFFFFFFFFFFFFFFFFFFFFFFFF000FFFFFFFFFFFFFFFFFFFFFFFFFFFF
310
FFFFFFFFFFFFFFFFFFFFFFFFFFFFFFFFFFFFFFFFFFFFFFFFFFFFFFFFFFFFFFFF
310
FFFFFFFFFFFFFFFFFFFFFFFFFFFFFFFFFFFFFFFFFFFFFFFFFFFFFFFFFFFFFFFF
310
FFFFFFFFFFFFFFFFF000FFFFFFFFFFFFFFFFFFFFFFFFFFFFFFFFFFFFFFFFFFFF
310
FFFFFFFFFFFFFFFFFFFFFFFFFFFFFFFFFFFFFFFFFFFFFFFFFFFFFFFFFFFFFFFF
310
FFFFFFFFFFFFFFFFFFFFFFFFFFFFFFFFFFFFFFFFFFFFFFFFFFFFFFFFFFFFFFFF
310
F000FFFFFFFFFFFFFFFFFFFFFFFFFFFFFFFFFFFFFFFFFFFFFFFFFFFFFFFFFFFF
310
FFFFFFFFFFFFFFFFFFFFFFFFFFFFFFFFFFFFFFFFFFFFFFFFFFFFFFFFFFFFFFFF
310
FFFFFFFFFFFFFFFFFFFFFFFFFFFFFFFFFFFFFFFFFFFFFFFFF000FFFFFFFFFFFF
310
FFFFFFFFFFFFFFFFFFFFFFFFFFFFFFFFFFFFFFFFFFFFFFFFFFFFFFFFFFFFFFFF
310
FFFFFFFFFFFFFFFFFFFFFFFFFFFFFFFFFFFFFFFFFFFFFFFFFFFFFFFFFFFFFFFF
310
FFFFFFFFFFFFFFFFFFFFFFFFFFFFFFFFF000FFFFFFFFFFFFFFFFFFFFFFFFFFFF
310
FFFFFFFFFFFFFFFFFFFFFFFFFFFFFFFFFFFFFFFFFFFFFFFFFFFFFFFFFFFFFFFF
310
FFFFFFFFFFFFFFFFFFFFFFFFFFFFFFFFFFFFFFFFFFFFFFFFFFFFFFFFFFFFFFFF
310
FFFFFFFFFFFFFFFFF000FFFFFFFFFFFFFFFFFFFFFFFFFFFFFFFFFFFFFFFFFFFF
310
FFFFFFFFFFFFFFFFFFFFFFFFFFFFFFFFFFFFFFFFFFFFFFFFFFFFFFFFFFFFFFFF
310
FFFFFFFFFFFFFFFFFFFFFFFFFFFFFFFFFFFFFFFFFFFFFFFFFFFFFFFFFFFFFFFF
310
F000FFFFFFFFFFFFFFFFFFFFFFFFFFFFFFFFFFFFFFFFFFFFFFFFFFFFFFFFFFFF
310
FFFFFFFFFFFFFFFFFFFFFFFFFFFFFFFFFFFFFFFFFFFFFFFFFFFFFFFFFFFFFFFF
310
FFFFFFFFFFFFFFFFFFFFFFFFFFFFFFFFFFFFFFFFFFFFFFFFF000FFFFFFFFFFFF
310
FFFFFFFFFFFFFFFFFFFFFFFFFFFFFFFFFFFFFFFFFFFFFFFFFFFFFFFFFFFFFFFF
310
FFFFFFFFFFFFFFFFFFFFFFFFFFFFFFFFFFFFFFFFFFFFFFFFFFFFFFFFFFFFFFFF
310
FFFFFFFFFFFFFFFFFFFFFFFFFFFFFFFFF000FFFFFFFFFFFFFFFFFFFFFFFFFFFF
310
FFFFFFFFFFFFFFFFFFFFFFFFFFFFFFFFFFFFFFFFFFFFFFFFFFFFFFFFFFFFFFFF
310
FFFFFFFFFFFFFFFFFFFFFFFFFFFFFFFFFFFFFFFFFFFFFFFFFFFFFFFFFFFFFFFF
310
FFFFFFFFFFFFFFFFF000FFFFFFFFFFFFFFFFFFFFFFFFFFFFFFFFFFFFFFFFFFFF
310
FFFFFFFFFFFFFFFFFFFFFFFFFFFFFFFFFFFFFFFFFFFFFFFFFFFFFFFFFFFFFFFF
310
FFFFFFFFFFFFFFFFFFFFFFFFFFFFFFFFFFFFFFFFFFFFFFFFFFFFFFFFFFFFFFFF
310
F000FFFFFFFFFFFFFFFFFFFFFFFFFFFFFFFFFFFFFFFFFFFFFFFFFFFFFFFFFFFF
310
FFFFFFFFFFFFFFFFFFFFFFFFFFFFFFFFFFFFFFFFFFFFFFFFFFFFFFFFFFFFFFFF
310
FFFFFFFFFFFFFFFFFFFFFFFFFFFFFFFFFFFFFFFFFFFFFFFFF000FFFFFFFFFFFF
310
FFFFFFFFFFFFFFFFFFFFFFFFFFFFFFFFFFFFFFFFFFFFFFFFFFFFFFFFFFFFFFFF
310
FFFFFFFFFFFFFFFFFFFFFFFFFFFFFFFFFFFFFFFFFFFFFFFFFFFFFFFFFFFFFFFF
310
FFFFFFFFFFFFFFFFFFFFFFFFFFFFFFFFF000FFFFFFFFFFFFFFFFFFFFFFFFFFFF
310
FFFFFFFFFFFFFFFFFFFFFFFFFFFFFFFFFFFFFFFFFFFFFFFFFFFFFFFFFFFFFFFF
310
FFFFFFFFFFFFFFFFFFFFFFFFFFFFFFFFFFFFFFFFFFFFFFFFFFFFFFFFFFFFFFFF
310
FFFFFFFFFFFFFFFFF000FFFFF80003FFFFFFFFFFFFFFFFFFFFFFFFFFFFFFFFFF
310
FFFFF00007FFFFFFFFFF00007FFFFFF800000000000000007FFFFFFFFFFFFFFF
310
FFFFFFFC001FFFFFFFFFFFFFFC001FFFFFFFFFFFFFFFFFFFFFFFFFFE0007FFFF
310
F000FFFF8000007FFFFFFFF8000FFFFFC0007FFFFF80007FFFFF0000007FFFFF
310
FFF8000007FFFFF800000000000000007FFFFFF0001FFFFFFFFFFFC00001FFFF
310
FFFFFFFFC00001FFFFFFFF000000000003FFFFE000007FFFF000FFFE0000000F
310
FFFFFFF0000FFFFF80007FFFFF80007FFFFC0000001FFFFFFFC0000001FFFFF8
310
00000000000000007FFFFFF0001FFFFFFFFFFE0000003FFFFFFFFFFE0000003F
310
FFFFFF000000000003FFFF0000000FFFF000FFF800000003FFFFFFF00007FFFF
310
80007FFFFF80007FFFF000000007FFFFFF000000003FFFF80000000000000000
310
7FFFFFF0001FFFFFFFFFF80000000FFFFFFFFFF80000000FFFFFFF0000000000
310
03FFFC00000003FFF000FFE000000000FFFFFFF00007FFFF80003FFFFF80007F
310
FFC000000001FFFFFC000000001FFFF800000000000000007FFFFFF0001FFFFF
310
FFFFE000000003FFFFFFFFE000000003FFFFFF000000000003FFF000000000FF
310
F000FF80000000007FFFFFF00007FFFF80003FFFFF80007FFF8000000000FFFF
310
F80000000007FFF800000000000000007FFFFFF0001FFFFFFFFFC000000001FF
310
FFFFFFC000000001FFFFFF000000000003FFC0000000007FF000FF0000000000
310
3FFFFFE00007FFFF00003FFFFF80007FFE00000000003FFFF00000000003FFF8
310
00000000000000007FFFFFF0001FFFFFFFFF8000000000FFFFFFFF8000000000
310
FFFFFF000000000003FF80000000003FF000FE00000000001FFFFFE00003FFFF
310
00003FFFFF80007FFC00000000001FFFE00000000001FFF8000001FFFE000000
310
7FFFFFF0001FFFFFFFFE00000000003FFFFFFE00000000003FFFFF0000000000
310
03FF00000000001FF000FC00000000000FFFFFE00003FFFF00001FFFFF80007F
310
F800000000001FFFC00000000000FFF8000001FFFE0000007FFFFFF0001FFFFF
310
FFFC00000000001FFFFFFC00000000001FFFFF000000000003FE00000000000F
310
F000F8000000000007FFFFE00003FFFF00001FFFFF80007FF800000000000FFF
310
800000000000FFF8000001FFFE0000007FFFFFF0001FFFFFFFF800000000000F
310
FFFFF800000000000FFFFF000000000003FC000000000007F000F80000000000
310
03FFFFC00003FFFE00001FFFFF80007FF0000000000007FF0000000000007FF8
310
000001FFFE0000007FFFFFF0001FFFFFFFF0000000000007FFFFF00000000000
310
07FFFF000000000003F8000000000003F000F0000000000003FFFFC00001FFFE
310
00001FFFFF80007FE0000000000007FE0000000000003FF8000001FFFE000000
310
7FFFFFF0001FFFFFFFF0000000000007FFFFF0000000000007FFFF0000000000
310
03F800001F800003F000E00001FFF00001FFFFC00001FFFE00000FFFFF80007F
310
E00001FFE00003FE00001FFF00003FF8000001FFFE0000007FFFFFF0001FFFFF
310
FFE000003E000003FFFFE000003E000003FFFF000000000003F00001FFF80001
310
F000E00007FFFC0001FFFFC00001FFFE00000FFFFF80007FC0000FFFFC0003FC
310
0000FFFFC0001FF8000001FFFE0000007FFFFFF0001FFFFFFFC00003FFE00001
310
FFFFC00003FFE00001FFFF0001FFFFFFFFF00007FFFE0001F000E0000FFFFF00
310
00FFFF800001FFFC00000FFFFF80007FC0001FFFFE0001FC0001FFFFE0001FF8
310
000001FFFE0000007FFFFFF0001FFFFFFF80000FFFF80000FFFF80000FFFF800
310
00FFFF0003FFFFFFFFE0000FFFFF8000F000C0003FFFFF8000FFFF800000FFFC
310
000007FFFF80007F80003FFFFF0001FC0003FFFFF0001FF8000001FFFE000000
310
7FFFFFF0001FFFFFFF80003FFFFE0000FFFF80003FFFFE0000FFFF0003FFFFFF
310
FFE0003FFFFF8000F000C0003FFFFF8000FFFF800000FFFC000007FFFF80007F
310
80007FFFFF8001F80007FFFFF8000FF8000001FFFE0000007FFFFFF0001FFFFF
310
FF00007FFFFF00007FFF00007FFFFF00007FFF0003FFFFFFFFE0003FFFFFC000
310
F000C0007FFFFFC000FFFF000000FFFC000007FFFF80007F8000FFFFFF8000F8
310
000FFFFFF8000FF8000001FFFE0000007FFFFFF0001FFFFFFF0000FFFFFF8000
310
7FFF0000FFFFFF80007FFF0003FFFFFFFFC0007FFFFFC00070008000FFFFFFC0
310
00FFFF000000FFF8000007FFFF80007F8000FFFFFF8000F8000FFFFFF8000FF8
310
000001FFFE0000007FFFFFF0001FFFFFFE0001FFFFFFC0003FFE0001FFFFFFC0
310
003FFF0003FFFFFFFFC0007FFFFFE00070008000FFFFFFC0007FFF0000007FF8
310
000003FFFF80007F0001FFFFFF8000F8000FFFFFF8000FF8000001FFFE000000
310
7FFFFFF0001FFFFFFE0001FFFFFFC0003FFE0001FFFFFFC0003FFF0003FFFFFF
310
FFC000FFFFFFE00070008000FFFFFFC0007FFF0000007FF8000003FFFF80007F
310
0001FFFFFF8000F8001FFFFFF8000FF8000001FFFE0000007FFFFFF0001FFFFF
310
FE0003FFFFFFE0003FFE0003FFFFFFE0003FFF0003FFFFFFFFC000FFFFFFE000
310
70008000FFFFFFC0007FFE0000007FF8000003FFFF80007F0001FFFFFF8000F0
310
001FFFFFF8000FF8000001FFFE0000007FFFFFF0001FFFFFFC0003FFFFFFE000
310
1FFC0003FFFFFFE0001FFF0003FFFFFFFFC000FFFFFFC00070008000FFFFFF80
310
007FFE0000007FF0000003FFFF80007F0001FFFFFF0000F0001FFFFFF8000FF8
310
000001FFFE0000007FFFFFF0001FFFFFFC0007FFFFFFF0001FFC0007FFFFFFF0
310
001FFF0003FFFFFFFFC000FFFFFFC00070008001FFFFFF0000FFFE0000003FF0
310
000001FFFF80007F0001FFFFFF0000F8001FFFFFF0000FF8000001FFFE000000
310
7FFFFFF0001FFFFFFC0007FFFFFFF0001FFC0007FFFFFFF0001FFF0003FFFFFF
310
FFC001FFFFFF80007000FFFFFFFFFE0000FFFE0008003FF0008001FFFF80007F
310
FFFFFFFFFC0000FFFFFFFFFFE0000FF8000001FFFE0000007FFFFFF0001FFFFF
310
F8000FFFFFFFF8000FF8000FFFFFFFF8000FFF0003FFFFFFFFFFFFFFFFFF0000
310
7000FFFFFFFFFC0000FFFC0008003FF0008001FFFF80007FFFFFFFFFF80001FF
310
FFFFFFFF80000FF8000001FFFE0000007FFFFFF0001FFFFFF8000FFFFFFFF800
310
0FF8000FFFFFFFF8000FFF0003FFFFFFFFFFFFFFFFFE0000F000FFFFFFFFE000
310
00FFFC000C003FE000C001FFFF80007FFFFFFFFFC00001FFFFFFFFFE00001FF8
310
000001FFFE0000007FFFFFF0001FFFFFF8000FFFFFFFF8000FF8000FFFFFFFF8
310
000FFF0003FFFFFFFFFFFFFFFFF00000F000FFFFFFFE000001FFFC000C001FE0
310
00C000FFFF80007FFFFFFFFE000001FFFFFFFFE000001FF80FFFFFFFFFFFFFC0
310
7FFFFFF0001FFFFFF8000FFFFFFFF8000FF8000FFFFFFFF8000FFF0003FFFFFF
310
FFFFFFFFFF800000F000FFFFFFC0000001FFFC001C001FE001C000FFFF80007F
310
FFFFFF80000003FFFFFFF80000001FF80FFFFFFFFFFFFFC07FFFFFF0001FFFFF
310
F8001FFFFFFFFC000FF8001FFFFFFFFC000FFF0003FFFFFFFFFFFFFFF0000001
310
F000FFFFF800000001FFF8001C001FE001C000FFFF80007FFFFFF800000003FF
310
FFFF800000003FF80FFFFFFFFFFFFFC07FFFFFF0001FFFFFF8001FFFFFFFFC00
310
0FF8001FFFFFFFFC000FFF0003FFFFFFFFFFFFFE00000001F000FFFFC0000000
310
03FFF8001E001FC001E000FFFF80007FFFFF8000000007FFFFFC000000003FF8
310
0FFFFFFFFFFFFFC07FFFFFF0001FFFFFF8001FFFFFFFFC000FF8001FFFFFFFFC
310
000FFF0003FFFFFFFFFFFFE000000003F000FFFE0000000007FFF8001E000FC0
310
01E0007FFF80007FFFFE0000000007FFFFE0000000007FF80FFFFFFFFFFFFFC0
310
7FFFFFF0001FFFFFF0001FFFFFFFFC0007F0001FFFFFFFFC0007FF0003FFFFFF
310
FFFFFF0000000003F000FFF80000000007FFF8001E000FC003E0007FFF80007F
310
FFF0000000000FFFFF8000000000FFF80FFFFFFFFFFFFFC07FFFFFF0001FFFFF
310
F0001FFFFFFFFC0007F0001FFFFFFFFC0007FF0003FFFFFFFFFFFC0000000007
310
F000FFE0000000000FFFF0003E000FC003E0007FFF80007FFFC0000000001FFF
310
FE0000000001FFF80FFFFFFFFFFFFFC07FFFFFF0001FFFFFF0001FFFFFFFFC00
310
07F0001FFFFFFFFC0007FF0003FFFFFFFFFFF0000000000FF000FFC000000000
310
1FFFF0003F000F8003F0003FFF80007FFF80000000003FFFF80000000003FFF8
310
0FFFFFFFFFFFFFC07FFFFFF0001FFFFFF0001FFFFFFFFC0007F0001FFFFFFFFC
310
0007FF0003FFFFFFFFFFE0000000001FF000FF00000000007FFFF0003F000780
310
03F0003FFF80007FFF00000000007FFFF00000000007FFF80FFFFFFFFFFFFFC0
310
7FFFFFF0001FFFFFF0001FFFFFFFFC0007F0001FFFFFFFFC0007FF0003FFFFFF
310
FFFF80000000007FF000FE0000000000FFFFE0003F00078007F0003FFF80007F
310
FE0000000001FFFFE0000000001FFFF80FFFFFFFFFFFFFC07FFFFFF0001FFFFF
310
F0001FFFFFFFFC0007F0001FFFFFFFFC0007FF0003FFFFFFFFFF0000000000FF
310
F000FC0000000003FFFFE0007F00078007F0003FFF80007FFC0000000007FFFF
310
C0000000007FFFF80FFFFFFFFFFFFFC07FFFFFF0001FFFFFF8001FFFFFFFFC00
310
0FF8001FFFFFFFFC000FFF0003FFFFFFFFFE0000000003FFF000FC000000000F
310
FFFFE0007F80070007F8001FFF80007FF8000000001FFFFF8000000001FFFFF8
310
0FFFFFFFFFFFFFC07FFFFFF0001FFFFFF8001FFFFFFFFC000FF8001FFFFFFFFC
310
000FFF0003FFFFFFFFFC000000000FFFF000F8000000007FFFFFE0007F800700
310
07F8001FFF80007FF000000000FFFFFF800000000FFFFFF80FFFFFFFFFFFFFC0
310
7FFFFFF0001FFFFFF8000FFFFFFFF8000FF8000FFFFFFFF8000FFF0003FFFFFF
310
FFFC000000007FFFF000F800000007FFFFFFC0007F8003000FF8001FFF80007F
310
F000000007FFFFFF000000007FFFFFF80FFFFFFFFFFFFFC07FFFFFF0001FFFFF
310
F8000FFFFFFFF8000FF8000FFFFFFFF8000FFF0003FFFFFFFFF80000000FFFFF
310
F000F0000000FFFFFFFFC000FF8003000FF8001FFF80007FE0000000FFFFFFFF
310
0000000FFFFFFFF8000001FFFE0000007FFFFFF0001FFFFFF8000FFFFFFFF800
310
0FF8000FFFFFFFF8000FFF0003FFFFFFFFF8000000FFFFFFF000F000000FFFFF
310
FFFFC000FFC002000FF8000FFF80007FE000001FFFFFFFFE000001FFFFFFFFF8
310
000001FFFE0000007FFFFFF0001FFFFFF8000FFFFFFFF8000FF8000FFFFFFFF8
310
000FFF0003FFFFFFFFF000001FFFFFFFF000E00000FFFFFFFFFFC000FFC00200
310
0FFC000FFF80007FE00001FFFFFFFFFE00001FFFFFFFFFF8000001FFFE000000
310
7FFFFFF0001FFFFFFC000FFFFFFFF8001FFC000FFFFFFFF8001FFF0003FFFFFF
310
FFF00001FFFFFFFFF000E00007FFFFFFFFFF8000FFC000001FFC000FFF80007F
310
C0000FFFFFFFFFFE0000FFFFFFFFFFF8000001FFFE0000007FFFFFF0001FFFFF
310
FC0007FFFFFFF0001FFC0007FFFFFFF0001FFF0003FFFFFFFFF00007FFFFFFFF
310
F000E0001FFFFFFFFFFF8000FFC000001FFC000FFF80007FC0003FFFFFFFFFFE
310
0001FFFFFFFFFFF8000001FFFE0000007FFFFFF0001FFFFFFC0007FFFFFFF000
310
1FFC0007FFFFFFF0001FFF0003FFFFFFFFF0001FFFFFFFFFF000E0003FFFFF00
310
03FF8001FFE000001FFC0007FF80007FC0007FFFFF0007FC0003FFFFF0003FF8
310
000001FFFE0000007FFFFFF0001FFFFFFC0003FFFFFFE0001FFC0003FFFFFFE0
310
001FFF0003FFFFFFFFF0003FFFFFFFFFF000E0003FFFFF0001FF8001FFE00000
310
1FFE0007FF80007FC0007FFFFE0003FC0007FFFFE0003FF8000001FFFE000000
310
7FFFFFF0001FFFFFFE0003FFFFFFE0003FFE0003FFFFFFE0003FFF0003FFFFFF
310
FFF0003FFFFF8001F000E0003FFFFF0001FF0001FFE000001FFE0007FF80007F
310
C0007FFFFE0003FC0007FFFFE0003FF8000001FFFE0000007FFFFFF0001FFFFF
310
FE0001FFFFFFC0003FFE0001FFFFFFC0003FFF0003FFFFFFFFF0003FFFFF0001
310
F000E0003FFFFF0003FF0001FFE000003FFE0007FF80007FC0007FFFFE0003FC
310
0007FFFFE0003FF8000001FFFE0000007FFFFFF0001FFFFFFF0001FFFFFFC000
310
7FFF0001FFFFFFC0007FFF0003FFFFFFFFF0003FFFFF0001F000E0003FFFFE00
310
03FF0003FFF000003FFE0003FF80007FC0007FFFFC0003FE0007FFFFE0003FF8
310
000001FFFE0000007FFFFFF0001FFFFFFF0000FFFFFF80007FFF0000FFFFFF80
310
007FFF0003FFFFFFFFF0003FFFFF0001F000E0003FFFFE0003FF0003FFF00000
310
3FFF0003FF80007FC0007FFFFC0007FE0007FFFFC0003FF8000001FFFE000000
310
7FFFFFF0001FFFFFFF80007FFFFF0000FFFF80007FFFFF0000FFFF0003FFFFFF
310
FFF0003FFFFF0003F000E0003FFFFC0003FE0003FFF000003FFF0003FF80007F
310
E0003FFFF80007FE0003FFFFC0007FF8000001FFFE0000007FFFFFF0001FFFFF
310
FF80003FFFFE0000FFFF80003FFFFE0000FFFF0003FFFFFFFFF0001FFFFE0003
310
F000F0001FFFF80003FE0003FFF000007FFF0001FF80007FE0003FFFF00007FE
310
0001FFFF80007FF8000001FFFE0000007FFFFFF0001FFFFFFFC0000FFFF80001
310
FFFFC0000FFFF80001FFFF0003FFFFFFFFF0001FFFFC0003F000F0000FFFF000
310
07FE0007FFF800007FFF0001FF80007FE0001FFFE00007FF0000FFFE00007FF8
310
000001FFFE0000007FFFFFF0001FFFFFFFC00003FFE00001FFFFC00003FFE000
310
01FFFF0003FFFFFFFFF8000FFFF80003F000F00003FFC00007FC0007FFF80000
310
7FFF8001FF80007FF00007FF80000FFF00007FF80000FFF8000001FFFE000000
310
7F80000000000001FFE000003E000003FFFFE000003E000003FFFF0003FFFFFF
310
FFF80003FFE00007F000F800000000000FFC0007FFF800007FFF8001FF80007F
310
F000000000000FFF000000000000FFF8000001FFFE0000007F80000000000001
310
FFF0000000000007FFFFF0000000000007FFFF0003FFFFFFFFFC00007E000007
310
F000F800000000000FFC0007FFF80000FFFF8000FF80007FF800000000001FFF
310
800000000001FFF8000001FFFE0000007F80000000000001FFF800000000000F
310
FFFFF800000000000FFFFF0003FFFFFFFFFC00000000000FF000FC0000000000
310
1FFC0007FFFC0000FFFF8000FF80007FF800000000003FFFC00000000001FFF8
310
000001FFFE0000007F80000000000001FFF800000000000FFFFFF80000000000
310
0FFFFF0003FFFFFFFFFE00000000001FF000FE00000000003FF8000FFFFC0000
310
FFFF8000FF80007FFC00000000003FFFC00000000003FFF8000001FFFE000000
310
7F80000000000001FFFC00000000001FFFFFFC00000000001FFFFF0003FFFFFF
310
FFFF00000000001FF000FF00000000003FF8000FFFFC0000FFFFC000FF80007F
310
FE00000000007FFFE00000000007FFF8000001FFFE0000007F80000000000001
310
FFFE00000000003FFFFFFE00000000003FFFFF0003FFFFFFFFFF80000000003F
310
F000FF80000000007FF8000FFFFC0001FFFFC0007F80007FFF0000000000FFFF
310
F0000000000FFFF800000000000000007F80000000000001FFFF8000000000FF
310
FFFFFF8000000000FFFFFF0003FFFFFFFFFFC0000000007FF000FFC000000000
310
FFF8000FFFFE0001FFFFC0007F80007FFF8000000001FFFFF8000000001FFFF8
310
00000000000000007F80000000000001FFFFC000000001FFFFFFFFC000000001
310
FFFFFF0003FFFFFFFFFFE000000000FFF000FFE000000003FFF0001FFFFE0001
310
FFFFC0007F80007FFFC000000007FFFFFE000000003FFFF80000000000000000
310
7F80000000000001FFFFE000000003FFFFFFFFE000000003FFFFFF0003FFFFFF
310
FFFFF000000003FFF000FFF80000000FFFF0001FFFFE0001FFFFE0007F80007F
310
FFF00000000FFFFFFF00000000FFFFF800000000000000007F80000000000001
310
FFFFF80000000FFFFFFFFFF80000000FFFFFFF0003FFFFFFFFFFFC0000000FFF
310
F000FFFE0000003FFFF0001FFFFE0003FFFFE0003F80007FFFFC0000003FFFFF
310
FFC0000003FFFFF800000000000000007F80000000000001FFFFFE0000003FFF
310
FFFFFFFE0000003FFFFFFF0003FFFFFFFFFFFF0000003FFFF000FFFF800000FF
310
FFF0001FFFFF0003FFFFE0003F80007FFFFF000001FFFFFFFFF800001FFFFFF8
310
00000000000000007F80000000000001FFFFFFC00001FFFFFFFFFFFFC00001FF
310
FFFFFF0003FFFFFFFFFFFFC00000FFFFF000FFFFF8000FFFFFFFFFFFFFFFFFFF
310
FFFFFFFFFFFFFFFFFFFFF0001FFFFFFFFFFF0000FFFFFFF80000000000000000
310
7FFFFFFFFFFFFFFFFFFFFFFC001FFFFFFFFFFFFFFC001FFFFFFFFFFFFFFFFFFF
310
FFFFFFFC001FFFFFF000FFFFFFFFFFFFFFFFFFFFFFFFFFFFFFFFFFFFFFFFFFFF
310
FFFFFFFFFFFFFFFFFFFFFFFFFFFFFFFFFFFFFFFFFFFFFFFFFFFFFFFFFFFFFFFF
310
FFFFFFFFFFFFFFFFFFFFFFFFFFFFFFFFFFFFFFFFFFFFFFFFFFFFFFFFFFFFFFFF
310
F000FFFFFFFFFFFFFFFFFFFFFFFFFFFFFFFFFFFFFFFFFFFFFFFFFFFFFFFFFFFF
310
FFFFFFFFFFFFFFFFFFFFFFFFFFFFFFFFFFFFFFFFFFFFFFFFFFFFFFFFFFFFFFFF
310
FFFFFFFFFFFFFFFFFFFFFFFFFFFFFFFFFFFFFFFFFFFFFFFFF000FFFFFFFFFFFF
310
FFFFFFFFFFFFFFFFFFFFFFFFFFFFFFFFFFFFFFFFFFFFFFFFFFFFFFFFFFFFFFFF
310
FFFFFFFFFFFFFFFFFFFFFFFFFFFFFFFFFFFFFFFFFFFFFFFFFFFFFFFFFFFFFFFF
310
FFFFFFFFFFFFFFFFFFFFFFFFFFFFFFFFF000FFFFFFFFFFFFFFFFFFFFFFFFFFFF
310
FFFFFFFFFFFFFFFFFFFFFFFFFFFFFFFFFFFFFFFFFFFFFFFFFFFFFFFFFFFFFFFF
310
FFFFFFFFFFFFFFFFFFFFFFFFFFFFFFFFFFFFFFFFFFFFFFFFFFFFFFFFFFFFFFFF
310
FFFFFFFFFFFFFFFFF000FFFFFFFFFFFFFFFFFFFFFFFFFFFFFFFFFFFFFFFFFFFF
310
FFFFFFFFFFFFFFFFFFFFFFFFFFFFFFFFFFFFFFFFFFFFFFFFFFFFFFFFFFFFFFFF
310
FFFFFFFFFFFFFFFFFFFFFFFFFFFFFFFFFFFFFFFFFFFFFFFFFFFFFFFFFFFFFFFF
310
F000FFFFFFFFFFFFFFFFFFFFFFFFFFFFFFFFFFFFFFFFFFFFFFFFFFFFFFFFFFFF
310
FFFFFFFFFFFFFFFFFFFFFFFFFFFFFFFFFFFFFFFFFFFFFFFFFFFFFFFFFFFFFFFF
310
FFFFFFFFFFFFFFFFFFFFFFFFFFFFFFFFFFFFFFFFFFFFFFFFF000FFFFFFFFFFFF
310
FFFFFFFFFFFFFFFFFFFFFFFFFFFFFFFFFFFFFFFFFFFFFFFFFFFFFFFFFFFFFFFF
310
FFFFFFFFFFFFFFFFFFFFFFFFFFFFFFFFFFFFFFFFFFFFFFFFFFFFFFFFFFFFFFFF
310
FFFFFFFFFFFFFFFFFFFFFFFFFFFFFFFFF000FFFFFFFFFFFFFFFFFFFFFFFFFFFF
310
FFFFFFFFFFFFFFFFFFFFFFFFFFFFFFFFFFFFFFFFFFFFFFFFFFFFFFFFFFFFFFFF
310
FFFFFFFFFFFFFFFFFFFFFFFFFFFFFFFFFFFFFFFFFFFFFFFFFFFFFFFFFFFFFFFF
310
FFFFFFFFFFFFFFFFF000FFFFFFFFFFFFFFFFFFFFFFFFFFFFFFFFFFFFFFFFFFFF
310
FFFFFFFFFFFFFFFFFFFFFFFFFFFFFFFFFFFFFFFFFFFFFFFFFFFFFFFFFFFFFFFF
310
FFFFFFFFFFFFFFFFFFFFFFFFFFFFFFFFFFFFFFFFFFFFFFFFFFFFFFFFFFFFFFFF
310
F000FFFFFFFFFFFFFFFFFFFFFFFFFFFFFFFFFFFFFFFFFFFFFFFFFFFFFFFFFFFF
310
FFFFFFFFFFFFFFFFFFFFFFFFFFFFFFFFFFFFFFFFFFFFFFFFFFFFFFFFFFFFFFFF
310
FFFFFFFFFFFFFFFFFFFFFFFFFFFFFFFFFFFFFFFFFFFFFFFFF000FFFFFFFFFFFF
310
FFFFFFFFFFFFFFFFFFFFFFFFFFFFFFFFFFFFFFFFFFFFFFFFFFFFFFFFFFFFFFFF
310
FFFFFFFFFFFFFFFFFFFFFFFFFFFFFFFFFFFFFFFFFFFFFFFFFFFFFFFFFFFFFFFF
310
FFFFFFFFFFFFFFFFFFFFFFFFFFFFFFFFF000FFFFFFFFFFFFFFFFFFFFFFFFFFFF
310
FFFFFFFFFFFFFFFFFFFFFFFFFFFFFFFFFFFFFFFFFFFFFFFFFFFFFFFFFFFFFFFF
310
FFFFFFFFFFFFFFFFFFFFFFFFFFFFFFFFFFFFFFFFFFFFFFFFFFFFFFFFFFFFFFFF
310
FFFFFFFFFFFFFFFFF000FFFFFFFFFFFFFFFFFFFFFFFFFFFFFFFFFFFFFFFFFFFF
310
FFFFFFFFFFFFFFFFFFFFFFFFFFFFFFFFFFFFFFFFFFFFFFFFFFFFFFFFFFFFFFFF
310
FFFFFFFFFFFFFFFFFFFFFFFFFFFFFFFFFFFFFFFFFFFFFFFFFFFFFFFFFFFFFFFF
310
F000FFFFFFFFFFFFFFFFFFFFFFFFFFFFFFFFFFFFFFFFFFFFFFFFFFFFFFFFFFFF
310
FFFFFFFFFFFFFFFFFFFFFFFFFFFFFFFFFFFFFFFFFFFFFFFFFFFFFFFFFFFFFFFF
310
FFFFFFFFFFFFFFFFFFFFFFFFFFFFFFFFFFFFFFFFFFFFFFFFF000FFFFFFFFFFFF
310
FFFFFFFFFFFFFFFFFFFFFFFFFFFFFFFFFFFFFFFFFFFFFFFFFFFFFFFFFFFFFFFF
310
FFFFFFFFFFFFFFFFFFFFFFFFFFFFFFFFFFFFFFFFFFFFFFFFFFFFFFFFFFFFFFFF
310
FFFFFFFFFFFFFFFFFFFFFFFFFFFFFFFFF000FFFFFFFFFFFFFFFFFFFFFFFFFFFF
310
FFFFFFFFFFFFFFFFFFFFFFFFFFFFFFFFFFFFFFFFFFFFFFFFFFFFFFFFFFFFFFFF
310
FFFFFFFFFFFFFFFFFFFFFFFFFFFFFFFFFFFFFFFFFFFFFFFFFFFFFFFFFFFFFFFF
310
FFFFFFFFFFFFFFFFF000FFFFFFFFFFFFFFFFFFFFFFFFFFFFFFFFFFFFFFFFFFFF
310
FFFFFFFFFFFFFFFFFFFFFFFFFFFFFFFFFFFFFFFFFFFFFFFFFFFFFFFFFFFFFFFF
310
FFFFFFFFFFFFFFFFFFFFFFFFFFFFFFFFFFFFFFFFFFFFFFFFFFFFFFFFFFFFFFFF
310
F000FFFFFFFFFFFFFFFFFFFFFFFFFFFFFFFFFFFFFFFFFFFFFFFFFFFFFFFFFFFF
310
FFFFFFFFFFFFFFFFFFFFFFFFFFFFFFFFFFFFFFFFFFFFFFFFFFFFFFFFFFFFFFFF
310
FFFFFFFFFFFFFFFFFFFFFFFFFFFFFFFFFFFFFFFFFFFFFFFFF000FFFFFFFFFFFF
310
FFFFFFFFFFFFFFFFFFFFFFFFFFFFFFFFFFFFFFFFFFFFFFFFFFFFFFFFFFFFFFFF
310
FFFFFFFFFFFFFFFFFFFFFFFFFFFFFFFFFFFFFFFFFFFFFFFFFFFFFFFFFFFFFFFF
310
FFFFFFFFFFFFFFFFFFFFFFFFFFFFFFFFF000FFFFFFFFFFFFFFFFFFFFFFFFFFFF
310
FFFFFFFFFFFFFFFFFFFFFFFFFFFFFFFFFFFFFFFFFFFFFFFFFFFFFFFFFFFFFFFF
310
FFFFFFFFFFFFFFFFFFFFFFFFFFFFFFFFFFFFFFFFFFFFFFFFFFFFFFFFFFFFFFFF
310
FFFFFFFFFFFFFFFFF000FFFFFFFFFFFFFFFFFFFFFFFFFFFFFFFFFFFFFFFFFFFF
310
FFFFFFFFFFFFFFFFFFFFFFFFFFFFFFFFFFFFFFFFFFFFFFFFFFFFFFFFFFFFFFFF
310
FFFFFFFFFFFFFFFFFFFFFFFFFFFFFFFFFFFFFFFFFFFFFFFFFFFFFFFFFFFFFFFF
310
F000FFFFFFFFFFFFFFFFFFFFFFFFFFFFFFFFFFFFFFFFFFFFFFFFFFFFFFFFFFFF
310
FFFFFFFFFFFFFFFFFFFFFFFFFFFFFFFFFFFFFFFFFFFFFFFFFFFFFFFFFFFFFFFF
310
FFFFFFFFFFFFFFFFFFFFFFFFFFFFFFFFFFFFFFFFFFFFFFFFF000FFFFFFFFFFFF
310
FFFFFFFFFFFFFFFFFFFFFFFFFFFFFFFFFFFFFFFFFFFFFFFFFFFFFFFFFFFFFFFF
310
FFFFFFFFFFFFFFFFFFFFFFFFFFFFFFFFFFFFFFFFFFFFFFFFFFFFFFFFFFFFFFFF
310
FFFFFFFFFFFFFFFFFFFFFFFFFFFFFFFFF0000000000000000000000000000000
310
0000000000000000000000000000000000000000000000000000000000000000
310
0000000000000000000000000000000000000000000000000000000000000000
310
0000000000000000000000000000000000000000000000000000000000000000
310
0000000000000000000000000000000000000000000000000000000000000000
310
0000000000000000000000000000000000000000000000000000000000000000
310
0000000000000000000000000000000000000000000000000000000000000000
310
0000000000000000000000000000000000000000000000000000000000000000
310
0000000000000000000000000000000000000000000000000000000000000000
310
0000000000000000000000000000000000000000000000000000000000000000
310
0000000000000000000000000000000000000000000000000000000000000000
310
0000000000000000000000000000000000000000000000000000000000000000
310
0000000000000000000000000000000000000000000000000000000000000000
310
0000000000000000000000000000000000000000000000000000000000000000
310
0000000000000000000000000000000000000000000000000000000000000000
310
0000000000000000000000000000000000000000000000000000000000000000
  1
OLE
  0
ENDSEC
  0
SECTION
  2
OBJECTS
  0
DICTIONARY
  5
C
330
0
100
AcDbDictionary
281
     1
  3
ACAD_GROUP
350
D
  3
ACAD_LAYOUT
350
1A
  3
ACAD_MLINESTYLE
350
17
  3
ACAD_PLOTSETTINGS
350
19
  3
ACAD_PLOTSTYLENAME
350
E
  3
ACAD_SCALELIST
350
47
  0
DICTIONARY
  5
D
102
{ACAD_REACTORS
330
C
102
}
330
C
100
AcDbDictionary
281
     1
  0
DICTIONARY
  5
1A
102
{ACAD_REACTORS
330
C
102
}
330
C
100
AcDbDictionary
281
     1
  3
Layout1
350
1E
  3
Layout2
350
26
  3
Model
350
22
  0
DICTIONARY
  5
17
102
{ACAD_REACTORS
330
C
102
}
330
C
100
AcDbDictionary
281
     1
  3
Standard
350
18
  0
DICTIONARY
  5
19
102
{ACAD_REACTORS
330
C
102
}
330
C
100
AcDbDictionary
281
     1
  0
ACDBDICTIONARYWDFLT
  5
E
102
{ACAD_REACTORS
330
C
102
}
330
C
100
AcDbDictionary
281
     1
  3
Normal
350
F
100
AcDbDictionaryWithDefault
340
F
  0
DICTIONARY
  5
47
102
{ACAD_REACTORS
330
C
102
}
330
C
100
AcDbDictionary
281
     1
  3
A0
350
48
  3
A1
350
49
  3
A2
350
4A
  3
A3
350
4B
  3
A4
350
4C
  3
A5
350
4D
  3
A6
350
4E
  3
A7
350
4F
  3
A8
350
50
  3
A9
350
51
  3
B0
350
52
  3
B1
350
53
  3
B2
350
54
  3
B3
350
55
  3
B4
350
56
  3
B5
350
57
  3
B6
350
58
  3
B7
350
59
  3
B8
350
5A
  3
B9
350
5B
  3
C0
350
5C
  3
C1
350
5D
  3
C2
350
5E
  3
C3
350
5F
  3
C4
350
60
  3
C5
350
61
  3
C6
350
62
  3
C7
350
63
  3
C8
350
64
  3
C9
350
65
  3
D0
350
66
  3
D1
350
67
  3
D2
350
68
  0
LAYOUT
  5
1E
102
{ACAD_REACTORS
330
1A
102
}
330
1A
100
AcDbPlotSettings
  1

  2
none_device
  4

  6

 40
0.0
 41
0.0
 42
0.0
 43
0.0
 44
0.0
 45
0.0
 46
0.0
 47
0.0
 48
0.0
 49
0.0
140
0.0
141
0.0
142
1.0
143
1.0
 70
   688
 72
     1
 73
     0
 74
     5
  7

 75
    16
147
1.0
148
0.0
149
0.0
100
AcDbLayout
  1
Layout1
 70
     1
 71
     1
 10
0.0
 20
0.0
 11
420.0
 21
297.0
 12
0.0
 22
0.0
 32
0.0
 14
1.0000000000E+20
 24
1.0000000000E+20
 34
1.0000000000E+20
 15
-1.0000000000E+20
 25
-1.0000000000E+20
 35
-1.0000000000E+20
146
0.0
 13
0.0
 23
0.0
 33
0.0
 16
1.0
 26
0.0
 36
0.0
 17
0.0
 27
1.0
 37
0.0
 76
     0
330
1B
  0
LAYOUT
  5
26
102
{ACAD_REACTORS
330
1A
102
}
330
1A
100
AcDbPlotSettings
  1

  2
none_device
  4

  6

 40
0.0
 41
0.0
 42
0.0
 43
0.0
 44
0.0
 45
0.0
 46
0.0
 47
0.0
 48
0.0
 49
0.0
140
0.0
141
0.0
142
1.0
143
1.0
 70
   688
 72
     1
 73
     0
 74
     5
  7

 75
    16
147
1.0
148
0.0
149
0.0
100
AcDbLayout
  1
Layout2
 70
     1
 71
     2
 10
0.0
 20
0.0
 11
0.0
 21
0.0
 12
0.0
 22
0.0
 32
0.0
 14
0.0
 24
0.0
 34
0.0
 15
0.0
 25
0.0
 35
0.0
146
0.0
 13
0.0
 23
0.0
 33
0.0
 16
1.0
 26
0.0
 36
0.0
 17
0.0
 27
1.0
 37
0.0
 76
     0
330
23
  0
LAYOUT
  5
22
102
{ACAD_REACTORS
330
1A
102
}
330
1A
100
AcDbPlotSettings
  1

  2
none_device
  4
Letter_(8.50_x_11.00_Inches)
  6

 40
6.35
 41
6.35
 42
6.35000508
 43
6.35000508
 44
215.9
 45
279.4
 46
0.0
 47
0.0
 48
0.0
 49
0.0
140
0.0
141
0.0
142
1.0
143
1.0
 70
  1712
 72
     1
 73
     0
 74
     0
  7

 75
     0
147
1.0
148
0.0
149
0.0
100
AcDbLayout
  1
Model
 70
     1
 71
     0
 10
0.0
 20
0.0
 11
297.0
 21
210.0
 12
0.0
 22
0.0
 32
0.0
 14
0.0
 24
0.0
 34
0.0
 15
297.0
 25
210.0
 35
0.0
146
0.0
 13
0.0
 23
0.0
 33
0.0
 16
1.0
 26
0.0
 36
0.0
 17
0.0
 27
1.0
 37
0.0
 76
     0
330
1F
331
29
  0
MLINESTYLE
  5
18
102
{ACAD_REACTORS
330
17
102
}
330
17
100
AcDbMlineStyle
  2
Standard
 70
     0
  3

 62
   256
 51
90.0
 52
90.0
 71
     2
 49
0.5
 62
   256
  6
BYLAYER
 49
-0.5
 62
   256
  6
BYLAYER
  0
ACDBPLACEHOLDER
  5
F
102
{ACAD_REACTORS
330
E
102
}
330
E
  0
SCALE
  5
48
102
{ACAD_REACTORS
330
47
102
}
330
47
100
AcDbScale
 70
     0
300
1:1
140
1.0
141
1.0
290
     1
  0
SCALE
  5
49
102
{ACAD_REACTORS
330
47
102
}
330
47
100
AcDbScale
 70
     0
300
1:2
140
1.0
141
2.0
290
     0
  0
SCALE
  5
4A
102
{ACAD_REACTORS
330
47
102
}
330
47
100
AcDbScale
 70
     0
300
1:4
140
1.0
141
4.0
290
     0
  0
SCALE
  5
4B
102
{ACAD_REACTORS
330
47
102
}
330
47
100
AcDbScale
 70
     0
300
1:5
140
1.0
141
5.0
290
     0
  0
SCALE
  5
4C
102
{ACAD_REACTORS
330
47
102
}
330
47
100
AcDbScale
 70
     0
300
1:8
140
1.0
141
8.0
290
     0
  0
SCALE
  5
4D
102
{ACAD_REACTORS
330
47
102
}
330
47
100
AcDbScale
 70
     0
300
1:10
140
1.0
141
10.0
290
     0
  0
SCALE
  5
4E
102
{ACAD_REACTORS
330
47
102
}
330
47
100
AcDbScale
 70
     0
300
1:16
140
1.0
141
16.0
290
     0
  0
SCALE
  5
4F
102
{ACAD_REACTORS
330
47
102
}
330
47
100
AcDbScale
 70
     0
300
1:20
140
1.0
141
20.0
290
     0
  0
SCALE
  5
50
102
{ACAD_REACTORS
330
47
102
}
330
47
100
AcDbScale
 70
     0
300
1:30
140
1.0
141
30.0
290
     0
  0
SCALE
  5
51
102
{ACAD_REACTORS
330
47
102
}
330
47
100
AcDbScale
 70
     0
300
1:40
140
1.0
141
40.0
290
     0
  0
SCALE
  5
52
102
{ACAD_REACTORS
330
47
102
}
330
47
100
AcDbScale
 70
     0
300
1:50
140
1.0
141
50.0
290
     0
  0
SCALE
  5
53
102
{ACAD_REACTORS
330
47
102
}
330
47
100
AcDbScale
 70
     0
300
1:100
140
1.0
141
100.0
290
     0
  0
SCALE
  5
54
102
{ACAD_REACTORS
330
47
102
}
330
47
100
AcDbScale
 70
     0
300
2:1
140
2.0
141
1.0
290
     0
  0
SCALE
  5
55
102
{ACAD_REACTORS
330
47
102
}
330
47
100
AcDbScale
 70
     0
300
4:1
140
4.0
141
1.0
290
     0
  0
SCALE
  5
56
102
{ACAD_REACTORS
330
47
102
}
330
47
100
AcDbScale
 70
     0
300
8:1
140
8.0
141
1.0
290
     0
  0
SCALE
  5
57
102
{ACAD_REACTORS
330
47
102
}
330
47
100
AcDbScale
 70
     0
300
10:1
140
10.0
141
1.0
290
     0
  0
SCALE
  5
58
102
{ACAD_REACTORS
330
47
102
}
330
47
100
AcDbScale
 70
     0
300
100:1
140
100.0
141
1.0
290
     0
  0
SCALE
  5
59
102
{ACAD_REACTORS
330
47
102
}
330
47
100
AcDbScale
 70
     0
300
1/128" = 1'-0"
140
0.0078125
141
12.0
290
     0
  0
SCALE
  5
5A
102
{ACAD_REACTORS
330
47
102
}
330
47
100
AcDbScale
 70
     0
300
1/64" = 1'-0"
140
0.015625
141
12.0
290
     0
  0
SCALE
  5
5B
102
{ACAD_REACTORS
330
47
102
}
330
47
100
AcDbScale
 70
     0
300
1/32" = 1'-0"
140
0.03125
141
12.0
290
     0
  0
SCALE
  5
5C
102
{ACAD_REACTORS
330
47
102
}
330
47
100
AcDbScale
 70
     0
300
1/16" = 1'-0"
140
0.0625
141
12.0
290
     0
  0
SCALE
  5
5D
102
{ACAD_REACTORS
330
47
102
}
330
47
100
AcDbScale
 70
     0
300
3/32" = 1'-0"
140
0.09375
141
12.0
290
     0
  0
SCALE
  5
5E
102
{ACAD_REACTORS
330
47
102
}
330
47
100
AcDbScale
 70
     0
300
1/8" = 1'-0"
140
0.125
141
12.0
290
     0
  0
SCALE
  5
5F
102
{ACAD_REACTORS
330
47
102
}
330
47
100
AcDbScale
 70
     0
300
3/16" = 1'-0"
140
0.1875
141
12.0
290
     0
  0
SCALE
  5
60
102
{ACAD_REACTORS
330
47
102
}
330
47
100
AcDbScale
 70
     0
300
1/4" = 1'-0"
140
0.25
141
12.0
290
     0
  0
SCALE
  5
61
102
{ACAD_REACTORS
330
47
102
}
330
47
100
AcDbScale
 70
     0
300
3/8" = 1'-0"
140
0.375
141
12.0
290
     0
  0
SCALE
  5
62
102
{ACAD_REACTORS
330
47
102
}
330
47
100
AcDbScale
 70
     0
300
1/2" = 1'-0"
140
0.5
141
12.0
290
     0
  0
SCALE
  5
63
102
{ACAD_REACTORS
330
47
102
}
330
47
100
AcDbScale
 70
     0
300
3/4" = 1'-0"
140
0.75
141
12.0
290
     0
  0
SCALE
  5
64
102
{ACAD_REACTORS
330
47
102
}
330
47
100
AcDbScale
 70
     0
300
1" = 1'-0"
140
1.0
141
12.0
290
     0
  0
SCALE
  5
65
102
{ACAD_REACTORS
330
47
102
}
330
47
100
AcDbScale
 70
     0
300
1-1/2" = 1'-0"
140
1.5
141
12.0
290
     0
  0
SCALE
  5
66
102
{ACAD_REACTORS
330
47
102
}
330
47
100
AcDbScale
 70
     0
300
3" = 1'-0"
140
3.0
141
12.0
290
     0
  0
SCALE
  5
67
102
{ACAD_REACTORS
330
47
102
}
330
47
100
AcDbScale
 70
     0
300
6" = 1'-0"
140
6.0
141
12.0
290
     0
  0
SCALE
  5
68
102
{ACAD_REACTORS
330
47
102
}
330
47
100
AcDbScale
 70
     0
300
1'-0" = 1'-0"
140
12.0
141
12.0
290
     0
  0
ENDSEC
  0
EOF
