  0
SECTION
  2
HEADER
  9
$ACADVER
  1
AC1015
  9
$ACADMAINTVER
 70
     6
  9
$DWGCODEPAGE
  3
ANSI_1252
  9
$INSBASE
 10
0.0
 20
0.0
 30
0.0
  9
$EXTMIN
 10
0.0
 20
0.0
 30
0.0
  9
$EXTMAX
 10
297.0
 20
210.0
 30
0.0
  9
$LIMMIN
 10
0.0
 20
0.0
  9
$LIMMAX
 10
297.0
 20
210.0
  9
$ORTHOMODE
 70
     0
  9
$REGENMODE
 70
     1
  9
$FILLMODE
 70
     1
  9
$QTEXTMODE
 70
     0
  9
$MIRRTEXT
 70
     1
  9
$LTSCALE
 40
1.0
  9
$ATTMODE
 70
     1
  9
$TEXTSIZE
 40
2.0
  9
$TRACEWID
 40
1.0
  9
$TEXTSTYLE
  7
Standard
  9
$CLAYER
  8
0
  9
$CELTYPE
  6
ByLayer
  9
$CECOLOR
 62
   256
  9
$CELTSCALE
 40
1.0
  9
$DISPSILH
 70
     0
  9
$DIMSCALE
 40
1.0
  9
$DIMASZ
 40
3.0
  9
$DIMEXO
 40
0.0
  9
$DIMDLI
 40
3.75
  9
$DIMRND
 40
0.0
  9
$DIMDLE
 40
0.0
  9
$DIMEXE
 40
1.0
  9
$DIMTP
 40
0.0
  9
$DIMTM
 40
0.0
  9
$DIMTXT
 40
2.0
  9
$DIMCEN
 40
2.5
  9
$DIMTSZ
 40
0.0
  9
$DIMTOL
 70
     0
  9
$DIMLIM
 70
     0
  9
$DIMTIH
 70
     1
  9
$DIMTOH
 70
     1
  9
$DIMSE1
 70
     0
  9
$DIMSE2
 70
     0
  9
$DIMTAD
 70
     1
  9
$DIMZIN
 70
     0
  9
$DIMBLK
  1

  9
$DIMASO
 70
     1
  9
$DIMSHO
 70
     1
  9
$DIMPOST
  1

  9
$DIMAPOST
  1

  9
$DIMALT
 70
     0
  9
$DIMALTD
 70
     3
  9
$DIMALTF
 40
0.0393700787
  9
$DIMLFAC
 40
1.0
  9
$DIMTOFL
 70
     1
  9
$DIMTVP
 40
0.0
  9
$DIMTIX
 70
     0
  9
$DIMSOXD
 70
     0
  9
$DIMSAH
 70
     0
  9
$DIMBLK1
  1

  9
$DIMBLK2
  1

  9
$DIMSTYLE
  2
ISO-25
  9
$DIMCLRD
 70
     0
  9
$DIMCLRE
 70
     0
  9
$DIMCLRT
 70
     0
  9
$DIMTFAC
 40
1.0
  9
$DIMGAP
 40
1.524
  9
$DIMJUST
 70
     0
  9
$DIMSD1
 70
     0
  9
$DIMSD2
 70
     0
  9
$DIMTOLJ
 70
     0
  9
$DIMTZIN
 70
     0
  9
$DIMALTZ
 70
     0
  9
$DIMALTTZ
 70
     0
  9
$DIMUPT
 70
     0
  9
$DIMDEC
 70
     2
  9
$DIMTDEC
 70
     3
  9
$DIMALTU
 70
     2
  9
$DIMALTTD
 70
     3
  9
$DIMTXSTY
  7
Standard
  9
$DIMAUNIT
 70
     0
  9
$DIMADEC
 70
     2
  9
$DIMALTRND
 40
0.0
  9
$DIMAZIN
 70
     0
  9
$DIMDSEP
 70
    44
  9
$DIMATFIT
 70
     3
  9
$DIMFRAC
 70
     0
  9
$DIMLDRBLK
  1

  9
$DIMLUNIT
 70
     2
  9
$DIMLWD
 70
    -2
  9
$DIMLWE
 70
    -2
  9
$DIMTMOVE
 70
     0
  9
$LUNITS
 70
     2
  9
$LUPREC
 70
     2
  9
$SKETCHINC
 40
1.0
  9
$FILLETRAD
 40
10.0
  9
$AUNITS
 70
     0
  9
$AUPREC
 70
     2
  9
$MENU
  1
.
  9
$ELEVATION
 40
0.0
  9
$PELEVATION
 40
0.0
  9
$THICKNESS
 40
0.0
  9
$LIMCHECK
 70
     0
  9
$CHAMFERA
 40
0.0
  9
$CHAMFERB
 40
0.0
  9
$CHAMFERC
 40
0.0
  9
$CHAMFERD
 40
0.0
  9
$SKPOLY
 70
     0
  9
$TDCREATE
 40
2457668.350138333
  9
$TDUCREATE
 40
2457668.266805
  9
$TDUPDATE
 40
2457668.350139757
  9
$TDUUPDATE
 40
2457668.266806424
  9
$TDINDWG
 40
0.0000000116
  9
$TDUSRTIMER
 40
0.0000000116
  9
$USRTIMER
 70
     1
  9
$ANGBASE
 50
0.0
  9
$ANGDIR
 70
     0
  9
$PDMODE
 70
     0
  9
$PDSIZE
 40
-1.0
  9
$PLINEWID
 40
0.0
  9
$SPLFRAME
 70
     0
  9
$SPLINETYPE
 70
     6
  9
$SPLINESEGS
 70
     8
  9
$HANDSEED
  5
2CF
  9
$SURFTAB1
 70
     6
  9
$SURFTAB2
 70
     6
  9
$SURFTYPE
 70
     6
  9
$SURFU
 70
     6
  9
$SURFV
 70
     6
  9
$UCSBASE
  2

  9
$UCSNAME
  2

  9
$UCSORG
 10
0.0
 20
0.0
 30
0.0
  9
$UCSXDIR
 10
1.0
 20
0.0
 30
0.0
  9
$UCSYDIR
 10
0.0
 20
1.0
 30
0.0
  9
$UCSORTHOREF
  2

  9
$UCSORTHOVIEW
 70
     0
  9
$UCSORGTOP
 10
0.0
 20
0.0
 30
0.0
  9
$UCSORGBOTTOM
 10
0.0
 20
0.0
 30
0.0
  9
$UCSORGLEFT
 10
0.0
 20
0.0
 30
0.0
  9
$UCSORGRIGHT
 10
0.0
 20
0.0
 30
0.0
  9
$UCSORGFRONT
 10
0.0
 20
0.0
 30
0.0
  9
$UCSORGBACK
 10
0.0
 20
0.0
 30
0.0
  9
$PUCSBASE
  2

  9
$PUCSNAME
  2

  9
$PUCSORG
 10
0.0
 20
0.0
 30
0.0
  9
$PUCSXDIR
 10
1.0
 20
0.0
 30
0.0
  9
$PUCSYDIR
 10
0.0
 20
1.0
 30
0.0
  9
$PUCSORTHOREF
  2

  9
$PUCSORTHOVIEW
 70
     0
  9
$PUCSORGTOP
 10
0.0
 20
0.0
 30
0.0
  9
$PUCSORGBOTTOM
 10
0.0
 20
0.0
 30
0.0
  9
$PUCSORGLEFT
 10
0.0
 20
0.0
 30
0.0
  9
$PUCSORGRIGHT
 10
0.0
 20
0.0
 30
0.0
  9
$PUCSORGFRONT
 10
0.0
 20
0.0
 30
0.0
  9
$PUCSORGBACK
 10
0.0
 20
0.0
 30
0.0
  9
$USERI1
 70
     0
  9
$USERI2
 70
     0
  9
$USERI3
 70
     0
  9
$USERI4
 70
     0
  9
$USERI5
 70
     0
  9
$USERR1
 40
0.0
  9
$USERR2
 40
0.0
  9
$USERR3
 40
0.0
  9
$USERR4
 40
0.0
  9
$USERR5
 40
0.0
  9
$WORLDVIEW
 70
     1
  9
$SHADEDGE
 70
     3
  9
$SHADEDIF
 70
    70
  9
$TILEMODE
 70
     1
  9
$MAXACTVP
 70
    64
  9
$PINSBASE
 10
0.0
 20
0.0
 30
0.0
  9
$PLIMCHECK
 70
     0
  9
$PEXTMIN
 10
1.0000000000E+20
 20
1.0000000000E+20
 30
1.0000000000E+20
  9
$PEXTMAX
 10
-1.0000000000E+20
 20
-1.0000000000E+20
 30
-1.0000000000E+20
  9
$PLIMMIN
 10
0.0
 20
0.0
  9
$PLIMMAX
 10
420.0
 20
297.0
  9
$UNITMODE
 70
     0
  9
$VISRETAIN
 70
     1
  9
$PLINEGEN
 70
     0
  9
$PSLTSCALE
 70
     1
  9
$TREEDEPTH
 70
  3020
  9
$CMLSTYLE
  2
Standard
  9
$CMLJUST
 70
     0
  9
$CMLSCALE
 40
20.0
  9
$PROXYGRAPHICS
 70
     1
  9
$MEASUREMENT
 70
     1
  9
$CELWEIGHT
370
    -1
  9
$ENDCAPS
280
     0
  9
$JOINSTYLE
280
     0
  9
$LWDISPLAY
290
     1
  9
$INSUNITS
 70
     4
  9
$HYPERLINKBASE
  1

  9
$STYLESHEET
  1

  9
$XEDIT
290
     1
  9
$CEPSNTYPE
380
     0
  9
$PSTYLEMODE
290
     1
  9
$FINGERPRINTGUID
  2
{8986537A-F858-454A-87D7-F40F80346264}
  9
$VERSIONGUID
  2
{FAEB1C32-E019-11D5-929B-00C0DF256EC4}
  9
$EXTNAMES
290
     1
  9
$PSVPSCALE
 40
0.0
  9
$OLESTARTUP
290
     0
  0
ENDSEC
  0
SECTION
  2
CLASSES
  0
CLASS
  1
ACDBDICTIONARYWDFLT
  2
AcDbDictionaryWithDefault
  3
ObjectDBX Classes
 90
        0
280
     0
281
     0
  0
CLASS
  1
VISUALSTYLE
  2
AcDbVisualStyle
  3
ObjectDBX Classes
 90
     4095
280
     0
281
     0
  0
CLASS
  1
MATERIAL
  2
AcDbMaterial
  3
ObjectDBX Classes
 90
     1153
280
     0
281
     0
  0
CLASS
  1
SCALE
  2
AcDbScale
  3
ObjectDBX Classes
 90
     1153
280
     0
281
     0
  0
CLASS
  1
TABLESTYLE
  2
AcDbTableStyle
  3
ObjectDBX Classes
 90
     4095
280
     0
281
     0
  0
CLASS
  1
MLEADERSTYLE
  2
AcDbMLeaderStyle
  3
ACDB_MLEADERSTYLE_CLASS
 90
     4095
280
     0
281
     0
  0
CLASS
  1
SUN
  2
AcDbSun
  3
SCENEOE
 90
     1153
280
     0
281
     0
  0
CLASS
  1
ACDBPLACEHOLDER
  2
AcDbPlaceHolder
  3
ObjectDBX Classes
 90
        0
280
     0
281
     0
  0
CLASS
  1
LAYOUT
  2
AcDbLayout
  3
ObjectDBX Classes
 90
        0
280
     0
281
     0
  0
ENDSEC
  0
SECTION
  2
TABLES
  0
TABLE
  2
VPORT
  5
8
330
0
100
AcDbSymbolTable
 70
     1
  0
VPORT
  5
29
330
8
100
AcDbSymbolTableRecord
100
AcDbViewportTableRecord
  2
*Active
 70
     0
 10
0.0
 20
0.0
 11
1.0
 21
1.0
 12
148.5
 22
105.0
 13
0.0
 23
0.0
 14
10.0
 24
10.0
 15
10.0
 25
10.0
 16
0.0
 26
0.0
 36
1.0
 17
0.0
 27
0.0
 37
0.0
 40
210.0
 41
1.4142857143
 42
50.0
 43
0.0
 44
0.0
 50
0.0
 51
0.0
 71
     0
 72
  2000
 73
     1
 74
     3
 75
     0
 76
     0
 77
     0
 78
     0
281
     0
 65
     1
110
0.0
120
0.0
130
0.0
111
1.0
121
0.0
131
0.0
112
0.0
122
1.0
132
0.0
 79
     0
146
0.0
  0
ENDTAB
  0
TABLE
  2
LTYPE
  5
5
330
0
100
AcDbSymbolTable
 70
     6
  0
LTYPE
  5
14
330
5
100
AcDbSymbolTableRecord
100
AcDbLinetypeTableRecord
  2
ByBlock
 70
     0
  3

 72
    65
 73
     0
 40
0.0
  0
LTYPE
  5
15
330
5
100
AcDbSymbolTableRecord
100
AcDbLinetypeTableRecord
  2
ByLayer
 70
     0
  3

 72
    65
 73
     0
 40
0.0
  0
LTYPE
  5
16
330
5
100
AcDbSymbolTableRecord
100
AcDbLinetypeTableRecord
  2
Continuous
 70
     0
  3
Solid line
 72
    65
 73
     0
 40
0.0
  0
LTYPE
  5
6E
330
5
100
AcDbSymbolTableRecord
100
AcDbLinetypeTableRecord
  2
HIDDEN
 70
     0
  3
Hidden __ __ __ __ __ __ __ __ __ __ __ __ __ __
 72
    65
 73
     2
 40
1.905
 49
1.27
 74
     0
 49
-0.635
 74
     0
  0
LTYPE
  5
6F
330
5
100
AcDbSymbolTableRecord
100
AcDbLinetypeTableRecord
  2
PHANTOM
 70
     0
  3
Phantom ______  __  __  ______  __  __  ______
 72
    65
 73
     6
 40
12.7
 49
6.35
 74
     0
 49
-1.27
 74
     0
 49
1.27
 74
     0
 49
-1.27
 74
     0
 49
1.27
 74
     0
 49
-1.27
 74
     0
  0
LTYPE
  5
70
330
5
100
AcDbSymbolTableRecord
100
AcDbLinetypeTableRecord
  2
CENTER
 70
     0
  3
Center ____ _ ____ _ ____ _ ____ _ ____ _ ____
 72
    65
 73
     4
 40
10.16
 49
6.35
 74
     0
 49
-1.27
 74
     0
 49
1.27
 74
     0
 49
-1.27
 74
     0
  0
LTYPE
  5
71
330
5
100
AcDbSymbolTableRecord
100
AcDbLinetypeTableRecord
  2
CENTERX2
 70
     0
  3
Center (2x) ________  __  ________  __  _____
 72
    65
 73
     4
 40
20.32
 49
12.7
 74
     0
 49
-2.54
 74
     0
 49
2.54
 74
     0
 49
-2.54
 74
     0
  0
LTYPE
  5
72
330
5
100
AcDbSymbolTableRecord
100
AcDbLinetypeTableRecord
  2
DOT2
 70
     0
  3
Dot (.5x) ........................................
 72
    65
 73
     2
 40
0.635
 49
0.0
 74
     0
 49
-0.635
 74
     0
  0
ENDTAB
  0
TABLE
  2
LAYER
  5
2
330
0
100
AcDbSymbolTable
 70
     5
  0
LAYER
  5
10
330
2
100
AcDbSymbolTableRecord
100
AcDbLayerTableRecord
  2
0
 70
     0
 62
     7
  6
Continuous
370
    -3
390
F
  0
LAYER
  5
73
330
2
100
AcDbSymbolTableRecord
100
AcDbLayerTableRecord
  2
FORMAT
 70
     0
 62
     7
  6
Continuous
370
    -3
390
F
  0
LAYER
  5
74
330
2
100
AcDbSymbolTableRecord
100
AcDbLayerTableRecord
  2
VERMASSUNG
 70
     0
 62
     7
  6
Continuous
370
    -3
390
F
  0
LAYER
  5
75
330
2
100
AcDbSymbolTableRecord
100
AcDbLayerTableRecord
  2
KOPF_DÜNN
 70
     0
 62
     7
  6
Continuous
370
    -3
390
F
  0
LAYER
  5
76
330
2
100
AcDbSymbolTableRecord
100
AcDbLayerTableRecord
  2
KOPF_DICK
 70
     0
 62
     7
  6
Continuous
370
    15
390
F
  0
ENDTAB
  0
TABLE
  2
STYLE
  5
3
330
0
100
AcDbSymbolTable
 70
     2
  0
STYLE
  5
11
330
3
100
AcDbSymbolTableRecord
100
AcDbTextStyleTableRecord
  2
Standard
 70
     0
 40
0.0
 41
1.0
 50
0.0
 71
     0
 42
2.0
  3
txt
  4

  0
STYLE
  5
77
330
3
100
AcDbSymbolTableRecord
100
AcDbTextStyleTableRecord
  2
SLDTEXTSTYLE0
 70
     0
 40
0.0
 41
0.7
 50
0.0
 71
     0
 42
2.0
  3
TXT
  4

  0
ENDTAB
  0
TABLE
  2
VIEW
  5
6
330
0
100
AcDbSymbolTable
 70
     0
  0
ENDTAB
  0
TABLE
  2
UCS
  5
7
330
0
100
AcDbSymbolTable
 70
     0
  0
ENDTAB
  0
TABLE
  2
APPID
  5
9
330
0
100
AcDbSymbolTable
 70
     1
  0
APPID
  5
12
330
9
100
AcDbSymbolTableRecord
100
AcDbRegAppTableRecord
  2
ACAD
 70
     0
  0
ENDTAB
  0
TABLE
  2
DIMSTYLE
  5
A
330
0
100
AcDbSymbolTable
 70
     2
100
AcDbDimStyleTable
  0
DIMSTYLE
105
27
330
A
100
AcDbSymbolTableRecord
100
AcDbDimStyleTableRecord
  2
ISO-25
 70
     0
 41
2.5
 42
0.625
 43
3.75
 44
1.25
 73
     0
 74
     0
 77
     1
 78
     8
140
2.5
141
2.5
143
0.0393700787
147
0.625
171
     3
172
     1
178
     0
271
     2
272
     2
274
     3
278
    44
283
     0
284
     8
340
11
  0
DIMSTYLE
105
1D3
102
{ACAD_REACTORS
330
1D2
330
1DF
330
1EA
330
1F6
330
202
330
20C
102
}
330
A
100
AcDbSymbolTableRecord
100
AcDbDimStyleTableRecord
  2
SLDDIMSTYLE0
 70
     0
 41
3.0
 44
0.0
 45
0.000000001
 73
     0
 74
     0
 77
     1
 78
    12
 79
     3
140
2.0
147
0.5
173
     1
178
     0
271
     2
272
     3
276
     2
284
    12
340
77
  0
ENDTAB
  0
TABLE
  2
BLOCK_RECORD
  5
1
330
0
100
AcDbSymbolTable
 70
     7
  0
BLOCK_RECORD
  5
1F
330
1
100
AcDbSymbolTableRecord
100
AcDbBlockTableRecord
  2
*Model_Space
340
22
  0
BLOCK_RECORD
  5
1B
330
1
100
AcDbSymbolTableRecord
100
AcDbBlockTableRecord
  2
*Paper_Space
340
1E
  0
BLOCK_RECORD
  5
23
330
1
100
AcDbSymbolTableRecord
100
AcDbBlockTableRecord
  2
*Paper_Space0
340
26
  0
BLOCK_RECORD
  5
1D4
330
1
100
AcDbSymbolTableRecord
100
AcDbBlockTableRecord
  2
_D
340
0
  0
BLOCK_RECORD
  5
1E0
330
1
100
AcDbSymbolTableRecord
100
AcDbBlockTableRecord
  2
_D_1
340
0
  0
BLOCK_RECORD
  5
1EB
330
1
100
AcDbSymbolTableRecord
100
AcDbBlockTableRecord
  2
_D_2
340
0
  0
BLOCK_RECORD
  5
1F7
330
1
100
AcDbSymbolTableRecord
100
AcDbBlockTableRecord
  2
_D_3
340
0
  0
BLOCK_RECORD
  5
203
330
1
100
AcDbSymbolTableRecord
100
AcDbBlockTableRecord
  2
_D_4
340
0
  0
BLOCK_RECORD
  5
20D
330
1
100
AcDbSymbolTableRecord
100
AcDbBlockTableRecord
  2
_D_5
340
0
  0
ENDTAB
  0
ENDSEC
  0
SECTION
  2
BLOCKS
  0
BLOCK
  5
20
330
1F
100
AcDbEntity
  8
0
100
AcDbBlockBegin
  2
*Model_Space
 70
     0
 10
0.0
 20
0.0
 30
0.0
  3
*Model_Space
  1

  0
ENDBLK
  5
21
330
1F
100
AcDbEntity
  8
0
100
AcDbBlockEnd
  0
BLOCK
  5
1C
330
1B
100
AcDbEntity
 67
     1
  8
0
100
AcDbBlockBegin
  2
*Paper_Space
 70
     0
 10
0.0
 20
0.0
 30
0.0
  3
*Paper_Space
  1

  0
ENDBLK
  5
1D
330
1B
100
AcDbEntity
 67
     1
  8
0
100
AcDbBlockEnd
  0
BLOCK
  5
24
330
23
100
AcDbEntity
  8
0
100
AcDbBlockBegin
  2
*Paper_Space0
 70
     0
 10
0.0
 20
0.0
 30
0.0
  3
*Paper_Space0
  1

  0
ENDBLK
  5
25
330
23
100
AcDbEntity
  8
0
100
AcDbBlockEnd
  0
BLOCK
  5
1D5
330
1D4
100
AcDbEntity
  8
0
100
AcDbBlockBegin
  2
_D
 70
     0
 10
0.0
 20
0.0
 30
0.0
  3
_D
  1

  0
SOLID
  5
1D7
330
1D4
100
AcDbEntity
  8
VERMASSUNG
100
AcDbTrace
 10
91.6153215866
 20
76.0338368427
 30
0.0
 11
92.0653215866
 21
79.0338368427
 31
0.0
 12
91.1653215866
 22
79.0338368427
 32
0.0
 13
91.1653215866
 23
79.0338368427
 33
0.0
  0
SOLID
  5
1D8
330
1D4
100
AcDbEntity
  8
VERMASSUNG
100
AcDbTrace
 10
91.6153215866
 20
139.5338368427
 30
0.0
 11
91.1653215866
 21
136.5338368427
 31
0.0
 12
92.0653215866
 22
136.5338368427
 32
0.0
 13
92.0653215866
 23
136.5338368427
 33
0.0
  0
LINE
  5
1D9
330
1D4
100
AcDbEntity
  8
VERMASSUNG
100
AcDbLine
 10
182.6007226758
 20
76.0338368427
 30
0.0
 11
90.6153215866
 21
76.0338368427
 31
0.0
  0
LINE
  5
1DA
330
1D4
100
AcDbEntity
  8
VERMASSUNG
100
AcDbLine
 10
182.6007226758
 20
139.5338368427
 30
0.0
 11
90.6153215866
 21
139.5338368427
 31
0.0
  0
LINE
  5
1DB
330
1D4
100
AcDbEntity
  8
VERMASSUNG
100
AcDbLine
 10
91.6153215866
 20
76.0338368427
 30
0.0
 11
91.6153215866
 21
139.5338368427
 31
0.0
  0
MTEXT
  5
1DC
330
1D4
100
AcDbEntity
  8
VERMASSUNG
100
AcDbMText
 10
88.8371863304
 20
98.9809006944
 30
0.0
 40
2.0
 41
0.0
 71
     1
 72
     1
  1
ISO 40
  7
SLDTEXTSTYLE0
 11
3.391901413832837E-15
 21
1.0
 31
0.0
 73
     1
 44
1.0
  0
MTEXT
  5
1DD
330
1D4
100
AcDbEntity
  8
VERMASSUNG
100
AcDbMText
 10
89.0371862817
 20
108.1809008986
 30
0.0
 40
2.0
 41
0.0
 71
     1
 72
     1
  1
%%c
  7
SLDTEXTSTYLE0
 11
3.391901413832837E-15
 21
1.0
 31
0.0
 73
     1
 44
1.0
  0
MTEXT
  5
1DE
330
1D4
100
AcDbEntity
  8
VERMASSUNG
100
AcDbMText
 10
89.0371859906
 20
111.7887812299
 30
0.0
 40
2.0
 41
0.0
 71
     1
 72
     1
  1
63.5
  7
SLDTEXTSTYLE0
 11
3.391901413832837E-15
 21
1.0
 31
0.0
 73
     1
 44
1.0
  0
ENDBLK
  5
1D6
330
1D4
100
AcDbEntity
  8
0
100
AcDbBlockEnd
  0
BLOCK
  5
1E1
330
1E0
100
AcDbEntity
  8
0
100
AcDbBlockBegin
  2
_D_1
 70
     0
 10
0.0
 20
0.0
 30
0.0
  3
_D_1
  1

  0
SOLID
  5
1E3
330
1E0
100
AcDbEntity
  8
VERMASSUNG
100
AcDbTrace
 10
209.6704547177
 20
114.7838368427
 30
0.0
 11
209.2204547177
 21
111.7838368427
 31
0.0
 12
210.1204547177
 22
111.7838368427
 32
0.0
 13
210.1204547177
 23
111.7838368427
 33
0.0
  0
SOLID
  5
1E4
330
1E0
100
AcDbEntity
  8
VERMASSUNG
100
AcDbTrace
 10
209.6704547177
 20
100.7838368427
 30
0.0
 11
210.1204547177
 21
103.7838368427
 31
0.0
 12
209.2204547177
 22
103.7838368427
 32
0.0
 13
209.2204547177
 23
103.7838368427
 33
0.0
  0
LINE
  5
1E5
330
1E0
100
AcDbEntity
  8
VERMASSUNG
100
AcDbLine
 10
197.2507226758
 20
114.7838368427
 30
0.0
 11
210.6704547177
 21
114.7838368427
 31
0.0
  0
LINE
  5
1E6
330
1E0
100
AcDbEntity
  8
VERMASSUNG
100
AcDbLine
 10
197.2507226758
 20
100.7838368427
 30
0.0
 11
210.6704547177
 21
100.7838368427
 31
0.0
  0
LINE
  5
1E7
330
1E0
100
AcDbEntity
  8
VERMASSUNG
100
AcDbLine
 10
209.6704547177
 20
114.7838368427
 30
0.0
 11
209.6704547177
 21
100.7838368427
 31
0.0
  0
MTEXT
  5
1E8
330
1E0
100
AcDbEntity
  8
VERMASSUNG
100
AcDbMText
 10
207.0923191799
 20
104.6800325173
 30
0.0
 40
2.0
 41
0.0
 71
     1
 72
     1
  1
%%c
  7
SLDTEXTSTYLE0
 11
-7.044195017643634E-15
 21
1.0
 31
0.0
 73
     1
 44
1.0
  0
MTEXT
  5
1E9
330
1E0
100
AcDbEntity
  8
VERMASSUNG
100
AcDbMText
 10
207.0923191217
 20
108.2890047109
 30
0.0
 40
2.0
 41
0.0
 71
     1
 72
     1
  1
14
  7
SLDTEXTSTYLE0
 11
-7.044195017643634E-15
 21
1.0
 31
0.0
 73
     1
 44
1.0
  0
ENDBLK
  5
1E2
330
1E0
100
AcDbEntity
  8
0
100
AcDbBlockEnd
  0
BLOCK
  5
1EC
330
1EB
100
AcDbEntity
  8
0
100
AcDbBlockBegin
  2
_D_2
 70
     0
 10
0.0
 20
0.0
 30
0.0
  3
_D_2
  1

  0
SOLID
  5
1EE
330
1EB
100
AcDbEntity
  8
VERMASSUNG
100
AcDbTrace
 10
215.6704547177
 20
120.2838368427
 30
0.0
 11
215.2204547177
 21
117.2838368427
 31
0.0
 12
216.1204547177
 22
117.2838368427
 32
0.0
 13
216.1204547177
 23
117.2838368427
 33
0.0
  0
SOLID
  5
1EF
330
1EB
100
AcDbEntity
  8
VERMASSUNG
100
AcDbTrace
 10
215.6704547177
 20
95.2838368427
 30
0.0
 11
216.1204547177
 21
98.2838368427
 31
0.0
 12
215.2204547177
 22
98.2838368427
 32
0.0
 13
215.2204547177
 23
98.2838368427
 33
0.0
  0
LINE
  5
1F0
330
1EB
100
AcDbEntity
  8
VERMASSUNG
100
AcDbLine
 10
203.7507226758
 20
120.2838368427
 30
0.0
 11
216.6704547177
 21
120.2838368427
 31
0.0
  0
LINE
  5
1F1
330
1EB
100
AcDbEntity
  8
VERMASSUNG
100
AcDbLine
 10
203.7507226758
 20
95.2838368427
 30
0.0
 11
216.6704547177
 21
95.2838368427
 31
0.0
  0
LINE
  5
1F2
330
1EB
100
AcDbEntity
  8
VERMASSUNG
100
AcDbLine
 10
215.6704547177
 20
120.2838368427
 30
0.0
 11
215.6704547177
 21
95.2838368427
 31
0.0
  0
MTEXT
  5
1F3
330
1EB
100
AcDbEntity
  8
VERMASSUNG
100
AcDbMText
 10
212.8923194615
 20
101.6799089333
 30
0.0
 40
2.0
 41
0.0
 71
     1
 72
     1
  1
ST2
  7
SLDTEXTSTYLE0
 11
-7.044195017643634E-15
 21
1.0
 31
0.0
 73
     1
 44
1.0
  0
MTEXT
  5
1F4
330
1EB
100
AcDbEntity
  8
VERMASSUNG
100
AcDbMText
 10
213.0923194128
 20
107.4799088596
 30
0.0
 40
2.0
 41
0.0
 71
     1
 72
     1
  1
%%c
  7
SLDTEXTSTYLE0
 11
-7.044195017643634E-15
 21
1.0
 31
0.0
 73
     1
 44
1.0
  0
MTEXT
  5
1F5
330
1EB
100
AcDbEntity
  8
VERMASSUNG
100
AcDbMText
 10
213.0923191217
 20
111.0883847315
 30
0.0
 40
2.0
 41
0.0
 71
     1
 72
     1
  1
25
  7
SLDTEXTSTYLE0
 11
-7.044195017643634E-15
 21
1.0
 31
0.0
 73
     1
 44
1.0
  0
ENDBLK
  5
1ED
330
1EB
100
AcDbEntity
  8
0
100
AcDbBlockEnd
  0
BLOCK
  5
1F8
330
1F7
100
AcDbEntity
  8
0
100
AcDbBlockBegin
  2
_D_3
 70
     0
 10
0.0
 20
0.0
 30
0.0
  3
_D_3
  1

  0
ARC
  5
1FA
330
1F7
100
AcDbEntity
  8
VERMASSUNG
100
AcDbCircle
 10
192.7875161876
 20
144.5763217849
 30
0.0
 40
4.247059938537221
100
AcDbArc
 50
153.4349488229
 51
206.5650511771
  0
ARC
  5
1FB
330
1F7
100
AcDbEntity
  8
VERMASSUNG
100
AcDbCircle
 10
194.5639291639
 20
144.5763217849
 30
0.0
 40
4.247059938537221
100
AcDbArc
 50
333.4349488229
 51
26.5650511771
  0
SOLID
  5
1FC
330
1F7
100
AcDbEntity
  8
VERMASSUNG
100
AcDbTrace
 10
183.2007226758
 20
142.6769788395
 30
0.0
 11
186.2007226758
 21
142.2269788395
 31
0.0
 12
186.2007226758
 22
143.1269788395
 32
0.0
 13
186.2007226758
 23
143.1269788395
 33
0.0
  0
SOLID
  5
1FD
330
1F7
100
AcDbEntity
  8
VERMASSUNG
100
AcDbTrace
 10
204.1507226758
 20
142.6769788395
 30
0.0
 11
201.1507226758
 21
143.1269788395
 31
0.0
 12
201.1507226758
 22
142.2269788395
 32
0.0
 13
201.1507226758
 23
142.2269788395
 33
0.0
  0
LINE
  5
1FE
330
1F7
100
AcDbEntity
  8
VERMASSUNG
100
AcDbLine
 10
183.2007226758
 20
137.7943879762
 30
0.0
 11
183.2007226758
 21
143.6769788395
 31
0.0
  0
LINE
  5
1FF
330
1F7
100
AcDbEntity
  8
VERMASSUNG
100
AcDbLine
 10
204.1507226758
 20
119.8838368427
 30
0.0
 11
204.1507226758
 21
143.6769788395
 31
0.0
  0
LINE
  5
200
330
1F7
100
AcDbEntity
  8
VERMASSUNG
100
AcDbLine
 10
183.2007226758
 20
142.6769788395
 30
0.0
 11
204.1507226758
 21
142.6769788395
 31
0.0
  0
MTEXT
  5
201
330
1F7
100
AcDbEntity
  8
VERMASSUNG
100
AcDbMText
 10
190.5763302968
 20
145.2551144354
 30
0.0
 40
2.0
 41
0.0
 71
     1
 72
     1
  1
20.95
  7
SLDTEXTSTYLE0
 73
     1
 44
1.0
  0
ENDBLK
  5
1F9
330
1F7
100
AcDbEntity
  8
0
100
AcDbBlockEnd
  0
BLOCK
  5
204
330
203
100
AcDbEntity
  8
0
100
AcDbBlockBegin
  2
_D_4
 70
     0
 10
0.0
 20
0.0
 30
0.0
  3
_D_4
  1

  0
SOLID
  5
206
330
203
100
AcDbEntity
  8
VERMASSUNG
100
AcDbTrace
 10
164.1507226758
 20
148.6769788395
 30
0.0
 11
167.1507226758
 21
148.2269788395
 31
0.0
 12
167.1507226758
 22
149.1269788395
 32
0.0
 13
167.1507226758
 23
149.1269788395
 33
0.0
  0
SOLID
  5
207
330
203
100
AcDbEntity
  8
VERMASSUNG
100
AcDbTrace
 10
204.1507226758
 20
148.6769788395
 30
0.0
 11
201.1507226758
 21
149.1269788395
 31
0.0
 12
201.1507226758
 22
148.2269788395
 32
0.0
 13
201.1507226758
 23
148.2269788395
 33
0.0
  0
LINE
  5
208
330
203
100
AcDbEntity
  8
VERMASSUNG
100
AcDbLine
 10
164.1507226758
 20
130.0088368427
 30
0.0
 11
164.1507226758
 21
149.6769788395
 31
0.0
  0
LINE
  5
209
330
203
100
AcDbEntity
  8
VERMASSUNG
100
AcDbLine
 10
204.1507226758
 20
119.8838368427
 30
0.0
 11
204.1507226758
 21
149.6769788395
 31
0.0
  0
LINE
  5
20A
330
203
100
AcDbEntity
  8
VERMASSUNG
100
AcDbLine
 10
164.1507226758
 20
148.6769788395
 30
0.0
 11
204.1507226758
 21
148.6769788395
 31
0.0
  0
MTEXT
  5
20B
330
203
100
AcDbEntity
  8
VERMASSUNG
100
AcDbMText
 10
182.6517638704
 20
151.2551144354
 30
0.0
 40
2.0
 41
0.0
 71
     1
 72
     1
  1
40
  7
SLDTEXTSTYLE0
 73
     1
 44
1.0
  0
ENDBLK
  5
205
330
203
100
AcDbEntity
  8
0
100
AcDbBlockEnd
  0
BLOCK
  5
20E
330
20D
100
AcDbEntity
  8
0
100
AcDbBlockBegin
  2
_D_5
 70
     0
 10
0.0
 20
0.0
 30
0.0
  3
_D_5
  1

  0
ARC
  5
210
330
20D
100
AcDbEntity
  8
VERMASSUNG
100
AcDbCircle
 10
148.6378632525
 20
156.5763217849
 30
0.0
 40
4.247059938537386
100
AcDbArc
 50
153.4349488229
 51
206.5650511771
  0
ARC
  5
211
330
20D
100
AcDbEntity
  8
VERMASSUNG
100
AcDbCircle
 10
151.413582099
 20
156.5763217849
 30
0.0
 40
4.247059938537386
100
AcDbArc
 50
333.4349488229
 51
26.5650511771
  0
SOLID
  5
212
330
20D
100
AcDbEntity
  8
VERMASSUNG
100
AcDbTrace
 10
95.9007226758
 20
154.6769788395
 30
0.0
 11
98.9007226758
 21
154.2269788395
 31
0.0
 12
98.9007226758
 22
155.1269788395
 32
0.0
 13
98.9007226758
 23
155.1269788395
 33
0.0
  0
SOLID
  5
213
330
20D
100
AcDbEntity
  8
VERMASSUNG
100
AcDbTrace
 10
204.1507226758
 20
154.6769788395
 30
0.0
 11
201.1507226758
 21
155.1269788395
 31
0.0
 12
201.1507226758
 22
154.2269788395
 32
0.0
 13
201.1507226758
 23
154.2269788395
 33
0.0
  0
LINE
  5
214
330
20D
100
AcDbEntity
  8
VERMASSUNG
100
AcDbLine
 10
95.9007226758
 20
119.1909674397
 30
0.0
 11
95.9007226758
 21
155.6769788395
 31
0.0
  0
LINE
  5
215
330
20D
100
AcDbEntity
  8
VERMASSUNG
100
AcDbLine
 10
204.1507226758
 20
119.8838368427
 30
0.0
 11
204.1507226758
 21
155.6769788395
 31
0.0
  0
LINE
  5
216
330
20D
100
AcDbEntity
  8
VERMASSUNG
100
AcDbLine
 10
95.9007226758
 20
154.6769788395
 30
0.0
 11
204.1507226758
 21
154.6769788395
 31
0.0
  0
MTEXT
  5
217
330
20D
100
AcDbEntity
  8
VERMASSUNG
100
AcDbMText
 10
146.4266773617
 20
157.2551144354
 30
0.0
 40
2.0
 41
0.0
 71
     1
 72
     1
  1
108.25
  7
SLDTEXTSTYLE0
 73
     1
 44
1.0
  0
ENDBLK
  5
20F
330
20D
100
AcDbEntity
  8
0
100
AcDbBlockEnd
  0
ENDSEC
  0
SECTION
  2
ENTITIES
  0
MTEXT
  5
78
330
1F
100
AcDbEntity
  8
KOPF_DÜNN
100
AcDbMText
 10
13.8892156294
 20
23.8442973028
 30
0.0
 40
3.0
 41
0.0
 71
     1
 72
     1
  1
124.440.025.040
  7
SLDTEXTSTYLE0
 73
     1
 44
1.0
  0
MTEXT
  5
79
330
1F
100
AcDbEntity
  8
VERMASSUNG
100
AcDbMText
 10
13.9329988022
 20
28.8834360957
 30
0.0
 40
3.0
 41
0.0
 71
     1
 72
     1
  1
Aufnahme_Master shank ST2
  7
SLDTEXTSTYLE0
 73
     1
 44
1.0
  0
MTEXT
  5
7A
330
1F
100
AcDbEntity
  8
VERMASSUNG
100
AcDbMText
 10
98.8601118557
 20
13.8365368761
 30
0.0
 40
2.0
 41
0.0
 71
     1
 72
     1
  1
Datum: 14.05.2008
  7
SLDTEXTSTYLE0
 73
     1
 44
1.0
  0
MTEXT
  5
7B
330
1F
100
AcDbEntity
  8
VERMASSUNG
100
AcDbMText
 10
13.933048693
 20
18.0482802738
 30
0.0
 40
2.0
 41
0.0
 71
     1
 72
     1
  1
DIN 69871 B ISO 40
  7
SLDTEXTSTYLE0
 73
     1
 44
1.0
  0
MTEXT
  5
7C
330
1F
100
AcDbEntity
  8
VERMASSUNG
100
AcDbMText
 10
13.9808475933
 20
13.9090974274
 30
0.0
 40
2.0
 41
0.0
 71
     1
 72
     1
  1
Gewicht: 882g
  7
SLDTEXTSTYLE0
 73
     1
 44
1.0
  0
ARC
  5
7D
330
1F
100
AcDbEntity
  8
0
  6
Continuous
 62
     7
370
    15
100
AcDbCircle
 10
166.7507226758
 20
84.9588368427
 30
0.0
 40
0.6000000000000227
100
AcDbArc
 50
0.0
 51
90.0
  0
ARC
  5
7E
330
1F
100
AcDbEntity
  8
0
  6
Continuous
 62
     7
370
    15
100
AcDbCircle
 10
166.7507226758
 20
130.6088368427
 30
0.0
 40
0.6000000000000227
100
AcDbArc
 50
270.0
 51
0.0
  0
LINE
  5
7F
330
1F
100
AcDbEntity
  8
0
  6
Continuous
 62
     7
370
    15
100
AcDbLine
 10
164.1507226758
 20
85.5588368785
 30
0.0
 11
166.7507226828
 21
85.5588368785
 31
0.0
  0
LINE
  5
80
330
1F
100
AcDbEntity
  8
0
  6
Continuous
 62
     7
370
    15
100
AcDbLine
 10
166.7507226828
 20
130.008836807
 30
0.0
 11
164.1507226758
 21
130.008836807
 31
0.0
  0
LINE
  5
81
330
1F
100
AcDbEntity
  8
0
  6
Continuous
 62
     7
370
    15
100
AcDbLine
 10
164.1507226758
 20
130.008836807
 30
0.0
 11
96.7564139299
 21
120.1805002701
 31
0.0
  0
LINE
  5
82
330
1F
100
AcDbEntity
  8
0
  6
Continuous
 62
     7
370
    15
100
AcDbLine
 10
96.7564139299
 20
95.3871734154
 30
0.0
 11
164.1507226758
 21
85.5588368785
 31
0.0
  0
ARC
  5
83
330
1F
100
AcDbEntity
  8
0
  6
Continuous
 62
     7
370
    15
100
AcDbCircle
 10
187.2007226758
 20
91.2838368427
 30
0.0
 40
4.000000000000014
100
AcDbArc
 50
90.0
 51
180.0
  0
ARC
  5
84
330
1F
100
AcDbEntity
  8
0
  6
Continuous
 62
     7
370
    15
100
AcDbCircle
 10
187.2007226758
 20
124.2838368427
 30
0.0
 40
4.000000000000014
100
AcDbArc
 50
180.0
 51
270.0
  0
LINE
  5
85
330
1F
100
AcDbEntity
  8
0
  6
Continuous
 62
     7
370
    15
100
AcDbLine
 10
203.7507224612
 20
120.283837029
 30
0.0
 11
187.2007235669
 21
120.283837029
 31
0.0
  0
LINE
  5
86
330
1F
100
AcDbEntity
  8
0
  6
Continuous
 62
     7
370
    15
100
AcDbLine
 10
187.2007235669
 20
95.2838366564
 30
0.0
 11
203.7507224612
 21
95.2838366564
 31
0.0
  0
ARC
  5
87
330
1F
100
AcDbEntity
  8
0
  6
Continuous
 62
     7
370
    15
100
AcDbCircle
 10
203.7507226758
 20
119.8838368427
 30
0.0
 40
0.4000000000000057
100
AcDbArc
 50
0.0
 51
90.0
  0
ARC
  5
88
330
1F
100
AcDbEntity
  8
0
  6
Continuous
 62
     7
370
    15
100
AcDbCircle
 10
203.7507226758
 20
95.6838368427
 30
0.0
 40
0.4000000000000057
100
AcDbArc
 50
270.0
 51
0.0
  0
ARC
  5
89
330
1F
100
AcDbEntity
  8
0
  6
Continuous
 62
     7
370
    15
100
AcDbCircle
 10
96.9007226758
 20
96.3767062457
 30
0.0
 40
0.9999999999999938
100
AcDbArc
 50
180.0
 51
261.7028550302
  0
ARC
  5
8A
330
1F
100
AcDbEntity
  8
0
  6
Continuous
 62
     7
370
    15
100
AcDbCircle
 10
96.9007226758
 20
119.1909674397
 30
0.0
 40
0.9999999999999938
100
AcDbArc
 50
98.2971449698
 51
180.0
  0
ARC
  5
8B
330
1F
100
AcDbEntity
  8
0
  6
Continuous
 62
     7
370
    15
100
AcDbCircle
 10
177.1507226758
 20
99.0623231879
 30
0.0
 40
1.500000000000013
100
AcDbArc
 50
191.5274417162
 51
336.6722113243
  0
SPLINE
  5
8C
330
1F
100
AcDbEntity
  8
0
  6
Continuous
 62
     7
370
    15
100
AcDbSpline
210
0.0
220
0.0
230
1.0
 70
     8
 71
     3
 72
    11
 73
     7
 74
     0
 42
0.000000001
 43
0.00000001
 40
0.0
 40
0.0
 40
0.0
 40
0.0
 40
0.1285555705192086
 40
0.4801540003620731
 40
0.8150691631650526
 40
0.9999999999999999
 40
0.9999999999999999
 40
0.9999999999999999
 40
0.9999999999999999
 10
198.0007368855102
 20
106.3969984596721
 30
0.0
 10
197.9443130658976
 20
106.4109729909281
 30
0.0
 10
197.733570562922
 20
106.4631677504287
 30
0.0
 10
197.3383801373463
 20
106.5610432290236
 30
0.0
 10
196.9104726449484
 20
106.6670232524447
 30
0.0
 10
196.681240029705
 20
106.7237970748969
 30
0.0
 10
196.5996924571616
 20
106.7439938841514
 30
0.0
  0
SPLINE
  5
8D
330
1F
100
AcDbEntity
  8
0
  6
Continuous
 62
     7
370
    15
100
AcDbSpline
210
0.0
220
0.0
230
1.0
 70
     8
 71
     3
 72
    10
 73
     6
 74
     0
 42
0.000000001
 43
0.00000001
 40
0.0
 40
0.0
 40
0.0
 40
0.0
 40
0.4391118469580066
 40
0.7513623250759397
 40
1.0
 40
1.0
 40
1.0
 40
1.0
 10
199.0017670921905
 20
107.4368413018189
 30
0.0
 10
198.858463423402
 20
107.2879816626697
 30
0.0
 10
198.6132571541593
 20
107.0332685972948
 30
0.0
 10
198.2568064012625
 20
106.6629927928189
 30
0.0
 10
198.0793860487809
 20
106.47869593028
 30
0.0
 10
198.0007368855102
 20
106.3969984596721
 30
0.0
  0
SPLINE
  5
8E
330
1F
100
AcDbEntity
  8
0
  6
Continuous
 62
     7
370
    15
100
AcDbSpline
210
0.0
220
0.0
230
1.0
 70
     8
 71
     3
 72
    10
 73
     6
 74
     0
 42
0.000000001
 43
0.00000001
 40
0.0
 40
0.0
 40
0.0
 40
0.0
 40
0.4391119236575975
 40
0.7513631169849627
 40
0.9999999999999999
 40
0.9999999999999999
 40
0.9999999999999999
 40
0.9999999999999999
 10
198.6017528705222
 20
108.8236798012755
 30
0.0
 10
198.6590172367604
 20
108.6251454329122
 30
0.0
 10
198.7570021248738
 20
108.285433860975
 30
0.0
 10
198.8994405285453
 20
107.7915993287403
 30
0.0
 10
198.9703385889179
 20
107.5458014135717
 30
0.0
 10
199.0017670921905
 20
107.4368413018189
 30
0.0
  0
SPLINE
  5
8F
330
1F
100
AcDbEntity
  8
0
  6
Continuous
 62
     7
370
    15
100
AcDbSpline
210
0.0
220
0.0
230
1.0
 70
     8
 71
     3
 72
    11
 73
     7
 74
     0
 42
0.000000001
 43
0.00000001
 40
0.0
 40
0.0
 40
0.0
 40
0.0
 40
0.1849308368349472
 40
0.5198459996379269
 40
0.8714444294807913
 40
0.9999999999999999
 40
0.9999999999999999
 40
0.9999999999999999
 40
0.9999999999999999
 10
197.2007084421737
 20
109.1706752257548
 30
0.0
 10
197.2822560147171
 20
109.1504784165003
 30
0.0
 10
197.5114886299605
 20
109.0937045940481
 30
0.0
 10
197.9393961223584
 20
108.987724570627
 30
0.0
 10
198.334586547934
 20
108.8898490920321
 30
0.0
 10
198.5453290509097
 20
108.8376543325315
 30
0.0
 10
198.6017528705222
 20
108.8236798012755
 30
0.0
  0
SPLINE
  5
90
330
1F
100
AcDbEntity
  8
0
  6
Continuous
 62
     7
370
    15
100
AcDbSpline
210
0.0
220
0.0
230
1.0
 70
     8
 71
     3
 72
    10
 73
     6
 74
     0
 42
0.000000001
 43
0.00000001
 40
0.0
 40
0.0
 40
0.0
 40
0.0
 40
0.4391118469580066
 40
0.7513623250759397
 40
1.0
 40
1.0
 40
1.0
 40
1.0
 10
196.1996782354934
 20
108.130832383608
 30
0.0
 10
196.3429819042819
 20
108.2796920227572
 30
0.0
 10
196.5881881735245
 20
108.5344050881321
 30
0.0
 10
196.9446389264214
 20
108.9046808926081
 30
0.0
 10
197.122059278903
 20
109.0889777551469
 30
0.0
 10
197.2007084421737
 20
109.1706752257548
 30
0.0
  0
SPLINE
  5
91
330
1F
100
AcDbEntity
  8
0
  6
Continuous
 62
     7
370
    15
100
AcDbSpline
210
0.0
220
0.0
230
1.0
 70
     8
 71
     3
 72
    10
 73
     6
 74
     0
 42
0.000000001
 43
0.00000001
 40
0.0
 40
0.0
 40
0.0
 40
0.0
 40
0.4391119236575975
 40
0.7513631169849627
 40
0.9999999999999999
 40
0.9999999999999999
 40
0.9999999999999999
 40
0.9999999999999999
 10
196.5996924571616
 20
106.7439938841514
 30
0.0
 10
196.5424280909235
 20
106.9425282525147
 30
0.0
 10
196.44444320281
 20
107.2822398244519
 30
0.0
 10
196.3020047991386
 20
107.7760743566866
 30
0.0
 10
196.231106738766
 20
108.0218722718552
 30
0.0
 10
196.1996782354934
 20
108.130832383608
 30
0.0
  0
CIRCLE
  5
92
330
1F
100
AcDbEntity
  8
0
  6
Continuous
 62
     7
370
    15
100
AcDbCircle
 10
197.6007226758
 20
107.7838368427
 30
0.0
 40
1.499999999999998
  0
CIRCLE
  5
93
330
1F
100
AcDbEntity
  8
0
  6
Continuous
 62
     7
370
    15
100
AcDbCircle
 10
197.6007226758
 20
107.7838368427
 30
0.0
 40
2.249999999999989
  0
CIRCLE
  5
94
330
1F
100
AcDbEntity
  8
0
  6
Continuous
 62
     7
370
    15
100
AcDbCircle
 10
197.6007226758
 20
107.7838368427
 30
0.0
 40
2.499999999999994
  0
ARC
  5
95
330
1F
100
AcDbEntity
  8
0
  6
Continuous
 62
     7
370
    15
100
AcDbCircle
 10
197.6007226758
 20
107.7838368427
 30
0.0
 40
1.249999999999982
100
AcDbArc
 50
316.0895221089
 51
16.0895221089
  0
ARC
  5
96
330
1F
100
AcDbEntity
  8
0
  6
Continuous
 62
     7
370
    15
100
AcDbCircle
 10
197.6007226758
 20
107.7838368427
 30
0.0
 40
1.249999999999986
100
AcDbArc
 50
256.0895221089
 51
316.0895221089
  0
ARC
  5
97
330
1F
100
AcDbEntity
  8
0
  6
Continuous
 62
     7
370
    15
100
AcDbCircle
 10
197.6007226758
 20
107.7838368427
 30
0.0
 40
1.249999999999998
100
AcDbArc
 50
136.0895221089
 51
196.0895221089
  0
ARC
  5
98
330
1F
100
AcDbEntity
  8
0
  6
Continuous
 62
     7
370
    15
100
AcDbCircle
 10
197.6007226758
 20
107.7838368427
 30
0.0
 40
1.25
100
AcDbArc
 50
16.0895221089
 51
76.0895221089
  0
ARC
  5
99
330
1F
100
AcDbEntity
  8
0
  6
Continuous
 62
     7
370
    15
100
AcDbCircle
 10
197.6007226758
 20
107.7838368427
 30
0.0
 40
1.25
100
AcDbArc
 50
76.0895221089
 51
136.0895221089
  0
ARC
  5
9A
330
1F
100
AcDbEntity
  8
0
  6
Continuous
 62
     7
370
    15
100
AcDbCircle
 10
197.6007226758
 20
107.7838368427
 30
0.0
 40
1.249999999999998
100
AcDbArc
 50
196.0895221089
 51
256.0895221089
  0
LINE
  5
9B
330
1F
100
AcDbEntity
  8
0
  6
Continuous
 62
     7
370
    15
100
AcDbLine
 10
167.9507227398
 20
77.335744695
 30
0.0
 11
171.7288860835
 21
77.335744695
 31
0.0
  0
LINE
  5
9C
330
1F
100
AcDbEntity
  8
0
  6
Continuous
 62
     7
370
    15
100
AcDbLine
 10
171.7288860835
 20
126.1338364046
 30
0.0
 11
167.9507227398
 21
126.1338364046
 31
0.0
  0
LINE
  5
9D
330
1F
100
AcDbEntity
  8
0
  6
Continuous
 62
     7
370
    15
100
AcDbLine
 10
171.7288860835
 20
77.335744695
 30
0.0
 11
171.7288860835
 21
126.1338364046
 31
0.0
  0
SPLINE
  5
9E
330
1F
100
AcDbEntity
  8
0
  6
Continuous
 62
     7
370
    15
100
AcDbSpline
210
0.0
220
0.0
230
1.0
 70
     8
 71
     3
 72
     8
 73
     4
 74
     0
 42
0.000000001
 43
0.00000001
 40
0.0
 40
0.0
 40
0.0
 40
0.0
 40
1.0
 40
1.0
 40
1.0
 40
1.0
 10
173.3407226757629
 20
79.967010383212
 30
0.0
 10
172.9565879271785
 20
79.27436896126781
 30
0.0
 10
172.5716016506856
 20
78.58218278694409
 30
0.0
 10
172.1859330720592
 20
77.89038849609992
 30
0.0
  0
SPLINE
  5
9F
330
1F
100
AcDbEntity
  8
0
  6
Continuous
 62
     7
370
    15
100
AcDbSpline
210
0.0
220
0.0
230
1.0
 70
     8
 71
     3
 72
     8
 73
     4
 74
     0
 42
0.000000001
 43
0.00000001
 40
0.0
 40
0.0
 40
0.0
 40
0.0
 40
0.0011901715795577
 40
0.0011901715795577
 40
0.0011901715795577
 40
0.0011901715795577
 10
171.7288860337061
 20
77.33574449407678
 30
0.0
 10
171.8827322232021
 20
77.52030973176035
 30
0.0
 10
172.0351274908747
 20
77.70518509228899
 30
0.0
 10
172.1859330720592
 20
77.89038849609992
 30
0.0
  0
SPLINE
  5
A0
330
1F
100
AcDbEntity
  8
0
  6
Continuous
 62
     7
370
    15
100
AcDbSpline
210
0.0
220
0.0
230
1.0
 70
    24
 71
     3
 72
     8
 73
     4
 74
     0
 42
0.000000001
 43
0.00000001
 40
0.0
 40
0.0
 40
0.0
 40
0.0
 40
1.0
 40
1.0
 40
1.0
 40
1.0
 10
173.3407226757629
 20
126.1338368427134
 30
0.0
 10
172.815990187401
 20
126.1338368427134
 30
0.0
 10
172.2773147031822
 20
126.1338368427134
 30
0.0
 10
171.7288860337061
 20
126.1338368427134
 30
0.0
  0
LINE
  5
A1
330
1F
100
AcDbEntity
  8
0
  6
Continuous
 62
     7
370
    15
100
AcDbLine
 10
173.3407223381
 20
79.9670103651
 30
0.0
 11
173.3407223381
 21
126.1338364046
 31
0.0
  0
LINE
  5
A2
330
1F
100
AcDbEntity
  8
0
  6
Continuous
 62
     7
370
    15
100
AcDbLine
 10
178.7725597404
 20
98.0318166029
 30
0.0
 11
178.7725597404
 21
126.1338364046
 31
0.0
  0
LINE
  5
A3
330
1F
100
AcDbEntity
  8
0
  6
Continuous
 62
     7
370
    15
100
AcDbLine
 10
182.6007220678
 20
126.1338364046
 30
0.0
 11
178.7725597404
 21
126.1338364046
 31
0.0
  0
LINE
  5
A4
330
1F
100
AcDbEntity
  8
0
  6
Continuous
 62
     7
370
    15
100
AcDbLine
 10
178.7725597404
 20
77.335744695
 30
0.0
 11
182.6007220678
 21
77.335744695
 31
0.0
  0
LINE
  5
A5
330
1F
100
AcDbEntity
  8
0
  6
Continuous
 62
     7
370
    15
100
AcDbLine
 10
178.7725597404
 20
77.335744695
 30
0.0
 11
178.7725597404
 21
95.8323372241
 31
0.0
  0
SPLINE
  5
A6
330
1F
100
AcDbEntity
  8
0
  6
Continuous
 62
     7
370
    15
100
AcDbSpline
210
0.0
220
0.0
230
1.0
 70
     8
 71
     3
 72
    12
 73
     8
 74
     0
 42
0.000000001
 43
0.00000001
 40
0.0
 40
0.0
 40
0.0
 40
0.0
 40
0.2499999999999997
 40
0.2499999999999997
 40
0.4999999999999993
 40
0.4999999999999993
 40
1.0
 40
1.0
 40
1.0
 40
1.0
 10
178.7725593178196
 20
95.83233704450643
 30
0.0
 10
178.8955068116151
 20
95.99029389320151
 30
0.0
 10
178.989051014724
 20
96.16212726017905
 30
0.0
 10
179.1179904038862
 20
96.53379996982488
 30
0.0
 10
179.1505431612713
 20
96.72698841601613
 30
0.0
 10
179.1510795030051
 20
97.31528495429235
 30
0.0
 10
179.0184558460371
 20
97.70730319218107
 30
0.0
 10
178.7725593178196
 20
98.03181677488976
 30
0.0
  0
SPLINE
  5
A7
330
1F
100
AcDbEntity
  8
0
  6
Continuous
 62
     7
370
    15
100
AcDbSpline
210
0.0
220
0.0
230
1.0
 70
     8
 71
     3
 72
    12
 73
     8
 74
     0
 42
0.000000001
 43
0.00000001
 40
0.0
 40
0.0
 40
0.0
 40
0.0
 40
0.250000000000001
 40
0.250000000000001
 40
0.500000000000002
 40
0.500000000000002
 40
1.0
 40
1.0
 40
1.0
 40
1.0
 10
182.6007226757629
 20
77.33574449407678
 30
0.0
 10
182.6962645858989
 20
77.33574449407678
 30
0.0
 10
182.7884095277616
 20
77.35199816327298
 30
0.0
 10
182.9447358043715
 20
77.40560658418646
 30
0.0
 10
183.0084039469915
 20
77.44201770946815
 30
0.0
 10
183.1572717924219
 20
77.56414134915464
 30
0.0
 10
183.2007226757629
 20
77.65929402459167
 30
0.0
 10
183.2007226757629
 20
77.75492048021135
 30
0.0
  0
SPLINE
  5
A8
330
1F
100
AcDbEntity
  8
0
  6
Continuous
 62
     7
370
    15
100
AcDbSpline
210
0.0
220
0.0
230
1.0
 70
    24
 71
     3
 72
    12
 73
     8
 74
     0
 42
0.000000001
 43
0.00000001
 40
0.0
 40
0.0
 40
0.0
 40
0.0
 40
0.4999999999999931
 40
0.4999999999999931
 40
0.7499999999999966
 40
0.7499999999999966
 40
1.0
 40
1.0
 40
1.0
 40
1.0
 10
183.2007226757629
 20
126.1338368427134
 30
0.0
 10
183.2007226757629
 20
126.1338368427134
 30
0.0
 10
183.1510426808078
 20
126.1338368427134
 30
0.0
 10
182.9951241237903
 20
126.1338368427134
 30
0.0
 10
182.9292430592141
 20
126.1338368427134
 30
0.0
 10
182.7765974037254
 20
126.1338368427134
 30
0.0
 10
182.6893474958645
 20
126.1338368427134
 30
0.0
 10
182.6007226757628
 20
126.1338368427134
 30
0.0
  0
LINE
  5
A9
330
1F
100
AcDbEntity
  8
0
  6
Continuous
 62
     7
370
    15
100
AcDbLine
 10
183.2007229112
 20
77.7549199473
 30
0.0
 11
183.2007229112
 21
126.1338364046
 31
0.0
  0
SPLINE
  5
AA
330
1F
100
AcDbEntity
  8
0
  6
Continuous
 62
     7
370
    15
100
AcDbSpline
210
0.0
220
0.0
230
1.0
 70
     8
 71
     3
 72
    10
 73
     6
 74
     0
 42
0.000000001
 43
0.00000001
 40
0.0
 40
0.0
 40
0.0
 40
0.0
 40
0.5
 40
0.5
 40
1.0
 40
1.0
 40
1.0
 40
1.0
 10
167.5668672171101
 20
77.43210699324524
 30
0.0
 10
167.6156371900914
 20
77.40387898603723
 30
0.0
 10
167.6730893133937
 20
77.37978438179563
 30
0.0
 10
167.8036862163825
 20
77.34552090870307
 30
0.0
 10
167.8761758962247
 20
77.33574449407676
 30
0.0
 10
167.9507226757628
 20
77.33574449407676
 30
0.0
  0
SPLINE
  5
AB
330
1F
100
AcDbEntity
  8
0
  6
Continuous
 62
     7
370
    15
100
AcDbSpline
210
0.0
220
0.0
230
1.0
 70
     8
 71
     3
 72
    10
 73
     6
 74
     0
 42
0.000000001
 43
0.00000001
 40
0.0
 40
0.0
 40
0.0
 40
0.0
 40
0.5
 40
0.5
 40
1.0
 40
1.0
 40
1.0
 40
1.0
 10
167.5668672171101
 20
77.43210699324524
 30
0.0
 10
167.508744557034
 20
77.49941215310703
 30
0.0
 10
167.4563413910305
 20
77.57949754014068
 30
0.0
 10
167.3774383694841
 20
77.76351698182945
 30
0.0
 10
167.3507226757629
 20
77.8687283392499
 30
0.0
 10
167.3507226757629
 20
77.97746168571057
 30
0.0
  0
LINE
  5
AC
330
1F
100
AcDbEntity
  8
0
  6
Continuous
 62
     7
370
    15
100
AcDbLine
 10
167.3507225949
 20
77.9774613392
 30
0.0
 11
167.3507225949
 21
126.1338364046
 31
0.0
  0
SPLINE
  5
AD
330
1F
100
AcDbEntity
  8
0
  6
Continuous
 62
     7
370
    15
100
AcDbSpline
210
0.0
220
0.0
230
1.0
 70
    24
 71
     3
 72
    12
 73
     8
 74
     0
 42
0.000000001
 43
0.00000001
 40
0.0
 40
0.0
 40
0.0
 40
0.0
 40
0.2499999999999998
 40
0.2499999999999998
 40
0.4999999999999997
 40
0.4999999999999997
 40
1.0
 40
1.0
 40
1.0
 40
1.0
 10
167.9507226757628
 20
126.1338368427134
 30
0.0
 10
167.8623072984524
 20
126.1338368427134
 30
0.0
 10
167.7750368612818
 20
126.1338368427134
 30
0.0
 10
167.6225731365099
 20
126.1338368427134
 30
0.0
 10
167.5569345242876
 20
126.1338368427134
 30
0.0
 10
167.4002761230036
 20
126.1338368427134
 30
0.0
 10
167.3507226757629
 20
126.1338368427134
 30
0.0
 10
167.3507226757629
 20
126.1338368427134
 30
0.0
  0
LINE
  5
AE
330
1F
100
AcDbEntity
  8
0
  6
Continuous
 62
     7
370
    15
100
AcDbLine
 10
177.1607225545
 20
99.7825540315
 30
0.0
 11
177.1607225545
 21
126.1338364046
 31
0.0
  0
SPLINE
  5
AF
330
1F
100
AcDbEntity
  8
0
  6
Continuous
 62
     7
370
    15
100
AcDbSpline
210
0.0
220
0.0
230
1.0
 70
    24
 71
     3
 72
     8
 73
     4
 74
     0
 42
0.000000001
 43
0.00000001
 40
0.0
 40
0.0
 40
0.0
 40
0.0
 40
1.0
 40
1.0
 40
1.0
 40
1.0
 10
178.7725593178196
 20
126.1338368427134
 30
0.0
 10
178.2241306483436
 20
126.1338368427134
 30
0.0
 10
177.6854551641248
 20
126.1338368427134
 30
0.0
 10
177.1607226757629
 20
126.1338368427134
 30
0.0
  0
SPLINE
  5
B0
330
1F
100
AcDbEntity
  8
0
  6
Continuous
 62
     7
370
    15
100
AcDbSpline
210
0.0
220
0.0
230
1.0
 70
     8
 71
     3
 72
    12
 73
     8
 74
     0
 42
0.000000001
 43
0.00000001
 40
0.0
 40
0.0
 40
0.0
 40
0.0
 40
0.2499999999999994
 40
0.2499999999999994
 40
0.4999999999999989
 40
0.4999999999999989
 40
1.0
 40
1.0
 40
1.0
 40
1.0
 10
178.7725593178196
 20
98.03181677488976
 30
0.0
 10
178.6576632665589
 20
98.25155720994631
 30
0.0
 10
178.5308972500862
 20
98.44852556156805
 30
0.0
 10
178.2706823164677
 20
98.80224313440695
 30
0.0
 10
178.1371748585055
 20
98.9590684282792
 30
0.0
 10
177.7287765899173
 20
99.38561099918688
 30
0.0
 10
177.4451234549797
 20
99.61230317814211
 30
0.0
 10
177.160722675763
 20
99.78255432253758
 30
0.0
  0
SPLINE
  5
B1
330
1F
100
AcDbEntity
  8
0
  6
Continuous
 62
     7
370
    15
100
AcDbSpline
210
0.0
220
0.0
230
1.0
 70
     8
 71
     3
 72
    14
 73
    10
 74
     0
 42
0.000000001
 43
0.00000001
 40
0.0
 40
0.0
 40
0.0
 40
0.0
 40
0.25
 40
0.25
 40
0.5
 40
0.5
 40
0.75
 40
0.75
 40
1.0
 40
1.0
 40
1.0
 40
1.0
 10
177.1607226757629
 20
99.8367979723838
 30
0.0
 10
177.1607226757629
 20
99.87344884054761
 30
0.0
 10
177.1393948870511
 20
99.90991563779654
 30
0.0
 10
177.0569364843944
 20
99.9750544923374
 30
0.0
 10
176.9958202925393
 20
100.0031256229283
 30
0.0
 10
176.8445171994771
 20
100.0369535046552
 30
0.0
 10
176.7531391760866
 20
100.0424166460517
 30
0.0
 10
176.5607654630337
 20
100.0214907280391
 30
0.0
 10
176.4585851235547
 20
99.9949553026638
 30
0.0
 10
176.3607226757628
 20
99.95446912938252
 30
0.0
  0
SPLINE
  5
B2
330
1F
100
AcDbEntity
  8
0
  6
Continuous
 62
     7
370
    15
100
AcDbSpline
210
0.0
220
0.0
230
1.0
 70
     8
 71
     3
 72
    12
 73
     8
 74
     0
 42
0.000000001
 43
0.00000001
 40
0.0
 40
0.0
 40
0.0
 40
0.0
 40
0.500000000000001
 40
0.500000000000001
 40
0.7500000000000004
 40
0.7500000000000004
 40
1.0
 40
1.0
 40
1.0
 40
1.0
 10
177.1607226757629
 20
96.02383082431652
 30
0.0
 10
177.4449292103282
 20
95.8563666620228
 30
0.0
 10
177.7236249444319
 20
95.7447295625112
 30
0.0
 10
178.1329709876212
 20
95.67741629687183
 30
0.0
 10
178.2691103249408
 20
95.67226525685786
 30
0.0
 10
178.5304303739368
 20
95.71003119447724
 30
0.0
 10
178.6558515563686
 20
95.7515809528215
 30
0.0
 10
178.77255931782
 20
95.83233704450431
 30
0.0
  0
LINE
  5
B3
330
1F
100
AcDbEntity
  8
0
  6
Continuous
 62
     7
370
    15
100
AcDbLine
 10
177.1607225545
 20
96.078074136
 30
0.0
 11
177.1607225545
 21
96.0238311153
 31
0.0
  0
SPLINE
  5
B4
330
1F
100
AcDbEntity
  8
0
  6
Continuous
 62
     7
370
    15
100
AcDbSpline
210
0.0
220
0.0
230
1.0
 70
     8
 71
     3
 72
    14
 73
    10
 74
     0
 42
0.000000001
 43
0.00000001
 40
0.0
 40
0.0
 40
0.0
 40
0.0
 40
0.25
 40
0.25
 40
0.5
 40
0.5
 40
0.75
 40
0.75
 40
1.0
 40
1.0
 40
1.0
 40
1.0
 10
176.3607226757593
 20
96.50135765260669
 30
0.0
 10
176.4581320957431
 20
96.4629429332125
 30
0.0
 10
176.5604563387567
 20
96.42524252842976
 30
0.0
 10
176.7524580242942
 20
96.35419774283562
 30
0.0
 10
176.8438926539486
 20
96.31999628147757
 30
0.0
 10
176.9956715212437
 20
96.25299985607218
 30
0.0
 10
177.0566484111582
 20
96.21985838776268
 30
0.0
 10
177.1396663497225
 20
96.15018082011261
 30
0.0
 10
177.1607226757629
 20
96.11444710894541
 30
0.0
 10
177.1607226757629
 20
96.07807447416462
 30
0.0
  0
SPLINE
  5
B5
330
1F
100
AcDbEntity
  8
0
  6
Continuous
 62
     7
370
    15
100
AcDbSpline
210
0.0
220
0.0
230
1.0
 70
     8
 71
     3
 72
    22
 73
    18
 74
     0
 42
0.000000001
 43
0.00000001
 40
0.0
 40
0.0
 40
0.0
 40
0.0
 40
0.125
 40
0.125
 40
0.25
 40
0.25
 40
0.375
 40
0.375
 40
0.5
 40
0.5
 40
0.625
 40
0.625
 40
0.75
 40
0.75
 40
0.875
 40
0.875
 40
1.0
 40
1.0
 40
1.0
 40
1.0
 10
176.3607226757629
 20
99.95446912938253
 30
0.0
 10
176.1807059811936
 20
99.87999534240599
 30
0.0
 10
176.0162741593233
 20
99.78254608042204
 30
0.0
 10
175.7178779255649
 20
99.54317664685789
 30
0.0
 10
175.5875741982001
 20
99.4032800347875
 30
0.0
 10
175.374355414581
 20
99.0950284447275
 30
0.0
 10
175.2907275574696
 20
98.92486522660839
 30
0.0
 10
175.1795966805512
 20
98.57437049181812
 30
0.0
 10
175.1507606856974
 20
98.38924553066688
 30
0.0
 10
175.1506847430376
 20
98.02603865604983
 30
0.0
 10
175.1793433684647
 20
97.84266864234236
 30
0.0
 10
175.290494461577
 20
97.49677752984913
 30
0.0
 10
175.3735615822208
 20
97.33125800258169
 30
0.0
 10
175.5872475403391
 20
97.03071826517788
 30
0.0
 10
175.7162545302631
 20
96.89684634389386
 30
0.0
 10
176.0158638097523
 20
96.66559957448953
 30
0.0
 10
176.1807065080134
 20
96.57234945782957
 30
0.0
 10
176.3607226757629
 20
96.50135765260528
 30
0.0
  0
SPLINE
  5
B6
330
1F
100
AcDbEntity
  8
0
  6
Continuous
 62
     7
370
    15
100
AcDbSpline
210
0.0
220
0.0
230
1.0
 70
     8
 71
     3
 72
     8
 73
     4
 74
     0
 42
0.000000001
 43
0.00000001
 40
0.0
 40
0.0
 40
0.0
 40
0.0
 40
0.0011901715795577
 40
0.0011901715795577
 40
0.0011901715795577
 40
0.0011901715795577
 10
178.3155122794665
 20
77.89038849609992
 30
0.0
 10
178.466317860651
 20
77.70518509228899
 30
0.0
 10
178.6187131283236
 20
77.52030973176035
 30
0.0
 10
178.7725593178196
 20
77.33574449407678
 30
0.0
  0
SPLINE
  5
B7
330
1F
100
AcDbEntity
  8
0
  6
Continuous
 62
     7
370
    15
100
AcDbSpline
210
0.0
220
0.0
230
1.0
 70
     8
 71
     3
 72
     8
 73
     4
 74
     0
 42
0.000000001
 43
0.00000001
 40
0.0
 40
0.0
 40
0.0
 40
0.0
 40
1.0
 40
1.0
 40
1.0
 40
1.0
 10
178.3155122794665
 20
77.89038849609992
 30
0.0
 10
177.9298437008402
 20
78.58218278694409
 30
0.0
 10
177.5448574243472
 20
79.2743689612678
 30
0.0
 10
177.1607226757629
 20
79.967010383212
 30
0.0
  0
LINE
  5
B8
330
1F
100
AcDbEntity
  8
0
  6
Continuous
 62
     7
370
    15
100
AcDbLine
 10
177.1607225545
 20
79.9670103651
 30
0.0
 11
177.1607225545
 21
96.0238311153
 31
0.0
  0
SPLINE
  5
B9
330
1F
100
AcDbEntity
  8
0
  6
Continuous
 62
     7
370
    15
100
AcDbSpline
210
0.0
220
0.0
230
1.0
 70
     8
 71
     3
 72
    12
 73
     8
 74
     0
 42
0.000000001
 43
0.00000001
 40
0.0
 40
0.0
 40
0.0
 40
0.0
 40
0.2500000000000015
 40
0.2500000000000015
 40
0.500000000000003
 40
0.500000000000003
 40
1.0
 40
1.0
 40
1.0
 40
1.0
 10
174.1407226757629
 20
80.96597898642672
 30
0.0
 10
174.0343208254054
 20
80.96597898642673
 30
0.0
 10
173.9270054140089
 20
80.94320822240822
 30
0.0
 10
173.7315338229816
 20
80.85696527575611
 30
0.0
 10
173.6413517070441
 20
80.79228895528558
 30
0.0
 10
173.4231302203233
 20
80.55935963122879
 30
0.0
 10
173.3407226757625
 20
80.34477439333777
 30
0.0
 10
173.3407226757628
 20
80.13175735490505
 30
0.0
  0
SPLINE
  5
BA
330
1F
100
AcDbEntity
  8
0
  6
Continuous
 62
     7
370
    15
100
AcDbSpline
210
0.0
220
0.0
230
1.0
 70
    24
 71
     3
 72
    14
 73
    10
 74
     0
 42
0.000000001
 43
0.00000001
 40
0.0
 40
0.0
 40
0.0
 40
0.0
 40
0.1250000000000018
 40
0.1250000000000018
 40
0.2500000000000037
 40
0.2500000000000037
 40
0.5000000000000004
 40
0.5000000000000004
 40
1.0
 40
1.0
 40
1.0
 40
1.0
 10
174.1407226757629
 20
126.1338368427134
 30
0.0
 10
174.0801053523453
 20
126.1338368427134
 30
0.0
 10
174.0179802042103
 20
126.1338368427134
 30
0.0
 10
173.9017625411888
 20
126.1338368427134
 30
0.0
 10
173.8471459014964
 20
126.1338368427134
 30
0.0
 10
173.6924695629882
 20
126.1338368427135
 30
0.0
 10
173.6063528142042
 20
126.1338368427134
 30
0.0
 10
173.4050452336636
 20
126.1338368427135
 30
0.0
 10
173.3407226757629
 20
126.1338368427134
 30
0.0
 10
173.3407226757628
 20
126.1338368427134
 30
0.0
  0
SPLINE
  5
BB
330
1F
100
AcDbEntity
  8
0
  6
Continuous
 62
     7
370
    15
100
AcDbSpline
210
0.0
220
0.0
230
1.0
 70
    24
 71
     3
 72
    14
 73
    10
 74
     0
 42
0.000000001
 43
0.00000001
 40
0.0
 40
0.0
 40
0.0
 40
0.0
 40
0.25
 40
0.25
 40
0.5
 40
0.5
 40
0.75
 40
0.75
 40
1.0
 40
1.0
 40
1.0
 40
1.0
 10
177.1607226757629
 20
126.1338368427134
 30
0.0
 10
177.1607226757629
 20
126.1338368427134
 30
0.0
 10
177.1446410743031
 20
126.1338368427134
 30
0.0
 10
177.0791495610362
 20
126.1338368427134
 30
0.0
 10
177.0298415879089
 20
126.1338368427134
 30
0.0
 10
176.8952720662119
 20
126.1338368427134
 30
0.0
 10
176.8097489901266
 20
126.1338368427134
 30
0.0
 10
176.6027534945715
 20
126.1338368427134
 30
0.0
 10
176.482059860628
 20
126.1338368427134
 30
0.0
 10
176.3607226757629
 20
126.1338368427134
 30
0.0
  0
LINE
  5
BC
330
1F
100
AcDbEntity
  8
0
  6
Continuous
 62
     7
370
    15
100
AcDbLine
 10
176.3607229821
 20
80.9659786236
 30
0.0
 11
174.1407228418
 21
80.9659786236
 31
0.0
  0
LINE
  5
BD
330
1F
100
AcDbEntity
  8
0
  6
Continuous
 62
     7
370
    15
100
AcDbLine
 10
176.3607229821
 20
126.1338364046
 30
0.0
 11
174.1407228418
 21
126.1338364046
 31
0.0
  0
SPLINE
  5
BE
330
1F
100
AcDbEntity
  8
0
  6
Continuous
 62
     7
370
    15
100
AcDbSpline
210
0.0
220
0.0
230
1.0
 70
     8
 71
     3
 72
    12
 73
     8
 74
     0
 42
0.000000001
 43
0.00000001
 40
0.0
 40
0.0
 40
0.0
 40
0.0
 40
0.5
 40
0.5
 40
0.75
 40
0.75
 40
1.0
 40
1.0
 40
1.0
 40
1.0
 10
177.1607226757629
 20
80.13175735490641
 30
0.0
 10
177.1607226757629
 20
80.34457991383928
 30
0.0
 10
177.0787973179431
 20
80.55883642047726
 30
0.0
 10
176.8598755144747
 20
80.79252604892714
 30
0.0
 10
176.7698282229837
 20
80.85701087377112
 30
0.0
 10
176.5744147549639
 20
80.9432104849267
 30
0.0
 10
176.4671317879801
 20
80.96597898642673
 30
0.0
 10
176.3607226757629
 20
80.96597898642673
 30
0.0
  0
LINE
  5
BF
330
1F
100
AcDbEntity
  8
0
  6
Continuous
 62
     7
370
    15
100
AcDbLine
 10
164.1507226758
 20
85.5588368785
 30
0.0
 11
164.1507226758
 21
130.008836807
 31
0.0
  0
SPLINE
  5
C0
330
1F
100
AcDbEntity
  8
0
  6
Continuous
 62
     7
370
    15
100
AcDbSpline
210
0.0
220
0.0
230
1.0
 70
     8
 71
     3
 72
     8
 73
     4
 74
     0
 42
0.000000001
 43
0.00000001
 40
0.0
 40
0.0
 40
0.0
 40
0.0
 40
1.0
 40
1.0
 40
1.0
 40
1.0
 10
178.2146773620589
 20
137.496374998978
 30
0.0
 10
177.8627333391507
 20
136.8648136109641
 30
0.0
 10
177.5113749160904
 20
136.2329317112653
 30
0.0
 10
177.1607226757629
 20
135.6006633022149
 30
0.0
  0
SPLINE
  5
C1
330
1F
100
AcDbEntity
  8
0
  6
Continuous
 62
     7
370
    15
100
AcDbSpline
210
0.0
220
0.0
230
1.0
 70
     8
 71
     3
 72
     8
 73
     4
 74
     0
 42
0.000000001
 43
0.00000001
 40
0.0
 40
0.0
 40
0.0
 40
0.0
 40
0.0012409313617635
 40
0.0012409313617635
 40
0.0012409313617635
 40
0.0012409313617635
 10
178.7725593178196
 20
138.2801729219291
 30
0.0
 10
178.5858863895874
 20
138.0191610442305
 30
0.0
 10
178.3999012016149
 20
137.7579025424551
 30
0.0
 10
178.2146773620589
 20
137.496374998978
 30
0.0
  0
LINE
  5
C2
330
1F
100
AcDbEntity
  8
0
  6
Continuous
 62
     7
370
    15
100
AcDbLine
 10
178.7725597404
 20
133.6940671962
 30
0.0
 11
178.7725597404
 21
138.2801733624
 31
0.0
  0
SPLINE
  5
C3
330
1F
100
AcDbEntity
  8
0
  6
Continuous
 62
     7
370
    15
100
AcDbSpline
210
0.0
220
0.0
230
1.0
 70
     8
 71
     3
 72
     8
 73
     4
 74
     0
 42
0.000000001
 43
0.00000001
 40
0.0
 40
0.0
 40
0.0
 40
0.0
 40
1.0
 40
1.0
 40
1.0
 40
1.0
 10
177.1607226757629
 20
130.1859758985719
 30
0.0
 10
177.6855137952588
 20
131.3609530862767
 30
0.0
 10
178.2240300464416
 20
132.5298522540148
 30
0.0
 10
178.7725593178196
 20
133.6940664827611
 30
0.0
  0
LINE
  5
C4
330
1F
100
AcDbEntity
  8
0
  6
Continuous
 62
     7
370
    15
100
AcDbLine
 10
177.1607225545
 20
130.1859762233
 30
0.0
 11
177.1607225545
 21
135.6006633204
 31
0.0
  0
SPLINE
  5
C5
330
1F
100
AcDbEntity
  8
0
  6
Continuous
 62
     7
370
    15
100
AcDbSpline
210
0.0
220
0.0
230
1.0
 70
     8
 71
     3
 72
    12
 73
     8
 74
     0
 42
0.000000001
 43
0.00000001
 40
0.0
 40
0.0
 40
0.0
 40
0.0
 40
0.5000000000000042
 40
0.5000000000000042
 40
0.7500000000000021
 40
0.7500000000000021
 40
1.0
 40
1.0
 40
1.0
 40
1.0
 10
183.2007226757629
 20
137.7943879761547
 30
0.0
 10
183.2007226757629
 20
137.9147150092078
 30
0.0
 10
183.1469278641699
 20
138.0328125826896
 30
0.0
 10
182.9860042942036
 20
138.1724553251286
 30
0.0
 10
182.9212528331011
 20
138.210731278523
 30
0.0
 10
182.7690326497834
 20
138.2655711081574
 30
0.0
 10
182.6862251342584
 20
138.2801729219291
 30
0.0
 10
182.6007226757629
 20
138.2801729219291
 30
0.0
  0
SPLINE
  5
C6
330
1F
100
AcDbEntity
  8
0
  6
Continuous
 62
     7
370
    15
100
AcDbSpline
210
0.0
220
0.0
230
1.0
 70
     8
 71
     3
 72
    14
 73
    10
 74
     0
 42
0.000000001
 43
0.00000001
 40
0.0
 40
0.0
 40
0.0
 40
0.0
 40
0.25
 40
0.25
 40
0.5
 40
0.5
 40
0.75
 40
0.75
 40
1.0
 40
1.0
 40
1.0
 40
1.0
 10
182.6007226757629
 20
133.6940664827611
 30
0.0
 10
182.6891452138854
 20
133.6940664827611
 30
0.0
 10
182.7771992035784
 20
133.6689941323016
 30
0.0
 10
182.9290289674497
 20
133.5826520673303
 30
0.0
 10
182.9948719120136
 20
133.5211088128175
 30
0.0
 10
183.0986709725591
 20
133.3792810665665
 30
0.0
 10
183.1371430820337
 20
133.2992324765965
 30
0.0
 10
183.1883657453083
 20
133.1302199799228
 30
0.0
 10
183.2007226757629
 20
133.0434406730531
 30
0.0
 10
183.2007226757629
 20
132.9552491987971
 30
0.0
  0
LINE
  5
C7
330
1F
100
AcDbEntity
  8
0
  6
Continuous
 62
     7
370
    15
100
AcDbLine
 10
183.2007229112
 20
132.9552489977
 30
0.0
 11
183.2007229112
 21
137.7943880569
 31
0.0
  0
SPLINE
  5
C8
330
1F
100
AcDbEntity
  8
0
  6
Continuous
 62
     7
370
    15
100
AcDbSpline
210
0.0
220
0.0
230
1.0
 70
     8
 71
     3
 72
    12
 73
     8
 74
     0
 42
0.000000001
 43
0.00000001
 40
0.0
 40
0.0
 40
0.0
 40
0.0
 40
0.5000000000000003
 40
0.5000000000000003
 40
0.7500000000000001
 40
0.7500000000000001
 40
1.0
 40
1.0
 40
1.0
 40
1.0
 10
167.3507226757629
 20
132.9552491987971
 30
0.0
 10
167.3507226757629
 20
133.1318655953188
 30
0.0
 10
167.4000633105847
 20
133.3069227666925
 30
0.0
 10
167.5562788688728
 20
133.5208729791852
 30
0.0
 10
167.6215814487735
 20
133.5822056220321
 30
0.0
 10
167.7753504667339
 20
133.6695937200034
 30
0.0
 10
167.8623635733443
 20
133.694066482761
 30
0.0
 10
167.9507226757628
 20
133.694066482761
 30
0.0
  0
LINE
  5
C9
330
1F
100
AcDbEntity
  8
0
  6
Continuous
 62
     7
370
    15
100
AcDbLine
 10
167.9507227398
 20
133.6940671962
 30
0.0
 11
171.7288860835
 21
133.6940671962
 31
0.0
  0
SPLINE
  5
CA
330
1F
100
AcDbEntity
  8
0
  6
Continuous
 62
     7
370
    15
100
AcDbSpline
210
0.0
220
0.0
230
1.0
 70
     8
 71
     3
 72
     8
 73
     4
 74
     0
 42
0.000000001
 43
0.00000001
 40
0.0
 40
0.0
 40
0.0
 40
0.0
 40
1.0
 40
1.0
 40
1.0
 40
1.0
 10
171.7288860337061
 20
133.6940664827611
 30
0.0
 10
172.277830811903
 20
132.5289703704473
 30
0.0
 10
172.8164411864198
 20
131.3598120536228
 30
0.0
 10
173.3407226757629
 20
130.1859758985719
 30
0.0
  0
SPLINE
  5
CB
330
1F
100
AcDbEntity
  8
0
  6
Continuous
 62
     7
370
    15
100
AcDbSpline
210
0.0
220
0.0
230
1.0
 70
     8
 71
     3
 72
    14
 73
    10
 74
     0
 42
0.000000001
 43
0.00000001
 40
0.0
 40
0.0
 40
0.0
 40
0.0
 40
0.25
 40
0.25
 40
0.5
 40
0.5
 40
0.75
 40
0.75
 40
1.0
 40
1.0
 40
1.0
 40
1.0
 10
173.3407226757629
 20
129.9810776622388
 30
0.0
 10
173.3407226757629
 20
129.8591423270572
 30
0.0
 10
173.3567670433028
 20
129.7395880865558
 30
0.0
 10
173.4224963854822
 20
129.5054721034125
 30
0.0
 10
173.4717037557305
 20
129.3935395632778
 30
0.0
 10
173.6067167366293
 20
129.191139754041
 30
0.0
 10
173.6926368052357
 20
129.101274560478
 30
0.0
 10
173.8991516072411
 20
128.9709400508678
 30
0.0
 10
174.0192903196121
 20
128.93277298617
 30
0.0
 10
174.1407226757629
 20
128.93277298617
 30
0.0
  0
LINE
  5
CC
330
1F
100
AcDbEntity
  8
0
  6
Continuous
 62
     7
370
    15
100
AcDbLine
 10
174.1407228418
 20
128.9327736657
 30
0.0
 11
176.3607229821
 21
128.9327736657
 31
0.0
  0
SPLINE
  5
CD
330
1F
100
AcDbEntity
  8
0
  6
Continuous
 62
     7
370
    15
100
AcDbSpline
210
0.0
220
0.0
230
1.0
 70
     8
 71
     3
 72
    12
 73
     8
 74
     0
 42
0.000000001
 43
0.00000001
 40
0.0
 40
0.0
 40
0.0
 40
0.0
 40
0.2499999999999986
 40
0.2499999999999986
 40
0.4999999999999971
 40
0.4999999999999971
 40
1.0
 40
1.0
 40
1.0
 40
1.0
 10
176.3607226757629
 20
128.93277298617
 30
0.0
 10
176.4828046732512
 20
128.93277298617
 30
0.0
 10
176.6033952157369
 20
128.9714993423437
 30
0.0
 10
176.8088904994367
 20
129.1014629300899
 30
0.0
 10
176.8944069823892
 20
129.1906691666367
 30
0.0
 10
177.0978013339334
 20
129.4955457041823
 30
0.0
 10
177.1607226757629
 20
129.7383163182844
 30
0.0
 10
177.1607226757629
 20
129.9810776622388
 30
0.0
  0
LINE
  5
CE
330
1F
100
AcDbEntity
  8
0
  6
Continuous
 62
     7
370
    15
100
AcDbLine
 10
178.7725597404
 20
133.6940671962
 30
0.0
 11
182.6007220678
 21
133.6940671962
 31
0.0
  0
LINE
  5
CF
330
1F
100
AcDbEntity
  8
0
  6
Continuous
 62
     7
370
    15
100
AcDbLine
 10
173.3407223381
 20
130.1859762233
 30
0.0
 11
173.3407223381
 21
129.9810778063
 31
0.0
  0
LINE
  5
D0
330
1F
100
AcDbEntity
  8
0
  6
Continuous
 62
     7
370
    15
100
AcDbLine
 10
177.1607225545
 20
129.9810778063
 30
0.0
 11
177.1607225545
 21
130.1859762233
 31
0.0
  0
LINE
  5
D1
330
1F
100
AcDbEntity
  8
0
  6
Continuous
 62
     7
370
    15
100
AcDbLine
 10
167.3507225949
 20
132.9552489977
 30
0.0
 11
167.3507225949
 21
126.1338364046
 31
0.0
  0
LINE
  5
D2
330
1F
100
AcDbEntity
  8
0
  6
Continuous
 62
     7
370
    15
100
AcDbLine
 10
183.2007229112
 20
132.9552489977
 30
0.0
 11
183.2007229112
 21
126.1338364046
 31
0.0
  0
SPLINE
  5
D3
330
1F
100
AcDbEntity
  8
0
  6
Continuous
 62
     7
370
    15
100
AcDbSpline
210
0.0
220
0.0
230
1.0
 70
     8
 71
     3
 72
    12
 73
     8
 74
     0
 42
0.000000001
 43
0.00000001
 40
0.0
 40
0.0
 40
0.0
 40
0.0
 40
0.5
 40
0.5
 40
0.75
 40
0.75
 40
1.0
 40
1.0
 40
1.0
 40
1.0
 10
177.1607226757629
 20
135.4359163305205
 30
0.0
 10
177.1607226757629
 20
135.222778928869
 30
0.0
 10
177.0780802606149
 20
135.0077994041314
 30
0.0
 10
176.8594968498046
 20
134.7748803352456
 30
0.0
 10
176.7704068968238
 20
134.7110134254251
 30
0.0
 10
176.5750015789263
 20
134.6246272710433
 30
0.0
 10
176.468477531983
 20
134.6016946990002
 30
0.0
 10
176.3607226757629
 20
134.6016946990002
 30
0.0
  0
LINE
  5
D4
330
1F
100
AcDbEntity
  8
0
  6
Continuous
 62
     7
370
    15
100
AcDbLine
 10
182.6007220678
 20
138.2801733624
 30
0.0
 11
178.7725597404
 21
138.2801733624
 31
0.0
  0
LINE
  5
D5
330
1F
100
AcDbEntity
  8
0
  6
Continuous
 62
     7
370
    15
100
AcDbLine
 10
176.3607229821
 20
134.6016950619
 30
0.0
 11
174.1407228418
 21
134.6016950619
 31
0.0
  0
SPLINE
  5
D6
330
1F
100
AcDbEntity
  8
0
  6
Continuous
 62
     7
370
    15
100
AcDbSpline
210
0.0
220
0.0
230
1.0
 70
     8
 71
     3
 72
     8
 73
     4
 74
     0
 42
0.000000001
 43
0.00000001
 40
0.0
 40
0.0
 40
0.0
 40
0.0
 40
0.0012409313617635
 40
0.0012409313617635
 40
0.0012409313617635
 40
0.0012409313617635
 10
172.2867679894668
 20
137.496374998978
 30
0.0
 10
172.1015441499109
 20
137.7579025424551
 30
0.0
 10
171.9155589619383
 20
138.0191610442305
 30
0.0
 10
171.7288860337061
 20
138.2801729219291
 30
0.0
  0
SPLINE
  5
D7
330
1F
100
AcDbEntity
  8
0
  6
Continuous
 62
     7
370
    15
100
AcDbSpline
210
0.0
220
0.0
230
1.0
 70
     8
 71
     3
 72
     8
 73
     4
 74
     0
 42
0.000000001
 43
0.00000001
 40
0.0
 40
0.0
 40
0.0
 40
0.0
 40
1.0
 40
1.0
 40
1.0
 40
1.0
 10
173.3407226757629
 20
135.6006633022149
 30
0.0
 10
172.9900704354353
 20
136.2329317112653
 30
0.0
 10
172.6387120123751
 20
136.8648136109641
 30
0.0
 10
172.2867679894668
 20
137.496374998978
 30
0.0
  0
LINE
  5
D8
330
1F
100
AcDbEntity
  8
0
  6
Continuous
 62
     7
370
    15
100
AcDbLine
 10
171.7288860835
 20
133.6940671962
 30
0.0
 11
171.7288860835
 21
138.2801733624
 31
0.0
  0
LINE
  5
D9
330
1F
100
AcDbEntity
  8
0
  6
Continuous
 62
     7
370
    15
100
AcDbLine
 10
173.3407223381
 20
130.1859762233
 30
0.0
 11
173.3407223381
 21
135.6006633204
 31
0.0
  0
SPLINE
  5
DA
330
1F
100
AcDbEntity
  8
0
  6
Continuous
 62
     7
370
    15
100
AcDbSpline
210
0.0
220
0.0
230
1.0
 70
     8
 71
     3
 72
    14
 73
    10
 74
     0
 42
0.000000001
 43
0.00000001
 40
0.0
 40
0.0
 40
0.0
 40
0.0
 40
0.25
 40
0.25
 40
0.5
 40
0.5
 40
0.75
 40
0.75
 40
1.0
 40
1.0
 40
1.0
 40
1.0
 10
174.1407226757629
 20
134.6016946990002
 30
0.0
 10
174.0333536312485
 20
134.6016946990002
 30
0.0
 10
173.9265481394856
 20
134.6246196944052
 30
0.0
 10
173.7314067709688
 20
134.7108121282793
 30
0.0
 10
173.6421970533789
 20
134.7746561249433
 30
0.0
 10
173.4962702605625
 20
134.9300722328847
 30
0.0
 10
173.4382805167645
 20
135.0227268110924
 30
0.0
 10
173.3606866752419
 20
135.221960151142
 30
0.0
 10
173.3407226757629
 20
135.3285652461972
 30
0.0
 10
173.3407226757629
 20
135.4359163305205
 30
0.0
  0
LINE
  5
DB
330
1F
100
AcDbEntity
  8
0
  6
Continuous
 62
     7
370
    15
100
AcDbLine
 10
171.7288860835
 20
138.2801733624
 30
0.0
 11
167.9507227398
 21
138.2801733624
 31
0.0
  0
SPLINE
  5
DC
330
1F
100
AcDbEntity
  8
0
  6
Continuous
 62
     7
370
    15
100
AcDbSpline
210
0.0
220
0.0
230
1.0
 70
     8
 71
     3
 72
    10
 73
     6
 74
     0
 42
0.000000001
 43
0.00000001
 40
0.0
 40
0.0
 40
0.0
 40
0.0
 40
0.5
 40
0.5
 40
1.0
 40
1.0
 40
1.0
 40
1.0
 10
167.6379642770704
 20
138.2091333976704
 30
0.0
 10
167.5621246830669
 20
138.1390842113418
 30
0.0
 10
167.4948011653409
 20
138.0538654377681
 30
0.0
 10
167.3881575270358
 20
137.8436393111063
 30
0.0
 10
167.3507226757629
 20
137.720130120239
 30
0.0
 10
167.3507226757629
 20
137.5902119997164
 30
0.0
  0
SPLINE
  5
DD
330
1F
100
AcDbEntity
  8
0
  6
Continuous
 62
     7
370
    15
100
AcDbSpline
210
0.0
220
0.0
230
1.0
 70
     8
 71
     3
 72
     8
 73
     4
 74
     0
 42
0.000000001
 43
0.00000001
 40
0.0
 40
0.0
 40
0.0
 40
0.0
 40
1.0
 40
1.0
 40
1.0
 40
1.0
 10
167.9507226757628
 20
138.2801729219291
 30
0.0
 10
167.8385444215832
 20
138.2801729219291
 30
0.0
 10
167.7298749088548
 20
138.2544918566681
 30
0.0
 10
167.6379642770704
 20
138.2091333976704
 30
0.0
  0
LINE
  5
DE
330
1F
100
AcDbEntity
  8
0
  6
Continuous
 62
     7
370
    15
100
AcDbLine
 10
167.3507225949
 20
132.9552489977
 30
0.0
 11
167.3507225949
 21
137.5902123463
 31
0.0
  0
SPLINE
  5
DF
330
1F
100
AcDbEntity
  8
0
  6
Continuous
 62
     7
370
    15
100
AcDbSpline
210
0.0
220
0.0
230
1.0
 70
    11
 71
     3
 72
    40
 73
    36
 74
     0
 42
0.000000001
 43
0.00000001
 40
0.0
 40
0.0
 40
0.0
 40
0.0
 40
0.0316577272528529
 40
0.0636711527089412
 40
0.0954481857144
 40
0.1267166773656873
 40
0.1577112139907894
 40
0.1887380282580347
 40
0.2196412409785022
 40
0.2500169066094206
 40
0.2803483479890143
 40
0.3113249912393954
 40
0.3423321469606929
 40
0.3733439935691294
 40
0.4045316186561111
 40
0.4363308399975628
 40
0.4683308760611227
 40
0.4999808609893511
 40
0.5001505135416963
 40
0.5317826313118224
 40
0.5637619987167927
 40
0.5954789343463054
 40
0.6267185520416829
 40
0.6577234440898942
 40
0.6887533839619592
 40
0.7197014307176014
 40
0.7500938269294417
 40
0.7804401107722877
 40
0.8114392543840894
 40
0.8424412842498433
 40
0.8734711373744958
 40
0.9046773938660585
 40
0.9364070957501273
 40
0.9683609960980666
 40
1.0
 40
1.0
 40
1.0
 40
1.0
 10
194.8507227084696
 20
107.7838368427135
 30
0.0
 10
194.8508586706504
 20
107.9706000515394
 30
0.0
 10
194.8867277150755
 20
108.3461881528244
 30
0.0
 10
195.0476688170211
 20
108.8870542768142
 30
0.0
 10
195.3010497647438
 20
109.3869333438909
 30
0.0
 10
195.6433999809419
 20
109.8219473501985
 30
0.0
 10
196.0605156349396
 20
110.1792486870316
 30
0.0
 10
196.5406727256402
 20
110.4434025847265
 30
0.0
 10
197.0602682451852
 20
110.6111095883192
 30
0.0
 10
197.6008592412151
 20
110.6668958539303
 30
0.0
 10
198.1419051937275
 20
110.611113816836
 30
0.0
 10
198.6614183694529
 20
110.4428953056662
 30
0.0
 10
199.1418132662272
 20
110.1783971208425
 30
0.0
 10
199.5585802552112
 20
109.821411003926
 30
0.0
 10
199.9006333613539
 20
109.38648008551
 30
0.0
 10
200.1535282005279
 20
108.8867849761187
 30
0.0
 10
200.3146006038185
 20
108.3461701090671
 30
0.0
 10
200.3506350309419
 20
107.9692226482264
 30
0.0
 10
200.3508068357648
 20
107.5955590025381
 30
0.0
 10
200.3151201956756
 20
107.2187991172279
 30
0.0
 10
200.1542178231099
 20
106.6788293206377
 30
0.0
 10
199.9006610449523
 20
106.1797808463748
 30
0.0
 10
199.5579173089379
 20
105.745665441771
 30
0.0
 10
199.140507777015
 20
105.3888744789616
 30
0.0
 10
198.6600587427443
 20
105.1246036896818
 30
0.0
 10
198.1401536964768
 20
104.9566083107041
 30
0.0
 10
197.5991024520415
 20
104.9007168851
 30
0.0
 10
197.0577427532994
 20
104.9567869282509
 30
0.0
 10
196.538197520071
 20
105.1255436925409
 30
0.0
 10
196.057907025867
 20
105.3906395186668
 30
0.0
 10
195.6412862634095
 20
105.7480323125075
 30
0.0
 10
195.2992192893112
 20
106.1826997450823
 30
0.0
 10
195.0463268311401
 20
106.681727981323
 30
0.0
 10
194.8858445316452
 20
107.2219841989595
 30
0.0
 10
194.850586826701
 20
107.5971840913777
 30
0.0
 10
194.8507227084696
 20
107.7838368427135
 30
0.0
  0
LINE
  5
E0
330
1F
100
AcDbEntity
  8
0
  6
Continuous
 62
     7
370
    15
100
AcDbLine
 10
204.1507217817
 20
107.7838368427
 30
0.0
 11
204.1507217817
 21
95.6838369083
 31
0.0
  0
LINE
  5
E1
330
1F
100
AcDbEntity
  8
0
  6
Continuous
 62
     7
370
    15
100
AcDbLine
 10
204.1507217817
 20
119.8838367771
 30
0.0
 11
204.1507217817
 21
107.7838368427
 31
0.0
  0
LINE
  5
E2
330
1F
100
AcDbEntity
  8
0
  6
Continuous
 62
     7
370
    15
100
AcDbLine
 10
95.9007221989
 20
96.3767064449
 30
0.0
 11
95.9007221989
 21
119.1909672406
 31
0.0
  0
ARC
  5
E3
330
1F
100
AcDbEntity
  8
0
  6
Continuous
 62
     7
370
    15
100
AcDbCircle
 10
177.0357099232
 20
98.5487188585
 30
0.0
 40
1.887488618175398
100
AcDbArc
 50
185.4102956623
 51
252.4538806135
  0
ARC
  5
E4
330
1F
100
AcDbEntity
  8
0
  6
Continuous
 62
     7
370
    15
100
AcDbCircle
 10
177.157414652
 20
98.6678897321
 30
0.0
 40
2.039380001474871
100
AcDbArc
 50
250.2024793675
 51
332.0819155772
  0
ARC
  5
E5
330
1F
100
AcDbEntity
  8
0
  6
Continuous
 62
     7
370
    15
100
AcDbCircle
 10
177.0194703512
 20
98.4871091767
 30
0.0
 40
1.762004641978149
100
AcDbArc
 50
161.4309259517
 51
252.8834751722
  0
ARC
  5
E6
330
1F
100
AcDbEntity
  8
0
  6
Continuous
 62
     7
370
    15
100
AcDbCircle
 10
177.1575485878
 20
98.6197728187
 30
0.0
 40
1.931667061840268
100
AcDbArc
 50
250.1263571657
 51
335.4254782804
  0
ARC
  5
E7
330
1F
100
AcDbEntity
  8
0
  6
Continuous
 62
     7
370
    15
100
AcDbCircle
 10
177.072128248
 20
98.489588492
 30
0.0
 40
1.402228202451729
100
AcDbArc
 50
87.388324733
 51
251.951738064
  0
ARC
  5
E8
330
1F
100
AcDbEntity
  8
0
  6
Continuous
 62
     7
370
    15
100
AcDbCircle
 10
177.1625318961
 20
98.5604467927
 30
0.0
 40
1.49897564484451
100
AcDbArc
 50
249.504617996
 51
349.6008519217
  0
CIRCLE
  5
E9
330
1F
100
AcDbEntity
  8
0
  6
HIDDEN
 62
     7
370
     0
100
AcDbCircle
 10
197.6007226758
 20
107.7838368427
 30
0.0
 40
1.776794919243099
  0
CIRCLE
  5
EA
330
1F
100
AcDbEntity
  8
0
  6
HIDDEN
 62
     7
370
     0
100
AcDbCircle
 10
197.6007226758
 20
107.7838368427
 30
0.0
 40
1.676794919243089
  0
SPLINE
  5
EB
330
1F
100
AcDbEntity
  8
0
  6
HIDDEN
 62
     7
370
     0
100
AcDbSpline
210
0.0
220
0.0
230
1.0
 70
     8
 71
     3
 72
     9
 73
     5
 74
     0
 42
0.000000001
 43
0.00000001
 40
0.0
 40
0.0
 40
0.0
 40
0.0
 40
0.9333113421934416
 40
1.0
 40
1.0
 40
1.0
 40
1.0
 10
175.1748317636473
 20
100.0372977640606
 30
0.0
 10
175.1602559450985
 20
99.93632767600094
 30
0.0
 10
175.1446386286792
 20
99.82814288975118
 30
0.0
 10
175.1516684835623
 20
99.73566039277631
 30
0.0
 10
175.1521372951491
 20
99.72949285918246
 30
0.0
  0
LWPOLYLINE
  5
EC
330
1F
100
AcDbEntity
  8
0
  6
HIDDEN
 62
     7
370
     0
100
AcDbPolyline
 90
       23
 70
   128
 43
0.0
 10
175.1748317636
 20
99.4554288399
 10
175.330213622
 20
98.9682065036
 10
175.6189366586
 20
98.5379792463
 10
176.0198542632
 20
98.1962592986
 10
176.5036009036
 20
97.9680750232
 10
177.0347462751
 20
97.8701408666
 10
177.5743862398
 20
97.9096289437
 10
178.0829945363
 20
98.0836465668
 10
178.5233201243
 20
98.3794495177
 10
178.8631103717
 20
98.7753705766
 10
179.0774784766
 20
99.2424111527
 10
179.1507223405
 20
99.7463637676
 10
179.0774784766
 20
100.2503159169
 10
178.8631103717
 20
100.717356493
 10
178.5233201243
 20
101.1132775519
 10
178.0829945363
 20
101.4090800371
 10
177.5743862398
 20
101.5830981258
 10
177.0347462751
 20
101.622586203
 10
176.5036009036
 20
101.5246515807
 10
176.0198542632
 20
101.296467771
 10
175.6189366586
 20
100.9547478233
 10
175.330213622
 20
100.524520566
 10
175.1748317636
 20
100.0372977641
  0
LWPOLYLINE
  5
ED
330
1F
100
AcDbEntity
  8
0
  6
HIDDEN
 62
     7
370
     0
100
AcDbPolyline
 90
       25
 70
   128
 43
0.0
 10
167.600934279
 20
98.885652208
 10
167.7293387491
 20
98.3526935514
 10
167.9276564408
 20
97.8560546126
 10
168.1823720008
 20
97.4295815166
 10
168.4761269733
 20
97.1023371156
 10
168.7889028124
 20
96.8966228601
 10
169.0993838727
 20
96.8264570173
 10
169.3864119023
 20
96.8966228601
 10
169.6304258674
 20
97.1023371156
 10
169.8147970036
 20
97.4295815166
 10
169.9269608378
 20
97.8560546126
 10
169.9592730746
 20
98.3526935514
 10
169.9095320672
 20
98.885652208
 10
169.7811273642
 20
99.4186108645
 10
169.5828101382
 20
99.9152498033
 10
169.3280943453
 20
100.3417228993
 10
169.0343393728
 20
100.6689673003
 10
168.7215635337
 20
100.8746815559
 10
168.4110824734
 20
100.944846933
 10
168.1240544438
 20
100.8746815559
 10
167.8800404787
 20
100.6689673003
 10
167.6956693426
 20
100.3417228993
 10
167.5835057411
 20
99.9152498033
 10
167.5511932716
 20
99.4186108645
 10
167.600934279
 20
98.885652208
  0
LWPOLYLINE
  5
EE
330
1F
100
AcDbEntity
  8
0
  6
HIDDEN
 62
     7
370
     0
100
AcDbPolyline
 90
       22
 70
   128
 43
0.0
 10
167.982450106
 20
98.9177828368
 10
168.1024463631
 20
98.4408870053
 10
168.2923667848
 20
98.0063654196
 10
168.5353362717
 20
97.6528279197
 10
168.8097658351
 20
97.4116861533
 10
169.0912711218
 20
97.3043679904
 10
169.3548391357
 20
97.3404092427
 10
169.5770508394
 20
97.516607092
 10
169.7381617285
 20
97.8173050743
 10
169.8238559782
 20
98.2157854077
 10
169.8265200265
 20
98.6766420018
 10
169.7459168516
 20
99.1589246031
 10
169.5892083242
 20
99.6197802659
 10
169.3703186482
 20
100.018261065
 10
169.1086970985
 20
100.3189590473
 10
168.8275899522
 20
100.4951568965
 10
168.5519748151
 20
100.5311976832
 10
168.30634128
 20
100.4238799859
 10
168.1125153571
 20
100.1827386852
 10
167.9877188306
 20
99.829200254
 10
167.9430404928
 20
99.3946786683
 10
167.982450106
 20
98.9177828368
  0
ELLIPSE
  5
EF
330
1F
100
AcDbEntity
  8
0
  6
HIDDEN
 62
     7
370
     0
100
AcDbEllipse
 10
177.1507226758
 20
100.8962467822
 30
0.0
 11
1.383467579512114
 21
-1.091267719176585
 31
0.0
210
0.0
220
0.0
230
1.0
 40
0.8239737799
 41
2.147131942757432
 42
5.288724596347238
  0
ELLIPSE
  5
F0
330
1F
100
AcDbEntity
  8
0
  6
HIDDEN
 62
     7
370
     0
100
AcDbEllipse
 10
177.1507226758
 20
100.8962467822
 30
0.0
 11
1.383467579512114
 21
1.753907414218517
 31
0.0
210
0.0
220
0.0
230
1.0
 40
0.5126701559
 41
0.9944607108323512
 42
4.136053364422157
  0
SPLINE
  5
F1
330
1F
100
AcDbEntity
  8
0
  6
HIDDEN
 62
     7
370
     0
100
AcDbSpline
210
0.0
220
0.0
230
1.0
 70
     8
 71
     3
 72
    14
 73
    10
 74
     0
 42
0.000000001
 43
0.00000001
 40
0.0
 40
0.0
 40
0.0
 40
0.0
 40
0.25
 40
0.25
 40
0.5
 40
0.5
 40
0.75
 40
0.75
 40
1.0
 40
1.0
 40
1.0
 40
1.0
 10
175.1748319131224
 20
99.45542927587564
 30
0.0
 10
175.2111957411527
 20
99.50092391127748
 30
0.0
 10
175.2436734683629
 20
99.54931571749373
 30
0.0
 10
175.2924270977786
 20
99.65480086142331
 30
0.0
 10
175.3073308754531
 20
99.71138536966623
 30
0.0
 10
175.3073413091108
 20
99.8202729636167
 30
0.0
 10
175.2924510133026
 20
99.87245762937931
 30
0.0
 10
175.2435620824251
 20
99.96373502832286
 30
0.0
 10
175.2111899041546
 20
100.0024017336971
 30
0.0
 10
175.1748319131225
 20
100.0372976732448
 30
0.0
  0
LWPOLYLINE
  5
F2
330
1F
100
AcDbEntity
  8
0
  6
HIDDEN
 62
     7
370
     0
100
AcDbPolyline
 90
       22
 70
   128
 43
0.0
 10
177.150722944
 20
98.2394400697
 10
177.6370689057
 20
98.3083244126
 10
178.0802005686
 20
98.5088558581
 10
178.4407444082
 20
98.8232172739
 10
178.6866647907
 20
99.2234745707
 10
178.796109163
 20
99.6740651962
 10
178.7593535863
 20
100.1349501956
 10
178.5796642087
 20
100.5651797813
 10
178.2730076246
 20
100.926525024
 10
177.8666306071
 20
101.1868790437
 10
177.3966423951
 20
101.3231082533
 10
176.9048025615
 20
101.3231082533
 10
176.4348143496
 20
101.1868790437
 10
176.0284373321
 20
100.926525024
 10
175.7217807479
 20
100.5651797813
 10
175.5420913704
 20
100.1349501956
 10
175.505336725
 20
99.6740651962
 10
175.6147810973
 20
99.2234745707
 10
175.8607005484
 20
98.8232172739
 10
176.2212443881
 20
98.5088558581
 10
176.6643769823
 20
98.3083244126
 10
177.150722944
 20
98.2394400697
  0
SPLINE
  5
F3
330
1F
100
AcDbEntity
  8
0
  6
HIDDEN
 62
     7
370
     0
100
AcDbSpline
210
0.0
220
0.0
230
1.0
 70
    11
 71
     3
 72
    54
 73
    50
 74
     0
 42
0.000000001
 43
0.00000001
 40
0.0
 40
0.0
 40
0.0
 40
0.0
 40
0.0312499999999999
 40
0.0312499999999999
 40
0.0624999999999999
 40
0.0624999999999999
 40
0.1249999999999998
 40
0.1249999999999998
 40
0.1562499999999997
 40
0.1562499999999997
 40
0.1874999999999996
 40
0.1874999999999996
 40
0.2187499999999996
 40
0.2187499999999996
 40
0.2499999999999995
 40
0.2499999999999995
 40
0.3124999999999994
 40
0.3124999999999994
 40
0.3749999999999992
 40
0.3749999999999992
 40
0.4062499999999992
 40
0.4062499999999992
 40
0.4374999999999991
 40
0.4374999999999991
 40
0.4999999999999994
 40
0.4999999999999994
 40
0.5624999999999998
 40
0.5624999999999998
 40
0.6250000000000001
 40
0.6250000000000001
 40
0.6562500000000001
 40
0.6562500000000001
 40
0.6875000000000002
 40
0.6875000000000002
 40
0.7187500000000002
 40
0.7187500000000002
 40
0.7500000000000001
 40
0.7500000000000001
 40
0.7812500000000001
 40
0.7812500000000001
 40
0.8125
 40
0.8125
 40
0.8749999999999999
 40
0.8749999999999999
 40
0.9062499999999999
 40
0.9062499999999999
 40
0.9374999999999998
 40
0.9374999999999998
 40
1.0
 40
1.0
 40
1.0
 40
1.0
 10
177.1507226757629
 20
105.5909740989397
 30
0.0
 10
177.037923069822
 20
105.5909740989397
 30
0.0
 10
176.928066571901
 20
105.5982264469601
 30
0.0
 10
176.7135014031004
 20
105.6266777937002
 30
0.0
 10
176.6082025689446
 20
105.6482477603978
 30
0.0
 10
176.3131601096827
 20
105.7325196114426
 30
0.0
 10
176.1372134875562
 20
105.8160718073023
 30
0.0
 10
175.9150662052849
 20
105.9830368990512
 30
0.0
 10
175.8468600907082
 20
106.0466920818628
 30
0.0
 10
175.7280908717959
 20
106.1865095506811
 30
0.0
 10
175.6769401286083
 20
106.2628772802565
 30
0.0
 10
175.5919238263967
 20
106.4307839273653
 30
0.0
 10
175.5581081764155
 20
106.5233498039912
 30
0.0
 10
175.5131675475491
 20
106.7153348044472
 30
0.0
 10
175.5013051923049
 20
106.8157592750872
 30
0.0
 10
175.4996197454439
 20
107.1315548358474
 30
0.0
 10
175.5454340994071
 20
107.3514452293576
 30
0.0
 10
175.7132940330952
 20
107.7632907645757
 30
0.0
 10
175.8348283538007
 20
107.956444946562
 30
0.0
 10
176.0560136823896
 20
108.204863284366
 30
0.0
 10
176.1375267433179
 20
108.2821236639493
 30
0.0
 10
176.3106087229702
 20
108.4187125991439
 30
0.0
 10
176.4023808010575
 20
108.4785616723189
 30
0.0
 10
176.6963549794359
 20
108.629934425935
 30
0.0
 10
176.9187785397787
 20
108.6905787416663
 30
0.0
 10
177.3665433595832
 20
108.6932919047585
 30
0.0
 10
177.5879214803553
 20
108.6360420955784
 30
0.0
 10
177.9841323733017
 20
108.4372913204747
 30
0.0
 10
178.1604955721199
 20
108.2978892366453
 30
0.0
 10
178.3850329071748
 20
108.0491540848853
 30
0.0
 10
178.4521154742057
 20
107.9608011570793
 30
0.0
 10
178.5713234170177
 20
107.7734436439234
 30
0.0
 10
178.62392596632
 20
107.6732148567299
 30
0.0
 10
178.7097330717529
 20
107.4670236556736
 30
0.0
 10
178.7428833346006
 20
107.3618410530729
 30
0.0
 10
178.7884505557474
 20
107.1472812064833
 30
0.0
 10
178.800309778861
 20
107.0389464496878
 30
0.0
 10
178.8011139833577
 20
106.8298483849222
 30
0.0
 10
178.790034768598
 20
106.726404827762
 30
0.0
 10
178.7460081290993
 20
106.5315317509499
 30
0.0
 10
178.713534610544
 20
106.4404098079764
 30
0.0
 10
178.586158150904
 20
106.1839731268264
 30
0.0
 10
178.4640992854099
 20
106.0422179483831
 30
0.0
 10
178.2416080350021
 20
105.8738571912843
 30
0.0
 10
178.1612623804373
 20
105.8252194717808
 30
0.0
 10
177.9869360263294
 20
105.7409083440751
 30
0.0
 10
177.8929185740581
 20
105.7054537652434
 30
0.0
 10
177.5980038189805
 20
105.6207061492517
 30
0.0
 10
177.3763218876446
 20
105.5909740989397
 30
0.0
 10
177.1507226757629
 20
105.5909740989397
 30
0.0
  0
ELLIPSE
  5
F4
330
1F
100
AcDbEntity
  8
0
  6
HIDDEN
 62
     7
370
     0
100
AcDbEllipse
 10
177.1507226758
 20
100.8962467822
 30
0.0
 11
1.383467579512114
 21
1.753907414218517
 31
0.0
210
0.0
220
0.0
230
1.0
 40
0.5126701559
 41
0.982973584609872
 42
0.9944607108323671
  0
SPLINE
  5
F5
330
1F
100
AcDbEntity
  8
0
  6
HIDDEN
 62
     7
370
     0
100
AcDbSpline
210
0.0
220
0.0
230
1.0
 70
     8
 71
     3
 72
     8
 73
     4
 74
     0
 42
0.000000001
 43
0.00000001
 40
0.0
 40
0.0
 40
0.0
 40
0.0
 40
1.0
 40
1.0
 40
1.0
 40
1.0
 10
177.1696760171951
 20
102.4590899323763
 30
0.0
 10
177.1866749012745
 20
102.451106658863
 30
0.0
 10
177.2036790458156
 20
102.4423702564152
 30
0.0
 10
177.2206637719179
 20
102.4328934045777
 30
0.0
  0
ELLIPSE
  5
F6
330
1F
100
AcDbEntity
  8
0
  6
HIDDEN
 62
     7
370
     0
100
AcDbEllipse
 10
177.1507226758
 20
100.8962467822
 30
0.0
 11
1.383467579512114
 21
-1.091267719176585
 31
0.0
210
0.0
220
0.0
230
1.0
 40
0.8239737799
 41
2.104730695494627
 42
2.147131942757433
  0
ELLIPSE
  5
F7
330
1F
100
AcDbEntity
  8
0
  6
HIDDEN
 62
     7
370
     0
100
AcDbEllipse
 10
177.1507226758
 20
100.8962467822
 30
0.0
 11
1.383467579512114
 21
-1.091267719176585
 31
0.0
210
0.0
220
0.0
230
1.0
 40
0.8239737799
 41
5.288724596347239
 42
5.331125843610484
  0
SPLINE
  5
F8
330
1F
100
AcDbEntity
  8
0
  6
HIDDEN
 62
     7
370
     0
100
AcDbSpline
210
0.0
220
0.0
230
1.0
 70
     8
 71
     3
 72
     8
 73
     4
 74
     0
 42
0.000000001
 43
0.00000001
 40
0.0
 40
0.0
 40
0.0
 40
0.0
 40
1.0
 40
1.0
 40
1.0
 40
1.0
 10
177.2206637719179
 20
99.33469491634436
 30
0.0
 10
177.2036790458156
 20
99.3418106263941
 30
0.0
 10
177.1866749012745
 20
99.34968575591577
 30
0.0
 10
177.1696760171951
 20
99.35830887537
 30
0.0
  0
ELLIPSE
  5
F9
330
1F
100
AcDbEntity
  8
0
  6
HIDDEN
 62
     7
370
     0
100
AcDbEllipse
 10
177.1507226758
 20
100.8962467822
 30
0.0
 11
1.383467579512114
 21
1.753907414218517
 31
0.0
210
0.0
220
0.0
230
1.0
 40
0.5126701559
 41
4.136053364422173
 42
4.147540490644667
  0
LINE
  5
FA
330
1F
100
AcDbEntity
  8
0
  6
HIDDEN
 62
     7
370
     0
100
AcDbLine
 10
195.3507218294
 20
107.7838368427
 30
0.0
 11
195.3779723279
 21
107.6274619908
 31
0.0
  0
SPLINE
  5
FB
330
1F
100
AcDbEntity
  8
0
  6
HIDDEN
 62
     7
370
     0
100
AcDbSpline
210
0.0
220
0.0
230
1.0
 70
     8
 71
     3
 72
     9
 73
     5
 74
     0
 42
0.000000001
 43
0.00000001
 40
0.0
 40
0.0
 40
0.0
 40
0.0
 40
0.7206044516859973
 40
0.9999999999999999
 40
0.9999999999999999
 40
0.9999999999999999
 40
0.9999999999999999
 10
196.9685744278056
 20
105.6431243840731
 30
0.0
 10
197.1787565758627
 20
105.5805379212176
 30
0.0
 10
197.4704313602265
 20
105.493685192638
 30
0.0
 10
197.7622064219471
 20
105.557952868642
 30
0.0
 10
197.8437270753009
 20
105.575908971218
 30
0.0
  0
LINE
  5
FC
330
1F
100
AcDbEntity
  8
0
  6
HIDDEN
 62
     7
370
     0
100
AcDbLine
 10
195.418589168
 20
108.1728849448
 30
0.0
 11
195.3507218294
 21
107.7838368427
 31
0.0
  0
LINE
  5
FD
330
1F
100
AcDbEntity
  8
0
  6
HIDDEN
 62
     7
370
     0
100
AcDbLine
 10
167.3507225949
 20
132.583837555
 30
0.0
 11
167.6879810419
 21
132.583837555
 31
0.0
  0
ELLIPSE
  5
FE
330
1F
100
AcDbEntity
  8
0
  6
HIDDEN
 62
     7
370
     0
100
AcDbEllipse
 10
167.687980976
 20
134.1838368427
 30
0.0
 11
0.0
 21
1.600000000000023
 31
0.0
210
0.0
220
0.0
230
1.0
 40
0.4142135624
 41
3.141592653589793
 42
4.712388980384695
  0
LINE
  5
FF
330
1F
100
AcDbEntity
  8
0
  6
HIDDEN
 62
     7
370
     0
100
AcDbLine
 10
167.6879810419
 20
85.1838361185
 30
0.0
 11
167.3507225949
 21
85.1838361185
 31
0.0
  0
ELLIPSE
  5
100
330
1F
100
AcDbEntity
  8
0
  6
HIDDEN
 62
     7
370
     0
100
AcDbEllipse
 10
167.687980976
 20
83.5838368427
 30
0.0
 11
0.0
 21
1.599999999999994
 31
0.0
210
0.0
220
0.0
230
1.0
 40
0.4142135624
 41
4.712388980384695
 42
6.283185307179586
  0
LINE
  5
101
330
1F
100
AcDbEntity
  8
0
  6
HIDDEN
 62
     7
370
     0
100
AcDbLine
 10
168.350722526
 20
77.8903882664
 30
0.0
 11
167.5668671977
 21
77.4321067792
 31
0.0
  0
LINE
  5
102
330
1F
100
AcDbEntity
  8
0
  6
HIDDEN
 62
     7
370
     0
100
AcDbLine
 10
167.637964363
 20
138.2091339391
 30
0.0
 11
168.350722526
 21
137.4963741463
 31
0.0
  0
LINE
  5
103
330
1F
100
AcDbEntity
  8
0
  6
HIDDEN
 62
     7
370
     0
100
AcDbLine
 10
102.9007214837
 20
99.2838363808
 30
0.0
 11
102.9007214837
 21
116.2838373046
 31
0.0
  0
LINE
  5
104
330
1F
100
AcDbEntity
  8
0
  6
HIDDEN
 62
     7
370
     0
100
AcDbLine
 10
105.8966520958
 20
100.7838366266
 30
0.0
 11
105.8966520958
 21
114.7838370588
 31
0.0
  0
LINE
  5
105
330
1F
100
AcDbEntity
  8
0
  6
HIDDEN
 62
     7
370
     0
100
AcDbLine
 10
172.185932637
 20
77.8903882664
 30
0.0
 11
168.350722526
 21
77.8903882664
 31
0.0
  0
LINE
  5
106
330
1F
100
AcDbEntity
  8
0
  6
HIDDEN
 62
     7
370
     0
100
AcDbLine
 10
183.2007229112
 20
77.8903882664
 30
0.0
 11
178.3155122556
 21
77.8903882664
 31
0.0
  0
LINE
  5
107
330
1F
100
AcDbEntity
  8
0
  6
HIDDEN
 62
     7
370
     0
100
AcDbLine
 10
168.350722526
 20
77.8903882664
 30
0.0
 11
168.350722526
 21
83.5838369738
 31
0.0
  0
LINE
  5
108
330
1F
100
AcDbEntity
  8
0
  6
HIDDEN
 62
     7
370
     0
100
AcDbLine
 10
183.2007229112
 20
85.1838361185
 30
0.0
 11
167.6879810419
 21
85.1838361185
 31
0.0
  0
LINE
  5
109
330
1F
100
AcDbEntity
  8
0
  6
HIDDEN
 62
     7
370
     0
100
AcDbLine
 10
167.6879810419
 20
132.583837555
 30
0.0
 11
183.2007229112
 21
132.583837555
 31
0.0
  0
LINE
  5
10A
330
1F
100
AcDbEntity
  8
0
  6
HIDDEN
 62
     7
370
     0
100
AcDbLine
 10
168.350722526
 20
137.4963741463
 30
0.0
 11
172.2867678635
 21
137.4963741463
 31
0.0
  0
LINE
  5
10B
330
1F
100
AcDbEntity
  8
0
  6
HIDDEN
 62
     7
370
     0
100
AcDbLine
 10
178.2146770291
 20
137.4963741463
 30
0.0
 11
183.2007229112
 21
137.4963741463
 31
0.0
  0
LINE
  5
10C
330
1F
100
AcDbEntity
  8
0
  6
HIDDEN
 62
     7
370
     0
100
AcDbLine
 10
168.350722526
 20
137.4963741463
 30
0.0
 11
168.350722526
 21
134.1838366997
 31
0.0
  0
SPLINE
  5
10D
330
1F
100
AcDbEntity
  8
0
  6
HIDDEN
 62
     7
370
     0
100
AcDbSpline
210
0.0
220
0.0
230
1.0
 70
     8
 71
     3
 72
    16
 73
    12
 74
     0
 42
0.000000001
 43
0.00000001
 40
0.0
 40
0.0
 40
0.0
 40
0.0
 40
0.2500000000000001
 40
0.2500000000000001
 40
0.5000000000000001
 40
0.5000000000000001
 40
0.6250000000000001
 40
0.6250000000000001
 40
0.7500000000000002
 40
0.7500000000000002
 40
1.0
 40
1.0
 40
1.0
 40
1.0
 10
204.1507226757629
 20
114.6246739580909
 30
0.0
 10
204.1507226757628
 20
114.5562030359072
 30
0.0
 10
204.1461774655874
 20
114.4862747942548
 30
0.0
 10
204.1205075004636
 20
114.3411055641677
 30
0.0
 10
204.0987806205812
 20
114.2627548420969
 30
0.0
 10
204.0398211901215
 20
114.1605832932365
 30
0.0
 10
204.015171063138
 20
114.129394963969
 30
0.0
 10
203.9608540703412
 20
114.0831870468697
 30
0.0
 10
203.9320841386262
 20
114.068450030396
 30
0.0
 10
203.8493817686157
 20
114.0432523816818
 30
0.0
 10
203.7980922920091
 20
114.0488292192591
 30
0.0
 10
203.7507226757553
 20
114.0613825725081
 30
0.0
  0
SPLINE
  5
10E
330
1F
100
AcDbEntity
  8
0
  6
HIDDEN
 62
     7
370
     0
100
AcDbSpline
210
0.0
220
0.0
230
1.0
 70
     8
 71
     3
 72
     8
 73
     4
 74
     0
 42
0.000000001
 43
0.00000001
 40
0.0
 40
0.0
 40
0.0
 40
0.0
 40
1.0
 40
1.0
 40
1.0
 40
1.0
 10
203.7507226757577
 20
114.0613825725174
 30
0.0
 10
203.6918273511296
 20
114.0284307158452
 30
0.0
 10
203.6222177218501
 20
114.0067647598887
 30
0.0
 10
203.550722675763
 20
114.0067647598887
 30
0.0
  0
SPLINE
  5
10F
330
1F
100
AcDbEntity
  8
0
  6
HIDDEN
 62
     7
370
     0
100
AcDbSpline
210
0.0
220
0.0
230
1.0
 70
     8
 71
     3
 72
     8
 73
     4
 74
     0
 42
0.000000001
 43
0.00000001
 40
0.0
 40
0.0
 40
0.0
 40
0.0
 40
1.0
 40
1.0
 40
1.0
 40
1.0
 10
203.7507226757726
 20
101.5062911129012
 30
0.0
 10
203.6918273511412
 20
101.539242969578
 30
0.0
 10
203.6222177218561
 20
101.5609089255382
 30
0.0
 10
203.550722675763
 20
101.5609089255382
 30
0.0
  0
SPLINE
  5
110
330
1F
100
AcDbEntity
  8
0
  6
HIDDEN
 62
     7
370
     0
100
AcDbSpline
210
0.0
220
0.0
230
1.0
 70
     8
 71
     3
 72
    16
 73
    12
 74
     0
 42
0.000000001
 43
0.00000001
 40
0.0
 40
0.0
 40
0.0
 40
0.0
 40
0.2499999999999981
 40
0.2499999999999981
 40
0.3749999999999976
 40
0.3749999999999976
 40
0.4999999999999971
 40
0.4999999999999971
 40
0.7499999999999986
 40
0.7499999999999986
 40
1.0
 40
1.0
 40
1.0
 40
1.0
 10
203.7507226757726
 20
101.506291112901
 30
0.0
 10
203.7981046405395
 20
101.5188478035832
 30
0.0
 10
203.8492858590697
 20
101.5244725613469
 30
0.0
 10
203.9322409209867
 20
101.4991719106915
 30
0.0
 10
203.9609232821485
 20
101.4844273539521
 30
0.0
 10
204.0150310870525
 20
101.4384157865781
 30
0.0
 10
204.0394268411707
 20
101.407682971032
 30
0.0
 10
204.0987384039083
 20
101.3052010305271
 30
0.0
 10
204.1202659578083
 20
101.2275434717166
 30
0.0
 10
204.146096212556
 20
101.0822573511686
 30
0.0
 10
204.1507226757629
 20
101.0115250843555
 30
0.0
 10
204.1507226757629
 20
100.943004211151
 30
0.0
  0
LINE
  5
111
330
1F
100
AcDbEntity
  8
0
  6
HIDDEN
 62
     7
370
     0
100
AcDbLine
 10
187.6507218711
 20
107.7838368427
 30
0.0
 11
187.6507218711
 21
101.0838370483
 31
0.0
  0
LINE
  5
112
330
1F
100
AcDbEntity
  8
0
  6
HIDDEN
 62
     7
370
     0
100
AcDbLine
 10
187.6507218711
 20
114.4838366371
 30
0.0
 11
187.6507218711
 21
107.7838368427
 31
0.0
  0
LINE
  5
113
330
1F
100
AcDbEntity
  8
0
  6
HIDDEN
 62
     7
370
     0
100
AcDbLine
 10
191.0167488985
 20
107.7838368427
 30
0.0
 11
191.0167488985
 21
100.7838366266
 31
0.0
  0
LINE
  5
114
330
1F
100
AcDbEntity
  8
0
  6
HIDDEN
 62
     7
370
     0
100
AcDbLine
 10
191.0167488985
 20
114.7838370588
 30
0.0
 11
191.0167488985
 21
107.7838368427
 31
0.0
  0
LINE
  5
115
330
1F
100
AcDbEntity
  8
0
  6
HIDDEN
 62
     7
370
     0
100
AcDbLine
 10
197.2507241897
 20
114.0067647856
 30
0.0
 11
203.5507228009
 21
114.0067647856
 31
0.0
  0
LINE
  5
116
330
1F
100
AcDbEntity
  8
0
  6
HIDDEN
 62
     7
370
     0
100
AcDbLine
 10
197.2507241897
 20
101.5609088998
 30
0.0
 11
203.5507228009
 21
101.5609088998
 31
0.0
  0
LINE
  5
117
330
1F
100
AcDbEntity
  8
0
  6
HIDDEN
 62
     7
370
     0
100
AcDbLine
 10
138.9007217966
 20
100.7838366266
 30
0.0
 11
138.9007217966
 21
114.7838370588
 31
0.0
  0
LINE
  5
118
330
1F
100
AcDbEntity
  8
0
  6
HIDDEN
 62
     7
370
     0
100
AcDbLine
 10
141.6045952372
 20
105.2838368986
 30
0.0
 11
141.6045952372
 21
110.2838367868
 31
0.0
  0
SPLINE
  5
119
330
1F
100
AcDbEntity
  8
0
  6
HIDDEN
 62
     7
370
     0
100
AcDbSpline
210
0.0
220
0.0
230
1.0
 70
     8
 71
     3
 72
    14
 73
    10
 74
     0
 42
0.000000001
 43
0.00000001
 40
0.0
 40
0.0
 40
0.0
 40
0.0
 40
0.25
 40
0.25
 40
0.5
 40
0.5
 40
0.75
 40
0.75
 40
1.0
 40
1.0
 40
1.0
 40
1.0
 10
203.7507226757629
 20
116.8588368427135
 30
0.0
 10
203.7507226757628
 20
116.9915094066503
 30
0.0
 10
203.7508903447877
 20
117.1117232054073
 30
0.0
 10
203.7485253073597
 20
117.3280160563358
 30
0.0
 10
203.7464583743707
 20
117.4235874233854
 30
0.0
 10
203.7409978832798
 20
117.5792229792853
 30
0.0
 10
203.7372999133439
 20
117.6414910595205
 30
0.0
 10
203.7300953177549
 20
117.7276412174571
 30
0.0
 10
203.7265562322344
 20
117.7522193827914
 30
0.0
 10
203.7239706323671
 20
117.7576889715596
 30
0.0
  0
SPLINE
  5
11A
330
1F
100
AcDbEntity
  8
0
  6
HIDDEN
 62
     7
370
     0
100
AcDbSpline
210
0.0
220
0.0
230
1.0
 70
     8
 71
     3
 72
    11
 73
     7
 74
     0
 42
0.000000001
 43
0.00000001
 40
0.0
 40
0.0
 40
0.0
 40
0.0
 40
0.2792536309585317
 40
0.6041964157722355
 40
0.9296782526974026
 40
1.0
 40
1.0
 40
1.0
 40
1.0
 10
203.7235948972327
 20
117.7461785908915
 30
0.0
 10
203.7218280968594
 20
117.7344784438636
 30
0.0
 10
203.7180054269471
 20
117.7091638691738
 30
0.0
 10
203.7341217938965
 20
117.4283897669759
 30
0.0
 10
203.7495390574069
 20
117.1051570103362
 30
0.0
 10
203.7505439276118
 20
116.8959977604929
 30
0.0
 10
203.7507224611861
 20
116.8588367935396
 30
0.0
  0
LINE
  5
11B
330
1F
100
AcDbEntity
  8
0
  6
HIDDEN
 62
     7
370
     0
100
AcDbLine
 10
203.7507224612
 20
116.8588367935
 30
0.0
 11
203.7507224612
 21
114.0613826636
 31
0.0
  0
LINE
  5
11C
330
1F
100
AcDbEntity
  8
0
  6
HIDDEN
 62
     7
370
     0
100
AcDbLine
 10
203.7507224612
 20
98.7088368919
 30
0.0
 11
203.7507224612
 21
101.5062910218
 31
0.0
  0
SPLINE
  5
11D
330
1F
100
AcDbEntity
  8
0
  6
HIDDEN
 62
     7
370
     0
100
AcDbSpline
210
0.0
220
0.0
230
1.0
 70
     8
 71
     3
 72
    11
 73
     7
 74
     0
 42
0.000000001
 43
0.00000001
 40
0.0
 40
0.0
 40
0.0
 40
0.0
 40
0.2791207750311017
 40
0.6041000275187691
 40
0.9296187173773143
 40
0.9999999999999999
 40
0.9999999999999999
 40
0.9999999999999999
 40
0.9999999999999999
 10
203.7235911719424
 20
97.82153327876101
 30
0.0
 10
203.7218286357345
 20
97.83321973170753
 30
0.0
 10
203.7180139853502
 20
97.8585126771925
 30
0.0
 10
203.7340927966347
 20
98.13922600328162
 30
0.0
 10
203.7495963997378
 20
98.46246213037215
 30
0.0
 10
203.7505524915634
 20
98.67164866797418
 30
0.0
 10
203.7507224611861
 20
98.70883689188729
 30
0.0
  0
LINE
  5
11E
330
1F
100
AcDbEntity
  8
0
  6
HIDDEN
 62
     7
370
     0
100
AcDbLine
 10
197.2507241897
 20
98.7088368919
 30
0.0
 11
197.2507241897
 21
101.5609088998
 31
0.0
  0
LINE
  5
11F
330
1F
100
AcDbEntity
  8
0
  6
HIDDEN
 62
     7
370
     0
100
AcDbLine
 10
197.2507241897
 20
116.8588367935
 30
0.0
 11
197.2507241897
 21
114.0067647856
 31
0.0
  0
SPLINE
  5
120
330
1F
100
AcDbEntity
  8
0
  6
HIDDEN
 62
     7
370
     0
100
AcDbSpline
210
0.0
220
0.0
230
1.0
 70
    11
 71
     3
 72
    54
 73
    50
 74
     0
 42
0.000000001
 43
0.00000001
 40
0.0
 40
0.0
 40
0.0
 40
0.0
 40
0.0312499999999999
 40
0.0312499999999999
 40
0.0624999999999999
 40
0.0624999999999999
 40
0.1249999999999993
 40
0.1249999999999993
 40
0.1562499999999992
 40
0.1562499999999992
 40
0.1874999999999991
 40
0.1874999999999991
 40
0.218749999999999
 40
0.218749999999999
 40
0.2499999999999989
 40
0.2499999999999989
 40
0.3124999999999986
 40
0.3124999999999986
 40
0.3749999999999983
 40
0.3749999999999983
 40
0.4062499999999982
 40
0.4062499999999982
 40
0.4374999999999981
 40
0.4374999999999981
 40
0.4999999999999982
 40
0.4999999999999982
 40
0.5624999999999983
 40
0.5624999999999983
 40
0.6249999999999984
 40
0.6249999999999984
 40
0.6562499999999984
 40
0.6562499999999984
 40
0.6874999999999984
 40
0.6874999999999984
 40
0.7187499999999986
 40
0.7187499999999986
 40
0.7499999999999986
 40
0.7499999999999986
 40
0.7812499999999986
 40
0.7812499999999986
 40
0.8124999999999987
 40
0.8124999999999987
 40
0.8749999999999989
 40
0.8749999999999989
 40
0.9062499999999991
 40
0.9062499999999991
 40
0.9374999999999992
 40
0.9374999999999992
 40
1.0
 40
1.0
 40
1.0
 40
1.0
 10
177.1507226757629
 20
106.8757139378937
 30
0.0
 10
177.2635222817038
 20
106.8757139378937
 30
0.0
 10
177.3733787796247
 20
106.889942076276
 30
0.0
 10
177.5879439484254
 20
106.9437879856844
 30
0.0
 10
177.6932427825811
 20
106.9839955166522
 30
0.0
 10
177.988285241843
 20
107.1334429628123
 30
0.0
 10
178.1642318639696
 20
107.2733885000424
 30
0.0
 10
178.3863791462408
 20
107.5202842081667
 30
0.0
 10
178.4545852608175
 20
107.6103261790259
 30
0.0
 10
178.5733544797298
 20
107.7978668218467
 30
0.0
 10
178.6245052229174
 20
107.8957777369332
 30
0.0
 10
178.709521525129
 20
108.1002150309761
 30
0.0
 10
178.7433371751103
 20
108.2077607344215
 30
0.0
 10
178.7882778039766
 20
108.4197892330457
 30
0.0
 10
178.8001401592209
 20
108.5255970067883
 30
0.0
 10
178.8018256060819
 20
108.842153485106
 30
0.0
 10
178.7560112521186
 20
109.0409275294077
 30
0.0
 10
178.5881513184306
 20
109.3804996859855
 30
0.0
 10
178.4666169977251
 20
109.5227928810161
 30
0.0
 10
178.2454316691361
 20
109.6912890753827
 30
0.0
 10
178.1639186082078
 20
109.7409176166015
 30
0.0
 10
177.9908366285555
 20
109.8251214380727
 30
0.0
 10
177.8990645504682
 20
109.8600760501865
 30
0.0
 10
177.6050903720898
 20
109.9456504949962
 30
0.0
 10
177.382666811747
 20
109.9759877589359
 30
0.0
 10
176.9349019919426
 20
109.9773862356143
 30
0.0
 10
176.7135238711705
 20
109.9488696411774
 30
0.0
 10
176.317312978224
 20
109.8369613371044
 30
0.0
 10
176.1409497794058
 20
109.7539340169886
 30
0.0
 10
175.9164124443509
 20
109.5858815572271
 30
0.0
 10
175.8493298773201
 20
109.5234692636286
 30
0.0
 10
175.730121934508
 20
109.3839593781625
 30
0.0
 10
175.6775193852058
 20
109.3058677689788
 30
0.0
 10
175.5917122797729
 20
109.1365443082475
 30
0.0
 10
175.5585620169251
 20
109.0460500808003
 30
0.0
 10
175.5129947957784
 20
108.8518121754826
 30
0.0
 10
175.5011355726647
 20
108.7488607578395
 30
0.0
 10
175.500331368168
 20
108.5401257631944
 30
0.0
 10
175.5114105829277
 20
108.4316509808554
 30
0.0
 10
175.5554372224264
 20
108.2171265840788
 30
0.0
 10
175.5879107409817
 20
108.111596253152
 30
0.0
 10
175.7152872006217
 20
107.8003385576935
 30
0.0
 10
175.8373460661158
 20
107.6075452346451
 30
0.0
 10
176.0598373165236
 20
107.3589587428221
 30
0.0
 10
176.1401829710884
 20
107.2831357622303
 30
0.0
 10
176.3145093251963
 20
107.1462131756076
 30
0.0
 10
176.4085267774677
 20
107.085403494266
 30
0.0
 10
176.7034415325452
 20
106.9352334066704
 30
0.0
 10
176.9251234638811
 20
106.8757139378937
 30
0.0
 10
177.1507226757629
 20
106.8757139378937
 30
0.0
  0
LINE
  5
121
330
1F
100
AcDbEntity
  8
0
  6
HIDDEN
 62
     7
370
     0
100
AcDbLine
 10
197.2507241897
 20
117.7588371273
 30
0.0
 11
197.2507241897
 21
116.8588367935
 31
0.0
  0
LINE
  5
122
330
1F
100
AcDbEntity
  8
0
  6
HIDDEN
 62
     7
370
     0
100
AcDbLine
 10
197.2507241897
 20
97.8088365581
 30
0.0
 11
197.2507241897
 21
98.7088368919
 31
0.0
  0
ELLIPSE
  5
123
330
1F
100
AcDbEntity
  8
0
  6
HIDDEN
 62
     7
370
     0
100
AcDbEllipse
 10
177.1507226758
 20
114.6714269033
 30
0.0
 11
-1.383467579512114
 21
1.753907414218503
 31
0.0
210
0.0
220
0.0
230
1.0
 40
0.5126701559
 41
5.288724596347235
 42
8.430317249936998
  0
ELLIPSE
  5
124
330
1F
100
AcDbEntity
  8
0
  6
HIDDEN
 62
     7
370
     0
100
AcDbEllipse
 10
177.1507226758
 20
114.6714269033
 30
0.0
 11
1.383467579512114
 21
1.091267719176585
 31
0.0
210
0.0
220
0.0
230
1.0
 40
0.8239737799
 41
0.9520594635583153
 42
0.9944607108323641
  0
SPLINE
  5
125
330
1F
100
AcDbEntity
  8
0
  6
HIDDEN
 62
     7
370
     0
100
AcDbSpline
210
0.0
220
0.0
230
1.0
 70
     8
 71
     3
 72
     8
 73
     4
 74
     0
 42
0.000000001
 43
0.00000001
 40
0.0
 40
0.0
 40
0.0
 40
0.0
 40
1.0
 40
1.0
 40
1.0
 40
1.0
 10
177.2206637719179
 20
116.2329787690827
 30
0.0
 10
177.2036790458156
 20
116.225863059033
 30
0.0
 10
177.1866749012745
 20
116.2179879295113
 30
0.0
 10
177.1696760171951
 20
116.209364810057
 30
0.0
  0
ELLIPSE
  5
126
330
1F
100
AcDbEntity
  8
0
  6
HIDDEN
 62
     7
370
     0
100
AcDbEllipse
 10
177.1507226758
 20
114.6714269033
 30
0.0
 11
-1.383467579512114
 21
1.753907414218503
 31
0.0
210
0.0
220
0.0
230
1.0
 40
0.5126701559
 41
5.277237470124748
 42
5.288724596347244
  0
ELLIPSE
  5
127
330
1F
100
AcDbEntity
  8
0
  6
HIDDEN
 62
     7
370
     0
100
AcDbEllipse
 10
177.1507226758
 20
114.6714269033
 30
0.0
 11
1.383467579512114
 21
1.091267719176585
 31
0.0
210
0.0
220
0.0
230
1.0
 40
0.8239737799
 41
0.994460710832362
 42
4.136053364422151
  0
ELLIPSE
  5
128
330
1F
100
AcDbEntity
  8
0
  6
HIDDEN
 62
     7
370
     0
100
AcDbEllipse
 10
177.1507226758
 20
114.6714269033
 30
0.0
 11
-1.383467579512114
 21
1.753907414218503
 31
0.0
210
0.0
220
0.0
230
1.0
 40
0.5126701559
 41
2.14713194275742
 42
2.158619068979933
  0
SPLINE
  5
129
330
1F
100
AcDbEntity
  8
0
  6
HIDDEN
 62
     7
370
     0
100
AcDbSpline
210
0.0
220
0.0
230
1.0
 70
     8
 71
     3
 72
     8
 73
     4
 74
     0
 42
0.000000001
 43
0.00000001
 40
0.0
 40
0.0
 40
0.0
 40
0.0
 40
1.0
 40
1.0
 40
1.0
 40
1.0
 10
177.1696760171951
 20
113.1085837530507
 30
0.0
 10
177.1866749012745
 20
113.1165670265641
 30
0.0
 10
177.2036790458156
 20
113.1253034290118
 30
0.0
 10
177.2206637719179
 20
113.1347802808494
 30
0.0
  0
ELLIPSE
  5
12A
330
1F
100
AcDbEntity
  8
0
  6
HIDDEN
 62
     7
370
     0
100
AcDbEllipse
 10
177.1507226758
 20
114.6714269033
 30
0.0
 11
1.383467579512114
 21
1.091267719176585
 31
0.0
210
0.0
220
0.0
230
1.0
 40
0.8239737799
 41
4.136053364422152
 42
4.178454611696203
  0
LWPOLYLINE
  5
12B
330
1F
100
AcDbEntity
  8
0
  6
HIDDEN
 62
     7
370
     0
100
AcDbPolyline
 90
       22
 70
   128
 43
0.0
 10
177.150722944
 20
114.2272474889
 10
177.6370689057
 20
114.2961318318
 10
178.0802005686
 20
114.4966632772
 10
178.4407444082
 20
114.8110237617
 10
178.6866647907
 20
115.2112819899
 10
178.796109163
 20
115.6618721496
 10
178.7593535863
 20
116.1227576148
 10
178.5796642087
 20
116.5529867347
 10
178.2730076246
 20
116.9143324431
 10
177.8666306071
 20
117.1746864628
 10
177.3966423951
 20
117.3109156724
 10
176.9048025615
 20
117.3109156724
 10
176.4348143496
 20
117.1746864628
 10
176.0284373321
 20
116.9143324431
 10
175.7217807479
 20
116.5529867347
 10
175.5420913704
 20
116.1227576148
 10
175.505336725
 20
115.6618721496
 10
175.6147810973
 20
115.2112819899
 10
175.8607005484
 20
114.8110237617
 10
176.2212443881
 20
114.4966632772
 10
176.6643769823
 20
114.2961318318
 10
177.150722944
 20
114.2272474889
  0
LINE
  5
12C
330
1F
100
AcDbEntity
  8
0
  6
HIDDEN
 62
     7
370
     0
100
AcDbLine
 10
173.3407223381
 20
129.9810778063
 30
0.0
 11
173.3407223381
 21
126.1338364046
 31
0.0
  0
LINE
  5
12D
330
1F
100
AcDbEntity
  8
0
  6
HIDDEN
 62
     7
370
     0
100
AcDbLine
 10
177.1607225545
 20
129.9810778063
 30
0.0
 11
177.1607225545
 21
126.1338364046
 31
0.0
  0
SPLINE
  5
12E
330
1F
100
AcDbEntity
  8
0
  6
HIDDEN
 62
     7
370
     0
100
AcDbSpline
210
0.0
220
0.0
230
1.0
 70
     8
 71
     3
 72
    14
 73
    10
 74
     0
 42
0.000000001
 43
0.00000001
 40
0.0
 40
0.0
 40
0.0
 40
0.0
 40
0.25
 40
0.25
 40
0.5
 40
0.5
 40
0.75
 40
0.75
 40
1.0
 40
1.0
 40
1.0
 40
1.0
 10
176.3607226757628
 20
119.0663160328216
 30
0.0
 10
176.4584049268768
 20
119.104838346854
 30
0.0
 10
176.5605184359141
 20
119.1424537063127
 30
0.0
 10
176.752690607083
 20
119.2135624318997
 30
0.0
 10
176.8441092804098
 20
119.2477684824037
 30
0.0
 10
176.995625269424
 20
119.3146579607607
 30
0.0
 10
177.0567724719629
 20
119.3479284233216
 30
0.0
 10
177.1394791736514
 20
119.4173267734154
 30
0.0
 10
177.1607226757629
 20
119.4531038790114
 30
0.0
 10
177.1607226757629
 20
119.4895992112621
 30
0.0
  0
LINE
  5
12F
330
1F
100
AcDbEntity
  8
0
  6
HIDDEN
 62
     7
370
     0
100
AcDbLine
 10
177.1607225545
 20
99.7825540315
 30
0.0
 11
177.1607225545
 21
96.0238311153
 31
0.0
  0
SPLINE
  5
130
330
1F
100
AcDbEntity
  8
0
  6
HIDDEN
 62
     7
370
     0
100
AcDbSpline
210
0.0
220
0.0
230
1.0
 70
     8
 71
     3
 72
    14
 73
    10
 74
     0
 42
0.000000001
 43
0.00000001
 40
0.0
 40
0.0
 40
0.0
 40
0.0
 40
0.2500000000000005
 40
0.2500000000000005
 40
0.5000000000000003
 40
0.5000000000000003
 40
0.7500000000000001
 40
0.7500000000000001
 40
1.0
 40
1.0
 40
1.0
 40
1.0
 10
177.1607226757629
 20
115.7308757130431
 30
0.0
 10
177.1607226757629
 20
115.6943867821358
 30
0.0
 10
177.1395532995906
 20
115.6578879904021
 30
0.0
 10
177.0568076817382
 20
115.5925126426652
 30
0.0
 10
176.9959540569104
 20
115.5645758083188
 30
0.0
 10
176.8443491902194
 20
115.5306847790721
 30
0.0
 10
176.7531268797521
 20
115.5252593264856
 30
0.0
 10
176.5607963300489
 20
115.5461786502982
 30
0.0
 10
176.4585454455719
 20
115.5727347977387
 30
0.0
 10
176.3607226757628
 20
115.6132045560444
 30
0.0
  0
LINE
  5
131
330
1F
100
AcDbEntity
  8
0
  6
HIDDEN
 62
     7
370
     0
100
AcDbLine
 10
171.7288860835
 20
133.6940671962
 30
0.0
 11
171.7288860835
 21
126.1338364046
 31
0.0
  0
LINE
  5
132
330
1F
100
AcDbEntity
  8
0
  6
HIDDEN
 62
     7
370
     0
100
AcDbLine
 10
178.7725597404
 20
98.0318166029
 30
0.0
 11
178.7725597404
 21
95.8323372241
 31
0.0
  0
LINE
  5
133
330
1F
100
AcDbEntity
  8
0
  6
HIDDEN
 62
     7
370
     0
100
AcDbLine
 10
178.7725597404
 20
133.6940671962
 30
0.0
 11
178.7725597404
 21
126.1338364046
 31
0.0
  0
SPLINE
  5
134
330
1F
100
AcDbEntity
  8
0
  6
HIDDEN
 62
     7
370
     0
100
AcDbSpline
210
0.0
220
0.0
230
1.0
 70
     8
 71
     3
 72
    10
 73
     6
 74
     0
 42
0.000000001
 43
0.00000001
 40
0.0
 40
0.0
 40
0.0
 40
0.0
 40
0.5
 40
0.5
 40
1.0
 40
1.0
 40
1.0
 40
1.0
 10
175.1748319131224
 20
115.5303760121823
 30
0.0
 10
175.1592258621413
 20
115.6356482127908
 30
0.0
 10
175.1507213991127
 20
115.7395867105817
 30
0.0
 10
175.1507239527024
 20
115.9390999825378
 30
0.0
 10
175.1592215403028
 20
116.0303124772081
 30
0.0
 10
175.1748319131225
 20
116.1122444095513
 30
0.0
  0
SPLINE
  5
135
330
1F
100
AcDbEntity
  8
0
  6
HIDDEN
 62
     7
370
     0
100
AcDbSpline
210
0.0
220
0.0
230
1.0
 70
     8
 71
     3
 72
    14
 73
    10
 74
     0
 42
0.000000001
 43
0.00000001
 40
0.0
 40
0.0
 40
0.0
 40
0.0
 40
0.25
 40
0.25
 40
0.5
 40
0.5
 40
0.75
 40
0.75
 40
1.0
 40
1.0
 40
1.0
 40
1.0
 10
175.1748319131225
 20
116.1122444095513
 30
0.0
 10
175.2111957411527
 20
116.0667497741495
 30
0.0
 10
175.2436734683629
 20
116.0183579679332
 30
0.0
 10
175.2924270977786
 20
115.9128728240037
 30
0.0
 10
175.3073308754531
 20
115.8562883157607
 30
0.0
 10
175.3073413091107
 20
115.7474007218103
 30
0.0
 10
175.2924510133026
 20
115.6952160560477
 30
0.0
 10
175.2435620824249
 20
115.6039386571041
 30
0.0
 10
175.2111899041545
 20
115.56527195173
 30
0.0
 10
175.1748319131224
 20
115.5303760121823
 30
0.0
  0
LWPOLYLINE
  5
136
330
1F
100
AcDbEntity
  8
0
  6
HIDDEN
 62
     7
370
     0
100
AcDbPolyline
 90
       22
 70
   128
 43
0.0
 10
167.982450106
 20
115.7638827052
 10
168.1024463631
 20
115.4042119805
 10
168.2923667848
 20
115.1552256841
 10
168.5353362717
 20
115.0390469182
 10
168.8097658351
 20
115.0659989279
 10
169.0912711218
 20
115.2336863514
 10
169.3548391357
 20
115.5272098903
 10
169.5770508394
 20
115.9204883214
 10
169.7381617285
 20
116.3785779562
 10
169.8238559782
 20
116.8607739445
 10
169.8265200265
 20
117.3242326539
 10
169.7459168516
 20
117.7277728628
 10
169.5892083242
 20
118.0355386522
 10
169.3703186482
 20
118.2201835971
 10
169.1086970985
 20
118.2653005879
 10
168.8275899522
 20
118.1668821436
 10
168.5519748151
 20
117.9336715203
 10
168.30634128
 20
117.5863915768
 10
168.1125153571
 20
117.1558998238
 10
167.9877188306
 20
116.680446611
 10
167.9430404928
 20
116.2022785928
 10
167.982450106
 20
115.7638827052
  0
LWPOLYLINE
  5
137
330
1F
100
AcDbEntity
  8
0
  6
HIDDEN
 62
     7
370
     0
100
AcDbPolyline
 90
       23
 70
   128
 43
0.0
 10
175.1748317636
 20
115.5303759214
 10
175.330213622
 20
115.0431531195
 10
175.6189366586
 20
114.6129258622
 10
176.0198542632
 20
114.2712059144
 10
176.5036009036
 20
114.0430221047
 10
177.0347462751
 20
113.9450874824
 10
177.5743862398
 20
113.9845755596
 10
178.0829945363
 20
114.1585936483
 10
178.5233201243
 20
114.4543961335
 10
178.8631103717
 20
114.8503171925
 10
179.0774784766
 20
115.3173577685
 10
179.1507223405
 20
115.8213099178
 10
179.0774784766
 20
116.3252625328
 10
178.8631103717
 20
116.7923031088
 10
178.5233201243
 20
117.1882241678
 10
178.0829945363
 20
117.4840271186
 10
177.5743862398
 20
117.6580447417
 10
177.0347462751
 20
117.6975328189
 10
176.5036009036
 20
117.5995986622
 10
176.0198542632
 20
117.3714143869
 10
175.6189366586
 20
117.0296944391
 10
175.330213622
 20
116.5994671818
 10
175.1748317636
 20
116.1122448456
  0
SPLINE
  5
138
330
1F
100
AcDbEntity
  8
0
  6
HIDDEN
 62
     7
370
     0
100
AcDbSpline
210
0.0
220
0.0
230
1.0
 70
     8
 71
     3
 72
    12
 73
     8
 74
     0
 42
0.000000001
 43
0.00000001
 40
0.0
 40
0.0
 40
0.0
 40
0.0
 40
0.2499999999999992
 40
0.2499999999999992
 40
0.4999999999999983
 40
0.4999999999999983
 40
1.0
 40
1.0
 40
1.0
 40
1.0
 10
178.7725593178196
 20
119.7353366409205
 30
0.0
 10
178.8955068116151
 20
119.5773797922254
 30
0.0
 10
178.989051014724
 20
119.4055464252479
 30
0.0
 10
179.1179904038862
 20
119.033873715602
 30
0.0
 10
179.1505431612713
 20
118.8406852694108
 30
0.0
 10
179.1510795030051
 20
118.2523887311346
 30
0.0
 10
179.0184558460372
 20
117.8603704932459
 30
0.0
 10
178.7725593178196
 20
117.5358569105372
 30
0.0
  0
SPLINE
  5
139
330
1F
100
AcDbEntity
  8
0
  6
HIDDEN
 62
     7
370
     0
100
AcDbSpline
210
0.0
220
0.0
230
1.0
 70
     8
 71
     3
 72
    12
 73
     8
 74
     0
 42
0.000000001
 43
0.00000001
 40
0.0
 40
0.0
 40
0.0
 40
0.0
 40
0.2499999999999997
 40
0.2499999999999997
 40
0.4999999999999993
 40
0.4999999999999993
 40
1.0
 40
1.0
 40
1.0
 40
1.0
 10
178.7725593178196
 20
117.5358569105372
 30
0.0
 10
178.6576632665589
 20
117.3161164754806
 30
0.0
 10
178.5308972500863
 20
117.1191481238589
 30
0.0
 10
178.2706823164677
 20
116.76543055102
 30
0.0
 10
178.1371748585055
 20
116.6086052571477
 30
0.0
 10
177.7287765899173
 20
116.18206268624
 30
0.0
 10
177.4451234549797
 20
115.9553705072848
 30
0.0
 10
177.160722675763
 20
115.7851193628893
 30
0.0
  0
SPLINE
  5
13A
330
1F
100
AcDbEntity
  8
0
  6
HIDDEN
 62
     7
370
     0
100
AcDbSpline
210
0.0
220
0.0
230
1.0
 70
     8
 71
     3
 72
    12
 73
     8
 74
     0
 42
0.000000001
 43
0.00000001
 40
0.0
 40
0.0
 40
0.0
 40
0.0
 40
0.5000000000000013
 40
0.5000000000000013
 40
0.7500000000000007
 40
0.7500000000000007
 40
1.0
 40
1.0
 40
1.0
 40
1.0
 10
177.1607226757629
 20
119.5438428611104
 30
0.0
 10
177.4449292103282
 20
119.7113070234041
 30
0.0
 10
177.7236249444319
 20
119.8229441229157
 30
0.0
 10
178.1329709876212
 20
119.8902573885551
 30
0.0
 10
178.2691103249408
 20
119.8954084285691
 30
0.0
 10
178.5304303739368
 20
119.8576424909497
 30
0.0
 10
178.6558515563686
 20
119.8160927326054
 30
0.0
 10
178.77255931782
 20
119.7353366409226
 30
0.0
  0
SPLINE
  5
13B
330
1F
100
AcDbEntity
  8
0
  6
HIDDEN
 62
     7
370
     0
100
AcDbSpline
210
0.0
220
0.0
230
1.0
 70
     8
 71
     3
 72
    22
 73
    18
 74
     0
 42
0.000000001
 43
0.00000001
 40
0.0
 40
0.0
 40
0.0
 40
0.0
 40
0.125
 40
0.125
 40
0.25
 40
0.25
 40
0.375
 40
0.375
 40
0.5
 40
0.5
 40
0.625
 40
0.625
 40
0.75
 40
0.75
 40
0.875
 40
0.875
 40
1.0
 40
1.0
 40
1.0
 40
1.0
 10
176.3607226757629
 20
115.6132045560444
 30
0.0
 10
176.1807059811935
 20
115.687678343021
 30
0.0
 10
176.0162741593231
 20
115.785127605005
 30
0.0
 10
175.7178779255646
 20
116.0244970385693
 30
0.0
 10
175.5875741981997
 20
116.1643936506398
 30
0.0
 10
175.3743554145807
 20
116.4726452407
 30
0.0
 10
175.2907275574692
 20
116.6428084588193
 30
0.0
 10
175.179596680551
 20
116.9933031936098
 30
0.0
 10
175.1507606856973
 20
117.1784281547611
 30
0.0
 10
175.1506847430377
 20
117.5416350293783
 30
0.0
 10
175.1793433684649
 20
117.7250050430859
 30
0.0
 10
175.2904944615776
 20
118.0708961555792
 30
0.0
 10
175.3735615822216
 20
118.2364156828467
 30
0.0
 10
175.5872475403403
 20
118.5369554202504
 30
0.0
 10
175.7162545302646
 20
118.6708273415344
 30
0.0
 10
176.0158638097541
 20
118.9020741109385
 30
0.0
 10
176.1807065080133
 20
118.9953242275973
 30
0.0
 10
176.3607226757629
 20
119.0663160328216
 30
0.0
  0
LWPOLYLINE
  5
13C
330
1F
100
AcDbEntity
  8
0
  6
HIDDEN
 62
     7
370
     0
100
AcDbPolyline
 90
       25
 70
   128
 43
0.0
 10
167.600934279
 20
115.5543742415
 10
167.7293387491
 20
115.1468554225
 10
167.9276564408
 20
114.843955328
 10
168.1823720008
 20
114.6663162571
 10
168.4761269733
 20
114.6260444719
 10
168.7889028124
 20
114.7258841146
 10
169.0993838727
 20
114.9590309423
 10
169.3864119023
 20
115.3095970575
 10
169.6304258674
 20
115.7536912423
 10
169.8147970036
 20
116.2610497039
 10
169.9269608378
 20
116.7970975574
 10
169.9592730746
 20
117.3253018122
 10
169.9095320672
 20
117.8096687134
 10
169.7811273642
 20
118.2171875324
 10
169.5828101382
 20
118.5200871613
 10
169.3280943453
 20
118.6977266979
 10
169.0343393728
 20
118.7379980173
 10
168.7215635337
 20
118.6381583747
 10
168.4110824734
 20
118.4050120127
 10
168.1240544438
 20
118.0544454318
 10
167.8800404787
 20
117.6103517126
 10
167.6956693426
 20
117.1029923197
 10
167.5835057411
 20
116.5669453975
 10
167.5511932716
 20
116.0387411427
 10
167.600934279
 20
115.5543742415
  0
LWPOLYLINE
  5
13D
330
1F
100
AcDbEntity
  8
0
  6
HIDDEN
 62
     7
370
     0
100
AcDbPolyline
 90
       22
 70
   128
 43
0.0
 10
168.722081349
 20
97.3899155568
 10
168.9955730706
 20
97.3074888524
 10
169.2477090999
 20
97.3652895253
 10
169.4560864724
 20
97.5581804004
 10
169.6021904953
 20
97.8690232795
 10
169.6730380662
 20
98.2701979291
 10
169.6623348415
 20
98.7260589089
 10
169.5710317016
 20
99.1961002063
 10
169.4072413973
 20
99.6385566604
 10
169.1855172411
 20
100.0141143512
 10
168.9255599648
 20
100.2894030597
 10
168.6504691623
 20
100.4399625298
 10
168.3846864633
 20
100.4524147783
 10
168.1518288113
 20
100.325653394
 10
167.9725864686
 20
100.0709413264
 10
167.8628855169
 20
99.7109111112
 10
167.832473411
 20
99.2775536787
 10
167.8840528492
 20
98.8093731638
 10
168.0130403273
 20
98.3479708146
 10
168.2079749897
 20
97.9343434509
 10
168.4515358664
 20
97.6052447867
 10
168.722081349
 20
97.3899155568
  0
LWPOLYLINE
  5
13E
330
1F
100
AcDbEntity
  8
0
  6
HIDDEN
 62
     7
370
     0
100
AcDbPolyline
 90
       24
 70
   128
 43
0.0
 10
168.8984966621
 20
97.0717664521
 10
169.2093223117
 20
96.9713866424
 10
169.5001501374
 20
97.0162549701
 10
169.7494097769
 20
97.2030447509
 10
169.9386158742
 20
97.5179016303
 10
170.0537352607
 20
97.9374736261
 10
170.0862300366
 20
98.4306443196
 10
170.0336904049
 20
98.9608369481
 10
169.9000130191
 20
99.4887292098
 10
169.6951122738
 20
99.9751706321
 10
169.4341840938
 20
100.3840831753
 10
169.1365808964
 20
100.6851397168
 10
168.8243740953
 20
100.8560127292
 10
168.5207191639
 20
100.8840292405
 10
168.2481368788
 20
100.7671114702
 10
168.0268425278
 20
100.5139300313
 10
167.8732495073
 20
100.1432631809
 10
167.798748358
 20
99.6826007676
 10
167.8088648494
 20
99.1661088254
 10
167.9028488014
 20
98.6320921864
 10
168.0737294972
 20
98.1201572057
 10
168.3088339649
 20
97.6682711106
 10
168.5907252848
 20
97.3099494066
 10
168.8984966621
 20
97.0717664521
  0
LWPOLYLINE
  5
13F
330
1F
100
AcDbEntity
  8
0
  6
HIDDEN
 62
     7
370
     0
100
AcDbPolyline
 90
       24
 70
   128
 43
0.0
 10
172.1954470284
 20
97.8613370743
 10
172.5062731437
 20
97.7609572645
 10
172.7971000381
 20
97.8058255922
 10
173.0463601433
 20
97.9926153731
 10
173.2355667062
 20
98.3074713212
 10
173.350685627
 20
98.7270442482
 10
173.383180403
 20
99.2202149417
 10
173.3306407712
 20
99.7504075702
 10
173.1969633855
 20
100.278299832
 10
172.9920621745
 20
100.7647412542
 10
172.7311344601
 20
101.1736533318
 10
172.4335312627
 20
101.4747103389
 10
172.1213249274
 20
101.6455833513
 10
171.8176699959
 20
101.6735998627
 10
171.5450872451
 20
101.5566816267
 10
171.3237928942
 20
101.3035006534
 10
171.1702001065
 20
100.9328333374
 10
171.0956989571
 20
100.4721713897
 10
171.1058154486
 20
99.9556794476
 10
171.1997994006
 20
99.4216628086
 10
171.3706803292
 20
98.9097278278
 10
171.6057843313
 20
98.4578417327
 10
171.8876756512
 20
98.0995200288
 10
172.1954470284
 20
97.8613370743
  0
LINE
  5
140
330
1F
100
AcDbEntity
  8
0
  6
HIDDEN
 62
     7
370
     0
100
AcDbLine
 10
169.3403281987
 20
99.1083072212
 30
0.0
 11
168.7790098384
 21
99.9584026348
 31
0.0
  0
LINE
  5
141
330
1F
100
AcDbEntity
  8
0
  6
HIDDEN
 62
     7
370
     0
100
AcDbLine
 10
168.1939148128
 20
99.7357476216
 30
0.0
 11
168.7790098384
 21
99.9584026348
 31
0.0
  0
LINE
  5
142
330
1F
100
AcDbEntity
  8
0
  6
HIDDEN
 62
     7
370
     0
100
AcDbLine
 10
168.1701381475
 20
98.6629971948
 30
0.0
 11
168.1939148128
 21
99.7357476216
 31
0.0
  0
LINE
  5
143
330
1F
100
AcDbEntity
  8
0
  6
HIDDEN
 62
     7
370
     0
100
AcDbLine
 10
168.1701381475
 20
98.6629971948
 30
0.0
 11
168.7314565077
 21
97.8129017811
 31
0.0
  0
LINE
  5
144
330
1F
100
AcDbEntity
  8
0
  6
HIDDEN
 62
     7
370
     0
100
AcDbLine
 10
169.3165515333
 20
98.0355567943
 30
0.0
 11
168.7314565077
 21
97.8129017811
 31
0.0
  0
LINE
  5
145
330
1F
100
AcDbEntity
  8
0
  6
HIDDEN
 62
     7
370
     0
100
AcDbLine
 10
169.3165515333
 20
98.0355567943
 30
0.0
 11
169.3403281987
 21
99.1083072212
 31
0.0
  0
LINE
  5
146
330
1F
100
AcDbEntity
  8
0
  6
HIDDEN
 62
     7
370
     0
100
AcDbLine
 10
171.3882082857
 20
99.5987435516
 30
0.0
 11
169.3403281987
 21
99.1083072212
 31
0.0
  0
LINE
  5
147
330
1F
100
AcDbEntity
  8
0
  6
HIDDEN
 62
     7
370
     0
100
AcDbLine
 10
171.3644316204
 20
98.5259931248
 30
0.0
 11
169.3165515333
 21
98.0355567943
 31
0.0
  0
LINE
  5
148
330
1F
100
AcDbEntity
  8
0
  6
HIDDEN
 62
     7
370
     0
100
AcDbLine
 10
170.2417948998
 20
100.2261844177
 30
0.0
 11
170.8268899254
 21
100.4488394309
 31
0.0
  0
LINE
  5
149
330
1F
100
AcDbEntity
  8
0
  6
HIDDEN
 62
     7
370
     0
100
AcDbLine
 10
170.2417948998
 20
100.2261844177
 30
0.0
 11
168.1939148128
 21
99.7357476216
 31
0.0
  0
LINE
  5
14A
330
1F
100
AcDbEntity
  8
0
  6
HIDDEN
 62
     7
370
     0
100
AcDbLine
 10
170.8268899254
 20
100.4488394309
 30
0.0
 11
168.7790098384
 21
99.9584026348
 31
0.0
  0
LWPOLYLINE
  5
14B
330
1F
100
AcDbEntity
  8
0
  6
HIDDEN
 62
     7
370
     0
100
AcDbPolyline
 90
       19
 70
   128
 43
0.0
 10
172.8252548508
 20
98.7052391928
 10
173.0718672059
 20
98.6411502298
 10
173.2918390788
 20
98.7248593655
 10
173.4586380206
 20
98.9462701317
 10
173.5521465324
 20
99.278677785
 10
173.5610862978
 20
99.6819879573
 10
173.4843769826
 20
100.1075567391
 10
173.3312731393
 20
100.5040533554
 10
173.1202401005
 20
100.823654392
 10
172.8767327748
 20
101.0278119419
 10
172.6301194884
 20
101.0919013705
 10
172.4101476155
 20
101.0081922349
 10
172.2433486737
 20
100.7867814686
 10
172.1498401619
 20
100.4543738153
 10
172.1409013279
 20
100.0510631774
 10
172.2176097117
 20
99.6254948612
 10
172.3707135551
 20
99.2289982449
 10
172.5817465939
 20
98.9093972083
 10
172.8252548508
 20
98.7052391928
  0
LINE
  5
14C
330
1F
100
AcDbEntity
  8
0
  6
HIDDEN
 62
     7
370
     0
100
AcDbLine
 10
170.2180182345
 20
99.1534344565
 30
0.0
 11
170.7793365948
 21
98.3033390429
 31
0.0
  0
LINE
  5
14D
330
1F
100
AcDbEntity
  8
0
  6
HIDDEN
 62
     7
370
     0
100
AcDbLine
 10
170.2180182345
 20
99.1534344565
 30
0.0
 11
170.2417948998
 21
100.2261844177
 31
0.0
  0
LINE
  5
14E
330
1F
100
AcDbEntity
  8
0
  6
HIDDEN
 62
     7
370
     0
100
AcDbLine
 10
171.3644316204
 20
98.5259931248
 30
0.0
 11
170.7793365948
 21
98.3033390429
 31
0.0
  0
LINE
  5
14F
330
1F
100
AcDbEntity
  8
0
  6
HIDDEN
 62
     7
370
     0
100
AcDbLine
 10
171.3644316204
 20
98.5259931248
 30
0.0
 11
171.3882082857
 21
99.5987435516
 31
0.0
  0
LINE
  5
150
330
1F
100
AcDbEntity
  8
0
  6
HIDDEN
 62
     7
370
     0
100
AcDbLine
 10
171.3882082857
 20
99.5987435516
 30
0.0
 11
170.8268899254
 21
100.4488394309
 31
0.0
  0
LINE
  5
151
330
1F
100
AcDbEntity
  8
0
  6
HIDDEN
 62
     7
370
     0
100
AcDbLine
 10
170.2180182345
 20
99.1534344565
 30
0.0
 11
168.1701381475
 21
98.6629971948
 31
0.0
  0
LINE
  5
152
330
1F
100
AcDbEntity
  8
0
  6
HIDDEN
 62
     7
370
     0
100
AcDbLine
 10
170.7793365948
 20
98.3033390429
 30
0.0
 11
168.7314565077
 21
97.8129017811
 31
0.0
  0
LWPOLYLINE
  5
153
330
1F
100
AcDbEntity
  8
0
  6
HIDDEN
 62
     7
370
     0
100
AcDbPolyline
 90
       24
 70
   128
 43
0.0
 10
172.2778113343
 20
117.7465688151
 10
172.5855827115
 20
117.8090503153
 10
172.8674744971
 20
117.7261104521
 10
173.1025784992
 20
117.5039015424
 10
173.2734594278
 20
117.1589014765
 10
173.3674429141
 20
116.7166992735
 10
173.3775598712
 20
116.2100895953
 10
173.3030587219
 20
115.676646651
 10
173.1494659342
 20
115.155932558
 10
172.9281715833
 20
114.6865669351
 10
172.6555892982
 20
114.3033598263
 10
172.3519343667
 20
114.0347328682
 10
172.0397271
 20
113.9006079819
 10
171.7421243682
 20
113.910932624
 10
171.4811961882
 20
114.0649417129
 10
171.2762949772
 20
114.3512130428
 10
171.1426175915
 20
114.7485143218
 10
171.0900779597
 20
115.2273803663
 10
171.1225732014
 20
115.7522961211
 10
171.2376925878
 20
116.2843299743
 10
171.4268982194
 20
116.7840236511
 10
171.6761583246
 20
117.2143179637
 10
171.9669861503
 20
117.5432992812
 10
172.2778113343
 20
117.7465688151
  0
LWPOLYLINE
  5
154
330
1F
100
AcDbEntity
  8
0
  6
HIDDEN
 62
     7
370
     0
100
AcDbPolyline
 90
       19
 70
   128
 43
0.0
 10
172.8767327748
 20
116.8875792708
 10
173.1202401005
 20
116.9213071179
 10
173.3312731393
 20
116.807865509
 10
173.4843769826
 20
116.5609383669
 10
173.5610862978
 20
116.2103075247
 10
173.5521465324
 20
115.7982643407
 10
173.4586380206
 20
115.374507447
 10
173.2918390788
 20
114.9901482921
 10
173.0718672059
 20
114.6915462513
 10
172.8252548508
 20
114.5147169653
 10
172.5817465939
 20
114.4809886526
 10
172.3707135551
 20
114.5944297958
 10
172.2176097117
 20
114.8413574036
 10
172.1409013279
 20
115.1919887114
 10
172.1498401619
 20
115.6040314298
 10
172.2433486737
 20
116.0277887892
 10
172.4101476155
 20
116.4121474784
 10
172.6301194884
 20
116.7107499849
 10
172.8767327748
 20
116.8875792708
  0
LWPOLYLINE
  5
155
330
1F
100
AcDbEntity
  8
0
  6
HIDDEN
 62
     7
370
     0
100
AcDbPolyline
 90
       24
 70
   128
 43
0.0
 10
168.9808609679
 20
118.5361385059
 10
169.2886328109
 20
118.5986209374
 10
169.5705236651
 20
118.5156810742
 10
169.8056281328
 20
118.2934712332
 10
169.9765090614
 20
117.9484720986
 10
170.0704930134
 20
117.5062698957
 10
170.0806095049
 20
116.9996602174
 10
170.0061083555
 20
116.4662172731
 10
169.8525151022
 20
115.9455027145
 10
169.6312212169
 20
115.4761375573
 10
169.3586384661
 20
115.0929304484
 10
169.0549835347
 20
114.8243030246
 10
168.7427767336
 20
114.6901781384
 10
168.4451735362
 20
114.7005032461
 10
168.1842458218
 20
114.854512335
 10
167.9793446109
 20
115.1407831993
 10
167.8456672251
 20
115.538084944
 10
167.7931275934
 20
116.0169509884
 10
167.8256226022
 20
116.5418658119
 10
167.9407417558
 20
117.0738996651
 10
168.1299478531
 20
117.5735942733
 10
168.3792079583
 20
118.0038885858
 10
168.6700353183
 20
118.3328699034
 10
168.9808609679
 20
118.5361385059
  0
LINE
  5
156
330
1F
100
AcDbEntity
  8
0
  6
HIDDEN
 62
     7
370
     0
100
AcDbLine
 10
170.2417948998
 20
116.4933224853
 30
0.0
 11
170.8268899254
 21
117.2875627589
 31
0.0
  0
LINE
  5
157
330
1F
100
AcDbEntity
  8
0
  6
HIDDEN
 62
     7
370
     0
100
AcDbLine
 10
170.2417948998
 20
116.4933224853
 30
0.0
 11
168.1939148128
 21
116.9837588158
 31
0.0
  0
LINE
  5
158
330
1F
100
AcDbEntity
  8
0
  6
HIDDEN
 62
     7
370
     0
100
AcDbLine
 10
170.2417948998
 20
116.4933224853
 30
0.0
 11
170.2180182345
 21
115.3973444078
 31
0.0
  0
LINE
  5
159
330
1F
100
AcDbEntity
  8
0
  6
HIDDEN
 62
     7
370
     0
100
AcDbLine
 10
170.2180182345
 20
115.3973444078
 30
0.0
 11
168.1701381475
 21
115.8877812039
 31
0.0
  0
LINE
  5
15A
330
1F
100
AcDbEntity
  8
0
  6
HIDDEN
 62
     7
370
     0
100
AcDbLine
 10
170.2180182345
 20
115.3973444078
 30
0.0
 11
170.7793365948
 21
115.0956066039
 31
0.0
  0
LINE
  5
15B
330
1F
100
AcDbEntity
  8
0
  6
HIDDEN
 62
     7
370
     0
100
AcDbLine
 10
168.1701381475
 20
115.8877812039
 30
0.0
 11
168.7314565077
 21
115.5860434
 31
0.0
  0
LINE
  5
15C
330
1F
100
AcDbEntity
  8
0
  6
HIDDEN
 62
     7
370
     0
100
AcDbLine
 10
168.1939148128
 20
116.9837588158
 30
0.0
 11
168.1701381475
 21
115.8877812039
 31
0.0
  0
LWPOLYLINE
  5
15D
330
1F
100
AcDbEntity
  8
0
  6
HIDDEN
 62
     7
370
     0
100
AcDbPolyline
 90
       22
 70
   128
 43
0.0
 10
168.7883849971
 20
118.2101448711
 10
169.0589304797
 20
118.2591138121
 10
169.3024913564
 20
118.1679522332
 10
169.4974260189
 20
117.9447589155
 10
169.6264137298
 20
117.6093663734
 10
169.6779927023
 20
117.1915741351
 10
169.6475808293
 20
116.7285065811
 10
169.5378798775
 20
116.2613086116
 10
169.3586375348
 20
115.8314920675
 10
169.1257798828
 20
115.4772495564
 10
168.8599971838
 20
115.230056056
 10
168.5849063814
 20
115.1118763436
 10
168.3249495707
 20
115.1332106155
 10
168.1032249488
 20
115.2921636302
 10
167.9394346446
 20
115.5746114154
 10
167.8481315046
 20
115.9554576215
 10
167.83742828
 20
116.4008617114
 10
167.9082760837
 20
116.8712485295
 10
168.0543796409
 20
117.3248221811
 10
168.2627572462
 20
117.7212796819
 10
168.5148932755
 20
118.0253937554
 10
168.7883849971
 20
118.2101448711
  0
LINE
  5
15E
330
1F
100
AcDbEntity
  8
0
  6
HIDDEN
 62
     7
370
     0
100
AcDbLine
 10
168.1939148128
 20
116.9837588158
 30
0.0
 11
168.7790098384
 21
117.7779990893
 31
0.0
  0
LINE
  5
15F
330
1F
100
AcDbEntity
  8
0
  6
HIDDEN
 62
     7
370
     0
100
AcDbLine
 10
171.3882082857
 20
116.9858254206
 30
0.0
 11
169.3403281987
 21
117.476261751
 31
0.0
  0
LINE
  5
160
330
1F
100
AcDbEntity
  8
0
  6
HIDDEN
 62
     7
370
     0
100
AcDbLine
 10
169.3403281987
 20
117.476261751
 30
0.0
 11
168.7790098384
 21
117.7779990893
 31
0.0
  0
LINE
  5
161
330
1F
100
AcDbEntity
  8
0
  6
HIDDEN
 62
     7
370
     0
100
AcDbLine
 10
170.8268899254
 20
117.2875627589
 30
0.0
 11
168.7790098384
 21
117.7779990893
 31
0.0
  0
LINE
  5
162
330
1F
100
AcDbEntity
  8
0
  6
HIDDEN
 62
     7
370
     0
100
AcDbLine
 10
171.3882082857
 20
116.9858254206
 30
0.0
 11
170.8268899254
 21
117.2875627589
 31
0.0
  0
LINE
  5
163
330
1F
100
AcDbEntity
  8
0
  6
HIDDEN
 62
     7
370
     0
100
AcDbLine
 10
171.3644316204
 20
115.8898468774
 30
0.0
 11
169.3165515333
 21
116.3802841392
 31
0.0
  0
LINE
  5
164
330
1F
100
AcDbEntity
  8
0
  6
HIDDEN
 62
     7
370
     0
100
AcDbLine
 10
169.3165515333
 20
116.3802841392
 30
0.0
 11
168.7314565077
 21
115.5860434
 31
0.0
  0
LINE
  5
165
330
1F
100
AcDbEntity
  8
0
  6
HIDDEN
 62
     7
370
     0
100
AcDbLine
 10
170.7793365948
 20
115.0956066039
 30
0.0
 11
168.7314565077
 21
115.5860434
 31
0.0
  0
LINE
  5
166
330
1F
100
AcDbEntity
  8
0
  6
HIDDEN
 62
     7
370
     0
100
AcDbLine
 10
171.3644316204
 20
115.8898468774
 30
0.0
 11
170.7793365948
 21
115.0956066039
 31
0.0
  0
LINE
  5
167
330
1F
100
AcDbEntity
  8
0
  6
HIDDEN
 62
     7
370
     0
100
AcDbLine
 10
169.3403281987
 20
117.476261751
 30
0.0
 11
169.3165515333
 21
116.3802841392
 31
0.0
  0
LINE
  5
168
330
1F
100
AcDbEntity
  8
0
  6
HIDDEN
 62
     7
370
     0
100
AcDbLine
 10
171.3882082857
 20
116.9858254206
 30
0.0
 11
171.3644316204
 21
115.8898468774
 31
0.0
  0
LWPOLYLINE
  5
169
330
1F
100
AcDbEntity
  8
0
  6
HIDDEN
 62
     7
370
     0
100
AcDbPolyline
 90
       21
 70
   128
 43
0.0
 10
177.6570439123
 20
117.0259169947
 10
177.2023871325
 20
117.1089630287
 10
176.7426732711
 20
117.0559214141
 10
176.3229019724
 20
116.8719842743
 10
175.9841631882
 20
116.575155006
 10
175.7596157275
 20
116.1944908735
 10
175.6712397344
 20
115.7672531616
 10
175.727685333
 20
115.3352633763
 10
175.9234279178
 20
114.9408072878
 10
176.2393064581
 20
114.6224970643
 10
176.6444010444
 20
114.4114914995
 10
177.0990578242
 20
114.3284449998
 10
177.5587716855
 20
114.3814866144
 10
177.9785429843
 20
114.5654246856
 10
178.3172817685
 20
114.8622534882
 10
178.5418292291
 20
115.2429176208
 10
178.6302052222
 20
115.6701553326
 10
178.5737596236
 20
116.1021455836
 10
178.3780170388
 20
116.4966007408
 10
178.0621384986
 20
116.8149109643
 10
177.6570439123
 20
117.0259169947
  0
LWPOLYLINE
  5
16A
330
1F
100
AcDbEntity
  8
0
  6
HIDDEN
 62
     7
370
     0
100
AcDbPolyline
 90
       24
 70
   128
 43
0.0
 10
177.8347626112
 20
117.5873545643
 10
177.3023450531
 20
117.6952874001
 10
176.7586817749
 20
117.6642352428
 10
176.2440943874
 20
117.4965012532
 10
175.7967475586
 20
117.2045269694
 10
175.4498187236
 20
116.8099656414
 10
175.2290384628
 20
116.3420803558
 10
175.1507803582
 20
115.8355712604
 10
175.2208493434
 20
115.3280051138
 10
175.4340477072
 20
114.8570250433
 10
175.7745643862
 20
114.4575616989
 10
176.2171437748
 20
114.1592409175
 10
176.7289632715
 20
113.9841885951
 10
177.2720621683
 20
113.9453869026
 10
177.8061626263
 20
114.0457140926
 10
178.2916508399
 20
114.2777288977
 10
178.6925228096
 20
114.624224202
 10
178.9790460624
 20
115.0595020216
 10
179.1299706109
 20
115.5512794566
 10
179.1341038205
 20
116.0630840521
 10
178.991139286
 20
116.5569569629
 10
178.7116782524
 20
116.9962711346
 10
178.3164491661
 20
117.3484433156
 10
177.8347626112
 20
117.5873545643
  0
LWPOLYLINE
  5
16B
330
1F
100
AcDbEntity
  8
0
  6
HIDDEN
 62
     7
370
     0
100
AcDbPolyline
 90
       24
 70
   128
 43
0.0
 10
177.8347626112
 20
117.9122734528
 10
177.3023450531
 20
118.0202062886
 10
176.7586817749
 20
117.9891541314
 10
176.2440943874
 20
117.821421073
 10
175.7967475586
 20
117.5294458579
 10
175.4498187236
 20
117.1348845299
 10
175.2290384628
 20
116.6669992443
 10
175.1507803582
 20
116.1604910802
 10
175.2208493434
 20
115.6529240023
 10
175.4340477072
 20
115.1819443975
 10
175.7745643862
 20
114.7824805875
 10
176.2171437748
 20
114.4841602717
 10
176.7289632715
 20
114.3091074836
 10
177.2720621683
 20
114.2703062568
 10
177.8061626263
 20
114.3706334468
 10
178.2916508399
 20
114.6026482519
 10
178.6925228096
 20
114.9491435561
 10
178.9790460624
 20
115.3844209101
 10
179.1299706109
 20
115.8761983451
 10
179.1341038205
 20
116.3880029407
 10
178.991139286
 20
116.8818758514
 10
178.7116782524
 20
117.3211900231
 10
178.3164491661
 20
117.6733622041
 10
177.8347626112
 20
117.9122734528
  0
LWPOLYLINE
  5
16C
330
1F
100
AcDbEntity
  8
0
  6
HIDDEN
 62
     7
370
     0
100
AcDbPolyline
 90
       21
 70
   128
 43
0.0
 10
177.6637531601
 20
118.4113179978
 10
177.2030716546
 20
118.4954648551
 10
176.7372669436
 20
118.4417200919
 10
176.3119328551
 20
118.2553456809
 10
175.9687069587
 20
117.9545834374
 10
175.7411839224
 20
117.5688752618
 10
175.6516363256
 20
117.1359769713
 10
175.7088297762
 20
116.6982628118
 10
175.9071660943
 20
116.298580141
 10
176.2272299983
 20
115.9760528889
 10
176.6376927279
 20
115.7622510281
 10
177.0983733021
 20
115.6781041708
 10
177.5641789444
 20
115.7318489339
 10
177.9895121016
 20
115.9182242762
 10
178.3327389292
 20
116.2189855885
 10
178.5602619655
 20
116.6046937641
 10
178.6498086311
 20
117.0375929859
 10
178.5926151805
 20
117.475306214
 10
178.3942788623
 20
117.8749888849
 10
178.0742149584
 20
118.197516137
 10
177.6637531601
 20
118.4113179978
  0
LWPOLYLINE
  5
16D
330
1F
100
AcDbEntity
  8
0
  6
HIDDEN
 62
     7
370
     0
100
AcDbPolyline
 90
       21
 70
   128
 43
0.0
 10
177.6637531601
 20
117.4078393441
 10
177.2030716546
 20
117.4919862013
 10
176.7372669436
 20
117.4382423695
 10
176.3119328551
 20
117.2518670272
 10
175.9687069587
 20
116.9511047837
 10
175.7411839224
 20
116.5653966081
 10
175.6516363256
 20
116.1324983176
 10
175.7088297762
 20
115.6947850894
 10
175.9071660943
 20
115.2951019529
 10
176.2272299983
 20
114.9725747008
 10
176.6376927279
 20
114.75877284
 10
177.0983733021
 20
114.6746259827
 10
177.5641789444
 20
114.7283707459
 10
177.9895121016
 20
114.9147456225
 10
178.3327389292
 20
115.2155074004
 10
178.5602619655
 20
115.6012160417
 10
178.6498086311
 20
116.0341143321
 10
178.5926151805
 20
116.4718275603
 10
178.3942788623
 20
116.8715102311
 10
178.0742149584
 20
117.1940384146
 10
177.6637531601
 20
117.4078393441
  0
LWPOLYLINE
  5
16E
330
1F
100
AcDbEntity
  8
0
  6
HIDDEN
 62
     7
370
     0
100
AcDbPolyline
 90
       24
 70
   128
 43
0.0
 10
177.8347626112
 20
118.1046604823
 10
177.3023450531
 20
118.2125923868
 10
176.7586817749
 20
118.1815402296
 10
176.2440943874
 20
118.0138071712
 10
175.7967475586
 20
117.7218328875
 10
175.4498187236
 20
117.3272715595
 10
175.2290384628
 20
116.8593853425
 10
175.1507803582
 20
116.3528771784
 10
175.2208493434
 20
115.8453110319
 10
175.4340477072
 20
115.3743304957
 10
175.7745643862
 20
114.9748671513
 10
176.2171437748
 20
114.6765463699
 10
176.7289632715
 20
114.5014940474
 10
177.2720621683
 20
114.462692355
 10
177.8061626263
 20
114.563019545
 10
178.2916508399
 20
114.7950343501
 10
178.6925228096
 20
115.1415296544
 10
178.9790460624
 20
115.576807474
 10
179.1299706109
 20
116.0685853746
 10
179.1341038205
 20
116.5803890389
 10
178.991139286
 20
117.0742628809
 10
178.7116782524
 20
117.5135761213
 10
178.3164491661
 20
117.8657483023
 10
177.8347626112
 20
118.1046604823
  0
LWPOLYLINE
  5
16F
330
1F
100
AcDbEntity
  8
0
  6
HIDDEN
 62
     7
370
     0
100
AcDbPolyline
 90
       23
 70
   128
 43
0.0
 10
177.7800399594
 20
117.8190871786
 10
177.2674223192
 20
117.9198795643
 10
176.7453517549
 20
117.8808776375
 10
176.2561205558
 20
117.7052413758
 10
175.8393658109
 20
117.4072004568
 10
175.5288488947
 20
117.0108984869
 10
175.3497257613
 20
116.5484437432
 10
175.3165101416
 20
116.0572996076
 10
175.4318907641
 20
115.5772573028
 10
175.6865208752
 20
115.1472060654
 10
176.0597716801
 20
114.8019857418
 10
176.5214059286
 20
114.5695648801
 10
177.0340226374
 20
114.4687724944
 10
177.5560941331
 20
114.5077744212
 10
178.0453244008
 20
114.6834102173
 10
178.4620800771
 20
114.9814516019
 10
178.7725969933
 20
115.3777531061
 10
178.9517191954
 20
115.8402083155
 10
178.9849357463
 20
116.3313515198
 10
178.8695551239
 20
116.8113942903
 10
178.6149240814
 20
117.2414455276
 10
178.2416732766
 20
117.5866663169
 10
177.7800399594
 20
117.8190871786
  0
LWPOLYLINE
  5
170
330
1F
100
AcDbEntity
  8
0
  6
HIDDEN
 62
     7
370
     0
100
AcDbPolyline
 90
       24
 70
   128
 43
0.0
 10
177.8347626112
 20
118.2970465806
 10
177.3023450531
 20
118.404978485
 10
176.7586817749
 20
118.3739263278
 10
176.2440943874
 20
118.2061932694
 10
175.7967475586
 20
117.9142189857
 10
175.4498187236
 20
117.5196576577
 10
175.2290384628
 20
117.0517723721
 10
175.1507803582
 20
116.5452632766
 10
175.2208493434
 20
116.0376971301
 10
175.4340477072
 20
115.5667170596
 10
175.7745643862
 20
115.1672532495
 10
176.2171437748
 20
114.8689329337
 10
176.7289632715
 20
114.6938801456
 10
177.2720621683
 20
114.6550789189
 10
177.8061626263
 20
114.7554061089
 10
178.2916508399
 20
114.987420914
 10
178.6925228096
 20
115.3339162182
 10
178.9790460624
 20
115.7691940379
 10
179.1299706109
 20
116.2609714728
 10
179.1341038205
 20
116.7727760684
 10
178.991139286
 20
117.2666489791
 10
178.7116782524
 20
117.7059622195
 10
178.3164491661
 20
118.0581344005
 10
177.8347626112
 20
118.2970465806
  0
LWPOLYLINE
  5
171
330
1F
100
AcDbEntity
  8
0
  6
HIDDEN
 62
     7
370
     0
100
AcDbPolyline
 90
       23
 70
   128
 43
0.0
 10
177.7800399594
 20
118.0114732769
 10
177.2674223192
 20
118.1122656625
 10
176.7453517549
 20
118.0732637357
 10
176.2561205558
 20
117.897627474
 10
175.8393658109
 20
117.599586555
 10
175.5288488947
 20
117.2032855164
 10
175.3497257613
 20
116.7408298414
 10
175.3165101416
 20
116.2496866372
 10
175.4318907641
 20
115.7696438667
 10
175.6865208752
 20
115.3395921636
 10
176.0597716801
 20
114.9943723057
 10
176.5214059286
 20
114.7619514439
 10
177.0340226374
 20
114.6611590583
 10
177.5560941331
 20
114.7001605194
 10
178.0453244008
 20
114.8757967811
 10
178.4620800771
 20
115.1738381658
 10
178.7725969933
 20
115.5701392044
 10
178.9517191954
 20
116.0325944137
 10
178.9849357463
 20
116.5237385493
 10
178.8695551239
 20
117.0037803885
 10
178.6149240814
 20
117.4338325571
 10
178.2416732766
 20
117.7790524151
 10
177.7800399594
 20
118.0114732769
  0
LWPOLYLINE
  5
172
330
1F
100
AcDbEntity
  8
0
  6
HIDDEN
 62
     7
370
     0
100
AcDbPolyline
 90
       24
 70
   128
 43
0.0
 10
177.8347626112
 20
118.4894326788
 10
177.3023450531
 20
118.5973655146
 10
176.7586817749
 20
118.5663133573
 10
176.2440943874
 20
118.3985793676
 10
175.7967475586
 20
118.1066050839
 10
175.4498187236
 20
117.7120437559
 10
175.2290384628
 20
117.2441584703
 10
175.1507803582
 20
116.7376493748
 10
175.2208493434
 20
116.2300832283
 10
175.4340477072
 20
115.7591031578
 10
175.7745643862
 20
115.3596398134
 10
176.2171437748
 20
115.061319032
 10
176.7289632715
 20
114.8862667095
 10
177.2720621683
 20
114.8474650171
 10
177.8061626263
 20
114.9477922071
 10
178.2916508399
 20
115.1798070122
 10
178.6925228096
 20
115.5263023164
 10
178.9790460624
 20
115.9615801361
 10
179.1299706109
 20
116.453357571
 10
179.1341038205
 20
116.9651621666
 10
178.991139286
 20
117.4590350773
 10
178.7116782524
 20
117.898349249
 10
178.3164491661
 20
118.25052143
 10
177.8347626112
 20
118.4894326788
  0
LWPOLYLINE
  5
173
330
1F
100
AcDbEntity
  8
0
  6
HIDDEN
 62
     7
370
     0
100
AcDbPolyline
 90
       23
 70
   128
 43
0.0
 10
177.7800399594
 20
118.2038593751
 10
177.2674223192
 20
118.3046517607
 10
176.7453517549
 20
118.2656498339
 10
176.2561205558
 20
118.0900145035
 10
175.8393658109
 20
117.7919726532
 10
175.5288488947
 20
117.3956716146
 10
175.3497257613
 20
116.9332159396
 10
175.3165101416
 20
116.4420727354
 10
175.4318907641
 20
115.9620299649
 10
175.6865208752
 20
115.5319787275
 10
176.0597716801
 20
115.1867584039
 10
176.5214059286
 20
114.9543375421
 10
177.0340226374
 20
114.8535451565
 10
177.5560941331
 20
114.8925470833
 10
178.0453244008
 20
115.0681828793
 10
178.4620800771
 20
115.366224264
 10
178.7725969933
 20
115.7625257682
 10
178.9517191954
 20
116.2249805119
 10
178.9849357463
 20
116.7161246475
 10
178.8695551239
 20
117.196167418
 10
178.6149240814
 20
117.6262186553
 10
178.2416732766
 20
117.9714385133
 10
177.7800399594
 20
118.2038593751
  0
LWPOLYLINE
  5
174
330
1F
100
AcDbEntity
  8
0
  6
HIDDEN
 62
     7
370
     0
100
AcDbPolyline
 90
       24
 70
   128
 43
0.0
 10
177.8347626112
 20
118.681818777
 10
177.3023450531
 20
118.7897516128
 10
176.7586817749
 20
118.7586994555
 10
176.2440943874
 20
118.5909663972
 10
175.7967475586
 20
118.2989911821
 10
175.4498187236
 20
117.9044298541
 10
175.2290384628
 20
117.4365445685
 10
175.1507803582
 20
116.9300364044
 10
175.2208493434
 20
116.4224693265
 10
175.4340477072
 20
115.951489256
 10
175.7745643862
 20
115.5520259116
 10
176.2171437748
 20
115.2537055958
 10
176.7289632715
 20
115.0786528077
 10
177.2720621683
 20
115.0398515809
 10
177.8061626263
 20
115.140178771
 10
178.2916508399
 20
115.372193576
 10
178.6925228096
 20
115.7186884146
 10
178.9790460624
 20
116.1539662343
 10
179.1299706109
 20
116.6457436692
 10
179.1341038205
 20
117.1575482648
 10
178.991139286
 20
117.6514211755
 10
178.7116782524
 20
118.0907353472
 10
178.3164491661
 20
118.4429075282
 10
177.8347626112
 20
118.681818777
  0
LWPOLYLINE
  5
175
330
1F
100
AcDbEntity
  8
0
  6
HIDDEN
 62
     7
370
     0
100
AcDbPolyline
 90
       23
 70
   128
 43
0.0
 10
177.7800399594
 20
118.3962454733
 10
177.2674223192
 20
118.4970378589
 10
176.7453517549
 20
118.4580368634
 10
176.2561205558
 20
118.2824006017
 10
175.8393658109
 20
117.9843587514
 10
175.5288488947
 20
117.5880577129
 10
175.3497257613
 20
117.1256029692
 10
175.3165101416
 20
116.6344588336
 10
175.4318907641
 20
116.1544160631
 10
175.6865208752
 20
115.7243648257
 10
176.0597716801
 20
115.3791449677
 10
176.5214059286
 20
115.146724106
 10
177.0340226374
 20
115.0459317204
 10
177.5560941331
 20
115.0849331815
 10
178.0453244008
 20
115.2605694432
 10
178.4620800771
 20
115.5586108279
 10
178.7725969933
 20
115.9549118664
 10
178.9517191954
 20
116.4173675414
 10
178.9849357463
 20
116.9085107457
 10
178.8695551239
 20
117.3885535162
 10
178.6149240814
 20
117.8186047536
 10
178.2416732766
 20
118.1638246115
 10
177.7800399594
 20
118.3962454733
  0
LWPOLYLINE
  5
176
330
1F
100
AcDbEntity
  8
0
  6
HIDDEN
 62
     7
370
     0
100
AcDbPolyline
 90
       24
 70
   128
 43
0.0
 10
177.8347626112
 20
118.8186272692
 10
177.3023450531
 20
118.9265591737
 10
176.7586817749
 20
118.8955079477
 10
176.2440943874
 20
118.7277739581
 10
175.7967475586
 20
118.4357996743
 10
175.4498187236
 20
118.0412383463
 10
175.2290384628
 20
117.5733530607
 10
175.1507803582
 20
117.0668439653
 10
175.2208493434
 20
116.5592778187
 10
175.4340477072
 20
116.0882977482
 10
175.7745643862
 20
115.6888339382
 10
176.2171437748
 20
115.3905136224
 10
176.7289632715
 20
115.2154613
 10
177.2720621683
 20
115.1766596075
 10
177.8061626263
 20
115.2769867975
 10
178.2916508399
 20
115.5090016026
 10
178.6925228096
 20
115.8554969069
 10
178.9790460624
 20
116.2907747265
 10
179.1299706109
 20
116.7825521615
 10
179.1341038205
 20
117.294356757
 10
178.991139286
 20
117.7882296678
 10
178.7116782524
 20
118.2275429081
 10
178.3164491661
 20
118.5797150891
 10
177.8347626112
 20
118.8186272692
  0
LWPOLYLINE
  5
177
330
1F
100
AcDbEntity
  8
0
  6
HIDDEN
 62
     7
370
     0
100
AcDbPolyline
 90
       24
 70
   128
 43
0.0
 10
177.800560721
 20
118.7645267408
 10
177.2947640873
 20
118.8670625623
 10
176.7782833211
 20
118.8375629198
 10
176.2894255824
 20
118.6782164212
 10
175.8644463278
 20
118.4008406188
 10
175.5348633759
 20
118.026007497
 10
175.3251220815
 20
117.5815161031
 10
175.2507773943
 20
117.1003333938
 10
175.317342744
 20
116.618144856
 10
175.5198811896
 20
116.1707142081
 10
175.8433723606
 20
115.791223542
 10
176.2638225935
 20
115.5078188229
 10
176.7500512086
 20
115.3415190701
 10
177.265995533
 20
115.3046577882
 10
177.7733903162
 20
115.3999684092
 10
178.2346045382
 20
115.6203826603
 10
178.6154325835
 20
115.9495530363
 10
178.8876302324
 20
116.3630667787
 10
179.0310082741
 20
116.830255435
 10
179.0349347301
 20
117.3164700803
 10
178.8991180964
 20
117.7856489729
 10
178.6336306266
 20
118.2029969704
 10
178.2581623427
 20
118.5375606354
 10
177.800560721
 20
118.7645267408
  0
ARC
  5
178
330
1F
100
AcDbEntity
  8
0
  6
HIDDEN
 62
     7
370
     0
100
AcDbCircle
 10
177.1327900716
 20
98.4740935116
 30
0.0
 40
1.978860264004145
100
AcDbArc
 50
337.3814144578
 51
182.993480502
  0
ARC
  5
179
330
1F
100
AcDbEntity
  8
0
  6
HIDDEN
 62
     7
370
     0
100
AcDbCircle
 10
177.1297965295
 20
98.426756395
 30
0.0
 40
1.885935722488014
100
AcDbArc
 50
341.1182721944
 51
160.7601770337
  0
ARC
  5
17A
330
1F
100
AcDbEntity
  8
0
  6
HIDDEN
 62
     7
370
     0
100
AcDbCircle
 10
177.2082468912
 20
98.4541253812
 30
0.0
 40
1.43804964243222
100
AcDbArc
 50
353.4415049299
 51
92.878807952
  0
LWPOLYLINE
  5
17B
330
1F
100
AcDbEntity
  8
0
  6
HIDDEN
 62
     7
370
     0
100
AcDbPolyline
 90
       24
 70
   128
 43
0.0
 10
176.4666823454
 20
96.8858549085
 10
175.9849967219
 20
97.1247661572
 10
175.5897667043
 20
97.4769383382
 10
175.310306602
 20
97.9162525099
 10
175.1673411362
 20
98.4101254206
 10
175.1714743458
 20
98.9219300162
 10
175.3223988943
 20
99.4137074512
 10
175.608922147
 20
99.8489852708
 10
176.0097941168
 20
100.1954801094
 10
176.4952832617
 20
100.4274949145
 10
177.0293827884
 20
100.5278221045
 10
177.5724826164
 20
100.4890208777
 10
178.0843011819
 20
100.3139680896
 10
178.5268815018
 20
100.0156477738
 10
178.8673981808
 20
99.6161844295
 10
179.0805965446
 20
99.1452043589
 10
179.1506655298
 20
98.6376372811
 10
179.0724074252
 20
98.131129117
 10
178.8516271643
 20
97.6632438313
 10
178.5046983294
 20
97.2686825033
 10
178.0573515005
 20
96.9767072883
 10
177.5427641131
 20
96.8089742299
 10
176.9991008349
 20
96.7779220726
 10
176.4666823454
 20
96.8858549085
  0
LWPOLYLINE
  5
17C
330
1F
100
AcDbEntity
  8
0
  6
HIDDEN
 62
     7
370
     0
100
AcDbPolyline
 90
       21
 70
   128
 43
0.0
 10
176.6376927279
 20
98.1598343413
 10
176.2272299983
 20
98.3736352708
 10
175.9071660943
 20
98.6961634543
 10
175.7088297762
 20
99.0958461251
 10
175.6516363256
 20
99.5335593533
 10
175.7411839224
 20
99.9664576437
 10
175.9687069587
 20
100.352166285
 10
176.3119328551
 20
100.6529280629
 10
176.7372669436
 20
100.8393029396
 10
177.2030716546
 20
100.8930477027
 10
177.6637531601
 20
100.8089008454
 10
178.0742149584
 20
100.5950989846
 10
178.3942788623
 20
100.2725717325
 10
178.5926151805
 20
99.872888596
 10
178.6498086311
 20
99.4351753678
 10
178.5602619655
 20
99.0022770774
 10
178.3327389292
 20
98.6165689018
 10
177.9895121016
 20
98.3158066582
 10
177.5641789444
 20
98.1294313159
 10
177.0983733021
 20
98.0756874841
 10
176.6376927279
 20
98.1598343413
  0
LWPOLYLINE
  5
17D
330
1F
100
AcDbEntity
  8
0
  6
HIDDEN
 62
     7
370
     0
100
AcDbPolyline
 90
       24
 70
   128
 43
0.0
 10
176.4666823454
 20
97.0782410067
 10
175.9849967219
 20
97.3171522554
 10
175.5897667043
 20
97.6693244364
 10
175.310306602
 20
98.1086386081
 10
175.1673411362
 20
98.6025115188
 10
175.1714743458
 20
99.1143161144
 10
175.3223988943
 20
99.6060935494
 10
175.608922147
 20
100.041371369
 10
176.0097941168
 20
100.3878666733
 10
176.4952832617
 20
100.6198814783
 10
177.0293827884
 20
100.7202086683
 10
177.5724826164
 20
100.6814069759
 10
178.0843011819
 20
100.5063546535
 10
178.5268815018
 20
100.208033872
 10
178.8673981808
 20
99.8085705277
 10
179.0805965446
 20
99.3375904571
 10
179.1506655298
 20
98.8300243106
 10
179.0724074252
 20
98.3235152152
 10
178.8516271643
 20
97.8556299295
 10
178.5046983294
 20
97.4610686015
 10
178.0573515005
 20
97.1690943178
 10
177.5427641131
 20
97.0013603281
 10
176.9991008349
 20
96.9703081709
 10
176.4666823454
 20
97.0782410067
  0
LWPOLYLINE
  5
17E
330
1F
100
AcDbEntity
  8
0
  6
HIDDEN
 62
     7
370
     0
100
AcDbPolyline
 90
       23
 70
   128
 43
0.0
 10
176.5214059286
 20
97.1714282122
 10
176.0597716801
 20
97.4038490739
 10
175.6865208752
 20
97.7490689319
 10
175.4318907641
 20
98.1791201692
 10
175.3165101416
 20
98.6591629397
 10
175.3497257613
 20
99.150306144
 10
175.5288488947
 20
99.612761819
 10
175.8393658109
 20
100.0090628576
 10
176.2561205558
 20
100.3071042422
 10
176.7453517549
 20
100.4827405039
 10
177.2674223192
 20
100.5217419651
 10
177.7800399594
 20
100.4209495794
 10
178.2416732766
 20
100.1885287177
 10
178.6149240814
 20
99.8433088597
 10
178.8695551239
 20
99.4132576224
 10
178.9849357463
 20
98.9332148519
 10
178.9517191954
 20
98.4420707163
 10
178.7725969933
 20
97.9796159726
 10
178.4620800771
 20
97.583314934
 10
178.0453244008
 20
97.2852730837
 10
177.5560941331
 20
97.109636822
 10
177.0340226374
 20
97.0706358265
 10
176.5214059286
 20
97.1714282122
  0
LWPOLYLINE
  5
17F
330
1F
100
AcDbEntity
  8
0
  6
HIDDEN
 62
     7
370
     0
100
AcDbPolyline
 90
       24
 70
   128
 43
0.0
 10
176.4666823454
 20
97.2706271049
 10
175.9849967219
 20
97.5095392849
 10
175.5897667043
 20
97.861711466
 10
175.310306602
 20
98.3010247063
 10
175.1673411362
 20
98.794897617
 10
175.1714743458
 20
99.3067022126
 10
175.3223988943
 20
99.7984796476
 10
175.608922147
 20
100.2337574672
 10
176.0097941168
 20
100.5802527715
 10
176.4952832617
 20
100.8122675765
 10
177.0293827884
 20
100.9125947666
 10
177.5724826164
 20
100.8737935398
 10
178.0843011819
 20
100.6987407517
 10
178.5268815018
 20
100.4004204359
 10
178.8673981808
 20
100.0009566259
 10
179.0805965446
 20
99.5299765553
 10
179.1506655298
 20
99.0224104088
 10
179.0724074252
 20
98.5159013134
 10
178.8516271643
 20
98.0480160277
 10
178.5046983294
 20
97.6534546998
 10
178.0573515005
 20
97.361480416
 10
177.5427641131
 20
97.1937473577
 10
176.9991008349
 20
97.1626952004
 10
176.4666823454
 20
97.2706271049
  0
LWPOLYLINE
  5
180
330
1F
100
AcDbEntity
  8
0
  6
HIDDEN
 62
     7
370
     0
100
AcDbPolyline
 90
       23
 70
   128
 43
0.0
 10
176.5214059286
 20
97.3638143104
 10
176.0597716801
 20
97.5962351721
 10
175.6865208752
 20
97.9414550301
 10
175.4318907641
 20
98.3715062674
 10
175.3165101416
 20
98.8515490379
 10
175.3497257613
 20
99.3426931735
 10
175.5288488947
 20
99.8051479172
 10
175.8393658109
 20
100.2014494214
 10
176.2561205558
 20
100.4994908061
 10
176.7453517549
 20
100.6751266021
 10
177.2674223192
 20
100.7141285289
 10
177.7800399594
 20
100.6133361433
 10
178.2416732766
 20
100.3809152816
 10
178.6149240814
 20
100.0356949579
 10
178.8695551239
 20
99.6056437206
 10
178.9849357463
 20
99.1256009501
 10
178.9517191954
 20
98.6344577458
 10
178.7725969933
 20
98.1720020708
 10
178.4620800771
 20
97.7757010322
 10
178.0453244008
 20
97.4776591819
 10
177.5560941331
 20
97.3020238515
 10
177.0340226374
 20
97.2630219247
 10
176.5214059286
 20
97.3638143104
  0
LWPOLYLINE
  5
181
330
1F
100
AcDbEntity
  8
0
  6
HIDDEN
 62
     7
370
     0
100
AcDbPolyline
 90
       24
 70
   128
 43
0.0
 10
176.4666823454
 20
97.4630132031
 10
175.9849967219
 20
97.7019253831
 10
175.5897667043
 20
98.0540975642
 10
175.310306602
 20
98.4934108045
 10
175.1673411362
 20
98.9872846466
 10
175.1714743458
 20
99.4990883108
 10
175.3223988943
 20
99.9908662114
 10
175.608922147
 20
100.4261440311
 10
176.0097941168
 20
100.7726393353
 10
176.4952832617
 20
101.0046541404
 10
177.0293827884
 20
101.1049813304
 10
177.5724826164
 20
101.066179638
 10
178.0843011819
 20
100.8911273155
 10
178.5268815018
 20
100.5928065341
 10
178.8673981808
 20
100.1933431897
 10
179.0805965446
 20
99.7223626536
 10
179.1506655298
 20
99.214796507
 10
179.0724074252
 20
98.7082883429
 10
178.8516271643
 20
98.240402126
 10
178.5046983294
 20
97.845840798
 10
178.0573515005
 20
97.5538665142
 10
177.5427641131
 20
97.3861334559
 10
176.9991008349
 20
97.3550812986
 10
176.4666823454
 20
97.4630132031
  0
LWPOLYLINE
  5
182
330
1F
100
AcDbEntity
  8
0
  6
HIDDEN
 62
     7
370
     0
100
AcDbPolyline
 90
       23
 70
   128
 43
0.0
 10
176.5214059286
 20
97.5562004086
 10
176.0597716801
 20
97.7886212703
 10
175.6865208752
 20
98.1338411283
 10
175.4318907641
 20
98.563893297
 10
175.3165101416
 20
99.0439351361
 10
175.3497257613
 20
99.5350792717
 10
175.5288488947
 20
99.9975344811
 10
175.8393658109
 20
100.3938355196
 10
176.2561205558
 20
100.6918769043
 10
176.7453517549
 20
100.867513166
 10
177.2674223192
 20
100.9065146271
 10
177.7800399594
 20
100.8057222415
 10
178.2416732766
 20
100.5733013798
 10
178.6149240814
 20
100.2280815218
 10
178.8695551239
 20
99.7980298188
 10
178.9849357463
 20
99.3179870483
 10
178.9517191954
 20
98.826843844
 10
178.7725969933
 20
98.364388169
 10
178.4620800771
 20
97.9680871304
 10
178.0453244008
 20
97.6700462114
 10
177.5560941331
 20
97.4944099497
 10
177.0340226374
 20
97.4554080229
 10
176.5214059286
 20
97.5562004086
  0
LWPOLYLINE
  5
183
330
1F
100
AcDbEntity
  8
0
  6
HIDDEN
 62
     7
370
     0
100
AcDbPolyline
 90
       24
 70
   128
 43
0.0
 10
176.4666823454
 20
97.6554002326
 10
175.9849967219
 20
97.8943114814
 10
175.5897667043
 20
98.2464836624
 10
175.310306602
 20
98.685797834
 10
175.1673411362
 20
99.1796707448
 10
175.1714743458
 20
99.6914753404
 10
175.3223988943
 20
100.1832527753
 10
175.608922147
 20
100.6185301293
 10
176.0097941168
 20
100.9650254335
 10
176.4952832617
 20
101.1970402386
 10
177.0293827884
 20
101.2973674286
 10
177.5724826164
 20
101.2585662019
 10
178.0843011819
 20
101.0835134138
 10
178.5268815018
 20
100.785193098
 10
178.8673981808
 20
100.3857292879
 10
179.0805965446
 20
99.9147496831
 10
179.1506655298
 20
99.4071826052
 10
179.0724074252
 20
98.9006744411
 10
178.8516271643
 20
98.4327891555
 10
178.5046983294
 20
98.0382278275
 10
178.0573515005
 20
97.7462526124
 10
177.5427641131
 20
97.5785195541
 10
176.9991008349
 20
97.5474673968
 10
176.4666823454
 20
97.6554002326
  0
LWPOLYLINE
  5
184
330
1F
100
AcDbEntity
  8
0
  6
HIDDEN
 62
     7
370
     0
100
AcDbPolyline
 90
       23
 70
   128
 43
0.0
 10
176.5214059286
 20
97.7485865068
 10
176.0597716801
 20
97.9810073685
 10
175.6865208752
 20
98.3262281578
 10
175.4318907641
 20
98.7562793952
 10
175.3165101416
 20
99.2363221657
 10
175.3497257613
 20
99.7274653699
 10
175.5288488947
 20
100.1899205793
 10
175.8393658109
 20
100.5862220835
 10
176.2561205558
 20
100.8842634682
 10
176.7453517549
 20
101.0598992642
 10
177.2674223192
 20
101.098901191
 10
177.7800399594
 20
100.9981088054
 10
178.2416732766
 20
100.7656879436
 10
178.6149240814
 20
100.42046762
 10
178.8695551239
 20
99.9904163826
 10
178.9849357463
 20
99.5103740778
 10
178.9517191954
 20
99.0192299422
 10
178.7725969933
 20
98.5567751985
 10
178.4620800771
 20
98.1604732286
 10
178.0453244008
 20
97.8624323096
 10
177.5560941331
 20
97.6867960479
 10
177.0340226374
 20
97.6477941211
 10
176.5214059286
 20
97.7485865068
  0
LWPOLYLINE
  5
185
330
1F
100
AcDbEntity
  8
0
  6
HIDDEN
 62
     7
370
     0
100
AcDbPolyline
 90
       24
 70
   128
 43
0.0
 10
176.4666823454
 20
97.9803191211
 10
175.9849967219
 20
98.2192303699
 10
175.5897667043
 20
98.5714025509
 10
175.310306602
 20
99.0107167225
 10
175.1673411362
 20
99.5045896333
 10
175.1714743458
 20
100.0163942289
 10
175.3223988943
 20
100.5081716638
 10
175.608922147
 20
100.9434494835
 10
176.0097941168
 20
101.2899447877
 10
176.4952832617
 20
101.5219595928
 10
177.0293827884
 20
101.6222867828
 10
177.5724826164
 20
101.5834850904
 10
178.0843011819
 20
101.4084327679
 10
178.5268815018
 20
101.1101119865
 10
178.8673981808
 20
100.7106486421
 10
179.0805965446
 20
100.2396685716
 10
179.1506655298
 20
99.732102425
 10
179.0724074252
 20
99.2255933296
 10
178.8516271643
 20
98.757708044
 10
178.5046983294
 20
98.363146716
 10
178.0573515005
 20
98.0711724322
 10
177.5427641131
 20
97.9034384426
 10
176.9991008349
 20
97.8723862853
 10
176.4666823454
 20
97.9803191211
  0
LWPOLYLINE
  5
186
330
1F
100
AcDbEntity
  8
0
  6
HIDDEN
 62
     7
370
     0
100
AcDbPolyline
 90
       21
 70
   128
 43
0.0
 10
176.6444010444
 20
98.5417566907
 10
176.2393064581
 20
98.7527627211
 10
175.9234279178
 20
99.0710729446
 10
175.727685333
 20
99.4655281019
 10
175.6712397344
 20
99.8975183528
 10
175.7596157275
 20
100.3247560647
 10
175.9841631882
 20
100.7054201972
 10
176.3229019724
 20
101.0022489999
 10
176.7426732711
 20
101.186187071
 10
177.2023871325
 20
101.2392286856
 10
177.6570439123
 20
101.1561821859
 10
178.0621384986
 20
100.9451766212
 10
178.3780170388
 20
100.6268663976
 10
178.5737596236
 20
100.2324103091
 10
178.6302052222
 20
99.8004205238
 10
178.5418292291
 20
99.373182812
 10
178.3172817685
 20
98.9925186794
 10
177.9785429843
 20
98.6956894111
 10
177.5587716855
 20
98.5117522713
 10
177.0990578242
 20
98.4587106567
 10
176.6444010444
 20
98.5417566907
  0
LINE
  5
187
330
1F
100
AcDbEntity
  8
0
  6
HIDDEN
 62
     7
370
     0
100
AcDbLine
 10
179.1507223405
 20
96.9249937397
 30
0.0
 11
179.1507223405
 21
99.7463637676
 31
0.0
  0
LINE
  5
188
330
1F
100
AcDbEntity
  8
0
  6
HIDDEN
 62
     7
370
     0
100
AcDbLine
 10
175.1507226162
 20
99.7294090402
 30
0.0
 11
175.1507226162
 21
98.2079529848
 31
0.0
  0
LINE
  5
189
330
1F
100
AcDbEntity
  8
0
  6
HIDDEN
 62
     7
370
     0
100
AcDbLine
 10
167.3507225949
 20
96.3899116676
 30
0.0
 11
169.2443218797
 21
96.8434005689
 31
0.0
  0
LINE
  5
18A
330
1F
100
AcDbEntity
  8
0
  6
HIDDEN
 62
     7
370
     0
100
AcDbLine
 10
168.2661444664
 20
100.927903847
 30
0.0
 11
167.3507225949
 21
100.7086742383
 31
0.0
  0
LINE
  5
18B
330
1F
100
AcDbEntity
  8
0
  6
HIDDEN
 62
     7
370
     0
100
AcDbLine
 10
169.2736832209
 20
97.3131568816
 30
0.0
 11
176.4807434536
 21
99.0391397562
 31
0.0
  0
LINE
  5
18C
330
1F
100
AcDbEntity
  8
0
  6
HIDDEN
 62
     7
370
     0
100
AcDbLine
 10
176.4807434536
 20
102.4324536037
 30
0.0
 11
168.5051153198
 21
100.5224092577
 31
0.0
  0
LINE
  5
18D
330
1F
100
AcDbEntity
  8
0
  6
HIDDEN
 62
     7
370
     0
100
AcDbLine
 10
178.800722935
 20
99.7899329003
 30
0.0
 11
178.800722935
 21
106.9330260569
 31
0.0
  0
LINE
  5
18E
330
1F
100
AcDbEntity
  8
0
  6
HIDDEN
 62
     7
370
     0
100
AcDbLine
 10
175.5007229529
 20
99.8121728834
 30
0.0
 11
175.5007229529
 21
99.7899329003
 31
0.0
  0
LINE
  5
18F
330
1F
100
AcDbEntity
  8
0
  6
HIDDEN
 62
     7
370
     0
100
AcDbLine
 10
175.5007229529
 20
106.9299743457
 30
0.0
 11
175.5007229529
 21
101.190019929
 31
0.0
  0
ARC
  5
190
330
1F
100
AcDbEntity
  8
0
  6
HIDDEN
 62
     7
370
     0
100
AcDbCircle
 10
96.7007226758
 20
98.4838368427
 30
0.0
 40
0.7999999999999972
100
AcDbArc
 50
90.0
 51
180.0
  0
ARC
  5
191
330
1F
100
AcDbEntity
  8
0
  6
HIDDEN
 62
     7
370
     0
100
AcDbCircle
 10
96.7007226758
 20
117.0838368427
 30
0.0
 40
0.7999999999999972
100
AcDbArc
 50
180.0
 51
270.0
  0
LINE
  5
192
330
1F
100
AcDbEntity
  8
0
  6
HIDDEN
 62
     7
370
     0
100
AcDbLine
 10
103.7930961482
 20
99.0588372287
 30
0.0
 11
104.6697836153
 21
99.0588372287
 31
0.0
  0
LINE
  5
193
330
1F
100
AcDbEntity
  8
0
  6
HIDDEN
 62
     7
370
     0
100
AcDbLine
 10
104.6697836153
 20
116.5088364568
 30
0.0
 11
103.7930961482
 21
116.5088364568
 31
0.0
  0
ARC
  5
194
330
1F
100
AcDbEntity
  8
0
  6
HIDDEN
 62
     7
370
     0
100
AcDbCircle
 10
104.6697825681
 20
99.4588368427
 30
0.0
 40
0.4000000000000199
100
AcDbArc
 50
270.0
 51
330.0
  0
ARC
  5
195
330
1F
100
AcDbEntity
  8
0
  6
HIDDEN
 62
     7
370
     0
100
AcDbCircle
 10
104.6697825681
 20
116.1088368427
 30
0.0
 40
0.4000000000000199
100
AcDbArc
 50
30.0
 51
90.0
  0
ARC
  5
196
330
1F
100
AcDbEntity
  8
0
  6
HIDDEN
 62
     7
370
     0
100
AcDbCircle
 10
103.7930951065
 20
99.4588368427
 30
0.0
 40
0.4000000000000057
100
AcDbArc
 50
255.0
 51
270.0
  0
ARC
  5
197
330
1F
100
AcDbEntity
  8
0
  6
HIDDEN
 62
     7
370
     0
100
AcDbCircle
 10
103.7930951065
 20
116.1088368427
 30
0.0
 40
0.4000000000000057
100
AcDbArc
 50
90.0
 51
105.0
  0
LINE
  5
198
330
1F
100
AcDbEntity
  8
0
  6
HIDDEN
 62
     7
370
     0
100
AcDbLine
 10
103.6895666055
 20
116.4952074822
 30
0.0
 11
102.9007214837
 21
116.2838373046
 31
0.0
  0
LINE
  5
199
330
1F
100
AcDbEntity
  8
0
  6
HIDDEN
 62
     7
370
     0
100
AcDbLine
 10
102.9007214837
 20
99.2838363808
 30
0.0
 11
103.6895666055
 21
99.0724662032
 31
0.0
  0
LINE
  5
19A
330
1F
100
AcDbEntity
  8
0
  6
HIDDEN
 62
     7
370
     0
100
AcDbLine
 10
105.0161909096
 20
99.2588368889
 30
0.0
 11
105.8966520958
 21
100.7838366266
 31
0.0
  0
LINE
  5
19B
330
1F
100
AcDbEntity
  8
0
  6
HIDDEN
 62
     7
370
     0
100
AcDbLine
 10
105.8966520958
 20
114.7838370588
 30
0.0
 11
105.0161909096
 21
116.3088367965
 31
0.0
  0
LINE
  5
19C
330
1F
100
AcDbEntity
  8
0
  6
HIDDEN
 62
     7
370
     0
100
AcDbLine
 10
96.7007208399
 20
99.2838363808
 30
0.0
 11
102.9007214837
 21
99.2838363808
 31
0.0
  0
LINE
  5
19D
330
1F
100
AcDbEntity
  8
0
  6
HIDDEN
 62
     7
370
     0
100
AcDbLine
 10
102.9007214837
 20
116.2838373046
 30
0.0
 11
96.7007208399
 21
116.2838373046
 31
0.0
  0
LINE
  5
19E
330
1F
100
AcDbEntity
  8
0
  6
HIDDEN
 62
     7
370
     0
100
AcDbLine
 10
189.0453997783
 20
115.2838366751
 30
0.0
 11
188.4507223748
 21
115.2838366751
 31
0.0
  0
LINE
  5
19F
330
1F
100
AcDbEntity
  8
0
  6
HIDDEN
 62
     7
370
     0
100
AcDbLine
 10
188.4507223748
 20
100.2838370104
 30
0.0
 11
189.0453997783
 21
100.2838370104
 31
0.0
  0
ARC
  5
1A0
330
1F
100
AcDbEntity
  8
0
  6
HIDDEN
 62
     7
370
     0
100
AcDbCircle
 10
189.0454006777
 20
114.4838368427
 30
0.0
 40
0.7999999999999972
100
AcDbArc
 50
75.0
 51
90.0
  0
ARC
  5
1A1
330
1F
100
AcDbEntity
  8
0
  6
HIDDEN
 62
     7
370
     0
100
AcDbCircle
 10
189.0454006777
 20
101.0838368427
 30
0.0
 40
0.7999999999999972
100
AcDbArc
 50
270.0
 51
285.0
  0
ARC
  5
1A2
330
1F
100
AcDbEntity
  8
0
  6
HIDDEN
 62
     7
370
     0
100
AcDbCircle
 10
188.4507226758
 20
114.4838368427
 30
0.0
 40
0.7999999999999972
100
AcDbArc
 50
90.0
 51
180.0
  0
ARC
  5
1A3
330
1F
100
AcDbEntity
  8
0
  6
HIDDEN
 62
     7
370
     0
100
AcDbCircle
 10
188.4507226758
 20
101.0838368427
 30
0.0
 40
0.7999999999999972
100
AcDbArc
 50
180.0
 51
270.0
  0
LINE
  5
1A4
330
1F
100
AcDbEntity
  8
0
  6
HIDDEN
 62
     7
370
     0
100
AcDbLine
 10
189.2524551384
 20
100.3110963564
 30
0.0
 11
191.0167488985
 21
100.7838366266
 31
0.0
  0
LINE
  5
1A5
330
1F
100
AcDbEntity
  8
0
  6
HIDDEN
 62
     7
370
     0
100
AcDbLine
 10
191.0167488985
 20
114.7838370588
 30
0.0
 11
189.2524551384
 21
115.256577329
 31
0.0
  0
LINE
  5
1A6
330
1F
100
AcDbEntity
  8
0
  6
HIDDEN
 62
     7
370
     0
100
AcDbLine
 10
197.2507241897
 20
114.7838370588
 30
0.0
 11
191.0167488985
 21
114.7838370588
 31
0.0
  0
LINE
  5
1A7
330
1F
100
AcDbEntity
  8
0
  6
HIDDEN
 62
     7
370
     0
100
AcDbLine
 10
191.0167488985
 20
100.7838366266
 30
0.0
 11
197.2507241897
 21
100.7838366266
 31
0.0
  0
LINE
  5
1A8
330
1F
100
AcDbEntity
  8
0
  6
HIDDEN
 62
     7
370
     0
100
AcDbLine
 10
105.8966520958
 20
100.7838366266
 30
0.0
 11
138.9007217966
 21
100.7838366266
 31
0.0
  0
LINE
  5
1A9
330
1F
100
AcDbEntity
  8
0
  6
HIDDEN
 62
     7
370
     0
100
AcDbLine
 10
138.9007217966
 20
114.7838370588
 30
0.0
 11
105.8966520958
 21
114.7838370588
 31
0.0
  0
LINE
  5
1AA
330
1F
100
AcDbEntity
  8
0
  6
HIDDEN
 62
     7
370
     0
100
AcDbLine
 10
138.9007217966
 20
100.7838366266
 30
0.0
 11
141.6045952372
 21
105.2838368986
 31
0.0
  0
LINE
  5
1AB
330
1F
100
AcDbEntity
  8
0
  6
HIDDEN
 62
     7
370
     0
100
AcDbLine
 10
141.6045952372
 20
110.2838367868
 30
0.0
 11
138.9007217966
 21
114.7838370588
 31
0.0
  0
LINE
  5
1AC
330
1F
100
AcDbEntity
  8
0
  6
HIDDEN
 62
     7
370
     0
100
AcDbLine
 10
204.1507217817
 20
118.1867854383
 30
0.0
 11
203.7167403631
 21
117.7528012257
 31
0.0
  0
LINE
  5
1AD
330
1F
100
AcDbEntity
  8
0
  6
HIDDEN
 62
     7
370
     0
100
AcDbLine
 10
203.7167366378
 20
97.814873391
 30
0.0
 11
204.1507217817
 21
97.3808891785
 31
0.0
  0
LINE
  5
1AE
330
1F
100
AcDbEntity
  8
0
  6
HIDDEN
 62
     7
370
     0
100
AcDbLine
 10
141.6045952372
 20
105.2838368986
 30
0.0
 11
187.6507218711
 21
105.2838368986
 31
0.0
  0
LINE
  5
1AF
330
1F
100
AcDbEntity
  8
0
  6
HIDDEN
 62
     7
370
     0
100
AcDbLine
 10
187.6507218711
 20
110.2838367868
 30
0.0
 11
141.6045952372
 21
110.2838367868
 31
0.0
  0
LINE
  5
1B0
330
1F
100
AcDbEntity
  8
0
  6
HIDDEN
 62
     7
370
     0
100
AcDbLine
 10
203.7236954801
 20
117.7588371273
 30
0.0
 11
197.2507241897
 21
117.7588371273
 31
0.0
  0
LINE
  5
1B1
330
1F
100
AcDbEntity
  8
0
  6
HIDDEN
 62
     7
370
     0
100
AcDbLine
 10
197.2507241897
 20
97.8088365581
 30
0.0
 11
203.7236954801
 21
97.8088365581
 31
0.0
  0
LINE
  5
1B2
330
1F
100
AcDbEntity
  8
0
  6
HIDDEN
 62
     7
370
     0
100
AcDbLine
 10
178.800722935
 20
108.6376993397
 30
0.0
 11
178.800722935
 21
115.7777407851
 31
0.0
  0
LINE
  5
1B3
330
1F
100
AcDbEntity
  8
0
  6
HIDDEN
 62
     7
370
     0
100
AcDbLine
 10
175.5007229529
 20
114.3776537564
 30
0.0
 11
175.5007229529
 21
108.6346476285
 31
0.0
  0
LINE
  5
1B4
330
1F
100
AcDbEntity
  8
0
  6
HIDDEN
 62
     7
370
     0
100
AcDbLine
 10
175.5007229529
 20
115.7777407851
 30
0.0
 11
175.5007229529
 21
115.755500802
 31
0.0
  0
LINE
  5
1B5
330
1F
100
AcDbEntity
  8
0
  6
HIDDEN
 62
     7
370
     0
100
AcDbLine
 10
168.5051153198
 20
115.0452644277
 30
0.0
 11
176.4807434536
 21
113.1352200817
 31
0.0
  0
LINE
  5
1B6
330
1F
100
AcDbEntity
  8
0
  6
HIDDEN
 62
     7
370
     0
100
AcDbLine
 10
176.4807434536
 20
116.5285339292
 30
0.0
 11
169.2736832209
 21
118.2545168039
 31
0.0
  0
LINE
  5
1B7
330
1F
100
AcDbEntity
  8
0
  6
HIDDEN
 62
     7
370
     0
100
AcDbLine
 10
179.1507223405
 20
115.8213099178
 30
0.0
 11
179.1507223405
 21
118.6426799458
 31
0.0
  0
LINE
  5
1B8
330
1F
100
AcDbEntity
  8
0
  6
HIDDEN
 62
     7
370
     0
100
AcDbLine
 10
175.1507226162
 20
117.3597207006
 30
0.0
 11
175.1507226162
 21
115.8382646453
 31
0.0
  0
LINE
  5
1B9
330
1F
100
AcDbEntity
  8
0
  6
HIDDEN
 62
     7
370
     0
100
AcDbLine
 10
167.3507225949
 20
114.8589994472
 30
0.0
 11
168.2661444664
 21
114.6397698384
 31
0.0
  0
LINE
  5
1BA
330
1F
100
AcDbEntity
  8
0
  6
HIDDEN
 62
     7
370
     0
100
AcDbLine
 10
169.2443218797
 20
118.7242731165
 30
0.0
 11
167.3507225949
 21
119.1777620178
 31
0.0
  0
LINE
  5
1BB
330
1F
100
AcDbEntity
  8
0
  6
HIDDEN
 62
     7
370
     0
100
AcDbLine
 10
169.405477938
 20
96.9848228332
 30
0.0
 11
172.7024283044
 21
97.7743934553
 31
0.0
  0
LINE
  5
1BC
330
1F
100
AcDbEntity
  8
0
  6
HIDDEN
 62
     7
370
     0
100
AcDbLine
 10
171.770830524
 20
101.664396533
 30
0.0
 11
168.4738801576
 21
100.8748259109
 31
0.0
  0
LINE
  5
1BD
330
1F
100
AcDbEntity
  8
0
  6
HIDDEN
 62
     7
370
     0
100
AcDbLine
 10
173.2653923117
 20
98.3853690039
 30
0.0
 11
173.4939696051
 21
99.0327592652
 31
0.0
  0
LINE
  5
1BE
330
1F
100
AcDbEntity
  8
0
  6
HIDDEN
 62
     7
370
     0
100
AcDbLine
 10
173.046529644
 20
100.901103643
 30
0.0
 11
172.5494874425
 21
101.3747188907
 31
0.0
  0
LINE
  5
1BF
330
1F
100
AcDbEntity
  8
0
  6
HIDDEN
 62
     7
370
     0
100
AcDbLine
 10
172.5494874425
 20
114.1929547947
 30
0.0
 11
173.046529644
 21
114.6665700425
 31
0.0
  0
LINE
  5
1C0
330
1F
100
AcDbEntity
  8
0
  6
HIDDEN
 62
     7
370
     0
100
AcDbLine
 10
173.4939696051
 20
116.5349144202
 30
0.0
 11
173.2653923117
 21
117.1823046815
 31
0.0
  0
LINE
  5
1C1
330
1F
100
AcDbEntity
  8
0
  6
HIDDEN
 62
     7
370
     0
100
AcDbLine
 10
168.4738801576
 20
114.6928477746
 30
0.0
 11
171.770830524
 21
113.9032771524
 31
0.0
  0
LINE
  5
1C2
330
1F
100
AcDbEntity
  8
0
  6
HIDDEN
 62
     7
370
     0
100
AcDbLine
 10
172.7024283044
 20
117.7932802301
 30
0.0
 11
169.405477938
 21
118.5828508522
 31
0.0
  0
LINE
  5
1C3
330
1F
100
AcDbEntity
  8
0
  6
HIDDEN
 62
     7
370
     0
100
AcDbLine
 10
179.1507223405
 20
115.8213099178
 30
0.0
 11
179.1507223405
 21
116.1462297376
 31
0.0
  0
LINE
  5
1C4
330
1F
100
AcDbEntity
  8
0
  6
HIDDEN
 62
     7
370
     0
100
AcDbLine
 10
175.1507226162
 20
116.1462297376
 30
0.0
 11
175.1507226162
 21
115.8213099178
 31
0.0
  0
LINE
  5
1C5
330
1F
100
AcDbEntity
  8
0
  6
HIDDEN
 62
     7
370
     0
100
AcDbLine
 10
178.6507222585
 20
116.0833067905
 30
0.0
 11
178.6507222585
 21
117.0867845129
 31
0.0
  0
LINE
  5
1C6
330
1F
100
AcDbEntity
  8
0
  6
HIDDEN
 62
     7
370
     0
100
AcDbLine
 10
175.6507226981
 20
117.0867845129
 30
0.0
 11
175.6507226981
 21
116.0833067905
 31
0.0
  0
LINE
  5
1C7
330
1F
100
AcDbEntity
  8
0
  6
HIDDEN
 62
     7
370
     0
100
AcDbLine
 10
179.1507223405
 20
116.9157750618
 30
0.0
 11
179.1507223405
 21
117.0525826227
 31
0.0
  0
LINE
  5
1C8
330
1F
100
AcDbEntity
  8
0
  6
HIDDEN
 62
     7
370
     0
100
AcDbLine
 10
175.1507226162
 20
117.0525826227
 30
0.0
 11
175.1507226162
 21
116.9157750618
 31
0.0
  0
LINE
  5
1C9
330
1F
100
AcDbEntity
  8
0
  6
HIDDEN
 62
     7
370
     0
100
AcDbLine
 10
175.1507226162
 20
98.6518986236
 30
0.0
 11
175.1507226162
 21
98.5150910627
 31
0.0
  0
LINE
  5
1CA
330
1F
100
AcDbEntity
  8
0
  6
HIDDEN
 62
     7
370
     0
100
AcDbLine
 10
179.1507223405
 20
98.5150910627
 30
0.0
 11
179.1507223405
 21
98.6518986236
 31
0.0
  0
LINE
  5
1CB
330
1F
100
AcDbEntity
  8
0
  6
HIDDEN
 62
     7
370
     0
100
AcDbLine
 10
175.6507226981
 20
99.4843668949
 30
0.0
 11
175.6507226981
 21
98.4808891725
 31
0.0
  0
LINE
  5
1CC
330
1F
100
AcDbEntity
  8
0
  6
HIDDEN
 62
     7
370
     0
100
AcDbLine
 10
178.6507222585
 20
98.4808891725
 30
0.0
 11
178.6507222585
 21
99.4843668949
 31
0.0
  0
LINE
  5
1CD
330
1F
100
AcDbEntity
  8
0
  6
HIDDEN
 62
     7
370
     0
100
AcDbLine
 10
175.1507226162
 20
99.7463637676
 30
0.0
 11
175.1507226162
 21
99.4214439478
 31
0.0
  0
LINE
  5
1CE
330
1F
100
AcDbEntity
  8
0
  6
HIDDEN
 62
     7
370
     0
100
AcDbLine
 10
179.1507223405
 20
99.4214439478
 30
0.0
 11
179.1507223405
 21
99.7463637676
 31
0.0
  0
ARC
  5
1CF
330
1F
100
AcDbEntity
  8
0
  6
HIDDEN
 62
     7
370
     0
100
AcDbCircle
 10
177.1507226758
 20
99.0623231879
 30
0.0
 40
1.500000000000013
100
AcDbArc
 50
71.1182787691
 51
191.5274417162
  0
ARC
  5
1D0
330
1F
100
AcDbEntity
  8
0
  6
HIDDEN
 62
     7
370
     0
100
AcDbCircle
 10
177.1507226758
 20
99.0623231879
 30
0.0
 40
1.499999999999993
100
AcDbArc
 50
336.6722113243
 51
71.1182787691
  0
CIRCLE
  5
1D1
330
1F
100
AcDbEntity
  8
0
  6
HIDDEN
 62
     7
370
     0
100
AcDbCircle
 10
177.1507226758
 20
116.5053504975
 30
0.0
 40
1.500000000000001
  0
DIMENSION
  5
1D2
330
1F
100
AcDbEntity
  8
VERMASSUNG
100
AcDbDimension
  2
_D
 10
89.7159786412
 20
139.5338368427
 30
0.0
 11
89.7159786412
 21
107.7838368427
 31
0.0
 70
   160
  1
ISO 40 %%c<>
 71
     2
 42
-1.0
  3
SLDDIMSTYLE0
100
AcDbAlignedDimension
 13
182.6007226758
 23
76.0338368427
 33
0.0
 14
182.6007226758
 24
139.5338368427
 34
0.0
 50
90.0
100
AcDbRotatedDimension
  0
DIMENSION
  5
1DF
330
1F
100
AcDbEntity
  8
VERMASSUNG
100
AcDbDimension
  2
_D_1
 10
209.6704547177
 20
100.7838368427
 30
0.0
 11
209.6704547177
 21
107.7838368427
 31
0.0
 70
   160
  1
%%c<>
 71
     2
 42
-1.0
  3
SLDDIMSTYLE0
100
AcDbAlignedDimension
 13
197.2507226758
 23
114.7838368427
 33
0.0
 14
197.2507226758
 24
100.7838368427
 34
0.0
 50
90.0
100
AcDbRotatedDimension
  0
DIMENSION
  5
1EA
330
1F
100
AcDbEntity
  8
VERMASSUNG
100
AcDbDimension
  2
_D_2
 10
215.6704547177
 20
95.2838368427
 30
0.0
 11
215.6704547177
 21
107.7838368427
 31
0.0
 70
   160
  1
ST2 %%c<>
 71
     2
 42
-1.0
  3
SLDDIMSTYLE0
100
AcDbAlignedDimension
 13
203.7507226758
 23
120.2838368427
 33
0.0
 14
203.7507226758
 24
95.2838368427
 34
0.0
 50
90.0
100
AcDbRotatedDimension
  0
DIMENSION
  5
1F6
330
1F
100
AcDbEntity
  8
VERMASSUNG
100
AcDbDimension
  2
_D_3
 10
204.1507226758
 20
142.6769788395
 30
0.0
 11
193.6757226758
 21
142.6769788395
 31
0.0
 70
   160
  1
(<>)
 71
     2
 42
-1.0
  3
SLDDIMSTYLE0
100
AcDbAlignedDimension
 13
183.2007226758
 23
137.7943879762
 33
0.0
 14
204.1507226758
 24
119.8838368427
 34
0.0
100
AcDbRotatedDimension
  0
DIMENSION
  5
202
330
1F
100
AcDbEntity
  8
VERMASSUNG
100
AcDbDimension
  2
_D_4
 10
204.1507226758
 20
148.6769788395
 30
0.0
 11
184.1507226758
 21
148.6769788395
 31
0.0
 70
   160
  1
<>
 71
     2
 42
-1.0
  3
SLDDIMSTYLE0
100
AcDbAlignedDimension
 13
164.1507226758
 23
130.0088368427
 33
0.0
 14
204.1507226758
 24
119.8838368427
 34
0.0
100
AcDbRotatedDimension
  0
DIMENSION
  5
20C
330
1F
100
AcDbEntity
  8
VERMASSUNG
100
AcDbDimension
  2
_D_5
 10
204.1507226758
 20
154.6769788395
 30
0.0
 11
150.0257226758
 21
154.6769788395
 31
0.0
 70
   160
  1
(<>)
 71
     2
 42
-1.0
  3
SLDDIMSTYLE0
100
AcDbAlignedDimension
 13
95.9007226758
 23
119.1909674397
 33
0.0
 14
204.1507226758
 24
119.8838368427
 34
0.0
100
AcDbRotatedDimension
  0
LINE
  5
218
330
1F
100
AcDbEntity
  8
VERMASSUNG
  6
CENTERX2
 62
     7
370
     0
100
AcDbLine
 10
179.0957243219
 20
114.2056280234
 30
0.0
 11
166.9443976786
 21
117.115689488
 31
0.0
  0
LINE
  5
219
330
1F
100
AcDbEntity
  8
VERMASSUNG
  6
CENTERX2
 62
     7
370
     0
100
AcDbLine
 10
93.9007226758
 20
107.7838368427
 30
0.0
 11
205.3372527684
 21
107.7838368427
 31
0.0
  0
LINE
  5
21A
330
1F
100
AcDbEntity
  8
VERMASSUNG
  6
CENTERX2
 62
     7
370
     0
100
AcDbLine
 10
163.948838917
 20
97.73459256
 30
0.0
 11
179.8332410925
 21
101.5386699267
 31
0.0
  0
LINE
  5
21B
330
1F
100
AcDbEntity
  8
VERMASSUNG
  6
CENTERX2
 62
     7
370
     0
100
AcDbLine
 10
177.1507226758
 20
94.5769229448
 30
0.0
 11
177.1507226758
 21
120.9907507406
 31
0.0
  0
LINE
  5
21C
330
1F
100
AcDbEntity
  8
0
  6
Continuous
 62
     7
370
    15
100
AcDbLine
 10
262.5895152271
 20
44.8827682676
 30
0.0
 11
262.501112377
 21
44.9338189243
 31
0.0
  0
LINE
  5
21D
330
1F
100
AcDbEntity
  8
0
  6
Continuous
 62
     7
370
    15
100
AcDbLine
 10
260.9098635145
 20
44.933819002
 30
0.0
 11
260.821461283
 21
44.8827681322
 31
0.0
  0
LINE
  5
21E
330
1F
100
AcDbEntity
  8
0
  6
Continuous
 62
     7
370
    15
100
AcDbLine
 10
262.9554877549
 20
44.2976808429
 30
0.0
 11
262.9554877549
 21
44.3725963237
 31
0.0
  0
LINE
  5
21F
330
1F
100
AcDbEntity
  8
0
  6
Continuous
 62
     7
370
    15
100
AcDbLine
 10
260.4554886604
 20
44.3725958485
 30
0.0
 11
260.4554886604
 21
44.2976731433
 31
0.0
  0
SPLINE
  5
220
330
1F
100
AcDbEntity
  8
0
  6
Continuous
 62
     7
370
    15
100
AcDbSpline
210
0.0
220
0.0
230
1.0
 70
     8
 71
     3
 72
    33
 73
    29
 74
     0
 42
0.000000001
 43
0.00000001
 40
0.0
 40
0.0
 40
0.0
 40
0.0
 40
0.0089258334470217
 40
0.0497319010331077
 40
0.0906429423882019
 40
0.1317134781103674
 40
0.172930438015272
 40
0.2142628923466876
 40
0.255674792898147
 40
0.297133662419788
 40
0.3386145116224599
 40
0.3800982720734789
 40
0.4215740197370917
 40
0.4630373743030575
 40
0.5044868623861265
 40
0.5459228404817292
 40
0.5873467555152989
 40
0.628760708332451
 40
0.6701671999662886
 40
0.711568892768344
 40
0.7529685289134677
 40
0.7943689153994654
 40
0.8357720312745498
 40
0.8771807181047472
 40
0.9185978240792396
 40
0.9600261423428353
 40
0.999291952612648
 40
1.0
 40
1.0
 40
1.0
 40
1.0
 10
257.6608635854192
 20
59.76340171916859
 30
0.0
 10
257.6077627139376
 20
59.77698264669768
 30
0.0
 10
257.3119015710014
 20
59.85265124927949
 30
0.0
 10
256.7466262918026
 20
59.92839590405854
 30
0.0
 10
255.9549982629026
 20
59.95403945718124
 30
0.0
 10
255.1326046339815
 20
59.88627840666583
 30
0.0
 10
254.2860574215546
 20
59.72966674345277
 30
0.0
 10
253.4201756404349
 20
59.48378615093226
 30
0.0
 10
252.5406896068314
 20
59.15045694196849
 30
0.0
 10
251.6532417628284
 20
58.73176229438691
 30
0.0
 10
250.7635163907541
 20
58.23052099132178
 30
0.0
 10
249.8771044681986
 20
57.65005874162861
 30
0.0
 10
248.9994837667597
 20
56.99417418011797
 30
0.0
 10
248.1359946639175
 20
56.26707205501312
 30
0.0
 10
247.2918464034043
 20
55.47334445870428
 30
0.0
 10
246.4721205915028
 20
54.61794967464738
 30
0.0
 10
245.6817513486363
 20
53.70619320784933
 30
0.0
 10
244.9255019742847
 20
52.74369996706506
 30
0.0
 10
244.207940174048
 20
51.73638478736852
 30
0.0
 10
243.5334118651669
 20
50.69042181911234
 30
0.0
 10
242.9060135825877
 20
49.61220755515796
 30
0.0
 10
242.3295832832968
 20
48.50833296113717
 30
0.0
 10
241.8076302315064
 20
47.38552906156504
 30
0.0
 10
241.3434551646684
 20
46.25065919692153
 30
0.0
 10
240.9396324363992
 20
45.11053235416907
 30
0.0
 10
240.6057753830254
 20
43.9923178839121
 30
0.0
 10
240.4227970005795
 20
43.25202014081474
 30
0.0
 10
240.3453253539688
 20
42.89148728528747
 30
0.0
 10
240.3439531172072
 20
42.88510125298105
 30
0.0
  0
SPLINE
  5
221
330
1F
100
AcDbEntity
  8
0
  6
Continuous
 62
     7
370
    15
100
AcDbSpline
210
0.0
220
0.0
230
1.0
 70
     8
 71
     3
 72
    26
 73
    22
 74
     0
 42
0.000000001
 43
0.00000001
 40
0.0
 40
0.0
 40
0.0
 40
0.0
 40
0.0014037057163064
 40
0.05829181040418
 40
0.1155322246715577
 40
0.1729411061915785
 40
0.2303839646148881
 40
0.2877946588066543
 40
0.3451601394961984
 40
0.4024846760878031
 40
0.4597804397270984
 40
0.5170627792164025
 40
0.5743483409067053
 40
0.6316496768048506
 40
0.6889834426435228
 40
0.74636701949322
 40
0.8038161889890553
 40
0.8613412654691219
 40
0.9189388017227647
 40
0.9765677787266239
 40
1.0
 40
1.0
 40
1.0
 40
1.0
 10
262.5969282979927
 20
32.45948780119329
 30
0.0
 10
262.6012785993766
 20
32.46002454890056
 30
0.0
 10
262.7819339465235
 20
32.48231411802011
 30
0.0
 10
263.1564708292222
 20
32.6086044028316
 30
0.0
 10
263.712955311634
 20
32.84271644989714
 30
0.0
 10
264.2745625627066
 20
33.17099349606637
 30
0.0
 10
264.8291368951152
 20
33.57428543926189
 30
0.0
 10
265.3685924407849
 20
34.04940590501944
 30
0.0
 10
265.8844095860311
 20
34.58760156083581
 30
0.0
 10
266.3688217985239
 20
35.18058233911735
 30
0.0
 10
266.8144717806579
 20
35.81899561171353
 30
0.0
 10
267.2145762115393
 20
36.49295886561306
 30
0.0
 10
267.5629826713548
 20
37.19205582092327
 30
0.0
 10
267.8542745597306
 20
37.90555041674892
 30
0.0
 10
268.0838199170057
 20
38.62249927031698
 30
0.0
 10
268.2479656070136
 20
39.33210488181589
 30
0.0
 10
268.3434449169075
 20
40.02328751864736
 30
0.0
 10
268.3697219676861
 20
40.68686752454162
 30
0.0
 10
268.3201579141082
 20
41.30789864046665
 30
0.0
 10
268.235829492782
 20
41.77854348427521
 30
0.0
 10
268.1431173791188
 20
42.01732269623928
 30
0.0
 10
268.1163172477582
 20
42.08634619267329
 30
0.0
  0
LINE
  5
222
330
1F
100
AcDbEntity
  8
0
  6
Continuous
 62
     7
370
    15
100
AcDbLine
 10
267.0045874341
 20
43.5288617338
 30
0.0
 11
261.1532792107
 21
46.9067500708
 31
0.0
  0
LINE
  5
223
330
1F
100
AcDbEntity
  8
0
  6
Continuous
 62
     7
370
    15
100
AcDbLine
 10
254.9037873189
 20
36.0811392302
 30
0.0
 11
260.7550955423
 21
32.7032508932
 31
0.0
  0
SPLINE
  5
224
330
1F
100
AcDbEntity
  8
0
  6
Continuous
 62
     7
370
    15
100
AcDbSpline
210
0.0
220
0.0
230
1.0
 70
     8
 71
     3
 72
    20
 73
    16
 74
     0
 42
0.000000001
 43
0.00000001
 40
0.0
 40
0.0
 40
0.0
 40
0.0
 40
0.0141304486644176
 40
0.1025944898115459
 40
0.1912198755271258
 40
0.2798636953348885
 40
0.3683804969846188
 40
0.4566515175075265
 40
0.544572510212879
 40
0.6320820979193345
 40
0.7192500887740582
 40
0.8063758477061127
 40
0.8942123465503848
 40
0.9845097441151565
 40
1.0
 40
1.0
 40
1.0
 40
1.0
 10
261.7287494814199
 20
38.1645139268948
 30
0.0
 10
261.7387423931268
 20
38.19285898069918
 30
0.0
 10
261.8112961883136
 20
38.39865898060035
 30
0.0
 10
261.9863361776577
 20
38.78135842069949
 30
0.0
 10
262.2721751847545
 20
39.29450742062623
 30
0.0
 10
262.6051828491825
 20
39.77521115193454
 30
0.0
 10
262.9720517910905
 20
40.20933775828647
 30
0.0
 10
263.3623666249957
 20
40.58455704637667
 30
0.0
 10
263.7634981891142
 20
40.8905737363869
 30
0.0
 10
264.1625808816964
 20
41.11995753176301
 30
0.0
 10
264.5460944390495
 20
41.26770103913448
 30
0.0
 10
264.9030957448321
 20
41.33544198777464
 30
0.0
 10
265.2198115228168
 20
41.31751781982241
 30
0.0
 10
265.4277340100007
 20
41.27014124659456
 30
0.0
 10
265.5185771231456
 20
41.20542874636195
 30
0.0
 10
265.5318790825152
 20
41.19595303577699
 30
0.0
  0
LINE
  5
225
330
1F
100
AcDbEntity
  8
0
  6
Continuous
 62
     7
370
    15
100
AcDbLine
 10
250.1244328209
 20
57.7984777458
 30
0.0
 11
228.8143948408
 21
65.4777706497
 31
0.0
  0
LINE
  5
226
330
1F
100
AcDbEntity
  8
0
  6
Continuous
 62
     7
370
    15
100
AcDbLine
 10
222.6496128461
 20
54.7988980044
 30
0.0
 11
242.9458509437
 21
37.6609229169
 31
0.0
  0
LINE
  5
227
330
1F
100
AcDbEntity
  8
0
  6
Continuous
 62
     7
370
    15
100
AcDbLine
 10
261.6765226214
 20
35.5148985619
 30
0.0
 11
261.6401874282
 21
35.5778519265
 31
0.0
  0
SPLINE
  5
228
330
1F
100
AcDbEntity
  8
0
  6
Continuous
 62
     7
370
    15
100
AcDbSpline
210
0.0
220
0.0
230
1.0
 70
     8
 71
     3
 72
    10
 73
     6
 74
     0
 42
0.000000001
 43
0.00000001
 40
0.0
 40
0.0
 40
0.0
 40
0.0
 40
0.4540592281851591
 40
0.9511604683789538
 40
1.0
 40
1.0
 40
1.0
 40
1.0
 10
262.0863758631109
 20
35.11782421943816
 30
0.0
 10
262.015139977669
 20
35.1606834864188
 30
0.0
 10
261.8659154845712
 20
35.25046481432754
 30
0.0
 10
261.7399236308345
 20
35.40385992499315
 30
0.0
 10
261.6817287043619
 20
35.50578078351531
 30
0.0
 10
261.6765226213976
 20
35.51489856194408
 30
0.0
  0
SPLINE
  5
229
330
1F
100
AcDbEntity
  8
0
  6
Continuous
 62
     7
370
    15
100
AcDbSpline
210
0.0
220
0.0
230
1.0
 70
     8
 71
     3
 72
    20
 73
    16
 74
     0
 42
0.000000001
 43
0.00000001
 40
0.0
 40
0.0
 40
0.0
 40
0.0
 40
0.0103726929058096
 40
0.0986157774236216
 40
0.1871994814958041
 40
0.2760803709633678
 40
0.3651857466847516
 40
0.4544387963357918
 40
0.5437742271918155
 40
0.6331436339926821
 40
0.7225088723964677
 40
0.8118530360288235
 40
0.9011689587575025
 40
0.9904548897526602
 40
0.9999999999999999
 40
0.9999999999999999
 40
0.9999999999999999
 40
0.9999999999999999
 10
251.03685348066
 20
27.93323009119155
 30
0.0
 10
251.0670251030829
 20
27.92974925212264
 30
0.0
 10
251.353874239405
 20
27.89665604730258
 30
0.0
 10
251.9279000598748
 20
27.91932091087312
 30
0.0
 10
252.7557136395216
 20
28.00746466265174
 30
0.0
 10
253.6096764179243
 20
28.19434940951956
 30
0.0
 10
254.4802511569265
 20
28.4674000158504
 30
0.0
 10
255.3629129514184
 20
28.82801166160337
 30
0.0
 10
256.2516641713569
 20
29.2730029780076
 30
0.0
 10
257.1409924343534
 20
29.79948459675312
 30
0.0
 10
258.0250632264169
 20
30.40445976820431
 30
0.0
 10
258.8994020448648
 20
31.0819672445376
 30
0.0
 10
259.7551290278543
 20
31.83528776293519
 30
0.0
 10
260.3488899103312
 20
32.39443245331089
 30
0.0
 10
260.6474874686435
 20
32.7175198091344
 30
0.0
 10
260.6763260458541
 20
32.74872361304141
 30
0.0
  0
SPLINE
  5
22A
330
1F
100
AcDbEntity
  8
0
  6
Continuous
 62
     7
370
    15
100
AcDbSpline
210
0.0
220
0.0
230
1.0
 70
     8
 71
     3
 72
     9
 73
     5
 74
     0
 42
0.000000001
 43
0.00000001
 40
0.0
 40
0.0
 40
0.0
 40
0.0
 40
0.4645115646615947
 40
1.0
 40
1.0
 40
1.0
 40
1.0
 10
266.9218409873728
 20
43.57663027536114
 30
0.0
 10
266.9868905285982
 20
43.79770300439688
 30
0.0
 10
267.1269291114326
 20
44.27362813921412
 30
0.0
 10
267.2266218920175
 20
44.74277181348368
 30
0.0
 10
267.2800062231074
 20
44.9939928255672
 30
0.0
  0
LINE
  5
22B
330
1F
100
AcDbEntity
  8
0
  6
Continuous
 62
     7
370
    15
100
AcDbLine
 10
247.1118725661
 20
29.4656245047
 30
0.0
 11
248.4653323367
 21
28.6842888103
 31
0.0
  0
LINE
  5
22C
330
1F
100
AcDbEntity
  8
0
  6
Continuous
 62
     7
370
    15
100
AcDbLine
 10
243.2857754021
 20
31.6743833827
 30
0.0
 11
244.6215578624
 21
30.9032525823
 31
0.0
  0
SPLINE
  5
22D
330
1F
100
AcDbEntity
  8
0
  6
Continuous
 62
     7
370
    15
100
AcDbSpline
210
0.0
220
0.0
230
1.0
 70
     8
 71
     3
 72
    11
 73
     7
 74
     0
 42
0.000000001
 43
0.00000001
 40
0.0
 40
0.0
 40
0.0
 40
0.0
 40
0.113464200401919
 40
0.4670521114395674
 40
0.8201051608790648
 40
1.0
 40
1.0
 40
1.0
 40
1.0
 10
240.3657419677526
 20
35.67147416791422
 30
0.0
 10
240.3924567578034
 20
35.58057215581093
 30
0.0
 10
240.5024227123131
 20
35.20639266539402
 30
0.0
 10
240.7469555591121
 20
34.59499450658195
 30
0.0
 10
241.0504486018268
 20
33.97161002382602
 30
0.0
 10
241.276047810075
 20
33.64435960049944
 30
0.0
 10
241.3521980944551
 20
33.53389727665834
 30
0.0
  0
SPLINE
  5
22E
330
1F
100
AcDbEntity
  8
0
  6
Continuous
 62
     7
370
    15
100
AcDbSpline
210
0.0
220
0.0
230
1.0
 70
     8
 71
     3
 72
    12
 73
     8
 74
     0
 42
0.000000001
 43
0.00000001
 40
0.0
 40
0.0
 40
0.0
 40
0.0
 40
0.091685046684307
 40
0.3254505136514823
 40
0.5588590409921993
 40
0.7915425726730622
 40
1.0
 40
1.0
 40
1.0
 40
1.0
 10
267.2728761617195
 20
52.13914341465706
 30
0.0
 10
267.2401302362834
 20
52.2501531822404
 30
0.0
 10
267.1238934164468
 20
52.64419983637722
 30
0.0
 10
266.8743954776155
 20
53.27725720020806
 30
0.0
 10
266.4996601024164
 20
54.00757002378064
 30
0.0
 10
266.0788283989118
 20
54.64824342125655
 30
0.0
 10
265.7560862156986
 20
55.00875448416522
 30
0.0
 10
265.6035771280051
 20
55.1791109363656
 30
0.0
  0
SPLINE
  5
22F
330
1F
100
AcDbEntity
  8
0
  6
Continuous
 62
     7
370
    15
100
AcDbSpline
210
0.0
220
0.0
230
1.0
 70
     8
 71
     3
 72
    26
 73
    22
 74
     0
 42
0.000000001
 43
0.00000001
 40
0.0
 40
0.0
 40
0.0
 40
0.0
 40
0.0246746804012387
 40
0.0785064256779595
 40
0.1331494535097304
 40
0.188937630497582
 40
0.2457734050721787
 40
0.3032937314118817
 40
0.3611169482778981
 40
0.4189531944222457
 40
0.4766962662237161
 40
0.5343318698004206
 40
0.5918812332125577
 40
0.6493810919024707
 40
0.7068743791528063
 40
0.7643997222280127
 40
0.8219959988415521
 40
0.8797104989597377
 40
0.9375873615198085
 40
0.9925538278734994
 40
1.0
 40
1.0
 40
1.0
 40
1.0
 10
228.7504518154204
 20
65.48727264275853
 30
0.0
 10
228.6805211860751
 20
65.51322550718145
 30
0.0
 10
228.4580257508341
 20
65.59579867890305
 30
0.0
 10
228.0447460155827
 20
65.63964910088822
 30
0.0
 10
227.5221655525276
 20
65.62263500657943
 30
0.0
 10
226.9751037681712
 20
65.51091354556854
 30
0.0
 10
226.4130074643913
 20
65.31115023184141
 30
0.0
 10
225.8441872327669
 20
65.02374748514896
 30
0.0
 10
225.2791163152305
 20
64.65417691015931
 30
0.0
 10
224.7276449972742
 20
64.20935689428012
 30
0.0
 10
224.1986869809702
 20
63.69752001653395
 30
0.0
 10
223.7001304796138
 20
63.12732446119288
 30
0.0
 10
223.239208597585
 20
62.50791872354958
 30
0.0
 10
222.8226461523021
 20
61.84891409275524
 30
0.0
 10
222.4566315548413
 20
61.16036549993922
 30
0.0
 10
222.1467693084907
 20
60.45263853822543
 30
0.0
 10
221.8980240283038
 20
59.73627654155733
 30
0.0
 10
221.7145111367439
 20
59.02168265454132
 30
0.0
 10
221.6023126075702
 20
58.33198044164283
 30
0.0
 10
221.5708520516583
 20
57.86143425375099
 30
0.0
 10
221.569763329385
 20
57.62441635587781
 30
0.0
 10
221.5696334388109
 20
57.59613881293777
 30
0.0
  0
SPLINE
  5
230
330
1F
100
AcDbEntity
  8
0
  6
Continuous
 62
     7
370
    15
100
AcDbSpline
210
0.0
220
0.0
230
1.0
 70
     8
 71
     3
 72
    13
 73
     9
 74
     0
 42
0.000000001
 43
0.00000001
 40
0.0
 40
0.0
 40
0.0
 40
0.0
 40
0.0985029851874153
 40
0.2847039977261939
 40
0.4709364741416887
 40
0.655706328839904
 40
0.8374006413609376
 40
1.0
 40
1.0
 40
1.0
 40
1.0
 10
221.5696334388109
 20
57.59613881293776
 30
0.0
 10
221.5717319672342
 20
57.48028153292007
 30
0.0
 10
221.5777973613978
 20
57.14541827244163
 30
0.0
 10
221.6457578398002
 20
56.62112275088396
 30
0.0
 10
221.7985921001936
 20
56.04706468464398
 30
0.0
 10
222.0295549814165
 20
55.53690855873692
 30
0.0
 10
222.3176535360616
 20
55.10456038691153
 30
0.0
 10
222.5605830551081
 20
54.88587521925077
 30
0.0
 10
222.6753112284677
 20
54.78259691069023
 30
0.0
  0
LWPOLYLINE
  5
231
330
1F
100
AcDbEntity
  8
0
  6
Continuous
 62
     7
370
    15
100
AcDbPolyline
 90
       21
 70
   128
 43
0.0
 10
260.7420816327
 20
44.139303651
 10
260.6097184259
 20
44.3275813169
 10
260.5846175904
 20
44.5302559839
 10
260.6692348386
 20
44.7274892588
 10
260.8552877025
 20
44.8999742527
 10
261.1245638301
 20
45.0308270758
 10
261.4507063514
 20
45.1072379445
 10
261.801787418
 20
45.1217287523
 10
262.1434415435
 20
45.0728807062
 10
262.4422268911
 20
44.9654742731
 10
262.6688947827
 20
44.8100241378
 10
262.8012579894
 20
44.6217464719
 10
262.8263588249
 20
44.4190718049
 10
262.7417415768
 20
44.22183853
 10
262.5556887129
 20
44.0493535361
 10
262.2864125852
 20
43.918500713
 10
261.960270064
 20
43.8420898443
 10
261.6091889973
 20
43.8275990365
 10
261.2675348718
 20
43.8764470826
 10
260.9687495242
 20
43.9838535157
 10
260.7420816327
 20
44.139303651
  0
LWPOLYLINE
  5
232
330
1F
100
AcDbEntity
  8
0
  6
Continuous
 62
     7
370
    15
100
AcDbPolyline
 90
        6
 70
   128
 43
0.0
 10
260.6350368692
 20
43.9999733241
 10
260.4923369421
 20
44.1986751231
 10
260.4574322722
 20
44.4128297255
 10
260.5334228754
 20
44.6234094026
 10
260.7135565303
 20
44.8117032495
 10
260.821461283
 20
44.8827681322
  0
ARC
  5
233
330
1F
100
AcDbEntity
  8
0
  6
Continuous
 62
     7
370
    15
100
AcDbCircle
 10
262.3253121744
 20
44.3068904399
 30
0.0
 40
0.6335917656513471
100
AcDbArc
 50
5.9524929893
 51
65.3551396651
  0
ARC
  5
234
330
1F
100
AcDbEntity
  8
0
  6
Continuous
 62
     7
370
    15
100
AcDbCircle
 10
261.7153534464
 20
45.4165233915
 30
0.0
 40
1.781487580765805
100
AcDbArc
 50
232.6694373588
 51
301.628108504
  0
LWPOLYLINE
  5
235
330
1F
100
AcDbEntity
  8
0
  6
Continuous
 62
     7
370
    15
100
AcDbPolyline
 90
       17
 70
   128
 43
0.0
 10
261.0632171577
 20
44.2510903988
 10
260.9639007845
 20
44.4099982958
 10
260.977483409
 20
44.5787515058
 10
261.1018991411
 20
44.7316577626
 10
261.3182061674
 20
44.8454388418
 10
261.5934727709
 20
44.9027731418
 10
261.885792014
 20
44.8949320834
 10
262.1506628545
 20
44.8231083179
 10
262.3477592577
 20
44.69823739
 10
262.4470756309
 20
44.5393294929
 10
262.4334930063
 20
44.370576283
 10
262.3090772742
 20
44.2176700262
 10
262.092770248
 20
44.103888947
 10
261.8175036445
 20
44.046554647
 10
261.5251844013
 20
44.0543957054
 10
261.2603135608
 20
44.1262194708
 10
261.0632171577
 20
44.2510903988
  0
SPLINE
  5
236
330
1F
100
AcDbEntity
  8
0
  6
Continuous
 62
     7
370
    15
100
AcDbSpline
210
0.0
220
0.0
230
1.0
 70
     8
 71
     3
 72
    10
 73
     6
 74
     0
 42
0.000000001
 43
0.00000001
 40
0.0
 40
0.0
 40
0.0
 40
0.0
 40
0.2683939867194812
 40
0.7397373215073696
 40
0.9999999999999999
 40
0.9999999999999999
 40
0.9999999999999999
 40
0.9999999999999999
 10
261.250204738009
 20
44.13504204134405
 30
0.0
 10
261.2262790492702
 20
44.1471344301683
 30
0.0
 10
261.1603359738712
 20
44.18046301337844
 30
0.0
 10
261.0664505538945
 20
44.30495615195706
 30
0.0
 10
261.0055835163765
 20
44.40723811432068
 30
0.0
 10
260.9839305803306
 20
44.44362406113223
 30
0.0
  0
SPLINE
  5
237
330
1F
100
AcDbEntity
  8
0
  6
Continuous
 62
     7
370
    15
100
AcDbSpline
210
0.0
220
0.0
230
1.0
 70
     8
 71
     3
 72
     9
 73
     5
 74
     0
 42
0.000000001
 43
0.00000001
 40
0.0
 40
0.0
 40
0.0
 40
0.0
 40
0.5921085484154871
 40
1.0
 40
1.0
 40
1.0
 40
1.0
 10
262.4270458350151
 20
44.45946758387145
 30
0.0
 10
262.3767735102942
 20
44.37045561799537
 30
0.0
 10
262.2918696107383
 20
44.22012513194802
 30
0.0
 10
262.2020732535266
 20
44.15532167180204
 30
0.0
 10
262.1654460870365
 20
44.12888889437539
 30
0.0
  0
SPLINE
  5
238
330
1F
100
AcDbEntity
  8
0
  6
Continuous
 62
     7
370
    15
100
AcDbSpline
210
0.0
220
0.0
230
1.0
 70
     8
 71
     3
 72
    11
 73
     7
 74
     0
 42
0.000000001
 43
0.00000001
 40
0.0
 40
0.0
 40
0.0
 40
0.0
 40
0.1849308368349472
 40
0.5198459996379269
 40
0.8714444294807913
 40
0.9999999999999999
 40
0.9999999999999999
 40
0.9999999999999999
 40
0.9999999999999999
 10
262.0543832358457
 20
44.81624606278094
 30
0.0
 10
262.076074006222
 20
44.77955622613339
 30
0.0
 10
262.1370473971509
 20
44.67642002053876
 30
0.0
 10
262.2508659453327
 20
44.5343823470003
 30
0.0
 10
262.3559826529118
 20
44.47424304745729
 30
0.0
 10
262.4120377451883
 20
44.46258806733652
 30
0.0
 10
262.4270458350151
 20
44.45946758387145
 30
0.0
  0
SPLINE
  5
239
330
1F
100
AcDbEntity
  8
0
  6
Continuous
 62
     7
370
    15
100
AcDbSpline
210
0.0
220
0.0
230
1.0
 70
     8
 71
     3
 72
    10
 73
     6
 74
     0
 42
0.000000001
 43
0.00000001
 40
0.0
 40
0.0
 40
0.0
 40
0.0
 40
0.4391118469580066
 40
0.7513623250759397
 40
1.0
 40
1.0
 40
1.0
 40
1.0
 10
261.3328256496624
 20
44.80832432517194
 30
0.0
 10
261.4361209777907
 20
44.77450562413066
 30
0.0
 10
261.6128691535679
 20
44.71663859544206
 30
0.0
 10
261.8698057919613
 20
44.74604348929982
 30
0.0
 10
261.9976921397677
 20
44.79468405198274
 30
0.0
 10
262.0543832358457
 20
44.81624606278095
 30
0.0
  0
SPLINE
  5
23A
330
1F
100
AcDbEntity
  8
0
  6
Continuous
 62
     7
370
    15
100
AcDbSpline
210
0.0
220
0.0
230
1.0
 70
     8
 71
     3
 72
    10
 73
     6
 74
     0
 42
0.000000001
 43
0.00000001
 40
0.0
 40
0.0
 40
0.0
 40
0.0
 40
0.4391119236575975
 40
0.7513631169849627
 40
0.9999999999999999
 40
0.9999999999999999
 40
0.9999999999999999
 40
0.9999999999999999
 10
260.9839305803306
 20
44.44362406113223
 30
0.0
 10
261.0338770685711
 20
44.46088044454169
 30
0.0
 10
261.1193403572339
 20
44.49040779127923
 30
0.0
 10
261.2435776499287
 20
44.64685537836995
 30
0.0
 10
261.305414086606
 20
44.75873087512139
 30
0.0
 10
261.3328256496624
 20
44.80832432517194
 30
0.0
  0
LINE
  5
23B
330
1F
100
AcDbEntity
  8
0
  6
Continuous
 62
     7
370
    15
100
AcDbLine
 10
261.3328256497
 20
44.0989284183
 30
0.0
 11
261.3328256497
 21
44.8083243252
 31
0.0
  0
LINE
  5
23C
330
1F
100
AcDbEntity
  8
0
  6
Continuous
 62
     7
370
    15
100
AcDbLine
 10
262.0543832358
 20
44.0913983104
 30
0.0
 11
262.0543832358
 21
44.8162460628
 31
0.0
  0
SPLINE
  5
23D
330
1F
100
AcDbEntity
  8
0
  6
Continuous
 62
     7
370
    15
100
AcDbSpline
210
0.0
220
0.0
230
1.0
 70
     8
 71
     3
 72
    12
 73
     8
 74
     0
 42
0.000000001
 43
0.00000001
 40
0.0
 40
0.0
 40
0.0
 40
0.0
 40
0.250000000000001
 40
0.250000000000001
 40
0.500000000000002
 40
0.500000000000002
 40
1.0
 40
1.0
 40
1.0
 40
1.0
 10
245.6371610660308
 20
39.89218992712895
 30
0.0
 10
245.6709402323032
 20
39.87268962951543
 30
0.0
 10
245.7092649287787
 20
39.84584988093827
 30
0.0
 10
245.7834880528912
 20
39.78744937761562
 30
0.0
 10
245.818871417386
 20
39.75645971913472
 30
0.0
 10
245.9146813757709
 20
39.66572036611397
 30
0.0
 10
245.9636851339252
 20
39.60982623739643
 30
0.0
 10
245.9974941915399
 20
39.56256637362977
 30
0.0
  0
SPLINE
  5
23E
330
1F
100
AcDbEntity
  8
0
  6
Continuous
 62
     7
370
    15
100
AcDbSpline
210
0.0
220
0.0
230
1.0
 70
     8
 71
     3
 72
    12
 73
     8
 74
     0
 42
0.000000001
 43
0.00000001
 40
0.0
 40
0.0
 40
0.0
 40
0.0
 40
0.4999999999999931
 40
0.4999999999999931
 40
0.7499999999999966
 40
0.7499999999999966
 40
1.0
 40
1.0
 40
1.0
 40
1.0
 10
263.102024104731
 20
56.33236789795133
 30
0.0
 10
263.102024104731
 20
56.403786929676
 30
0.0
 10
263.08445957407
 20
56.4863166888692
 30
0.0
 10
263.02933403958
 20
56.60526140490207
 30
0.0
 10
263.0060415658232
 20
56.64389429212666
 30
0.0
 10
262.9520731767659
 20
56.71045680340371
 30
0.0
 10
262.9212256760127
 20
56.73837784165637
 30
0.0
 10
262.889892070375
 20
56.75646634716632
 30
0.0
  0
LWPOLYLINE
  5
23F
330
1F
100
AcDbEntity
  8
0
  6
Continuous
 62
     7
370
    15
100
AcDbPolyline
 90
       12
 70
   128
 43
0.0
 10
251.6008675465
 20
53.5597300657
 10
252.513705065
 20
54.3784302435
 10
253.444590325
 20
55.1176472377
 10
254.3868959403
 20
55.7721193858
 10
255.3339134005
 20
56.3371861075
 10
256.2789005268
 20
56.8088259472
 10
257.2151295462
 20
57.1836790032
 10
258.1359352886
 20
57.459079314
 10
259.0347619434
 20
57.6330643597
 10
259.9052105982
 20
57.7043956617
 10
260.7410846786
 20
57.6725667626
 10
261.5364319299
 20
57.5378023675
  0
LINE
  5
240
330
1F
100
AcDbEntity
  8
0
  6
Continuous
 62
     7
370
    15
100
AcDbLine
 10
262.8898917005
 20
56.7564666731
 30
0.0
 11
261.5364319299
 21
57.5378023675
 31
0.0
  0
LINE
  5
241
330
1F
100
AcDbEntity
  8
0
  6
Continuous
 62
     7
370
    15
100
AcDbLine
 10
244.2837011515
 20
40.6735258111
 30
0.0
 11
245.6371609221
 21
39.8921901167
 31
0.0
  0
ARC
  5
242
330
1F
100
AcDbEntity
  8
0
  6
Continuous
 62
     7
370
    15
100
AcDbCircle
 10
269.8996485573
 20
34.6620122992
 30
0.0
 40
26.31188051429161
100
AcDbArc
 50
136.4697995832
 51
166.7929036469
  0
SPLINE
  5
243
330
1F
100
AcDbEntity
  8
0
  6
Continuous
 62
     7
370
    15
100
AcDbSpline
210
0.0
220
0.0
230
1.0
 70
     8
 71
     3
 72
    12
 73
     8
 74
     0
 42
0.000000001
 43
0.00000001
 40
0.0
 40
0.0
 40
0.0
 40
0.0
 40
0.2499999999999997
 40
0.2499999999999997
 40
0.4999999999999993
 40
0.4999999999999993
 40
1.0
 40
1.0
 40
1.0
 40
1.0
 10
250.8232339417117
 20
52.78397329026347
 30
0.0
 10
250.9225486244317
 20
52.81732137455928
 30
0.0
 10
251.0163737641231
 20
52.8612035760638
 30
0.0
 10
251.1933668690287
 20
52.96933384485953
 30
0.0
 10
251.2731784369497
 20
53.03173933504071
 30
0.0
 10
251.4813622981702
 20
53.23913691283048
 30
0.0
 10
251.5730721317562
 20
53.40054745062426
 30
0.0
 10
251.6008674579299
 20
53.55973045816335
 30
0.0
  0
LINE
  5
244
330
1F
100
AcDbEntity
  8
0
  6
Continuous
 62
     7
370
    15
100
AcDbLine
 10
267.1192877774
 20
51.6613189038
 30
0.0
 11
267.2246516059
 21
51.8438140274
 31
0.0
  0
LINE
  5
245
330
1F
100
AcDbEntity
  8
0
  6
Continuous
 62
     7
370
    15
100
AcDbLine
 10
265.9481289317
 20
50.9852232933
 30
0.0
 11
267.1192877774
 21
51.6613189038
 31
0.0
  0
ARC
  5
246
330
1F
100
AcDbEntity
  8
0
  6
Continuous
 62
     7
370
    15
100
AcDbCircle
 10
266.6106167594
 20
49.9495388736
 30
0.0
 40
1.229443914555041
100
AcDbArc
 50
122.6054968531
 51
177.3945222572
  0
LINE
  5
247
330
1F
100
AcDbEntity
  8
0
  6
Continuous
 62
     7
370
    15
100
AcDbLine
 10
265.3824438091
 20
44.7387391271
 30
0.0
 11
265.3824438091
 21
50.0054275426
 31
0.0
  0
ARC
  5
248
330
1F
100
AcDbEntity
  8
0
  6
Continuous
 62
     7
370
    15
100
AcDbCircle
 10
265.7273032522
 20
44.6827973155
 30
0.0
 40
0.3493673163990618
100
AcDbArc
 50
170.7859529282
 51
309.2032375553
  0
LINE
  5
249
330
1F
100
AcDbEntity
  8
0
  6
Continuous
 62
     7
370
    15
100
AcDbLine
 10
267.1192877774
 20
45.0881651272
 30
0.0
 11
265.9481289317
 21
44.4120695167
 31
0.0
  0
LINE
  5
24A
330
1F
100
AcDbEntity
  8
0
  6
Continuous
 62
     7
370
    15
100
AcDbLine
 10
267.2246516059
 20
45.0273204907
 30
0.0
 11
267.1192877774
 21
45.0881651272
 31
0.0
  0
LINE
  5
24B
330
1F
100
AcDbEntity
  8
0
  6
Continuous
 62
     7
370
    15
100
AcDbLine
 10
246.0453893699
 20
32.9224625308
 30
0.0
 11
245.9974940864
 21
32.8002138699
 31
0.0
  0
LINE
  5
24C
330
1F
100
AcDbEntity
  8
0
  6
Continuous
 62
     7
370
    15
100
AcDbLine
 10
246.0453893699
 20
32.9224625308
 30
0.0
 11
248.0583274646
 21
34.0845069581
 31
0.0
  0
ARC
  5
24D
330
1F
100
AcDbEntity
  8
0
  6
Continuous
 62
     7
370
    15
100
AcDbCircle
 10
247.3958396369
 20
35.1201913778
 30
0.0
 40
1.229443914555066
100
AcDbArc
 50
302.6054968531
 51
357.3945222572
  0
LINE
  5
24E
330
1F
100
AcDbEntity
  8
0
  6
Continuous
 62
     7
370
    15
100
AcDbLine
 10
248.6240125871
 20
40.3309911243
 30
0.0
 11
248.6240125871
 21
35.0643027088
 31
0.0
  0
ARC
  5
24F
330
1F
100
AcDbEntity
  8
0
  6
Continuous
 62
     7
370
    15
100
AcDbCircle
 10
248.279153144
 20
40.3869329358
 30
0.0
 40
0.3493673163990303
100
AcDbArc
 50
350.7859529282
 51
129.2032375553
  0
LINE
  5
250
330
1F
100
AcDbEntity
  8
0
  6
Continuous
 62
     7
370
    15
100
AcDbLine
 10
248.0583274646
 20
40.6576607347
 30
0.0
 11
246.0453893699
 21
39.4956163074
 31
0.0
  0
LINE
  5
251
330
1F
100
AcDbEntity
  8
0
  6
Continuous
 62
     7
370
    15
100
AcDbLine
 10
245.9974940864
 20
39.5625662511
 30
0.0
 11
246.0453893699
 21
39.4956163074
 31
0.0
  0
LINE
  5
252
330
1F
100
AcDbEntity
  8
0
  6
Continuous
 62
     7
370
    15
100
AcDbLine
 10
263.1020240331
 20
53.5473867899
 30
0.0
 11
263.1020240331
 21
56.3323676784
 31
0.0
  0
LINE
  5
253
330
1F
100
AcDbEntity
  8
0
  6
Continuous
 62
     7
370
    15
100
AcDbLine
 10
265.513757584
 20
54.9396509337
 30
0.0
 11
263.1020240331
 21
53.5473867899
 31
0.0
  0
SPLINE
  5
254
330
1F
100
AcDbEntity
  8
0
  6
Continuous
 62
     7
370
    15
100
AcDbSpline
210
0.0
220
0.0
230
1.0
 70
     8
 71
     3
 72
     8
 73
     4
 74
     0
 42
0.000000001
 43
0.00000001
 40
0.0
 40
0.0
 40
0.0
 40
0.0
 40
1.0
 40
1.0
 40
1.0
 40
1.0
 10
243.2935496457933
 20
41.93190501599864
 30
0.0
 10
242.9128517797929
 20
41.86893817832804
 30
0.0
 10
242.532013807553
 20
41.806238056193
 30
0.0
 10
242.1510731568133
 20
41.74375717751996
 30
0.0
  0
SPLINE
  5
255
330
1F
100
AcDbEntity
  8
0
  6
Continuous
 62
     7
370
    15
100
AcDbSpline
210
0.0
220
0.0
230
1.0
 70
     8
 71
     3
 72
     8
 73
     4
 74
     0
 42
0.000000001
 43
0.00000001
 40
0.0
 40
0.0
 40
0.0
 40
0.0
 40
0.0011901715795577
 40
0.0011901715795577
 40
0.0011901715795577
 40
0.0011901715795577
 10
241.7933863592555
 20
42.11115383337557
 30
0.0
 10
241.9130328667503
 20
41.98853892362009
 30
0.0
 10
242.0322760408984
 20
41.86606688312438
 30
0.0
 10
242.1510731568133
 20
41.74375717751996
 30
0.0
  0
LWPOLYLINE
  5
256
330
1F
100
AcDbEntity
  8
0
  6
Continuous
 62
     7
370
    15
100
AcDbPolyline
 90
       23
 70
   128
 43
0.0
 10
241.7933864479
 20
42.1111538887
 10
242.1078684508
 20
43.3510743333
 10
242.5002213661
 20
44.6006867949
 10
242.9675205977
 20
45.8506800601
 10
243.5062850793
 20
47.0917399259
 10
244.1124996651
 20
48.3146187798
 10
244.7816473982
 20
49.510204799
 10
245.5087424382
 20
50.6695892483
 10
246.2883662808
 20
51.7841322569
 10
247.1147108929
 20
52.8455310655
 10
247.9816182247
 20
53.8458747763
 10
248.8826282838
 20
54.7777101282
 10
249.8110281968
 20
55.6340949151
 10
250.7598994597
 20
56.4086457953
 10
251.7221721857
 20
57.0955939427
 10
252.6906759467
 20
57.6898174393
 10
253.6581941752
 20
58.1868916921
 10
254.6175175273
 20
58.5831103525
 10
255.5614981095
 20
58.8755234657
 10
256.4831015139
 20
59.0619500186
 10
257.3754606031
 20
59.1410021455
 10
258.2319263824
 20
59.112090161
 10
259.0461172263
 20
58.9754304451
  0
SPLINE
  5
257
330
1F
100
AcDbEntity
  8
0
  6
Continuous
 62
     7
370
    15
100
AcDbSpline
210
0.0
220
0.0
230
1.0
 70
     8
 71
     3
 72
     9
 73
     5
 74
     0
 42
0.000000001
 43
0.00000001
 40
0.0
 40
0.0
 40
0.0
 40
0.0
 40
0.0052316585985249
 40
0.9999999999999999
 40
0.9999999999999999
 40
0.9999999999999999
 40
0.9999999999999999
 10
259.4810789591222
 20
57.63826741743739
 30
0.0
 10
259.4803374827161
 20
57.64059841785251
 30
0.0
 10
259.3386087379794
 20
58.08615509385047
 30
0.0
 10
259.1919794248948
 20
58.53195891617737
 30
0.0
 10
259.0461172263169
 20
58.97543044510395
 30
0.0
  0
LWPOLYLINE
  5
258
330
1F
100
AcDbEntity
  8
0
  6
Continuous
 62
     7
370
    15
100
AcDbPolyline
 90
       22
 70
   128
 43
0.0
 10
243.29354952
 20
41.9319052017
 10
243.5883779206
 20
43.1072269282
 10
243.9600683434
 20
44.2923422883
 10
244.4056263866
 20
45.4777035711
 10
244.9214616656
 20
46.6537596995
 10
245.5034187644
 20
47.8110353157
 10
246.1468081876
 20
48.9402064439
 10
246.8464471899
 20
50.0321753924
 10
247.5966979719
 20
51.0781452752
 10
248.3915167413
 20
52.0696871185
 10
249.2244984942
 20
52.9988136209
 10
250.0889329913
 20
53.8580380848
 10
250.9778553014
 20
54.6404385747
 10
251.8841032589
 20
55.3397100997
 10
252.8003754574
 20
55.9502201445
 10
253.7192895718
 20
56.4670484228
 10
254.6334419567
 20
56.8860319286
 10
255.5354674915
 20
57.2037949215
 10
256.4180985612
 20
57.417776892
 10
257.274223873
 20
57.5262543478
 10
258.0969458317
 20
57.5283526435
 10
258.3423277472
 20
57.5075722136
  0
LINE
  5
259
330
1F
100
AcDbEntity
  8
0
  6
Continuous
 62
     7
370
    15
100
AcDbLine
 10
240.4576039875
 20
42.8822846891
 30
0.0
 11
241.7933864479
 21
42.1111538887
 31
0.0
  0
LINE
  5
25A
330
1F
100
AcDbEntity
  8
0
  6
Continuous
 62
     7
370
    15
100
AcDbLine
 10
259.0461172263
 20
58.9754304451
 30
0.0
 11
257.7103347659
 21
59.7465612455
 31
0.0
  0
LINE
  5
25B
330
1F
100
AcDbEntity
  8
0
  6
Continuous
 62
     7
370
    15
100
AcDbLine
 10
244.5200916296
 20
41.6316204083
 30
0.0
 11
243.9295810254
 21
41.9725149239
 31
0.0
  0
SPLINE
  5
25C
330
1F
100
AcDbEntity
  8
0
  6
Continuous
 62
     7
370
    15
100
AcDbSpline
210
0.0
220
0.0
230
1.0
 70
     8
 71
     3
 72
    14
 73
    10
 74
     0
 42
0.000000001
 43
0.00000001
 40
0.0
 40
0.0
 40
0.0
 40
0.0
 40
0.1131256752048818
 40
0.2875308825171079
 40
0.461965953790402
 40
0.6360395691677061
 40
0.809876717011673
 40
0.9839688527618816
 40
1.0
 40
1.0
 40
1.0
 40
1.0
 10
251.3143163918471
 20
53.08428078813512
 30
0.0
 10
251.2447657479084
 20
53.08763076152851
 30
0.0
 10
251.067989273469
 20
53.09614536976812
 30
0.0
 10
250.7731586622714
 20
53.01100083907311
 30
0.0
 10
250.4804925169636
 20
52.84755904266476
 30
0.0
 10
250.2550245608865
 20
52.61689431486173
 30
0.0
 10
250.1356557828256
 20
52.35407506452859
 30
0.0
 10
250.1020099786103
 20
52.15761690862151
 30
0.0
 10
250.1344705309201
 20
52.07045444220021
 30
0.0
 10
250.1372075964984
 20
52.06310492502969
 30
0.0
  0
SPLINE
  5
25D
330
1F
100
AcDbEntity
  8
0
  6
Continuous
 62
     7
370
    15
100
AcDbSpline
210
0.0
220
0.0
230
1.0
 70
     8
 71
     3
 72
    12
 73
     8
 74
     0
 42
0.000000001
 43
0.00000001
 40
0.0
 40
0.0
 40
0.0
 40
0.0
 40
0.2500000000000015
 40
0.2500000000000015
 40
0.500000000000003
 40
0.500000000000003
 40
1.0
 40
1.0
 40
1.0
 40
1.0
 10
243.9295810950307
 20
41.97251491141427
 30
0.0
 10
243.8919623600714
 20
41.99423174485047
 30
0.0
 10
243.8459699516841
 20
42.01148747883311
 30
0.0
 10
243.7463688217082
 20
42.03378126666094
 30
0.0
 10
243.6916180964541
 20
42.03898705124038
 30
0.0
 10
243.5321121976348
 20
42.03598515181325
 30
0.0
 10
243.4271093924172
 20
42.00900741655405
 30
0.0
 10
243.3517964962253
 20
41.96553020702075
 30
0.0
  0
SPLINE
  5
25E
330
1F
100
AcDbEntity
  8
0
  6
Continuous
 62
     7
370
    15
100
AcDbSpline
210
0.0
220
0.0
230
1.0
 70
     8
 71
     3
 72
    10
 73
     6
 74
     0
 42
0.000000001
 43
0.00000001
 40
0.0
 40
0.0
 40
0.0
 40
0.0
 40
0.5
 40
0.5
 40
1.0
 40
1.0
 40
1.0
 40
1.0
 10
240.355959783242
 20
42.9130066879734
 30
0.0
 10
240.3632224648906
 20
42.91700329346122
 30
0.0
 10
240.3750161288563
 20
42.91718507184639
 30
0.0
 10
240.4090751396236
 20
42.90746344233665
 30
0.0
 10
240.4312476271758
 20
42.89749978556094
 30
0.0
 10
240.4576038938393
 20
42.88228463667964
 30
0.0
  0
LINE
  5
25F
330
1F
100
AcDbEntity
  8
0
  6
Continuous
 62
     7
370
    15
100
AcDbLine
 10
243.3517964646
 20
41.9655304471
 30
0.0
 11
243.29354952
 21
41.9319052017
 31
0.0
  0
ARC
  5
260
330
1F
100
AcDbEntity
  8
0
  6
Continuous
 62
     7
370
    15
100
AcDbCircle
 10
269.2071713753
 20
35.0454090937
 30
0.0
 40
9.495375853768982
100
AcDbArc
 50
126.4110132927
 51
174.3721744642
  0
ARC
  5
261
330
1F
100
AcDbEntity
  8
0
  6
Continuous
 62
     7
370
    15
100
AcDbCircle
 10
261.9360404041
 20
34.7488923362
 30
0.0
 40
2.347065596847814
100
AcDbArc
 50
195.7946742084
 51
284.2227540992
  0
ARC
  5
262
330
1F
100
AcDbEntity
  8
0
  6
Continuous
 62
     7
370
    15
100
AcDbCircle
 10
265.8275743142
 20
41.4913336304
 30
0.0
 40
2.33912128028852
100
AcDbArc
 50
16.6032824372
 51
103.8525379149
  0
SPLINE
  5
263
330
1F
100
AcDbEntity
  8
0
  6
Continuous
 62
     7
370
    15
100
AcDbSpline
210
0.0
220
0.0
230
1.0
 70
    11
 71
     3
 72
    40
 73
    36
 74
     0
 42
0.000000001
 43
0.00000001
 40
0.0
 40
0.0
 40
0.0
 40
0.0
 40
0.0316577272528529
 40
0.0636711527089412
 40
0.0954481857144
 40
0.1267166773656873
 40
0.1577112139907894
 40
0.1887380282580347
 40
0.2196412409785022
 40
0.2500169066094206
 40
0.2803483479890143
 40
0.3113249912393954
 40
0.3423321469606929
 40
0.3733439935691294
 40
0.4045316186561111
 40
0.4363308399975628
 40
0.4683308760611227
 40
0.4999808609893511
 40
0.5001505135416963
 40
0.5317826313118224
 40
0.5637619987167927
 40
0.5954789343463054
 40
0.6267185520416829
 40
0.6577234440898942
 40
0.6887533839619592
 40
0.7197014307176014
 40
0.7500938269294417
 40
0.7804401107722877
 40
0.8114392543840894
 40
0.8424412842498433
 40
0.8734711373744958
 40
0.9046773938660585
 40
0.9364070957501273
 40
0.9683609960980666
 40
1.0
 40
1.0
 40
1.0
 40
1.0
 10
260.7332163993196
 20
45.03594438611768
 30
0.0
 10
260.7992952349281
 20
45.07403547242811
 30
0.0
 10
260.9447673038778
 20
45.13988905038308
 30
0.0
 10
261.19289362815
 20
45.20252254048047
 30
0.0
 10
261.4592112603808
 20
45.23031526632865
 30
0.0
 10
261.7340510169736
 20
45.22273737551445
 30
0.0
 10
262.0078487698149
 20
45.18390349010119
 30
0.0
 10
262.2710024434179
 20
45.11726156677776
 30
0.0
 10
262.5140005808365
 20
45.02983523290863
 30
0.0
 10
262.7248517837624
 20
44.92546293967848
 30
0.0
 10
262.896418486391
 20
44.80907162818615
 30
0.0
 10
263.020619906142
 20
44.68435634878872
 30
0.0
 10
263.0969509206701
 20
44.55489830179604
 30
0.0
 10
263.1180866506821
 20
44.42356637617137
 30
0.0
 10
263.0852493852421
 20
44.29146120857235
 30
0.0
 10
262.9979923129075
 20
44.16036026094877
 30
0.0
 10
262.8638037879706
 20
44.03204726497945
 30
0.0
 10
262.7432728290024
 20
43.95124787025573
 30
0.0
 10
262.6112235223055
 20
43.87492900686237
 30
0.0
 10
262.4654016548121
 20
43.80179134984648
 30
0.0
 10
262.2176059230346
 20
43.709490905816
 30
0.0
 10
261.951519784263
 20
43.63688336825646
 30
0.0
 10
261.6768586010841
 20
43.59179180293286
 30
0.0
 10
261.4031373911725
 20
43.57758091873583
 30
0.0
 10
261.1398391725142
 20
43.59914336050251
 30
0.0
 10
260.8966296447782
 20
43.65533770338276
 30
0.0
 10
260.685578539796
 20
43.74892672091314
 30
0.0
 10
260.5140027366418
 20
43.87631385435171
 30
0.0
 10
260.3899802840677
 20
44.03249735626126
 30
0.0
 10
260.313897479531
 20
44.20724906155418
 30
0.0
 10
260.2929572304086
 20
44.39182995790827
 30
0.0
 10
260.3256964364734
 20
44.57679713971352
 30
0.0
 10
260.4127185753563
 20
44.75272029463848
 30
0.0
 10
260.5469889317742
 20
44.91062282018059
 30
0.0
 10
260.6671766447613
 20
44.99787582804403
 30
0.0
 10
260.7332163993196
 20
45.03594438611768
 30
0.0
  0
LINE
  5
264
330
1F
100
AcDbEntity
  8
0
  6
Continuous
 62
     7
370
    15
100
AcDbLine
 10
266.4399620743
 20
38.0791382225
 30
0.0
 11
267.3004701644
 21
39.1496022979
 31
0.0
  0
SPLINE
  5
265
330
1F
100
AcDbEntity
  8
0
  6
Continuous
 62
     7
370
    15
100
AcDbSpline
210
0.0
220
0.0
230
1.0
 70
     8
 71
     3
 72
    22
 73
    18
 74
     0
 42
0.000000001
 43
0.00000001
 40
0.0
 40
0.0
 40
0.0
 40
0.0
 40
0.0416666666666664
 40
0.0833333333333332
 40
0.1250000000000033
 40
0.1666666666666682
 40
0.2083333333333338
 40
0.249999999999922
 40
0.2968749999997847
 40
0.34375
 40
0.390625
 40
0.4374999999999999
 40
0.486304925390498
 40
0.486304925390498
 40
0.53125
 40
0.6249999999999821
 40
0.828979133991766
 40
0.828979133991766
 40
0.828979133991766
 40
0.828979133991766
 10
267.300470618026
 20
39.14960217285672
 30
0.0
 10
267.3348822966187
 20
39.19240997388042
 30
0.0
 10
267.4021439319205
 20
39.28424240122412
 30
0.0
 10
267.4961831621902
 20
39.44033406980409
 30
0.0
 10
267.5790289614822
 20
39.61296998725761
 30
0.0
 10
267.6449713565421
 20
39.79668439613845
 30
0.0
 10
267.6882085648418
 20
39.98345383044381
 30
0.0
 10
267.7048643627361
 20
40.17153374719543
 30
0.0
 10
267.6879439884369
 20
40.34827937145027
 30
0.0
 10
267.6332356358542
 20
40.49942217013814
 30
0.0
 10
267.5469848805228
 20
40.61054588086049
 30
0.0
 10
267.4332568866882
 20
40.68094493922216
 30
0.0
 10
267.349425230603
 20
40.70083948766715
 30
0.0
 10
267.268027693539
 20
40.70863487968757
 30
0.0
 10
267.160742808158
 20
40.71741461016518
 30
0.0
 10
266.9732916045851
 20
40.73485774307819
 30
0.0
 10
266.665135817409
 20
40.76237678645317
 30
0.0
 10
266.4398640769107
 20
40.78244146898948
 30
0.0
  0
SPLINE
  5
266
330
1F
100
AcDbEntity
  8
0
  6
Continuous
 62
     7
370
    15
100
AcDbSpline
210
0.0
220
0.0
230
1.0
 70
     8
 71
     3
 72
    22
 73
    18
 74
     0
 42
0.000000001
 43
0.00000001
 40
0.0
 40
0.0
 40
0.0
 40
0.0
 40
0.0416666666666664
 40
0.0833333333333332
 40
0.1250000000000033
 40
0.1666666666666682
 40
0.2083333333333338
 40
0.249999999999922
 40
0.2968749999997847
 40
0.34375
 40
0.390625
 40
0.4374999999999999
 40
0.486304925390498
 40
0.486304925390498
 40
0.53125
 40
0.6249999999999821
 40
0.8265829076568219
 40
0.8265829076568219
 40
0.8265829076568219
 40
0.8265829076568219
 10
260.7420552225209
 20
35.36350955427905
 30
0.0
 10
260.7084475535127
 20
35.36651458632259
 30
0.0
 10
260.6400087666583
 20
35.3807936378229
 30
0.0
 10
260.5464426608688
 20
35.42826761696542
 30
0.0
 10
260.4634700909853
 20
35.50526314870274
 30
0.0
 10
260.3975616538106
 20
35.6128390415275
 30
0.0
 10
260.3543153845617
 20
35.749688708814
 30
0.0
 10
260.3376619678253
 20
35.91853787870332
 30
0.0
 10
260.3545820921613
 20
36.1148200398143
 30
0.0
 10
260.4092887448595
 20
36.32912536526199
 30
0.0
 10
260.495546559306
 20
36.5398409339182
 30
0.0
 10
260.609247652379
 20
36.74151405628946
 30
0.0
 10
260.6931484859949
 20
36.85828463012143
 30
0.0
 10
260.7745696514516
 20
36.96008901286041
 30
0.0
 10
260.8818293374009
 20
37.09270589225709
 30
0.0
 10
261.0666189236369
 20
37.32325977721443
 30
0.0
 10
261.3786599723147
 20
37.71140643641023
 30
0.0
 10
261.6026633489035
 20
37.98998870998405
 30
0.0
  0
LINE
  5
267
330
1F
100
AcDbEntity
  8
0
  6
Continuous
 62
     7
370
    15
100
AcDbLine
 10
261.6025631341
 20
35.2865672559
 30
0.0
 11
260.7420550439
 21
35.3635098381
 31
0.0
  0
LINE
  5
268
330
1F
100
AcDbEntity
  8
0
  6
Continuous
 62
     7
370
    15
100
AcDbLine
 10
246.0453893699
 20
39.4956163074
 30
0.0
 11
244.3182065788
 21
40.4926977092
 31
0.0
  0
SPLINE
  5
269
330
1F
100
AcDbEntity
  8
0
  6
Continuous
 62
     7
370
    15
100
AcDbSpline
210
0.0
220
0.0
230
1.0
 70
     8
 71
     3
 72
     8
 73
     4
 74
     0
 42
0.000000001
 43
0.00000001
 40
0.0
 40
0.0
 40
0.0
 40
0.0
 40
0.0011901715795577
 40
0.0011901715795577
 40
0.0011901715795577
 40
0.0011901715795577
 10
244.3182066685022
 20
40.49269763077318
 30
0.0
 10
244.3060452016836
 20
40.553447886484
 30
0.0
 10
244.2945617547276
 20
40.61371156061405
 30
0.0
 10
244.283700931085
 20
40.67352583183079
 30
0.0
  0
SPLINE
  5
26A
330
1F
100
AcDbEntity
  8
0
  6
Continuous
 62
     7
370
    15
100
AcDbSpline
210
0.0
220
0.0
230
1.0
 70
     8
 71
     3
 72
    11
 73
     7
 74
     0
 42
0.000000001
 43
0.00000001
 40
0.0
 40
0.0
 40
0.0
 40
0.0
 40
0.3181894765468152
 40
0.6363836282397265
 40
0.9546140513643248
 40
1.0
 40
1.0
 40
1.0
 40
1.0
 10
260.6713444859234
 20
35.62739983417912
 30
0.0
 10
260.612468724414
 20
35.64187360580859
 30
0.0
 10
260.4947163363358
 20
35.67082136173009
 30
0.0
 10
260.3860859649009
 20
35.8316675477012
 30
0.0
 10
260.3344123540782
 20
35.98396495585407
 30
0.0
 10
260.3464940768159
 20
36.08429846923867
 30
0.0
 10
260.3480020959542
 20
36.09682191988217
 30
0.0
  0
SPLINE
  5
26B
330
1F
100
AcDbEntity
  8
0
  6
Continuous
 62
     7
370
    15
100
AcDbSpline
210
0.0
220
0.0
230
1.0
 70
     8
 71
     3
 72
    12
 73
     8
 74
     0
 42
0.000000001
 43
0.00000001
 40
0.0
 40
0.0
 40
0.0
 40
0.0
 40
0.0221957286276321
 40
0.1667022187561421
 40
0.4108631130526255
 40
0.8639701150622189
 40
1.0
 40
1.0
 40
1.0
 40
1.0
 10
261.7268769101115
 20
38.16516162468397
 30
0.0
 10
261.7268399234285
 20
38.16468361642156
 30
0.0
 10
261.7265621329477
 20
38.16109350954718
 30
0.0
 10
261.7148214851784
 20
38.14068401669956
 30
0.0
 10
261.6836476627709
 20
38.09360869641162
 30
0.0
 10
261.6410738256183
 20
38.03802797408375
 30
0.0
 10
261.6098683223739
 20
37.99900025076026
 30
0.0
 10
261.6026630681964
 20
37.98998887016145
 30
0.0
  0
SPLINE
  5
26C
330
1F
100
AcDbEntity
  8
0
  6
Continuous
 62
     7
370
    15
100
AcDbSpline
210
0.0
220
0.0
230
1.0
 70
     8
 71
     3
 72
    16
 73
    12
 74
     0
 42
0.000000001
 43
0.00000001
 40
0.0
 40
0.0
 40
0.0
 40
0.0
 40
0.2500000000000001
 40
0.2500000000000001
 40
0.5000000000000001
 40
0.5000000000000001
 40
0.6250000000000001
 40
0.6250000000000001
 40
0.7500000000000002
 40
0.7500000000000002
 40
1.0
 40
1.0
 40
1.0
 40
1.0
 10
266.4398640769115
 20
40.7824414689894
 30
0.0
 10
266.4156559502164
 20
40.78459765767006
 30
0.0
 10
266.3893256088135
 20
40.78558112986283
 30
0.0
 10
266.3289248321004
 20
40.78327384224319
 30
0.0
 10
266.2935420566074
 20
40.77991894529158
 30
0.0
 10
266.2365736525392
 20
40.76735051779001
 30
0.0
 10
266.2168317770062
 20
40.76173449433185
 30
0.0
 10
266.1812908542734
 20
40.74865534667232
 30
0.0
 10
266.1659088252268
 20
40.74142325630296
 30
0.0
 10
266.1277604077616
 20
40.72009725892534
 30
0.0
 10
266.1115985492399
 20
40.70620884447325
 30
0.0
 10
266.0992891414068
 20
40.69314867522471
 30
0.0
  0
SPLINE
  5
26D
330
1F
100
AcDbEntity
  8
0
  6
Continuous
 62
     7
370
    15
100
AcDbSpline
210
0.0
220
0.0
230
1.0
 70
     8
 71
     3
 72
     8
 73
     4
 74
     0
 42
0.000000001
 43
0.00000001
 40
0.0
 40
0.0
 40
0.0
 40
0.0
 40
1.0
 40
1.0
 40
1.0
 40
1.0
 10
266.0992891414109
 20
40.69314867521928
 30
0.0
 10
266.0668162590457
 20
40.70621103748492
 30
0.0
 10
266.0345454664072
 20
40.72110342986947
 30
0.0
 10
266.0092681504524
 20
40.73569571376463
 30
0.0
  0
LINE
  5
26E
330
1F
100
AcDbEntity
  8
0
  6
Continuous
 62
     7
370
    15
100
AcDbLine
 10
265.5589887257
 20
41.1880477687
 30
0.0
 11
265.5300104625
 21
41.2042314272
 31
0.0
  0
LINE
  5
26F
330
1F
100
AcDbEntity
  8
0
  6
Continuous
 62
     7
370
    15
100
AcDbLine
 10
265.0016674477
 20
41.3173712233
 30
0.0
 11
266.0092682038
 21
40.7356956882
 31
0.0
  0
ARC
  5
270
330
1F
100
AcDbEntity
  8
0
  6
Continuous
 62
     7
370
    15
100
AcDbCircle
 10
259.779543931
 20
40.9054790113
 30
0.0
 40
4.274667001208386
100
AcDbArc
 50
339.437961077
 51
1.8540119289
  0
LINE
  5
271
330
1F
100
AcDbEntity
  8
0
  6
Continuous
 62
     7
370
    15
100
AcDbLine
 10
263.7818823341
 20
39.4041245299
 30
0.0
 11
266.0092682038
 21
38.1182820373
 31
0.0
  0
LINE
  5
272
330
1F
100
AcDbEntity
  8
0
  6
Continuous
 62
     7
370
    15
100
AcDbLine
 10
262.0592731346
 20
35.1257055307
 30
0.0
 11
262.0882319708
 21
35.1095325206
 31
0.0
  0
LINE
  5
273
330
1F
100
AcDbEntity
  8
0
  6
Continuous
 62
     7
370
    15
100
AcDbLine
 10
260.4050017573
 20
36.2731073402
 30
0.0
 11
261.6089936566
 21
35.5780576113
 31
0.0
  0
ARC
  5
274
330
1F
100
AcDbEntity
  8
0
  6
Continuous
 62
     7
370
    15
100
AcDbCircle
 10
253.2961718981
 20
40.9174774863
 30
0.0
 40
10.35663976687586
100
AcDbArc
 50
174.7078121346
 51
187.1554533614
  0
LINE
  5
275
330
1F
100
AcDbEntity
  8
0
  6
Continuous
 62
     7
370
    15
100
AcDbLine
 10
243.0201912344
 20
41.886763111
 30
0.0
 11
243.0201912344
 21
39.6274353708
 31
0.0
  0
LINE
  5
276
330
1F
100
AcDbEntity
  8
0
  6
Continuous
 62
     7
370
    15
100
AcDbLine
 10
243.0201912344
 20
39.6274353708
 30
0.0
 11
243.0201912344
 21
38.1616274635
 31
0.0
  0
LINE
  5
277
330
1F
100
AcDbEntity
  8
0
  6
Continuous
 62
     7
370
    15
100
AcDbLine
 10
261.6603938786
 20
35.5389639119
 30
0.0
 11
260.6713444859
 21
35.6273998342
 31
0.0
  0
SPLINE
  5
278
330
1F
100
AcDbEntity
  8
0
  6
Continuous
 62
     7
370
    15
100
AcDbSpline
210
0.0
220
0.0
230
1.0
 70
     8
 71
     3
 72
    16
 73
    12
 74
     0
 42
0.000000001
 43
0.00000001
 40
0.0
 40
0.0
 40
0.0
 40
0.0
 40
0.2500000000000002
 40
0.2500000000000002
 40
0.5000000000000003
 40
0.5000000000000003
 40
0.6250000000000004
 40
0.6250000000000004
 40
0.7500000000000004
 40
0.7500000000000004
 40
1.0
 40
1.0
 40
1.0
 40
1.0
 10
261.6025635228349
 20
35.28656714522528
 30
0.0
 10
261.6266163452187
 20
35.28441646045202
 30
0.0
 10
261.6501175253267
 20
35.28528501729517
 30
0.0
 10
261.6923670419382
 20
35.29811860790237
 30
0.0
 10
261.7123248195101
 20
35.31041135680798
 30
0.0
 10
261.7275001218733
 20
35.34687305538444
 30
0.0
 10
261.7298115043254
 20
35.36248395602389
 30
0.0
 10
261.7269725205579
 20
35.39763088073934
 30
0.0
 10
261.7219985085949
 20
35.41670495972168
 30
0.0
 10
261.7016336115233
 20
35.47185836237919
 30
0.0
 10
261.6814997987219
 20
35.5066898081972
 30
0.0
 10
261.6603939866587
 20
35.53896386418513
 30
0.0
  0
LINE
  5
279
330
1F
100
AcDbEntity
  8
0
  6
Continuous
 62
     7
370
    15
100
AcDbLine
 10
240.7951213834
 20
42.5265315012
 30
0.0
 11
240.3559597007
 21
42.9130066204
 31
0.0
  0
LINE
  5
27A
330
1F
100
AcDbEntity
  8
0
  6
Continuous
 62
     7
370
    15
100
AcDbLine
 10
242.1510729218
 20
41.7437573399
 30
0.0
 11
240.7951213834
 21
42.5265315012
 31
0.0
  0
SPLINE
  5
27B
330
1F
100
AcDbEntity
  8
0
  6
Continuous
 62
     7
370
    15
100
AcDbSpline
210
0.0
220
0.0
230
1.0
 70
     8
 71
     3
 72
     8
 73
     4
 74
     0
 42
0.000000001
 43
0.00000001
 40
0.0
 40
0.0
 40
0.0
 40
0.0
 40
1.0
 40
1.0
 40
1.0
 40
1.0
 10
261.6089936213821
 20
35.5780576368211
 30
0.0
 10
261.6343455502514
 20
35.56342227980721
 30
0.0
 10
261.6511503494797
 20
35.55002807871248
 30
0.0
 10
261.6603939866592
 20
35.53896386418492
 30
0.0
  0
LINE
  5
27C
330
1F
100
AcDbEntity
  8
0
  6
Continuous
 62
     7
370
    15
100
AcDbLine
 10
242.0214032033
 20
41.6623290127
 30
0.0
 11
242.022094675
 21
41.7831302367
 31
0.0
  0
ARC
  5
27D
330
1F
100
AcDbEntity
  8
0
  6
Continuous
 62
     7
370
    15
100
AcDbCircle
 10
248.794510837
 20
41.3607607708
 30
0.0
 40
6.779817875301161
100
AcDbArc
 50
177.4506261826
 51
211.1387319524
  0
LINE
  5
27E
330
1F
100
AcDbEntity
  8
0
  6
Continuous
 62
     7
370
    15
100
AcDbLine
 10
228.7629378193
 20
65.4955769638
 30
0.0
 11
228.8143948408
 21
65.4777706497
 31
0.0
  0
SPLINE
  5
27F
330
1F
100
AcDbEntity
  8
0
  6
Continuous
 62
     7
370
    15
100
AcDbSpline
210
0.0
220
0.0
230
1.0
 70
     8
 71
     3
 72
     8
 73
     4
 74
     0
 42
0.000000001
 43
0.00000001
 40
0.0
 40
0.0
 40
0.0
 40
0.0
 40
1.0
 40
1.0
 40
1.0
 40
1.0
 10
266.0092681504529
 20
38.11828205225665
 30
0.0
 10
266.034620079322
 20
38.10364669524285
 30
0.0
 10
266.0665640631245
 20
38.09899215937388
 30
0.0
 10
266.0992891414139
 20
38.10148349226109
 30
0.0
  0
SPLINE
  5
280
330
1F
100
AcDbEntity
  8
0
  6
Continuous
 62
     7
370
    15
100
AcDbSpline
210
0.0
220
0.0
230
1.0
 70
     8
 71
     3
 72
    16
 73
    12
 74
     0
 42
0.000000001
 43
0.00000001
 40
0.0
 40
0.0
 40
0.0
 40
0.0
 40
0.2499999999999933
 40
0.2499999999999933
 40
0.374999999999998
 40
0.374999999999998
 40
0.5000000000000028
 40
0.5000000000000028
 40
0.7500000000000013
 40
0.7500000000000013
 40
1.0
 40
1.0
 40
1.0
 40
1.0
 10
266.0992891414137
 20
38.10148349226169
 30
0.0
 10
266.1115083599173
 20
38.06423777539137
 30
0.0
 10
266.1275770645326
 20
38.02712686764112
 30
0.0
 10
266.1658721526936
 20
37.9821198961317
 30
0.0
 10
266.1813292480476
 20
37.96915205831799
 30
0.0
 10
266.2166370778294
 20
37.952869700572
 30
0.0
 10
266.2362204396747
 20
37.94987308205898
 30
0.0
 10
266.2935212151456
 20
37.95490684202031
 30
0.0
 10
266.328591512498
 20
37.97455038777049
 30
0.0
 10
266.3891122710496
 20
38.02103314774476
 30
0.0
 10
266.415937375111
 20
38.04925122776989
 30
0.0
 10
266.4399623177122
 20
38.07913802796507
 30
0.0
  0
LINE
  5
281
330
1F
100
AcDbEntity
  8
0
  6
Continuous
 62
     7
370
    15
100
AcDbLine
 10
244.3182065788
 20
33.9195439326
 30
0.0
 11
246.0453893699
 21
32.9224625308
 31
0.0
  0
SPLINE
  5
282
330
1F
100
AcDbEntity
  8
0
  6
Continuous
 62
     7
370
    15
100
AcDbSpline
210
0.0
220
0.0
230
1.0
 70
     8
 71
     3
 72
    14
 73
    10
 74
     0
 42
0.000000001
 43
0.00000001
 40
0.0
 40
0.0
 40
0.0
 40
0.0
 40
0.25
 40
0.25
 40
0.5
 40
0.5
 40
0.75
 40
0.75
 40
1.0
 40
1.0
 40
1.0
 40
1.0
 10
245.9974941915399
 20
32.80021406095582
 30
0.0
 10
245.9805859940019
 20
32.75705721140668
 30
0.0
 10
245.9600628031208
 20
32.71704123891767
 30
0.0
 10
245.9112793675586
 20
32.64373161193276
 30
0.0
 10
245.8828223891827
 20
32.61044445332669
 30
0.0
 10
245.8194597666745
 20
32.55752160699636
 30
0.0
 10
245.7841407059336
 20
32.5374579405711
 30
0.0
 10
245.7093226288825
 20
32.52069895008907
 30
0.0
 10
245.6709531548178
 20
32.52489584570025
 30
0.0
 10
245.6371610660308
 20
32.54440360332269
 30
0.0
  0
LINE
  5
283
330
1F
100
AcDbEntity
  8
0
  6
Continuous
 62
     7
370
    15
100
AcDbLine
 10
245.6371609221
 20
32.5444037439
 30
0.0
 11
244.2837011515
 21
33.3257394383
 31
0.0
  0
SPLINE
  5
284
330
1F
100
AcDbEntity
  8
0
  6
Continuous
 62
     7
370
    15
100
AcDbSpline
210
0.0
220
0.0
230
1.0
 70
     8
 71
     3
 72
     8
 73
     4
 74
     0
 42
0.000000001
 43
0.00000001
 40
0.0
 40
0.0
 40
0.0
 40
0.0
 40
0.0011901715795577
 40
0.0011901715795577
 40
0.0011901715795577
 40
0.0011901715795577
 10
244.283700931085
 20
33.32573950802453
 30
0.0
 10
244.2945617547276
 20
33.52369469638269
 30
0.0
 10
244.3060452016836
 20
33.72163360888426
 30
0.0
 10
244.3182066685022
 20
33.91954409509289
 30
0.0
  0
SPLINE
  5
285
330
1F
100
AcDbEntity
  8
0
  6
Continuous
 62
     7
370
    15
100
AcDbSpline
210
0.0
220
0.0
230
1.0
 70
     8
 71
     3
 72
     9
 73
     5
 74
     0
 42
0.000000001
 43
0.00000001
 40
0.0
 40
0.0
 40
0.0
 40
0.0
 40
0.4636449606022359
 40
1.0
 40
1.0
 40
1.0
 40
1.0
 10
267.2848504765081
 20
44.99254884693113
 30
0.0
 10
267.2819987286767
 20
44.99419793296566
 30
0.0
 10
267.2758480140702
 20
44.99775471924537
 30
0.0
 10
267.2425247217237
 20
45.01699882017211
 30
0.0
 10
267.2246516059444
 20
45.02732049068286
 30
0.0
  0
ARC
  5
286
330
1F
100
AcDbEntity
  8
0
  6
Continuous
 62
     7
370
    15
100
AcDbCircle
 10
251.2372571274
 20
33.4858809736
 30
0.0
 40
5.538922464713828
100
AcDbArc
 50
212.9723376267
 51
267.048469984
  0
SPLINE
  5
287
330
1F
100
AcDbEntity
  8
0
  6
Continuous
 62
     7
370
    15
100
AcDbSpline
210
0.0
220
0.0
230
1.0
 70
     8
 71
     3
 72
     8
 73
     4
 74
     0
 42
0.000000001
 43
0.00000001
 40
0.0
 40
0.0
 40
0.0
 40
0.0
 40
1.0
 40
1.0
 40
1.0
 40
1.0
 10
244.6441235978596
 20
34.57908173352766
 30
0.0
 10
244.5350500174726
 20
34.35930953346843
 30
0.0
 10
244.4264384520046
 20
34.13945645179877
 30
0.0
 10
244.3182066685022
 20
33.91954409509289
 30
0.0
  0
LINE
  5
288
330
1F
100
AcDbEntity
  8
0
  6
Continuous
 62
     7
370
    15
100
AcDbLine
 10
244.7023704932
 20
34.6127068795
 30
0.0
 11
244.6441235486
 21
34.5790816341
 31
0.0
  0
SPLINE
  5
289
330
1F
100
AcDbEntity
  8
0
  6
Continuous
 62
     7
370
    15
100
AcDbSpline
210
0.0
220
0.0
230
1.0
 70
     8
 71
     3
 72
    12
 73
     8
 74
     0
 42
0.000000001
 43
0.00000001
 40
0.0
 40
0.0
 40
0.0
 40
0.0
 40
0.2499999999999986
 40
0.2499999999999986
 40
0.4999999999999971
 40
0.4999999999999971
 40
1.0
 40
1.0
 40
1.0
 40
1.0
 10
244.7144696221478
 20
34.94625487367238
 30
0.0
 10
244.7525072297003
 20
34.92429623023514
 30
0.0
 10
244.781980633612
 20
34.89803929363048
 30
0.0
 10
244.820774343655
 20
34.84017128433116
 30
0.0
 10
244.8295965466015
 20
34.80938914952203
 30
0.0
 10
244.8244872739148
 20
34.71640916613529
 30
0.0
 10
244.7778635321454
 20
34.65628815420597
 30
0.0
 10
244.7023704482921
 20
34.61270692455004
 30
0.0
  0
LINE
  5
28A
330
1F
100
AcDbEntity
  8
0
  6
Continuous
 62
     7
370
    15
100
AcDbLine
 10
243.9295810254
 20
35.3993611473
 30
0.0
 11
244.7144696022
 21
34.9462546166
 31
0.0
  0
SPLINE
  5
28B
330
1F
100
AcDbEntity
  8
0
  6
Continuous
 62
     7
370
    15
100
AcDbSpline
210
0.0
220
0.0
230
1.0
 70
     8
 71
     3
 72
    12
 73
     8
 74
     0
 42
0.000000001
 43
0.00000001
 40
0.0
 40
0.0
 40
0.0
 40
0.0
 40
0.5
 40
0.5
 40
0.75
 40
0.75
 40
1.0
 40
1.0
 40
1.0
 40
1.0
 10
243.3517964962258
 20
35.39237667134073
 30
0.0
 10
243.4277273039771
 20
35.43621059362427
 30
0.0
 10
243.5316172634012
 20
35.46286793613348
 30
0.0
 10
243.6923193432336
 20
35.4658237989072
 30
0.0
 10
243.7461041436565
 20
35.46067052727126
 30
0.0
 10
243.845873029099
 20
35.4383720246679
 30
0.0
 10
243.8914252549264
 20
35.42138827337048
 30
0.0
 10
243.9295810950307
 20
35.39936137573398
 30
0.0
  0
LINE
  5
28C
330
1F
100
AcDbEntity
  8
0
  6
Continuous
 62
     7
370
    15
100
AcDbLine
 10
243.29354952
 20
35.3587514251
 30
0.0
 11
243.3517964646
 21
35.3923766705
 31
0.0
  0
SPLINE
  5
28D
330
1F
100
AcDbEntity
  8
0
  6
Continuous
 62
     7
370
    15
100
AcDbSpline
210
0.0
220
0.0
230
1.0
 70
     8
 71
     3
 72
     8
 73
     4
 74
     0
 42
0.000000001
 43
0.00000001
 40
0.0
 40
0.0
 40
0.0
 40
0.0
 40
1.0
 40
1.0
 40
1.0
 40
1.0
 10
242.1510731568133
 20
35.17060364183968
 30
0.0
 10
242.532013807553
 20
35.23308452051271
 30
0.0
 10
242.9128517797929
 20
35.29578464264775
 30
0.0
 10
243.2935496457933
 20
35.35875148031835
 30
0.0
  0
LINE
  5
28E
330
1F
100
AcDbEntity
  8
0
  6
Continuous
 62
     7
370
    15
100
AcDbLine
 10
240.7951213834
 20
35.9533777246
 30
0.0
 11
242.1510729218
 21
35.1706035633
 31
0.0
  0
LINE
  5
28F
330
1F
100
AcDbEntity
  8
0
  6
Continuous
 62
     7
370
    15
100
AcDbLine
 10
240.7951213834
 20
35.9533777246
 30
0.0
 11
242.8080594781
 21
37.1154221518
 31
0.0
  0
ARC
  5
290
330
1F
100
AcDbEntity
  8
0
  6
Continuous
 62
     7
370
    15
100
AcDbCircle
 10
250.5201539381
 20
34.9288619308
 30
0.0
 40
6.439203761766359
100
AcDbArc
 50
194.4161472332
 51
238.0417156746
  0
SPLINE
  5
291
330
1F
100
AcDbEntity
  8
0
  6
Continuous
 62
     7
370
    15
100
AcDbSpline
210
0.0
220
0.0
230
1.0
 70
     8
 71
     3
 72
    22
 73
    18
 74
     0
 42
0.000000001
 43
0.00000001
 40
0.0
 40
0.0
 40
0.0
 40
0.0
 40
0.1249999999999999
 40
0.1249999999999999
 40
0.2499999999999998
 40
0.2499999999999998
 40
0.3749999999999998
 40
0.3749999999999998
 40
0.4999999999999999
 40
0.4999999999999999
 40
0.6249999999999999
 40
0.6249999999999999
 40
0.7499999999999999
 40
0.7499999999999999
 40
0.875
 40
0.875
 40
1.0
 40
1.0
 40
1.0
 40
1.0
 10
267.0883385836701
 20
39.33185159571163
 30
0.0
 10
267.1368875623618
 20
39.39224606365762
 30
0.0
 10
267.1807817347511
 20
39.4564515722145
 30
0.0
 10
267.2583751978212
 20
39.592921464649
 30
0.0
 10
267.2919340817289
 20
39.66488375145055
 30
0.0
 10
267.3451366685555
 20
39.8085194348028
 30
0.0
 10
267.3654282125302
 20
39.88222837083439
 30
0.0
 10
267.3914457240346
 20
40.02373827683484
 30
0.0
 10
267.3975334559083
 20
40.09274121944736
 30
0.0
 10
267.3959056284775
 20
40.22244609693521
 30
0.0
 10
267.3883800843566
 20
40.28174802301953
 30
0.0
 10
267.3603311814062
 20
40.38903835777958
 30
0.0
 10
267.3399243178218
 20
40.43580410018231
 30
0.0
 10
267.2875827192503
 20
40.51291714582322
 30
0.0
 10
267.2550284207502
 20
40.54382164862402
 30
0.0
 10
267.1800850366272
 20
40.58718764029757
 30
0.0
 10
267.1368927440595
 20
40.60037128003937
 30
0.0
 10
267.0883385796383
 20
40.60471275341492
 30
0.0
  0
LWPOLYLINE
  5
292
330
1F
100
AcDbEntity
  8
0
  6
Continuous
 62
     7
370
    15
100
AcDbPolyline
 90
        4
 70
   128
 43
0.0
 10
267.0883384904
 20
40.6047127928
 10
266.9183994338
 20
40.6199078632
 10
266.2386433718
 20
40.6806882874
 10
266.0992890978
 20
40.6931487151
  0
ELLIPSE
  5
293
330
1F
100
AcDbEntity
  8
0
  6
Continuous
 62
     7
370
    15
100
AcDbEllipse
 10
242.5737449096
 20
37.9039217894
 30
0.0
 11
-6.005970385558612E-5
 21
0.8534489614827194
 31
0.0
210
0.0
220
0.0
230
1.0
 40
0.7174342186
 41
3.534193645557484
 42
5.10498997235232
  0
ARC
  5
294
330
1F
100
AcDbEntity
  8
0
  6
Continuous
 62
     7
370
    15
100
AcDbCircle
 10
263.6303398023
 20
41.5957032091
 30
0.0
 40
1.491206230885529
100
AcDbArc
 50
321.0621554205
 51
347.347430182
  0
LINE
  5
295
330
1F
100
AcDbEntity
  8
0
  6
Continuous
 62
     7
370
    15
100
AcDbLine
 10
266.0992890978
 20
38.1014835772
 30
0.0
 11
267.0883384904
 21
39.3318516215
 31
0.0
  0
LINE
  5
296
330
1F
100
AcDbEntity
  8
0
  6
Continuous
 62
     7
370
    15
100
AcDbLine
 10
263.7818823341
 20
39.4041245299
 30
0.0
 11
264.7902420627
 21
40.6585144504
 31
0.0
  0
ARC
  5
297
330
1F
100
AcDbEntity
  8
0
  6
Continuous
 62
     7
370
    15
100
AcDbCircle
 10
249.9525745165
 20
37.2225895743
 30
0.0
 40
6.914948051166755
100
AcDbArc
 50
195.6367501838
 51
215.4284682093
  0
ARC
  5
298
330
1F
100
AcDbEntity
  8
0
  6
Continuous
 62
     7
370
    15
100
AcDbCircle
 10
247.6670640791
 20
36.1431225845
 30
0.0
 40
6.033557239683386
100
AcDbArc
 50
193.2193819823
 51
253.6140846436
  0
SPLINE
  5
299
330
1F
100
AcDbEntity
  8
0
  6
Continuous
 62
     7
370
    15
100
AcDbSpline
210
0.0
220
0.0
230
1.0
 70
     8
 71
     3
 72
     8
 73
     4
 74
     0
 42
0.000000001
 43
0.00000001
 40
0.0
 40
0.0
 40
0.0
 40
0.0
 40
0.0011901715795577
 40
0.0011901715795577
 40
0.0011901715795577
 40
0.0011901715795577
 10
242.1510731568133
 20
35.17060364183968
 30
0.0
 10
242.0322760408984
 20
35.03425260552464
 30
0.0
 10
241.9130328667503
 20
34.89852205938873
 30
0.0
 10
241.7933863592555
 20
34.76336750956931
 30
0.0
  0
LINE
  5
29A
330
1F
100
AcDbEntity
  8
0
  6
Continuous
 62
     7
370
    15
100
AcDbLine
 10
240.3559597007
 20
35.6998031678
 30
0.0
 11
240.7951213834
 21
35.9533777246
 31
0.0
  0
LINE
  5
29B
330
1F
100
AcDbEntity
  8
0
  6
Continuous
 62
     7
370
    15
100
AcDbLine
 10
241.7933864479
 20
34.7633675159
 30
0.0
 11
240.4576039875
 21
35.5344983163
 31
0.0
  0
SPLINE
  5
29C
330
1F
100
AcDbEntity
  8
0
  6
Continuous
 62
     7
370
    15
100
AcDbSpline
210
0.0
220
0.0
230
1.0
 70
     8
 71
     3
 72
    10
 73
     6
 74
     0
 42
0.000000001
 43
0.00000001
 40
0.0
 40
0.0
 40
0.0
 40
0.0
 40
0.5
 40
0.5
 40
1.0
 40
1.0
 40
1.0
 40
1.0
 10
240.4576038938393
 20
35.53449831287337
 30
0.0
 10
240.4312996414625
 20
35.54968343454613
 30
0.0
 10
240.4091015273439
 20
35.57331308548001
 30
0.0
 10
240.3750896409122
 20
35.63075547828991
 30
0.0
 10
240.3632187605061
 20
35.66439375644052
 30
0.0
 10
240.355959783242
 20
35.69980317968365
 30
0.0
  0
ARC
  5
29D
330
1F
100
AcDbEntity
  8
0
  6
Continuous
 62
     7
370
    15
100
AcDbCircle
 10
246.1592549842
 20
36.5660922236
 30
0.0
 40
5.673244247604304
100
AcDbArc
 50
213.1293251751
 51
239.5692417809
  0
ELLIPSE
  5
29E
330
1F
100
AcDbEntity
  8
0
  6
Continuous
 62
     7
370
    15
100
AcDbEllipse
 10
242.4545060941
 20
37.8350643093
 30
0.0
 11
0.2600075789209484
 21
0.9705436209909378
 31
0.0
210
0.0
220
0.0
230
1.0
 40
0.5176380889
 41
3.619174351347783
 42
5.189970678142586
  0
SPLINE
  5
29F
330
1F
100
AcDbEntity
  8
0
  6
Continuous
 62
     7
370
    15
100
AcDbSpline
210
0.0
220
0.0
230
1.0
 70
     8
 71
     3
 72
    12
 73
     8
 74
     0
 42
0.000000001
 43
0.00000001
 40
0.0
 40
0.0
 40
0.0
 40
0.0
 40
0.5000000000000003
 40
0.5000000000000003
 40
0.7500000000000001
 40
0.7500000000000001
 40
1.0
 40
1.0
 40
1.0
 40
1.0
 10
259.9099363309558
 20
58.17466834472538
 30
0.0
 10
259.9723796567805
 20
58.2107161094257
 30
0.0
 10
260.0517162620026
 20
58.2363751094835
 30
0.0
 10
260.1825896253437
 20
58.24815886948997
 30
0.0
 10
260.2273619377146
 20
58.24734859728644
 30
0.0
 10
260.312623853718
 20
58.23380011689909
 30
0.0
 10
260.3520400608363
 20
58.22103550588969
 30
0.0
 10
260.3832797210862
 20
58.20300123389772
 30
0.0
  0
LINE
  5
2A0
330
1F
100
AcDbEntity
  8
0
  6
Continuous
 62
     7
370
    15
100
AcDbLine
 10
260.383279996
 20
58.2030011876
 30
0.0
 11
261.5349432901
 21
57.5381601194
 31
0.0
  0
SPLINE
  5
2A1
330
1F
100
AcDbEntity
  8
0
  6
Continuous
 62
     7
370
    15
100
AcDbSpline
210
0.0
220
0.0
230
1.0
 70
     8
 71
     3
 72
     9
 73
     5
 74
     0
 42
0.000000001
 43
0.00000001
 40
0.0
 40
0.0
 40
0.0
 40
0.0
 40
0.8664443272572582
 40
1.0
 40
1.0
 40
1.0
 40
1.0
 10
263.1020240330814
 20
55.7578459766869
 30
0.0
 10
263.4212007312073
 20
55.82713596792281
 30
0.0
 10
263.7895760417553
 20
55.90710647388163
 30
0.0
 10
264.1599161391194
 20
55.98397595437274
 30
0.0
 10
264.2093771599664
 20
55.99424230955312
 30
0.0
  0
LINE
  5
2A2
330
1F
100
AcDbEntity
  8
0
  6
Continuous
 62
     7
370
    15
100
AcDbLine
 10
264.20937716
 20
55.9942423096
 30
0.0
 11
265.5628369306
 21
55.2129066152
 31
0.0
  0
SPLINE
  5
2A3
330
1F
100
AcDbEntity
  8
0
  6
Continuous
 62
     7
370
    15
100
AcDbSpline
210
0.0
220
0.0
230
1.0
 70
     8
 71
     3
 72
    14
 73
    10
 74
     0
 42
0.000000001
 43
0.00000001
 40
0.0
 40
0.0
 40
0.0
 40
0.0
 40
0.25
 40
0.25
 40
0.5
 40
0.5
 40
0.75
 40
0.75
 40
1.0
 40
1.0
 40
1.0
 40
1.0
 10
265.5628368932776
 20
55.21290652434705
 30
0.0
 10
265.5940989814357
 20
55.19485930499926
 30
0.0
 10
265.6163663535319
 20
55.17176998955895
 30
0.0
 10
265.6395197515201
 20
55.12315863629025
 30
0.0
 10
265.6410399215161
 20
55.09715885472513
 30
0.0
 10
265.6275947507452
 20
55.04702592533771
 30
0.0
 10
265.6128952450971
 20
55.02283561022631
 30
0.0
 10
265.5712502501214
 20
54.97788516745372
 30
0.0
 10
265.5449379666039
 20
54.95765126037195
 30
0.0
 10
265.5137575718592
 20
54.9396512016279
 30
0.0
  0
LINE
  5
2A4
330
1F
100
AcDbEntity
  8
0
  6
Continuous
 62
     7
370
    15
100
AcDbLine
 10
259.9099362313
 20
58.1746681413
 30
0.0
 11
259.4020153403
 21
57.8814516522
 31
0.0
  0
SPLINE
  5
2A5
330
1F
100
AcDbEntity
  8
0
  6
Continuous
 62
     7
370
    15
100
AcDbSpline
210
0.0
220
0.0
230
1.0
 70
     8
 71
     3
 72
    10
 73
     6
 74
     0
 42
0.000000001
 43
0.00000001
 40
0.0
 40
0.0
 40
0.0
 40
0.0
 40
0.4051951941075962
 40
0.8115078094624675
 40
1.0
 40
1.0
 40
1.0
 40
1.0
 10
267.2246516059444
 20
51.84381402737128
 30
0.0
 10
267.2429713411801
 20
51.8827405064401
 30
0.0
 10
267.2796613326393
 20
51.96070081351827
 30
0.0
 10
267.2936758129407
 20
52.06826030503566
 30
0.0
 10
267.2755830451067
 20
52.12142179869513
 30
0.0
 10
267.2698494911607
 20
52.13826854622113
 30
0.0
  0
LINE
  5
2A6
330
1F
100
AcDbEntity
  8
0
  6
Continuous
 62
     7
370
    15
100
AcDbLine
 10
267.1192877774
 20
45.0881651272
 30
0.0
 11
265.3824431506
 21
46.0908241881
 31
0.0
  0
ARC
  5
2A7
330
1F
100
AcDbEntity
  8
0
  6
Continuous
 62
     7
370
    15
100
AcDbCircle
 10
251.2601236431
 20
51.6955891388
 30
0.0
 40
1.083190433072744
100
AcDbArc
 50
126.0723241231
 51
148.9783059007
  0
LWPOLYLINE
  5
2A8
330
1F
100
AcDbEntity
  8
0
  6
Continuous
 62
     7
370
    15
100
AcDbPolyline
 90
        3
 70
   128
 43
0.0
 10
250.3898275747
 20
52.318056249
 10
250.4150728784
 20
52.3542175256
 10
250.596626026
 20
52.5434812041
  0
LWPOLYLINE
  5
2A9
330
1F
100
AcDbEntity
  8
0
  6
Continuous
 62
     7
370
     0
100
AcDbPolyline
 90
       23
 70
   128
 43
0.0
 10
245.6371609221
 20
39.8921901167
 10
245.951642925
 20
41.1321105613
 10
246.3439958403
 20
42.3817230229
 10
246.8112950719
 20
43.6317162881
 10
247.3500595535
 20
44.8727761539
 10
247.9562741393
 20
46.0956550078
 10
248.6254218724
 20
47.291241027
 10
249.3525169124
 20
48.4506254763
 10
250.1321407551
 20
49.5651684849
 10
250.9584853671
 20
50.6265672935
 10
251.8253926989
 20
51.6269110043
 10
252.726402758
 20
52.5587463562
 10
253.654802671
 20
53.4151311431
 10
254.603673934
 20
54.1896820233
 10
255.56594666
 20
54.8766301707
 10
256.5344504209
 20
55.4708536673
 10
257.5019686494
 20
55.9679279201
 10
258.4612920016
 20
56.3641465805
 10
259.4052725837
 20
56.6565596937
 10
260.3268759881
 20
56.8429862466
 10
261.2192350773
 20
56.9220383735
 10
262.0757008566
 20
56.893126389
 10
262.8898917005
 20
56.7564666731
  0
LWPOLYLINE
  5
2AA
330
1F
100
AcDbEntity
  8
0
  6
Continuous
 62
     7
370
     0
100
AcDbPolyline
 90
       24
 70
   128
 43
0.0
 10
245.9974940864
 20
39.5625662511
 10
246.280530589
 20
40.7424636486
 10
246.6364106753
 20
41.9334132426
 10
247.0626259492
 20
43.1270197581
 10
247.5561721307
 20
44.3148700958
 10
248.1135701292
 20
45.4885903649
 10
248.7308904095
 20
46.6399063372
 10
249.4037813096
 20
47.7607027612
 10
250.1274999919
 20
48.8430796329
 10
250.8969453707
 20
49.8794069463
 10
251.7066926855
 20
50.8623796336
 10
252.5510343312
 20
51.7850677518
 10
253.4240183824
 20
52.6409676202
 10
254.31949107
 20
53.4240461136
 10
255.2311402449
 20
54.1287840044
 10
256.152539624
 20
54.7502121517
 10
257.0771941063
 20
55.2839505899
 10
257.9985857886
 20
55.7262366135
 10
258.9102196524
 20
56.0739534332
 10
259.8056692909
 20
56.3246497295
 10
260.6786230491
 20
56.4765579234
 10
261.5229271577
 20
56.5286069099
 10
262.3326300208
 20
56.4804301342
 10
263.1020240331
 20
56.3323676784
  0
LWPOLYLINE
  5
2AB
330
1F
100
AcDbEntity
  8
0
  6
Continuous
 62
     7
370
     0
100
AcDbPolyline
 90
        3
 70
   128
 43
0.0
 10
267.2246516059
 20
45.0273204907
 10
266.9399568882
 20
43.8480780073
 10
266.8726338832
 20
43.6050365821
  0
LWPOLYLINE
  5
2AC
330
1F
100
AcDbEntity
  8
0
  6
Continuous
 62
     7
370
     0
100
AcDbPolyline
 90
       21
 70
   128
 43
0.0
 10
260.6231419914
 20
32.7794261217
 10
259.7907542456
 20
31.9668982968
 10
258.8957813933
 20
31.1856650197
 10
257.9847547899
 20
30.4827108788
 10
257.0640849547
 20
29.8629837472
 10
256.1402503191
 20
29.3308433211
 10
255.2197515408
 20
28.8900347456
 10
254.3090658165
 20
28.5436591985
 10
253.4146011959
 20
28.2941551205
 10
252.5426517181
 20
28.1432768793
 10
251.6993528777
 20
28.0920865511
 10
250.8906384899
 20
28.1409449891
 10
250.1222000257
 20
28.2895081201
 10
249.3994434769
 20
28.5367294201
 10
248.7274554414
 20
28.8808707541
 10
248.11096361
 20
29.3195099844
 10
247.5543071327
 20
29.8495603653
 10
247.061401715
 20
30.4672925996
 10
246.6357165694
 20
31.1683595557
 10
246.2802474149
 20
31.9478285904
 10
245.9974940864
 20
32.8002138699
  0
ARC
  5
2AD
330
1F
100
AcDbEntity
  8
0
  6
Continuous
 62
     7
370
     0
100
AcDbCircle
 10
260.4258938827
 20
50.10720068
 30
0.0
 40
7.017045852609502
100
AcDbArc
 50
14.3287351339
 51
43.52515955
  0
LWPOLYLINE
  5
2AE
330
1F
100
AcDbEntity
  8
0
  6
Continuous
 62
     7
370
     0
100
AcDbPolyline
 90
       28
 70
   128
 43
0.0
 10
250.7806885574
 20
38.9426694531
 10
250.8201333978
 20
39.7474959493
 10
250.9379344979
 20
40.5869806039
 10
251.1324994972
 20
41.4497711861
 10
251.4011965224
 20
42.3241995904
 10
251.7403920543
 20
43.1984407696
 10
252.1454990011
 20
44.0606718575
 10
252.6110389311
 20
44.8992330004
 10
253.1307164879
 20
45.7027838158
 10
253.697504014
 20
46.4604581385
 10
254.3037362158
 20
47.1620091652
 10
254.9412152021
 20
47.7979503203
 10
255.6013200489
 20
48.3596808643
 10
256.2751240004
 20
48.8396041234
 10
256.9535149408
 20
49.2312308773
 10
257.6273188922
 20
49.5292651012
 10
258.2874237391
 20
49.7296753908
 10
258.9249027254
 20
49.8297518067
 10
259.5311349272
 20
49.8281415815
 10
260.0979224532
 20
49.7248662071
 10
260.6176000101
 20
49.5213223273
 10
261.08313994
 20
49.2202621466
 10
261.4882468868
 20
48.8257575836
 10
261.8274424187
 20
48.3431432295
 10
262.096139444
 20
47.7789458071
 10
262.2907044432
 20
47.1407951914
 10
262.4085055434
 20
46.437320792
 10
262.4318667512
 20
46.1686372696
  0
LWPOLYLINE
  5
2AF
330
1F
100
AcDbEntity
  8
0
  6
Continuous
 62
     7
370
     0
100
AcDbPolyline
 90
       14
 70
   128
 43
0.0
 10
256.1823746536
 20
35.3430262151
 10
255.6013200489
 20
35.0914406911
 10
254.9412152021
 20
34.8910304015
 10
254.3037362158
 20
34.7909539856
 10
253.697504014
 20
34.7925642107
 10
253.1307164879
 20
34.8958395852
 10
252.6110389311
 20
35.0993834649
 10
252.1454990011
 20
35.4004436457
 10
251.7403920543
 20
35.7949482086
 10
251.4011965224
 20
36.2775625628
 10
251.1324994972
 20
36.8417599852
 10
250.9379344979
 20
37.4799106008
 10
250.8201333978
 20
38.1833850002
 10
250.7806885574
 20
38.9426694531
  0
LWPOLYLINE
  5
2B0
330
1F
100
AcDbEntity
  8
0
  6
Continuous
 62
     7
370
     0
100
AcDbPolyline
 90
       23
 70
   128
 43
0.0
 10
240.4576039875
 20
42.8822846891
 10
240.7720859904
 20
44.1222051337
 10
241.1644389057
 20
45.3718175953
 10
241.6317381373
 20
46.6218108605
 10
242.1705026189
 20
47.8628707263
 10
242.7767172047
 20
49.0857495802
 10
243.4458649378
 20
50.2813355994
 10
244.1729599778
 20
51.4407200487
 10
244.9525838205
 20
52.5552630573
 10
245.7789284325
 20
53.6166618659
 10
246.6458357643
 20
54.6170055767
 10
247.5468458234
 20
55.5488409286
 10
248.4752457364
 20
56.4052257155
 10
249.4241169994
 20
57.1797765957
 10
250.3863897254
 20
57.8667247431
 10
251.3548934863
 20
58.4609482397
 10
252.3224117149
 20
58.9580224925
 10
253.281735067
 20
59.3542411529
 10
254.2257156491
 20
59.6466542661
 10
255.1473190535
 20
59.833080819
 10
256.0396781427
 20
59.9121329459
 10
256.896143922
 20
59.8832209614
 10
257.7103347659
 20
59.7465612455
  0
LWPOLYLINE
  5
2B1
330
1F
100
AcDbEntity
  8
0
  6
Continuous
 62
     7
370
     0
100
AcDbPolyline
 90
       19
 70
   128
 43
0.0
 10
243.9295810254
 20
41.9725149239
 10
244.2260794949
 20
43.121124094
 10
244.5979687982
 20
44.2782566825
 10
245.0421965815
 20
45.4344147941
 10
245.5551158253
 20
46.5801085745
 10
246.1325171132
 20
47.7059333939
 10
246.7696615589
 20
48.8026504531
 10
247.4613183432
 20
49.8612559819
 10
248.2018114713
 20
50.8730618442
 10
248.9850625771
 20
51.8297635952
 10
249.80464262
 20
52.7235075872
 10
250.6538244031
 20
53.5469585512
 10
251.5256382207
 20
54.2933575766
 10
252.4129279989
 20
54.9565788556
 10
253.3084110072
 20
55.5311770821
 10
254.2047371376
 20
56.0124376421
 10
255.0945492236
 20
56.3964099143
 10
255.9705439756
 20
56.6799416868
 10
256.0396027394
 20
56.6981558026
  0
LWPOLYLINE
  5
2B2
330
1F
100
AcDbEntity
  8
0
  6
Continuous
 62
     7
370
     0
100
AcDbPolyline
 90
       22
 70
   128
 43
0.0
 10
243.3517964646
 20
41.9655304471
 10
243.6468823561
 20
43.1364216927
 10
244.0185852913
 20
44.3169005093
 10
244.4639003316
 20
45.4974260314
 10
244.9792298483
 20
46.6684604906
 10
245.5604098646
 20
47.8205399367
 10
246.2027429825
 20
48.9443552239
 10
246.9010398711
 20
50.0308253911
 10
247.6496571334
 20
51.0711700931
 10
248.4425457089
 20
52.0569839308
 10
249.2732982886
 20
52.9802995652
 10
250.1352016699
 20
53.833656725
 10
251.0212914154
 20
54.6101588553
 10
251.9244071706
 20
55.3035324289
 10
252.8372510481
 20
55.9081735785
 10
253.7524466704
 20
56.4191973904
 10
254.6625985209
 20
56.8324729282
 10
255.5603522421
 20
57.1446618438
 10
256.4384528548
 20
57.3532413407
 10
257.289805036
 20
57.4565252829
 10
258.1075293005
 20
57.4536791375
 10
258.1127150092
 20
57.4533138188
  0
LINE
  5
2B3
330
1F
100
AcDbEntity
  8
0
  6
Continuous
 62
     7
370
     0
100
AcDbLine
 10
264.0212626042
 20
42.9744875261
 30
0.0
 11
263.5709670329
 21
42.6870949819
 31
0.0
  0
LWPOLYLINE
  5
2B4
330
1F
100
AcDbEntity
  8
0
  6
Continuous
 62
     7
370
     0
100
AcDbPolyline
 90
       38
 70
   128
 43
0.0
 10
259.757564261
 20
35.9765846888
 10
259.7532395992
 20
35.9076608256
 10
259.7532395992
 20
35.2334159851
 10
259.8327446898
 20
34.6113483589
 10
259.9902741338
 20
34.0530461147
 10
260.2228931274
 20
33.5689092382
 10
260.5262687772
 20
33.1679563701
 10
260.8947491248
 20
32.8576561668
 10
261.3214708195
 20
32.6437895507
 10
261.7984845704
 20
32.5303398118
 10
262.3169043072
 20
32.5194209202
 10
262.867073051
 20
32.6112356374
 10
263.4387422029
 20
32.8040740736
 10
264.0212626042
 20
33.0943437559
 10
264.6037830055
 20
33.476637813
 10
265.1754521573
 20
33.9438345303
 10
265.7256209011
 20
34.4872311238
 10
266.244040638
 20
35.096704703
 10
266.7210543889
 20
35.7609027957
 10
267.1477760835
 20
36.4674517935
 10
267.5162564312
 20
37.2031903504
 10
267.8196320809
 20
37.9544132879
 10
268.0522510746
 20
38.7071263378
 10
268.2097805185
 20
39.4473082065
 10
268.2892856091
 20
40.1611704564
 10
268.2892856091
 20
40.835415297
 10
268.2097805185
 20
41.4574829231
 10
268.0522510746
 20
42.0157851673
 10
267.8196320809
 20
42.4999220438
 10
267.5162564312
 20
42.9008749119
 10
267.1477760835
 20
43.2111751152
 10
266.7210543889
 20
43.4250417313
 10
266.244040638
 20
43.5384914702
 10
265.7256209011
 20
43.5494103618
 10
265.1754521573
 20
43.4575956447
 10
264.6037830055
 20
43.2647572084
 10
264.0212626042
 20
42.9744875261
 10
264.0212626042
 20
42.9744875261
  0
LWPOLYLINE
  5
2B5
330
1F
100
AcDbEntity
  8
0
  6
Continuous
 62
     7
370
     0
100
AcDbPolyline
 90
       16
 70
   128
 43
0.0
 10
263.8798414882
 20
43.2194364638
 10
263.2907907949
 20
42.8338497398
 10
262.7122517067
 20
42.3640737968
 10
262.1545483906
 20
41.8184922449
 10
261.627632771
 20
41.2068403565
 10
261.1409081228
 20
40.5400332663
 10
260.7030596602
 20
39.8299704532
 10
260.3219010137
 20
39.0893227769
 10
260.004233631
 20
38.3313068248
 10
259.7557269218
 20
37.5694501291
 10
259.5808148663
 20
36.8173474493
 10
259.4826192947
 20
36.0884203297
 10
259.4628919354
 20
35.3956762881
 10
259.5219854391
 20
34.7514776731
 10
259.6588448172
 20
34.1673199191
 10
259.6775922623
 20
34.1100426616
  0
ARC
  5
2B6
330
1F
100
AcDbEntity
  8
0
  6
Continuous
 62
     7
370
     0
100
AcDbCircle
 10
266.1731380373
 20
39.4032612567
 30
0.0
 40
4.452235648937358
100
AcDbArc
 50
101.7361208483
 51
121.0033881545
  0
ARC
  5
2B7
330
1F
100
AcDbEntity
  8
0
  6
Continuous
 62
     7
370
     0
100
AcDbCircle
 10
256.7423199744
 20
38.6366112907
 30
0.0
 40
3.148116862116211
100
AcDbArc
 50
174.4209276035
 51
234.2668974176
  0
LWPOLYLINE
  5
2B8
330
1F
100
AcDbEntity
  8
0
  6
Continuous
 62
     7
370
     0
100
AcDbPolyline
 90
       19
 70
   128
 43
0.0
 10
261.1532792107
 20
46.9067500708
 10
260.8818321036
 20
47.038326306
 10
260.4065437393
 20
47.168340666
 10
259.8888195901
 20
47.1970947236
 10
259.3378987061
 20
47.1240763907
 10
258.7636120868
 20
46.9505879407
 10
258.1762079914
 20
46.6797257712
 10
257.5861686274
 20
46.3163228703
 10
257.004023226
 20
45.8668648618
 10
256.4401602961
 20
45.3393717353
 10
255.904641945
 20
44.7432571961
 10
255.4070243121
 20
44.0891580828
 10
254.9561877054
 20
43.388747713
 10
254.5601772338
 20
42.6545244901
 10
254.2260594094
 20
41.8995907167
 10
253.9597970232
 20
41.1374180037
 10
253.7661414739
 20
40.3816078299
 10
253.6485481445
 20
39.6456470604
 10
253.6091158165
 20
38.942669263
  0
LWPOLYLINE
  5
2B9
330
1F
100
AcDbEntity
  8
0
  6
Continuous
 62
     7
370
     0
100
AcDbPolyline
 90
       14
 70
   128
 43
0.0
 10
261.6025631341
 20
35.2865672559
 10
261.8390821929
 20
34.9641982461
 10
262.1402421697
 20
34.7327755784
 10
262.4971220912
 20
34.599154712
 10
262.8991501778
 20
34.5672936127
 10
263.3344177633
 20
34.638136253
 10
263.7900311226
 20
34.809583967
 10
264.2524940857
 20
35.0765581529
 10
264.708107445
 20
35.4311504264
 10
265.1433750306
 20
35.8628570434
 10
265.5454031172
 20
36.3588898913
 10
265.9022830387
 20
36.9045555444
 10
266.2034430154
 20
37.4836901201
 10
266.4399620743
 20
38.0791382225
  0
LWPOLYLINE
  5
2BA
330
1F
100
AcDbEntity
  8
0
  6
Continuous
 62
     7
370
     0
100
AcDbPolyline
 90
       14
 70
   128
 43
0.0
 10
266.4398637865
 20
40.7824416985
 10
266.2033317214
 20
41.104747496
 10
265.9021719093
 20
41.3361172165
 10
265.5453038416
 20
41.4696981574
 10
265.14329724
 20
41.5015340169
 10
264.7080585069
 20
41.4306816067
 10
264.2524784658
 20
41.2592398188
 10
263.7900503645
 20
40.9922861384
 10
263.3344702411
 20
40.6377271201
 10
262.8992312611
 20
40.2060640132
 10
262.4972243302
 20
39.7100817816
 10
262.1403559332
 20
39.1644701203
 10
261.8391956272
 20
38.585388777
 10
261.6026630682
 20
37.9899888702
  0
LINE
  5
2BB
330
1F
100
AcDbEntity
  8
0
  6
Continuous
 62
     7
370
     0
100
AcDbLine
 10
260.6713444859
 20
35.6273998342
 30
0.0
 11
260.7420550439
 21
35.3635098381
 31
0.0
  0
LWPOLYLINE
  5
2BC
330
1F
100
AcDbEntity
  8
0
  6
Continuous
 62
     7
370
     0
100
AcDbPolyline
 90
        3
 70
   128
 43
0.0
 10
266.0092682038
 20
40.7356956882
 10
265.7670135515
 20
41.0352587639
 10
265.5589887257
 20
41.1880477687
  0
LWPOLYLINE
  5
2BD
330
1F
100
AcDbEntity
  8
0
  6
Continuous
 62
     7
370
     0
100
AcDbPolyline
 90
       12
 70
   128
 43
0.0
 10
262.0882319708
 20
35.1095325206
 10
262.158547896
 20
35.0745572724
 10
262.5206830027
 20
34.9730207929
 10
262.9256230908
 20
34.9772583561
 10
263.3599150838
 20
35.0871295882
 10
263.8091309302
 20
35.2989837199
 10
264.2583467765
 20
35.6057831646
 10
264.6926387696
 20
35.9973347946
 10
265.0975788577
 20
36.4606311053
 10
265.4597139643
 20
36.9802798792
 10
265.7670135515
 20
37.5390176937
 10
266.0092682038
 20
38.1182820373
  0
LINE
  5
2BE
330
1F
100
AcDbEntity
  8
0
  6
Continuous
 62
     7
370
     0
100
AcDbLine
 10
248.6240125871
 20
40.3309911243
 30
0.0
 11
248.0582352684
 21
40.6576074182
 31
0.0
  0
LINE
  5
2BF
330
1F
100
AcDbEntity
  8
0
  6
Continuous
 62
     7
370
     0
100
AcDbLine
 10
260.4621960185
 20
35.7481386744
 30
0.0
 11
260.6713444859
 21
35.6273998342
 31
0.0
  0
LWPOLYLINE
  5
2C0
330
1F
100
AcDbEntity
  8
0
  6
Continuous
 62
     7
370
     0
100
AcDbPolyline
 90
        3
 70
   128
 43
0.0
 10
242.941347981
 20
41.0104256402
 10
242.9406420213
 20
41.1316637386
 10
242.9654546613
 20
41.8665181852
  0
LINE
  5
2C1
330
1F
100
AcDbEntity
  8
0
  6
Continuous
 62
     7
370
     0
100
AcDbLine
 10
243.1394301018
 20
38.2304847834
 30
0.0
 11
248.6240125871
 21
35.0643027088
 31
0.0
  0
LINE
  5
2C2
330
1F
100
AcDbEntity
  8
0
  6
Continuous
 62
     7
370
     0
100
AcDbLine
 10
243.0201912344
 20
38.1616274635
 30
0.0
 11
243.1394301018
 21
38.2304847834
 31
0.0
  0
LWPOLYLINE
  5
2C3
330
1F
100
AcDbEntity
  8
0
  6
Continuous
 62
     7
370
     0
100
AcDbPolyline
 90
       18
 70
   128
 43
0.0
 10
221.668758546
 20
57.423627519
 10
221.7078648945
 20
58.1207938421
 10
221.8244858829
 20
58.8506703817
 10
222.0165408397
 20
59.6002326476
 10
222.2806020409
 20
60.3561043716
 10
222.6119576004
 20
61.1047972853
 10
223.0046941179
 20
61.8329506105
 10
223.4518038566
 20
62.5275706902
 10
223.945307562
 20
63.1762621577
 10
224.4763988477
 20
63.7674491226
 10
225.0356004349
 20
64.2905813368
 10
225.6129332753
 20
64.7363238425
 10
226.1980948517
 20
65.0967222617
 10
226.780642953
 20
65.3653453889
 10
227.3501819603
 20
65.5373995761
 10
227.8965484328
 20
65.6098141961
 10
228.4099927012
 20
65.5812978045
 10
228.7629378193
 20
65.4955769638
  0
ARC
  5
2C4
330
1F
100
AcDbEntity
  8
0
  6
Continuous
 62
     7
370
     0
100
AcDbCircle
 10
224.9340880985
 20
57.1482362627
 30
0.0
 40
3.276921944516531
100
AcDbArc
 50
175.1791987811
 51
225.801960153
  0
ARC
  5
2C5
330
1F
100
AcDbEntity
  8
0
  6
Continuous
 62
     7
370
     0
100
AcDbCircle
 10
253.0120341222
 20
34.6801967729
 30
0.0
 40
7.677914207624203
100
AcDbArc
 50
196.1512295971
 51
213.2414134926
  0
LINE
  5
2C6
330
1F
100
AcDbEntity
  8
0
  6
Continuous
 62
     7
370
     0
100
AcDbLine
 10
248.0583274646
 20
34.0845069581
 30
0.0
 11
242.8080594781
 21
37.1154221518
 31
0.0
  0
LINE
  5
2C7
330
1F
100
AcDbEntity
  8
0
  6
Continuous
 62
     7
370
     0
100
AcDbLine
 10
267.3004701644
 20
39.1496022979
 30
0.0
 11
267.0883384904
 21
39.3318516215
 31
0.0
  0
LINE
  5
2C8
330
1F
100
AcDbEntity
  8
0
  6
Continuous
 62
     7
370
     0
100
AcDbLine
 10
244.7920955361
 20
34.7060239496
 30
0.0
 11
244.7144696022
 21
34.9462546166
 31
0.0
  0
LINE
  5
2C9
330
1F
100
AcDbEntity
  8
0
  6
Continuous
 62
     7
370
     0
100
AcDbLine
 10
264.7902420627
 20
40.6585144504
 30
0.0
 11
267.0883384904
 21
39.3318516215
 31
0.0
  0
LWPOLYLINE
  5
2CA
330
1F
100
AcDbEntity
  8
0
  6
Continuous
 62
     7
370
     0
100
AcDbPolyline
 90
        3
 70
   128
 43
0.0
 10
244.4289632284
 20
34.1683081394
 10
244.2172089004
 20
34.6135303622
 10
243.9295810254
 20
35.3993611473
  0
ARC
  5
2CB
330
1F
100
AcDbEntity
  8
0
  6
Continuous
 62
     7
370
     0
100
AcDbCircle
 10
250.0306146676
 20
37.2832396805
 30
0.0
 40
6.941323757848275
100
AcDbArc
 50
195.8075290888
 51
213.7425802782
  0
ARC
  5
2CC
330
1F
100
AcDbEntity
  8
0
  6
Continuous
 62
     7
370
     0
100
AcDbCircle
 10
247.8343469148
 20
37.6710123133
 30
0.0
 40
7.679910694382043
100
AcDbArc
 50
196.152515807
 51
213.2025438016
  0
LINE
  5
2CD
330
1F
100
AcDbEntity
  8
0
  6
Continuous
 62
     7
370
     0
100
AcDbLine
 10
265.3824431506
 20
44.738632967
 30
0.0
 11
265.9481289317
 21
44.4120695167
 31
0.0
  0
OLE2FRAME
  5
2CE
330
1F
100
AcDbEntity
  8
0
100
AcDbOle2Frame
 70
     2
  3
Paintbrush-Bild
 10
13.8511154363
 20
38.264191557
 30
0.0
 11
51.6290888628
 21
31.9806341108
 31
0.0
 71
     2
 72
     0
 73
     1
 90
    12928
310
80552BED0767C5B32B40DDAF6807D121434000000000000000006FFBDDFB85D0
310
4940DDAF6807D121434000000000000000006FFBDDFB85D04940416F4BD60AFB
310
3F4000000000000000002BED0767C5B32B40416F4BD60AFB3F40000000000000
310
0000000000000100000000010000010000000100000000000100000000320000
310
D0CF11E0A1B11AE1000000000000000000000000000000003E000300FEFF0900
310
0600000000000000000000000100000001000000000000000010000002000000
310
01000000FEFFFFFF0000000000000000FFFFFFFFFFFFFFFFFFFFFFFFFFFFFFFF
310
FFFFFFFFFFFFFFFFFFFFFFFFFFFFFFFFFFFFFFFFFFFFFFFFFFFFFFFFFFFFFFFF
310
FFFFFFFFFFFFFFFFFFFFFFFFFFFFFFFFFFFFFFFFFFFFFFFFFFFFFFFFFFFFFFFF
310
FFFFFFFFFFFFFFFFFFFFFFFFFFFFFFFFFFFFFFFFFFFFFFFFFFFFFFFFFFFFFFFF
310
FFFFFFFFFFFFFFFFFFFFFFFFFFFFFFFFFFFFFFFFFFFFFFFFFFFFFFFFFFFFFFFF
310
FFFFFFFFFFFFFFFFFFFFFFFFFFFFFFFFFFFFFFFFFFFFFFFFFFFFFFFFFFFFFFFF
310
FFFFFFFFFFFFFFFFFFFFFFFFFFFFFFFFFFFFFFFFFFFFFFFFFFFFFFFFFFFFFFFF
310
FFFFFFFFFFFFFFFFFFFFFFFFFFFFFFFFFFFFFFFFFFFFFFFFFFFFFFFFFFFFFFFF
310
FFFFFFFFFFFFFFFFFFFFFFFFFFFFFFFFFFFFFFFFFFFFFFFFFFFFFFFFFFFFFFFF
310
FFFFFFFFFFFFFFFFFFFFFFFFFFFFFFFFFFFFFFFFFFFFFFFFFFFFFFFFFFFFFFFF
310
FFFFFFFFFFFFFFFFFFFFFFFFFFFFFFFFFFFFFFFFFFFFFFFFFFFFFFFFFFFFFFFF
310
FFFFFFFFFFFFFFFFFFFFFFFFFFFFFFFFFFFFFFFFFFFFFFFFFFFFFFFFFFFFFFFF
310
FFFFFFFFFFFFFFFFFFFFFFFFFFFFFFFFFFFFFFFFFFFFFFFFFFFFFFFFFFFFFFFF
310
FFFFFFFFFFFFFFFFFFFFFFFFFFFFFFFFFFFFFFFFFFFFFFFFFFFFFFFFFFFFFFFF
310
FDFFFFFFFEFFFFFFFEFFFFFFFEFFFFFF05000000060000000700000008000000
310
090000000A0000000B0000000C0000000D0000000E0000000F00000010000000
310
11000000120000001300000014000000150000001600000017000000FEFFFFFF
310
FFFFFFFFFFFFFFFFFFFFFFFFFFFFFFFFFFFFFFFFFFFFFFFFFFFFFFFFFFFFFFFF
310
FFFFFFFFFFFFFFFFFFFFFFFFFFFFFFFFFFFFFFFFFFFFFFFFFFFFFFFFFFFFFFFF
310
FFFFFFFFFFFFFFFFFFFFFFFFFFFFFFFFFFFFFFFFFFFFFFFFFFFFFFFFFFFFFFFF
310
FFFFFFFFFFFFFFFFFFFFFFFFFFFFFFFFFFFFFFFFFFFFFFFFFFFFFFFFFFFFFFFF
310
FFFFFFFFFFFFFFFFFFFFFFFFFFFFFFFFFFFFFFFFFFFFFFFFFFFFFFFFFFFFFFFF
310
FFFFFFFFFFFFFFFFFFFFFFFFFFFFFFFFFFFFFFFFFFFFFFFFFFFFFFFFFFFFFFFF
310
FFFFFFFFFFFFFFFFFFFFFFFFFFFFFFFFFFFFFFFFFFFFFFFFFFFFFFFFFFFFFFFF
310
FFFFFFFFFFFFFFFFFFFFFFFFFFFFFFFFFFFFFFFFFFFFFFFFFFFFFFFFFFFFFFFF
310
FFFFFFFFFFFFFFFFFFFFFFFFFFFFFFFFFFFFFFFFFFFFFFFFFFFFFFFFFFFFFFFF
310
FFFFFFFFFFFFFFFFFFFFFFFFFFFFFFFFFFFFFFFFFFFFFFFFFFFFFFFFFFFFFFFF
310
FFFFFFFFFFFFFFFFFFFFFFFFFFFFFFFFFFFFFFFFFFFFFFFFFFFFFFFFFFFFFFFF
310
FFFFFFFFFFFFFFFFFFFFFFFFFFFFFFFFFFFFFFFFFFFFFFFFFFFFFFFFFFFFFFFF
310
FFFFFFFFFFFFFFFFFFFFFFFFFFFFFFFFFFFFFFFFFFFFFFFFFFFFFFFFFFFFFFFF
310
52006F006F007400200045006E00740072007900000000000000000000000000
310
0000000000000000000000000000000000000000000000000000000000000000
310
16000500FFFFFFFFFFFFFFFF020000000A00030000000000C000000000000046
310
00000000000000000000000090B1DB409A1FD20103000000C000000000000000
310
01004F006C006500000000000000000000000000000000000000000000000000
310
0000000000000000000000000000000000000000000000000000000000000000
310
0A000200FFFFFFFFFFFFFFFFFFFFFFFF00000000000000000000000000000000
310
0000000000000000000000000000000000000000000000001400000000000000
310
010043006F006D0070004F0062006A0000000000000000000000000000000000
310
0000000000000000000000000000000000000000000000000000000000000000
310
120002010100000003000000FFFFFFFF00000000000000000000000000000000
310
0000000000000000000000000000000000000000010000004D00000000000000
310
01004F006C006500310030004E00610074006900760065000000000000000000
310
0000000000000000000000000000000000000000000000000000000000000000
310
1A000200FFFFFFFFFFFFFFFFFFFFFFFF00000000000000000000000000000000
310
0000000000000000000000000000000000000000040000002426000000000000
310
FEFFFFFF02000000FEFFFFFFFFFFFFFFFFFFFFFFFFFFFFFFFFFFFFFFFFFFFFFF
310
FFFFFFFFFFFFFFFFFFFFFFFFFFFFFFFFFFFFFFFFFFFFFFFFFFFFFFFFFFFFFFFF
310
FFFFFFFFFFFFFFFFFFFFFFFFFFFFFFFFFFFFFFFFFFFFFFFFFFFFFFFFFFFFFFFF
310
FFFFFFFFFFFFFFFFFFFFFFFFFFFFFFFFFFFFFFFFFFFFFFFFFFFFFFFFFFFFFFFF
310
FFFFFFFFFFFFFFFFFFFFFFFFFFFFFFFFFFFFFFFFFFFFFFFFFFFFFFFFFFFFFFFF
310
FFFFFFFFFFFFFFFFFFFFFFFFFFFFFFFFFFFFFFFFFFFFFFFFFFFFFFFFFFFFFFFF
310
FFFFFFFFFFFFFFFFFFFFFFFFFFFFFFFFFFFFFFFFFFFFFFFFFFFFFFFFFFFFFFFF
310
FFFFFFFFFFFFFFFFFFFFFFFFFFFFFFFFFFFFFFFFFFFFFFFFFFFFFFFFFFFFFFFF
310
FFFFFFFFFFFFFFFFFFFFFFFFFFFFFFFFFFFFFFFFFFFFFFFFFFFFFFFFFFFFFFFF
310
FFFFFFFFFFFFFFFFFFFFFFFFFFFFFFFFFFFFFFFFFFFFFFFFFFFFFFFFFFFFFFFF
310
FFFFFFFFFFFFFFFFFFFFFFFFFFFFFFFFFFFFFFFFFFFFFFFFFFFFFFFFFFFFFFFF
310
FFFFFFFFFFFFFFFFFFFFFFFFFFFFFFFFFFFFFFFFFFFFFFFFFFFFFFFFFFFFFFFF
310
FFFFFFFFFFFFFFFFFFFFFFFFFFFFFFFFFFFFFFFFFFFFFFFFFFFFFFFFFFFFFFFF
310
FFFFFFFFFFFFFFFFFFFFFFFFFFFFFFFFFFFFFFFFFFFFFFFFFFFFFFFFFFFFFFFF
310
FFFFFFFFFFFFFFFFFFFFFFFFFFFFFFFFFFFFFFFFFFFFFFFFFFFFFFFFFFFFFFFF
310
FFFFFFFFFFFFFFFFFFFFFFFFFFFFFFFFFFFFFFFFFFFFFFFFFFFFFFFFFFFFFFFF
310
0100000200000000000000000000000000000000000000000000000000000000
310
0000000000000000000000000000000000000000000000000000000000000000
310
0100FEFF030A0000FFFFFFFF0A00030000000000C00000000000004607000000
310
5042727573680007000000504272757368000700000050427275736800F439B2
310
7100000000000000000000000000000000000000000000000000000000000000
310
0000000000000000000000000000000000000000000000000000000000000000
310
0000000000000000000000000000000000000000000000000000000000000000
310
0000000000000000000000000000000000000000000000000000000000000000
310
0000000000000000000000000000000000000000000000000000000000000000
310
0000000000000000000000000000000000000000000000000000000000000000
310
0000000000000000000000000000000000000000000000000000000000000000
310
0000000000000000000000000000000000000000000000000000000000000000
310
0000000000000000000000000000000000000000000000000000000000000000
310
0000000000000000000000000000000000000000000000000000000000000000
310
0000000000000000000000000000000000000000000000000000000000000000
310
0000000000000000000000000000000000000000000000000000000000000000
310
20260000424D0E260000000000003E00000028000000B40200006E0000000100
310
01000000000000000000130B0000130B00000200000002000000000000FFFFFF
310
FFFFFFFFFFFFFFFFFFFFFFFFFFFFFFFFFFFFFFFFFFFFFFFFFFFFFFFFFFFFFFFF
310
FFFFFFFFFFFFFFFFFFFFFFFFFFFFFFFFFFFFFFFFFFFFFFFFFFFFFFFFFFFFFFFF
310
FFFFFFFFFFFFFFFFFFFFFFFFFFFFFFFFFFFFFFFFFFFFFFFFF000FFFFFFFFFFFF
310
FFFFFFFFFFFFFFFFFFFFFFFFFFFFFFFFFFFFFFFFFFFFFFFFFFFFFFFFFFFFFFFF
310
FFFFFFFFFFFFFFFFFFFFFFFFFFFFFFFFFFFFFFFFFFFFFFFFFFFFFFFFFFFFFFFF
310
FFFFFFFFFFFFFFFFFFFFFFFFFFFFFFFFF000FFFFFFFFFFFFFFFFFFFFFFFFFFFF
310
FFFFFFFFFFFFFFFFFFFFFFFFFFFFFFFFFFFFFFFFFFFFFFFFFFFFFFFFFFFFFFFF
310
FFFFFFFFFFFFFFFFFFFFFFFFFFFFFFFFFFFFFFFFFFFFFFFFFFFFFFFFFFFFFFFF
310
FFFFFFFFFFFFFFFFF000FFFFFFFFFFFFFFFFFFFFFFFFFFFFFFFFFFFFFFFFFFFF
310
FFFFFFFFFFFFFFFFFFFFFFFFFFFFFFFFFFFFFFFFFFFFFFFFFFFFFFFFFFFFFFFF
310
FFFFFFFFFFFFFFFFFFFFFFFFFFFFFFFFFFFFFFFFFFFFFFFFFFFFFFFFFFFFFFFF
310
F000FFFFFFFFFFFFFFFFFFFFFFFFFFFFFFFFFFFFFFFFFFFFFFFFFFFFFFFFFFFF
310
FFFFFFFFFFFFFFFFFFFFFFFFFFFFFFFFFFFFFFFFFFFFFFFFFFFFFFFFFFFFFFFF
310
FFFFFFFFFFFFFFFFFFFFFFFFFFFFFFFFFFFFFFFFFFFFFFFFF000FFFFFFFFFFFF
310
FFFFFFFFFFFFFFFFFFFFFFFFFFFFFFFFFFFFFFFFFFFFFFFFFFFFFFFFFFFFFFFF
310
FFFFFFFFFFFFFFFFFFFFFFFFFFFFFFFFFFFFFFFFFFFFFFFFFFFFFFFFFFFFFFFF
310
FFFFFFFFFFFFFFFFFFFFFFFFFFFFFFFFF000FFFFFFFFFFFFFFFFFFFFFFFFFFFF
310
FFFFFFFFFFFFFFFFFFFFFFFFFFFFFFFFFFFFFFFFFFFFFFFFFFFFFFFFFFFFFFFF
310
FFFFFFFFFFFFFFFFFFFFFFFFFFFFFFFFFFFFFFFFFFFFFFFFFFFFFFFFFFFFFFFF
310
FFFFFFFFFFFFFFFFF000FFFFFFFFFFFFFFFFFFFFFFFFFFFFFFFFFFFFFFFFFFFF
310
FFFFFFFFFFFFFFFFFFFFFFFFFFFFFFFFFFFFFFFFFFFFFFFFFFFFFFFFFFFFFFFF
310
FFFFFFFFFFFFFFFFFFFFFFFFFFFFFFFFFFFFFFFFFFFFFFFFFFFFFFFFFFFFFFFF
310
F000FFFFFFFFFFFFFFFFFFFFFFFFFFFFFFFFFFFFFFFFFFFFFFFFFFFFFFFFFFFF
310
FFFFFFFFFFFFFFFFFFFFFFFFFFFFFFFFFFFFFFFFFFFFFFFFFFFFFFFFFFFFFFFF
310
FFFFFFFFFFFFFFFFFFFFFFFFFFFFFFFFFFFFFFFFFFFFFFFFF000FFFFFFFFFFFF
310
FFFFFFFFFFFFFFFFFFFFFFFFFFFFFFFFFFFFFFFFFFFFFFFFFFFFFFFFFFFFFFFF
310
FFFFFFFFFFFFFFFFFFFFFFFFFFFFFFFFFFFFFFFFFFFFFFFFFFFFFFFFFFFFFFFF
310
FFFFFFFFFFFFFFFFFFFFFFFFFFFFFFFFF000FFFFFFFFFFFFFFFFFFFFFFFFFFFF
310
FFFFFFFFFFFFFFFFFFFFFFFFFFFFFFFFFFFFFFFFFFFFFFFFFFFFFFFFFFFFFFFF
310
FFFFFFFFFFFFFFFFFFFFFFFFFFFFFFFFFFFFFFFFFFFFFFFFFFFFFFFFFFFFFFFF
310
FFFFFFFFFFFFFFFFF000FFFFFFFFFFFFFFFFFFFFFFFFFFFFFFFFFFFFFFFFFFFF
310
FFFFFFFFFFFFFFFFFFFFFFFFFFFFFFFFFFFFFFFFFFFFFFFFFFFFFFFFFFFFFFFF
310
FFFFFFFFFFFFFFFFFFFFFFFFFFFFFFFFFFFFFFFFFFFFFFFFFFFFFFFFFFFFFFFF
310
F000FFFFFFFFFFFFFFFFFFFFFFFFFFFFFFFFFFFFFFFFFFFFFFFFFFFFFFFFFFFF
310
FFFFFFFFFFFFFFFFFFFFFFFFFFFFFFFFFFFFFFFFFFFFFFFFFFFFFFFFFFFFFFFF
310
FFFFFFFFFFFFFFFFFFFFFFFFFFFFFFFFFFFFFFFFFFFFFFFFF000FFFFFFFFFFFF
310
FFFFFFFFFFFFFFFFFFFFFFFFFFFFFFFFFFFFFFFFFFFFFFFFFFFFFFFFFFFFFFFF
310
FFFFFFFFFFFFFFFFFFFFFFFFFFFFFFFFFFFFFFFFFFFFFFFFFFFFFFFFFFFFFFFF
310
FFFFFFFFFFFFFFFFFFFFFFFFFFFFFFFFF000FFFFFFFFFFFFFFFFFFFFFFFFFFFF
310
FFFFFFFFFFFFFFFFFFFFFFFFFFFFFFFFFFFFFFFFFFFFFFFFFFFFFFFFFFFFFFFF
310
FFFFFFFFFFFFFFFFFFFFFFFFFFFFFFFFFFFFFFFFFFFFFFFFFFFFFFFFFFFFFFFF
310
FFFFFFFFFFFFFFFFF000FFFFFFFFFFFFFFFFFFFFFFFFFFFFFFFFFFFFFFFFFFFF
310
FFFFFFFFFFFFFFFFFFFFFFFFFFFFFFFFFFFFFFFFFFFFFFFFFFFFFFFFFFFFFFFF
310
FFFFFFFFFFFFFFFFFFFFFFFFFFFFFFFFFFFFFFFFFFFFFFFFFFFFFFFFFFFFFFFF
310
F000FFFFFFFFFFFFFFFFFFFFFFFFFFFFFFFFFFFFFFFFFFFFFFFFFFFFFFFFFFFF
310
FFFFFFFFFFFFFFFFFFFFFFFFFFFFFFFFFFFFFFFFFFFFFFFFFFFFFFFFFFFFFFFF
310
FFFFFFFFFFFFFFFFFFFFFFFFFFFFFFFFFFFFFFFFFFFFFFFFF000FFFFFFFFFFFF
310
FFFFFFFFFFFFFFFFFFFFFFFFFFFFFFFFFFFFFFFFFFFFFFFFFFFFFFFFFFFFFFFF
310
FFFFFFFFFFFFFFFFFFFFFFFFFFFFFFFFFFFFFFFFFFFFFFFFFFFFFFFFFFFFFFFF
310
FFFFFFFFFFFFFFFFFFFFFFFFFFFFFFFFF000FFFFFFFFFFFFFFFFFFFFFFFFFFFF
310
FFFFFFFFFFFFFFFFFFFFFFFFFFFFFFFFFFFFFFFFFFFFFFFFFFFFFFFFFFFFFFFF
310
FFFFFFFFFFFFFFFFFFFFFFFFFFFFFFFFFFFFFFFFFFFFFFFFFFFFFFFFFFFFFFFF
310
FFFFFFFFFFFFFFFFF000FFFFF80003FFFFFFFFFFFFFFFFFFFFFFFFFFFFFFFFFF
310
FFFFF00007FFFFFFFFFF00007FFFFFF800000000000000007FFFFFFFFFFFFFFF
310
FFFFFFFC001FFFFFFFFFFFFFFC001FFFFFFFFFFFFFFFFFFFFFFFFFFE0007FFFF
310
F000FFFF8000007FFFFFFFF8000FFFFFC0007FFFFF80007FFFFF0000007FFFFF
310
FFF8000007FFFFF800000000000000007FFFFFF0001FFFFFFFFFFFC00001FFFF
310
FFFFFFFFC00001FFFFFFFF000000000003FFFFE000007FFFF000FFFE0000000F
310
FFFFFFF0000FFFFF80007FFFFF80007FFFFC0000001FFFFFFFC0000001FFFFF8
310
00000000000000007FFFFFF0001FFFFFFFFFFE0000003FFFFFFFFFFE0000003F
310
FFFFFF000000000003FFFF0000000FFFF000FFF800000003FFFFFFF00007FFFF
310
80007FFFFF80007FFFF000000007FFFFFF000000003FFFF80000000000000000
310
7FFFFFF0001FFFFFFFFFF80000000FFFFFFFFFF80000000FFFFFFF0000000000
310
03FFFC00000003FFF000FFE000000000FFFFFFF00007FFFF80003FFFFF80007F
310
FFC000000001FFFFFC000000001FFFF800000000000000007FFFFFF0001FFFFF
310
FFFFE000000003FFFFFFFFE000000003FFFFFF000000000003FFF000000000FF
310
F000FF80000000007FFFFFF00007FFFF80003FFFFF80007FFF8000000000FFFF
310
F80000000007FFF800000000000000007FFFFFF0001FFFFFFFFFC000000001FF
310
FFFFFFC000000001FFFFFF000000000003FFC0000000007FF000FF0000000000
310
3FFFFFE00007FFFF00003FFFFF80007FFE00000000003FFFF00000000003FFF8
310
00000000000000007FFFFFF0001FFFFFFFFF8000000000FFFFFFFF8000000000
310
FFFFFF000000000003FF80000000003FF000FE00000000001FFFFFE00003FFFF
310
00003FFFFF80007FFC00000000001FFFE00000000001FFF8000001FFFE000000
310
7FFFFFF0001FFFFFFFFE00000000003FFFFFFE00000000003FFFFF0000000000
310
03FF00000000001FF000FC00000000000FFFFFE00003FFFF00001FFFFF80007F
310
F800000000001FFFC00000000000FFF8000001FFFE0000007FFFFFF0001FFFFF
310
FFFC00000000001FFFFFFC00000000001FFFFF000000000003FE00000000000F
310
F000F8000000000007FFFFE00003FFFF00001FFFFF80007FF800000000000FFF
310
800000000000FFF8000001FFFE0000007FFFFFF0001FFFFFFFF800000000000F
310
FFFFF800000000000FFFFF000000000003FC000000000007F000F80000000000
310
03FFFFC00003FFFE00001FFFFF80007FF0000000000007FF0000000000007FF8
310
000001FFFE0000007FFFFFF0001FFFFFFFF0000000000007FFFFF00000000000
310
07FFFF000000000003F8000000000003F000F0000000000003FFFFC00001FFFE
310
00001FFFFF80007FE0000000000007FE0000000000003FF8000001FFFE000000
310
7FFFFFF0001FFFFFFFF0000000000007FFFFF0000000000007FFFF0000000000
310
03F800001F800003F000E00001FFF00001FFFFC00001FFFE00000FFFFF80007F
310
E00001FFE00003FE00001FFF00003FF8000001FFFE0000007FFFFFF0001FFFFF
310
FFE000003E000003FFFFE000003E000003FFFF000000000003F00001FFF80001
310
F000E00007FFFC0001FFFFC00001FFFE00000FFFFF80007FC0000FFFFC0003FC
310
0000FFFFC0001FF8000001FFFE0000007FFFFFF0001FFFFFFFC00003FFE00001
310
FFFFC00003FFE00001FFFF0001FFFFFFFFF00007FFFE0001F000E0000FFFFF00
310
00FFFF800001FFFC00000FFFFF80007FC0001FFFFE0001FC0001FFFFE0001FF8
310
000001FFFE0000007FFFFFF0001FFFFFFF80000FFFF80000FFFF80000FFFF800
310
00FFFF0003FFFFFFFFE0000FFFFF8000F000C0003FFFFF8000FFFF800000FFFC
310
000007FFFF80007F80003FFFFF0001FC0003FFFFF0001FF8000001FFFE000000
310
7FFFFFF0001FFFFFFF80003FFFFE0000FFFF80003FFFFE0000FFFF0003FFFFFF
310
FFE0003FFFFF8000F000C0003FFFFF8000FFFF800000FFFC000007FFFF80007F
310
80007FFFFF8001F80007FFFFF8000FF8000001FFFE0000007FFFFFF0001FFFFF
310
FF00007FFFFF00007FFF00007FFFFF00007FFF0003FFFFFFFFE0003FFFFFC000
310
F000C0007FFFFFC000FFFF000000FFFC000007FFFF80007F8000FFFFFF8000F8
310
000FFFFFF8000FF8000001FFFE0000007FFFFFF0001FFFFFFF0000FFFFFF8000
310
7FFF0000FFFFFF80007FFF0003FFFFFFFFC0007FFFFFC00070008000FFFFFFC0
310
00FFFF000000FFF8000007FFFF80007F8000FFFFFF8000F8000FFFFFF8000FF8
310
000001FFFE0000007FFFFFF0001FFFFFFE0001FFFFFFC0003FFE0001FFFFFFC0
310
003FFF0003FFFFFFFFC0007FFFFFE00070008000FFFFFFC0007FFF0000007FF8
310
000003FFFF80007F0001FFFFFF8000F8000FFFFFF8000FF8000001FFFE000000
310
7FFFFFF0001FFFFFFE0001FFFFFFC0003FFE0001FFFFFFC0003FFF0003FFFFFF
310
FFC000FFFFFFE00070008000FFFFFFC0007FFF0000007FF8000003FFFF80007F
310
0001FFFFFF8000F8001FFFFFF8000FF8000001FFFE0000007FFFFFF0001FFFFF
310
FE0003FFFFFFE0003FFE0003FFFFFFE0003FFF0003FFFFFFFFC000FFFFFFE000
310
70008000FFFFFFC0007FFE0000007FF8000003FFFF80007F0001FFFFFF8000F0
310
001FFFFFF8000FF8000001FFFE0000007FFFFFF0001FFFFFFC0003FFFFFFE000
310
1FFC0003FFFFFFE0001FFF0003FFFFFFFFC000FFFFFFC00070008000FFFFFF80
310
007FFE0000007FF0000003FFFF80007F0001FFFFFF0000F0001FFFFFF8000FF8
310
000001FFFE0000007FFFFFF0001FFFFFFC0007FFFFFFF0001FFC0007FFFFFFF0
310
001FFF0003FFFFFFFFC000FFFFFFC00070008001FFFFFF0000FFFE0000003FF0
310
000001FFFF80007F0001FFFFFF0000F8001FFFFFF0000FF8000001FFFE000000
310
7FFFFFF0001FFFFFFC0007FFFFFFF0001FFC0007FFFFFFF0001FFF0003FFFFFF
310
FFC001FFFFFF80007000FFFFFFFFFE0000FFFE0008003FF0008001FFFF80007F
310
FFFFFFFFFC0000FFFFFFFFFFE0000FF8000001FFFE0000007FFFFFF0001FFFFF
310
F8000FFFFFFFF8000FF8000FFFFFFFF8000FFF0003FFFFFFFFFFFFFFFFFF0000
310
7000FFFFFFFFFC0000FFFC0008003FF0008001FFFF80007FFFFFFFFFF80001FF
310
FFFFFFFF80000FF8000001FFFE0000007FFFFFF0001FFFFFF8000FFFFFFFF800
310
0FF8000FFFFFFFF8000FFF0003FFFFFFFFFFFFFFFFFE0000F000FFFFFFFFE000
310
00FFFC000C003FE000C001FFFF80007FFFFFFFFFC00001FFFFFFFFFE00001FF8
310
000001FFFE0000007FFFFFF0001FFFFFF8000FFFFFFFF8000FF8000FFFFFFFF8
310
000FFF0003FFFFFFFFFFFFFFFFF00000F000FFFFFFFE000001FFFC000C001FE0
310
00C000FFFF80007FFFFFFFFE000001FFFFFFFFE000001FF80FFFFFFFFFFFFFC0
310
7FFFFFF0001FFFFFF8000FFFFFFFF8000FF8000FFFFFFFF8000FFF0003FFFFFF
310
FFFFFFFFFF800000F000FFFFFFC0000001FFFC001C001FE001C000FFFF80007F
310
FFFFFF80000003FFFFFFF80000001FF80FFFFFFFFFFFFFC07FFFFFF0001FFFFF
310
F8001FFFFFFFFC000FF8001FFFFFFFFC000FFF0003FFFFFFFFFFFFFFF0000001
310
F000FFFFF800000001FFF8001C001FE001C000FFFF80007FFFFFF800000003FF
310
FFFF800000003FF80FFFFFFFFFFFFFC07FFFFFF0001FFFFFF8001FFFFFFFFC00
310
0FF8001FFFFFFFFC000FFF0003FFFFFFFFFFFFFE00000001F000FFFFC0000000
310
03FFF8001E001FC001E000FFFF80007FFFFF8000000007FFFFFC000000003FF8
310
0FFFFFFFFFFFFFC07FFFFFF0001FFFFFF8001FFFFFFFFC000FF8001FFFFFFFFC
310
000FFF0003FFFFFFFFFFFFE000000003F000FFFE0000000007FFF8001E000FC0
310
01E0007FFF80007FFFFE0000000007FFFFE0000000007FF80FFFFFFFFFFFFFC0
310
7FFFFFF0001FFFFFF0001FFFFFFFFC0007F0001FFFFFFFFC0007FF0003FFFFFF
310
FFFFFF0000000003F000FFF80000000007FFF8001E000FC003E0007FFF80007F
310
FFF0000000000FFFFF8000000000FFF80FFFFFFFFFFFFFC07FFFFFF0001FFFFF
310
F0001FFFFFFFFC0007F0001FFFFFFFFC0007FF0003FFFFFFFFFFFC0000000007
310
F000FFE0000000000FFFF0003E000FC003E0007FFF80007FFFC0000000001FFF
310
FE0000000001FFF80FFFFFFFFFFFFFC07FFFFFF0001FFFFFF0001FFFFFFFFC00
310
07F0001FFFFFFFFC0007FF0003FFFFFFFFFFF0000000000FF000FFC000000000
310
1FFFF0003F000F8003F0003FFF80007FFF80000000003FFFF80000000003FFF8
310
0FFFFFFFFFFFFFC07FFFFFF0001FFFFFF0001FFFFFFFFC0007F0001FFFFFFFFC
310
0007FF0003FFFFFFFFFFE0000000001FF000FF00000000007FFFF0003F000780
310
03F0003FFF80007FFF00000000007FFFF00000000007FFF80FFFFFFFFFFFFFC0
310
7FFFFFF0001FFFFFF0001FFFFFFFFC0007F0001FFFFFFFFC0007FF0003FFFFFF
310
FFFF80000000007FF000FE0000000000FFFFE0003F00078007F0003FFF80007F
310
FE0000000001FFFFE0000000001FFFF80FFFFFFFFFFFFFC07FFFFFF0001FFFFF
310
F0001FFFFFFFFC0007F0001FFFFFFFFC0007FF0003FFFFFFFFFF0000000000FF
310
F000FC0000000003FFFFE0007F00078007F0003FFF80007FFC0000000007FFFF
310
C0000000007FFFF80FFFFFFFFFFFFFC07FFFFFF0001FFFFFF8001FFFFFFFFC00
310
0FF8001FFFFFFFFC000FFF0003FFFFFFFFFE0000000003FFF000FC000000000F
310
FFFFE0007F80070007F8001FFF80007FF8000000001FFFFF8000000001FFFFF8
310
0FFFFFFFFFFFFFC07FFFFFF0001FFFFFF8001FFFFFFFFC000FF8001FFFFFFFFC
310
000FFF0003FFFFFFFFFC000000000FFFF000F8000000007FFFFFE0007F800700
310
07F8001FFF80007FF000000000FFFFFF800000000FFFFFF80FFFFFFFFFFFFFC0
310
7FFFFFF0001FFFFFF8000FFFFFFFF8000FF8000FFFFFFFF8000FFF0003FFFFFF
310
FFFC000000007FFFF000F800000007FFFFFFC0007F8003000FF8001FFF80007F
310
F000000007FFFFFF000000007FFFFFF80FFFFFFFFFFFFFC07FFFFFF0001FFFFF
310
F8000FFFFFFFF8000FF8000FFFFFFFF8000FFF0003FFFFFFFFF80000000FFFFF
310
F000F0000000FFFFFFFFC000FF8003000FF8001FFF80007FE0000000FFFFFFFF
310
0000000FFFFFFFF8000001FFFE0000007FFFFFF0001FFFFFF8000FFFFFFFF800
310
0FF8000FFFFFFFF8000FFF0003FFFFFFFFF8000000FFFFFFF000F000000FFFFF
310
FFFFC000FFC002000FF8000FFF80007FE000001FFFFFFFFE000001FFFFFFFFF8
310
000001FFFE0000007FFFFFF0001FFFFFF8000FFFFFFFF8000FF8000FFFFFFFF8
310
000FFF0003FFFFFFFFF000001FFFFFFFF000E00000FFFFFFFFFFC000FFC00200
310
0FFC000FFF80007FE00001FFFFFFFFFE00001FFFFFFFFFF8000001FFFE000000
310
7FFFFFF0001FFFFFFC000FFFFFFFF8001FFC000FFFFFFFF8001FFF0003FFFFFF
310
FFF00001FFFFFFFFF000E00007FFFFFFFFFF8000FFC000001FFC000FFF80007F
310
C0000FFFFFFFFFFE0000FFFFFFFFFFF8000001FFFE0000007FFFFFF0001FFFFF
310
FC0007FFFFFFF0001FFC0007FFFFFFF0001FFF0003FFFFFFFFF00007FFFFFFFF
310
F000E0001FFFFFFFFFFF8000FFC000001FFC000FFF80007FC0003FFFFFFFFFFE
310
0001FFFFFFFFFFF8000001FFFE0000007FFFFFF0001FFFFFFC0007FFFFFFF000
310
1FFC0007FFFFFFF0001FFF0003FFFFFFFFF0001FFFFFFFFFF000E0003FFFFF00
310
03FF8001FFE000001FFC0007FF80007FC0007FFFFF0007FC0003FFFFF0003FF8
310
000001FFFE0000007FFFFFF0001FFFFFFC0003FFFFFFE0001FFC0003FFFFFFE0
310
001FFF0003FFFFFFFFF0003FFFFFFFFFF000E0003FFFFF0001FF8001FFE00000
310
1FFE0007FF80007FC0007FFFFE0003FC0007FFFFE0003FF8000001FFFE000000
310
7FFFFFF0001FFFFFFE0003FFFFFFE0003FFE0003FFFFFFE0003FFF0003FFFFFF
310
FFF0003FFFFF8001F000E0003FFFFF0001FF0001FFE000001FFE0007FF80007F
310
C0007FFFFE0003FC0007FFFFE0003FF8000001FFFE0000007FFFFFF0001FFFFF
310
FE0001FFFFFFC0003FFE0001FFFFFFC0003FFF0003FFFFFFFFF0003FFFFF0001
310
F000E0003FFFFF0003FF0001FFE000003FFE0007FF80007FC0007FFFFE0003FC
310
0007FFFFE0003FF8000001FFFE0000007FFFFFF0001FFFFFFF0001FFFFFFC000
310
7FFF0001FFFFFFC0007FFF0003FFFFFFFFF0003FFFFF0001F000E0003FFFFE00
310
03FF0003FFF000003FFE0003FF80007FC0007FFFFC0003FE0007FFFFE0003FF8
310
000001FFFE0000007FFFFFF0001FFFFFFF0000FFFFFF80007FFF0000FFFFFF80
310
007FFF0003FFFFFFFFF0003FFFFF0001F000E0003FFFFE0003FF0003FFF00000
310
3FFF0003FF80007FC0007FFFFC0007FE0007FFFFC0003FF8000001FFFE000000
310
7FFFFFF0001FFFFFFF80007FFFFF0000FFFF80007FFFFF0000FFFF0003FFFFFF
310
FFF0003FFFFF0003F000E0003FFFFC0003FE0003FFF000003FFF0003FF80007F
310
E0003FFFF80007FE0003FFFFC0007FF8000001FFFE0000007FFFFFF0001FFFFF
310
FF80003FFFFE0000FFFF80003FFFFE0000FFFF0003FFFFFFFFF0001FFFFE0003
310
F000F0001FFFF80003FE0003FFF000007FFF0001FF80007FE0003FFFF00007FE
310
0001FFFF80007FF8000001FFFE0000007FFFFFF0001FFFFFFFC0000FFFF80001
310
FFFFC0000FFFF80001FFFF0003FFFFFFFFF0001FFFFC0003F000F0000FFFF000
310
07FE0007FFF800007FFF0001FF80007FE0001FFFE00007FF0000FFFE00007FF8
310
000001FFFE0000007FFFFFF0001FFFFFFFC00003FFE00001FFFFC00003FFE000
310
01FFFF0003FFFFFFFFF8000FFFF80003F000F00003FFC00007FC0007FFF80000
310
7FFF8001FF80007FF00007FF80000FFF00007FF80000FFF8000001FFFE000000
310
7F80000000000001FFE000003E000003FFFFE000003E000003FFFF0003FFFFFF
310
FFF80003FFE00007F000F800000000000FFC0007FFF800007FFF8001FF80007F
310
F000000000000FFF000000000000FFF8000001FFFE0000007F80000000000001
310
FFF0000000000007FFFFF0000000000007FFFF0003FFFFFFFFFC00007E000007
310
F000F800000000000FFC0007FFF80000FFFF8000FF80007FF800000000001FFF
310
800000000001FFF8000001FFFE0000007F80000000000001FFF800000000000F
310
FFFFF800000000000FFFFF0003FFFFFFFFFC00000000000FF000FC0000000000
310
1FFC0007FFFC0000FFFF8000FF80007FF800000000003FFFC00000000001FFF8
310
000001FFFE0000007F80000000000001FFF800000000000FFFFFF80000000000
310
0FFFFF0003FFFFFFFFFE00000000001FF000FE00000000003FF8000FFFFC0000
310
FFFF8000FF80007FFC00000000003FFFC00000000003FFF8000001FFFE000000
310
7F80000000000001FFFC00000000001FFFFFFC00000000001FFFFF0003FFFFFF
310
FFFF00000000001FF000FF00000000003FF8000FFFFC0000FFFFC000FF80007F
310
FE00000000007FFFE00000000007FFF8000001FFFE0000007F80000000000001
310
FFFE00000000003FFFFFFE00000000003FFFFF0003FFFFFFFFFF80000000003F
310
F000FF80000000007FF8000FFFFC0001FFFFC0007F80007FFF0000000000FFFF
310
F0000000000FFFF800000000000000007F80000000000001FFFF8000000000FF
310
FFFFFF8000000000FFFFFF0003FFFFFFFFFFC0000000007FF000FFC000000000
310
FFF8000FFFFE0001FFFFC0007F80007FFF8000000001FFFFF8000000001FFFF8
310
00000000000000007F80000000000001FFFFC000000001FFFFFFFFC000000001
310
FFFFFF0003FFFFFFFFFFE000000000FFF000FFE000000003FFF0001FFFFE0001
310
FFFFC0007F80007FFFC000000007FFFFFE000000003FFFF80000000000000000
310
7F80000000000001FFFFE000000003FFFFFFFFE000000003FFFFFF0003FFFFFF
310
FFFFF000000003FFF000FFF80000000FFFF0001FFFFE0001FFFFE0007F80007F
310
FFF00000000FFFFFFF00000000FFFFF800000000000000007F80000000000001
310
FFFFF80000000FFFFFFFFFF80000000FFFFFFF0003FFFFFFFFFFFC0000000FFF
310
F000FFFE0000003FFFF0001FFFFE0003FFFFE0003F80007FFFFC0000003FFFFF
310
FFC0000003FFFFF800000000000000007F80000000000001FFFFFE0000003FFF
310
FFFFFFFE0000003FFFFFFF0003FFFFFFFFFFFF0000003FFFF000FFFF800000FF
310
FFF0001FFFFF0003FFFFE0003F80007FFFFF000001FFFFFFFFF800001FFFFFF8
310
00000000000000007F80000000000001FFFFFFC00001FFFFFFFFFFFFC00001FF
310
FFFFFF0003FFFFFFFFFFFFC00000FFFFF000FFFFF8000FFFFFFFFFFFFFFFFFFF
310
FFFFFFFFFFFFFFFFFFFFF0001FFFFFFFFFFF0000FFFFFFF80000000000000000
310
7FFFFFFFFFFFFFFFFFFFFFFC001FFFFFFFFFFFFFFC001FFFFFFFFFFFFFFFFFFF
310
FFFFFFFC001FFFFFF000FFFFFFFFFFFFFFFFFFFFFFFFFFFFFFFFFFFFFFFFFFFF
310
FFFFFFFFFFFFFFFFFFFFFFFFFFFFFFFFFFFFFFFFFFFFFFFFFFFFFFFFFFFFFFFF
310
FFFFFFFFFFFFFFFFFFFFFFFFFFFFFFFFFFFFFFFFFFFFFFFFFFFFFFFFFFFFFFFF
310
F000FFFFFFFFFFFFFFFFFFFFFFFFFFFFFFFFFFFFFFFFFFFFFFFFFFFFFFFFFFFF
310
FFFFFFFFFFFFFFFFFFFFFFFFFFFFFFFFFFFFFFFFFFFFFFFFFFFFFFFFFFFFFFFF
310
FFFFFFFFFFFFFFFFFFFFFFFFFFFFFFFFFFFFFFFFFFFFFFFFF000FFFFFFFFFFFF
310
FFFFFFFFFFFFFFFFFFFFFFFFFFFFFFFFFFFFFFFFFFFFFFFFFFFFFFFFFFFFFFFF
310
FFFFFFFFFFFFFFFFFFFFFFFFFFFFFFFFFFFFFFFFFFFFFFFFFFFFFFFFFFFFFFFF
310
FFFFFFFFFFFFFFFFFFFFFFFFFFFFFFFFF000FFFFFFFFFFFFFFFFFFFFFFFFFFFF
310
FFFFFFFFFFFFFFFFFFFFFFFFFFFFFFFFFFFFFFFFFFFFFFFFFFFFFFFFFFFFFFFF
310
FFFFFFFFFFFFFFFFFFFFFFFFFFFFFFFFFFFFFFFFFFFFFFFFFFFFFFFFFFFFFFFF
310
FFFFFFFFFFFFFFFFF000FFFFFFFFFFFFFFFFFFFFFFFFFFFFFFFFFFFFFFFFFFFF
310
FFFFFFFFFFFFFFFFFFFFFFFFFFFFFFFFFFFFFFFFFFFFFFFFFFFFFFFFFFFFFFFF
310
FFFFFFFFFFFFFFFFFFFFFFFFFFFFFFFFFFFFFFFFFFFFFFFFFFFFFFFFFFFFFFFF
310
F000FFFFFFFFFFFFFFFFFFFFFFFFFFFFFFFFFFFFFFFFFFFFFFFFFFFFFFFFFFFF
310
FFFFFFFFFFFFFFFFFFFFFFFFFFFFFFFFFFFFFFFFFFFFFFFFFFFFFFFFFFFFFFFF
310
FFFFFFFFFFFFFFFFFFFFFFFFFFFFFFFFFFFFFFFFFFFFFFFFF000FFFFFFFFFFFF
310
FFFFFFFFFFFFFFFFFFFFFFFFFFFFFFFFFFFFFFFFFFFFFFFFFFFFFFFFFFFFFFFF
310
FFFFFFFFFFFFFFFFFFFFFFFFFFFFFFFFFFFFFFFFFFFFFFFFFFFFFFFFFFFFFFFF
310
FFFFFFFFFFFFFFFFFFFFFFFFFFFFFFFFF000FFFFFFFFFFFFFFFFFFFFFFFFFFFF
310
FFFFFFFFFFFFFFFFFFFFFFFFFFFFFFFFFFFFFFFFFFFFFFFFFFFFFFFFFFFFFFFF
310
FFFFFFFFFFFFFFFFFFFFFFFFFFFFFFFFFFFFFFFFFFFFFFFFFFFFFFFFFFFFFFFF
310
FFFFFFFFFFFFFFFFF000FFFFFFFFFFFFFFFFFFFFFFFFFFFFFFFFFFFFFFFFFFFF
310
FFFFFFFFFFFFFFFFFFFFFFFFFFFFFFFFFFFFFFFFFFFFFFFFFFFFFFFFFFFFFFFF
310
FFFFFFFFFFFFFFFFFFFFFFFFFFFFFFFFFFFFFFFFFFFFFFFFFFFFFFFFFFFFFFFF
310
F000FFFFFFFFFFFFFFFFFFFFFFFFFFFFFFFFFFFFFFFFFFFFFFFFFFFFFFFFFFFF
310
FFFFFFFFFFFFFFFFFFFFFFFFFFFFFFFFFFFFFFFFFFFFFFFFFFFFFFFFFFFFFFFF
310
FFFFFFFFFFFFFFFFFFFFFFFFFFFFFFFFFFFFFFFFFFFFFFFFF000FFFFFFFFFFFF
310
FFFFFFFFFFFFFFFFFFFFFFFFFFFFFFFFFFFFFFFFFFFFFFFFFFFFFFFFFFFFFFFF
310
FFFFFFFFFFFFFFFFFFFFFFFFFFFFFFFFFFFFFFFFFFFFFFFFFFFFFFFFFFFFFFFF
310
FFFFFFFFFFFFFFFFFFFFFFFFFFFFFFFFF000FFFFFFFFFFFFFFFFFFFFFFFFFFFF
310
FFFFFFFFFFFFFFFFFFFFFFFFFFFFFFFFFFFFFFFFFFFFFFFFFFFFFFFFFFFFFFFF
310
FFFFFFFFFFFFFFFFFFFFFFFFFFFFFFFFFFFFFFFFFFFFFFFFFFFFFFFFFFFFFFFF
310
FFFFFFFFFFFFFFFFF000FFFFFFFFFFFFFFFFFFFFFFFFFFFFFFFFFFFFFFFFFFFF
310
FFFFFFFFFFFFFFFFFFFFFFFFFFFFFFFFFFFFFFFFFFFFFFFFFFFFFFFFFFFFFFFF
310
FFFFFFFFFFFFFFFFFFFFFFFFFFFFFFFFFFFFFFFFFFFFFFFFFFFFFFFFFFFFFFFF
310
F000FFFFFFFFFFFFFFFFFFFFFFFFFFFFFFFFFFFFFFFFFFFFFFFFFFFFFFFFFFFF
310
FFFFFFFFFFFFFFFFFFFFFFFFFFFFFFFFFFFFFFFFFFFFFFFFFFFFFFFFFFFFFFFF
310
FFFFFFFFFFFFFFFFFFFFFFFFFFFFFFFFFFFFFFFFFFFFFFFFF000FFFFFFFFFFFF
310
FFFFFFFFFFFFFFFFFFFFFFFFFFFFFFFFFFFFFFFFFFFFFFFFFFFFFFFFFFFFFFFF
310
FFFFFFFFFFFFFFFFFFFFFFFFFFFFFFFFFFFFFFFFFFFFFFFFFFFFFFFFFFFFFFFF
310
FFFFFFFFFFFFFFFFFFFFFFFFFFFFFFFFF000FFFFFFFFFFFFFFFFFFFFFFFFFFFF
310
FFFFFFFFFFFFFFFFFFFFFFFFFFFFFFFFFFFFFFFFFFFFFFFFFFFFFFFFFFFFFFFF
310
FFFFFFFFFFFFFFFFFFFFFFFFFFFFFFFFFFFFFFFFFFFFFFFFFFFFFFFFFFFFFFFF
310
FFFFFFFFFFFFFFFFF000FFFFFFFFFFFFFFFFFFFFFFFFFFFFFFFFFFFFFFFFFFFF
310
FFFFFFFFFFFFFFFFFFFFFFFFFFFFFFFFFFFFFFFFFFFFFFFFFFFFFFFFFFFFFFFF
310
FFFFFFFFFFFFFFFFFFFFFFFFFFFFFFFFFFFFFFFFFFFFFFFFFFFFFFFFFFFFFFFF
310
F000FFFFFFFFFFFFFFFFFFFFFFFFFFFFFFFFFFFFFFFFFFFFFFFFFFFFFFFFFFFF
310
FFFFFFFFFFFFFFFFFFFFFFFFFFFFFFFFFFFFFFFFFFFFFFFFFFFFFFFFFFFFFFFF
310
FFFFFFFFFFFFFFFFFFFFFFFFFFFFFFFFFFFFFFFFFFFFFFFFF000FFFFFFFFFFFF
310
FFFFFFFFFFFFFFFFFFFFFFFFFFFFFFFFFFFFFFFFFFFFFFFFFFFFFFFFFFFFFFFF
310
FFFFFFFFFFFFFFFFFFFFFFFFFFFFFFFFFFFFFFFFFFFFFFFFFFFFFFFFFFFFFFFF
310
FFFFFFFFFFFFFFFFFFFFFFFFFFFFFFFFF000FFFFFFFFFFFFFFFFFFFFFFFFFFFF
310
FFFFFFFFFFFFFFFFFFFFFFFFFFFFFFFFFFFFFFFFFFFFFFFFFFFFFFFFFFFFFFFF
310
FFFFFFFFFFFFFFFFFFFFFFFFFFFFFFFFFFFFFFFFFFFFFFFFFFFFFFFFFFFFFFFF
310
FFFFFFFFFFFFFFFFF000FFFFFFFFFFFFFFFFFFFFFFFFFFFFFFFFFFFFFFFFFFFF
310
FFFFFFFFFFFFFFFFFFFFFFFFFFFFFFFFFFFFFFFFFFFFFFFFFFFFFFFFFFFFFFFF
310
FFFFFFFFFFFFFFFFFFFFFFFFFFFFFFFFFFFFFFFFFFFFFFFFFFFFFFFFFFFFFFFF
310
F000FFFFFFFFFFFFFFFFFFFFFFFFFFFFFFFFFFFFFFFFFFFFFFFFFFFFFFFFFFFF
310
FFFFFFFFFFFFFFFFFFFFFFFFFFFFFFFFFFFFFFFFFFFFFFFFFFFFFFFFFFFFFFFF
310
FFFFFFFFFFFFFFFFFFFFFFFFFFFFFFFFFFFFFFFFFFFFFFFFF000FFFFFFFFFFFF
310
FFFFFFFFFFFFFFFFFFFFFFFFFFFFFFFFFFFFFFFFFFFFFFFFFFFFFFFFFFFFFFFF
310
FFFFFFFFFFFFFFFFFFFFFFFFFFFFFFFFFFFFFFFFFFFFFFFFFFFFFFFFFFFFFFFF
310
FFFFFFFFFFFFFFFFFFFFFFFFFFFFFFFFF0000000000000000000000000000000
310
0000000000000000000000000000000000000000000000000000000000000000
310
0000000000000000000000000000000000000000000000000000000000000000
310
0000000000000000000000000000000000000000000000000000000000000000
310
0000000000000000000000000000000000000000000000000000000000000000
310
0000000000000000000000000000000000000000000000000000000000000000
310
0000000000000000000000000000000000000000000000000000000000000000
310
0000000000000000000000000000000000000000000000000000000000000000
310
0000000000000000000000000000000000000000000000000000000000000000
310
0000000000000000000000000000000000000000000000000000000000000000
310
0000000000000000000000000000000000000000000000000000000000000000
310
0000000000000000000000000000000000000000000000000000000000000000
310
0000000000000000000000000000000000000000000000000000000000000000
310
0000000000000000000000000000000000000000000000000000000000000000
310
0000000000000000000000000000000000000000000000000000000000000000
310
0000000000000000000000000000000000000000000000000000000000000000
  1
OLE
  0
ENDSEC
  0
SECTION
  2
OBJECTS
  0
DICTIONARY
  5
C
330
0
100
AcDbDictionary
281
     1
  3
ACAD_GROUP
350
D
  3
ACAD_LAYOUT
350
1A
  3
ACAD_MLINESTYLE
350
17
  3
ACAD_PLOTSETTINGS
350
19
  3
ACAD_PLOTSTYLENAME
350
E
  3
ACAD_SCALELIST
350
47
  0
DICTIONARY
  5
D
102
{ACAD_REACTORS
330
C
102
}
330
C
100
AcDbDictionary
281
     1
  0
DICTIONARY
  5
1A
102
{ACAD_REACTORS
330
C
102
}
330
C
100
AcDbDictionary
281
     1
  3
Layout1
350
1E
  3
Layout2
350
26
  3
Model
350
22
  0
DICTIONARY
  5
17
102
{ACAD_REACTORS
330
C
102
}
330
C
100
AcDbDictionary
281
     1
  3
Standard
350
18
  0
DICTIONARY
  5
19
102
{ACAD_REACTORS
330
C
102
}
330
C
100
AcDbDictionary
281
     1
  0
ACDBDICTIONARYWDFLT
  5
E
102
{ACAD_REACTORS
330
C
102
}
330
C
100
AcDbDictionary
281
     1
  3
Normal
350
F
100
AcDbDictionaryWithDefault
340
F
  0
DICTIONARY
  5
47
102
{ACAD_REACTORS
330
C
102
}
330
C
100
AcDbDictionary
281
     1
  3
A0
350
48
  3
A1
350
49
  3
A2
350
4A
  3
A3
350
4B
  3
A4
350
4C
  3
A5
350
4D
  3
A6
350
4E
  3
A7
350
4F
  3
A8
350
50
  3
A9
350
51
  3
B0
350
52
  3
B1
350
53
  3
B2
350
54
  3
B3
350
55
  3
B4
350
56
  3
B5
350
57
  3
B6
350
58
  3
B7
350
59
  3
B8
350
5A
  3
B9
350
5B
  3
C0
350
5C
  3
C1
350
5D
  3
C2
350
5E
  3
C3
350
5F
  3
C4
350
60
  3
C5
350
61
  3
C6
350
62
  3
C7
350
63
  3
C8
350
64
  3
C9
350
65
  3
D0
350
66
  3
D1
350
67
  3
D2
350
68
  0
LAYOUT
  5
1E
102
{ACAD_REACTORS
330
1A
102
}
330
1A
100
AcDbPlotSettings
  1

  2
none_device
  4

  6

 40
0.0
 41
0.0
 42
0.0
 43
0.0
 44
0.0
 45
0.0
 46
0.0
 47
0.0
 48
0.0
 49
0.0
140
0.0
141
0.0
142
1.0
143
1.0
 70
   688
 72
     1
 73
     0
 74
     5
  7

 75
    16
147
1.0
148
0.0
149
0.0
100
AcDbLayout
  1
Layout1
 70
     1
 71
     1
 10
0.0
 20
0.0
 11
420.0
 21
297.0
 12
0.0
 22
0.0
 32
0.0
 14
1.0000000000E+20
 24
1.0000000000E+20
 34
1.0000000000E+20
 15
-1.0000000000E+20
 25
-1.0000000000E+20
 35
-1.0000000000E+20
146
0.0
 13
0.0
 23
0.0
 33
0.0
 16
1.0
 26
0.0
 36
0.0
 17
0.0
 27
1.0
 37
0.0
 76
     0
330
1B
  0
LAYOUT
  5
26
102
{ACAD_REACTORS
330
1A
102
}
330
1A
100
AcDbPlotSettings
  1

  2
none_device
  4

  6

 40
0.0
 41
0.0
 42
0.0
 43
0.0
 44
0.0
 45
0.0
 46
0.0
 47
0.0
 48
0.0
 49
0.0
140
0.0
141
0.0
142
1.0
143
1.0
 70
   688
 72
     1
 73
     0
 74
     5
  7

 75
    16
147
1.0
148
0.0
149
0.0
100
AcDbLayout
  1
Layout2
 70
     1
 71
     2
 10
0.0
 20
0.0
 11
0.0
 21
0.0
 12
0.0
 22
0.0
 32
0.0
 14
0.0
 24
0.0
 34
0.0
 15
0.0
 25
0.0
 35
0.0
146
0.0
 13
0.0
 23
0.0
 33
0.0
 16
1.0
 26
0.0
 36
0.0
 17
0.0
 27
1.0
 37
0.0
 76
     0
330
23
  0
LAYOUT
  5
22
102
{ACAD_REACTORS
330
1A
102
}
330
1A
100
AcDbPlotSettings
  1

  2
none_device
  4
Letter_(8.50_x_11.00_Inches)
  6

 40
6.35
 41
6.35
 42
6.35000508
 43
6.35000508
 44
215.9
 45
279.4
 46
0.0
 47
0.0
 48
0.0
 49
0.0
140
0.0
141
0.0
142
1.0
143
1.0
 70
  1712
 72
     1
 73
     0
 74
     0
  7

 75
     0
147
1.0
148
0.0
149
0.0
100
AcDbLayout
  1
Model
 70
     1
 71
     0
 10
0.0
 20
0.0
 11
297.0
 21
210.0
 12
0.0
 22
0.0
 32
0.0
 14
0.0
 24
0.0
 34
0.0
 15
297.0
 25
210.0
 35
0.0
146
0.0
 13
0.0
 23
0.0
 33
0.0
 16
1.0
 26
0.0
 36
0.0
 17
0.0
 27
1.0
 37
0.0
 76
     0
330
1F
331
29
  0
MLINESTYLE
  5
18
102
{ACAD_REACTORS
330
17
102
}
330
17
100
AcDbMlineStyle
  2
Standard
 70
     0
  3

 62
   256
 51
90.0
 52
90.0
 71
     2
 49
0.5
 62
   256
  6
BYLAYER
 49
-0.5
 62
   256
  6
BYLAYER
  0
ACDBPLACEHOLDER
  5
F
102
{ACAD_REACTORS
330
E
102
}
330
E
  0
SCALE
  5
48
102
{ACAD_REACTORS
330
47
102
}
330
47
100
AcDbScale
 70
     0
300
1:1
140
1.0
141
1.0
290
     1
  0
SCALE
  5
49
102
{ACAD_REACTORS
330
47
102
}
330
47
100
AcDbScale
 70
     0
300
1:2
140
1.0
141
2.0
290
     0
  0
SCALE
  5
4A
102
{ACAD_REACTORS
330
47
102
}
330
47
100
AcDbScale
 70
     0
300
1:4
140
1.0
141
4.0
290
     0
  0
SCALE
  5
4B
102
{ACAD_REACTORS
330
47
102
}
330
47
100
AcDbScale
 70
     0
300
1:5
140
1.0
141
5.0
290
     0
  0
SCALE
  5
4C
102
{ACAD_REACTORS
330
47
102
}
330
47
100
AcDbScale
 70
     0
300
1:8
140
1.0
141
8.0
290
     0
  0
SCALE
  5
4D
102
{ACAD_REACTORS
330
47
102
}
330
47
100
AcDbScale
 70
     0
300
1:10
140
1.0
141
10.0
290
     0
  0
SCALE
  5
4E
102
{ACAD_REACTORS
330
47
102
}
330
47
100
AcDbScale
 70
     0
300
1:16
140
1.0
141
16.0
290
     0
  0
SCALE
  5
4F
102
{ACAD_REACTORS
330
47
102
}
330
47
100
AcDbScale
 70
     0
300
1:20
140
1.0
141
20.0
290
     0
  0
SCALE
  5
50
102
{ACAD_REACTORS
330
47
102
}
330
47
100
AcDbScale
 70
     0
300
1:30
140
1.0
141
30.0
290
     0
  0
SCALE
  5
51
102
{ACAD_REACTORS
330
47
102
}
330
47
100
AcDbScale
 70
     0
300
1:40
140
1.0
141
40.0
290
     0
  0
SCALE
  5
52
102
{ACAD_REACTORS
330
47
102
}
330
47
100
AcDbScale
 70
     0
300
1:50
140
1.0
141
50.0
290
     0
  0
SCALE
  5
53
102
{ACAD_REACTORS
330
47
102
}
330
47
100
AcDbScale
 70
     0
300
1:100
140
1.0
141
100.0
290
     0
  0
SCALE
  5
54
102
{ACAD_REACTORS
330
47
102
}
330
47
100
AcDbScale
 70
     0
300
2:1
140
2.0
141
1.0
290
     0
  0
SCALE
  5
55
102
{ACAD_REACTORS
330
47
102
}
330
47
100
AcDbScale
 70
     0
300
4:1
140
4.0
141
1.0
290
     0
  0
SCALE
  5
56
102
{ACAD_REACTORS
330
47
102
}
330
47
100
AcDbScale
 70
     0
300
8:1
140
8.0
141
1.0
290
     0
  0
SCALE
  5
57
102
{ACAD_REACTORS
330
47
102
}
330
47
100
AcDbScale
 70
     0
300
10:1
140
10.0
141
1.0
290
     0
  0
SCALE
  5
58
102
{ACAD_REACTORS
330
47
102
}
330
47
100
AcDbScale
 70
     0
300
100:1
140
100.0
141
1.0
290
     0
  0
SCALE
  5
59
102
{ACAD_REACTORS
330
47
102
}
330
47
100
AcDbScale
 70
     0
300
1/128" = 1'-0"
140
0.0078125
141
12.0
290
     0
  0
SCALE
  5
5A
102
{ACAD_REACTORS
330
47
102
}
330
47
100
AcDbScale
 70
     0
300
1/64" = 1'-0"
140
0.015625
141
12.0
290
     0
  0
SCALE
  5
5B
102
{ACAD_REACTORS
330
47
102
}
330
47
100
AcDbScale
 70
     0
300
1/32" = 1'-0"
140
0.03125
141
12.0
290
     0
  0
SCALE
  5
5C
102
{ACAD_REACTORS
330
47
102
}
330
47
100
AcDbScale
 70
     0
300
1/16" = 1'-0"
140
0.0625
141
12.0
290
     0
  0
SCALE
  5
5D
102
{ACAD_REACTORS
330
47
102
}
330
47
100
AcDbScale
 70
     0
300
3/32" = 1'-0"
140
0.09375
141
12.0
290
     0
  0
SCALE
  5
5E
102
{ACAD_REACTORS
330
47
102
}
330
47
100
AcDbScale
 70
     0
300
1/8" = 1'-0"
140
0.125
141
12.0
290
     0
  0
SCALE
  5
5F
102
{ACAD_REACTORS
330
47
102
}
330
47
100
AcDbScale
 70
     0
300
3/16" = 1'-0"
140
0.1875
141
12.0
290
     0
  0
SCALE
  5
60
102
{ACAD_REACTORS
330
47
102
}
330
47
100
AcDbScale
 70
     0
300
1/4" = 1'-0"
140
0.25
141
12.0
290
     0
  0
SCALE
  5
61
102
{ACAD_REACTORS
330
47
102
}
330
47
100
AcDbScale
 70
     0
300
3/8" = 1'-0"
140
0.375
141
12.0
290
     0
  0
SCALE
  5
62
102
{ACAD_REACTORS
330
47
102
}
330
47
100
AcDbScale
 70
     0
300
1/2" = 1'-0"
140
0.5
141
12.0
290
     0
  0
SCALE
  5
63
102
{ACAD_REACTORS
330
47
102
}
330
47
100
AcDbScale
 70
     0
300
3/4" = 1'-0"
140
0.75
141
12.0
290
     0
  0
SCALE
  5
64
102
{ACAD_REACTORS
330
47
102
}
330
47
100
AcDbScale
 70
     0
300
1" = 1'-0"
140
1.0
141
12.0
290
     0
  0
SCALE
  5
65
102
{ACAD_REACTORS
330
47
102
}
330
47
100
AcDbScale
 70
     0
300
1-1/2" = 1'-0"
140
1.5
141
12.0
290
     0
  0
SCALE
  5
66
102
{ACAD_REACTORS
330
47
102
}
330
47
100
AcDbScale
 70
     0
300
3" = 1'-0"
140
3.0
141
12.0
290
     0
  0
SCALE
  5
67
102
{ACAD_REACTORS
330
47
102
}
330
47
100
AcDbScale
 70
     0
300
6" = 1'-0"
140
6.0
141
12.0
290
     0
  0
SCALE
  5
68
102
{ACAD_REACTORS
330
47
102
}
330
47
100
AcDbScale
 70
     0
300
1'-0" = 1'-0"
140
12.0
141
12.0
290
     0
  0
ENDSEC
  0
EOF
