  0
SECTION
  2
HEADER
  9
$ACADVER
  1
AC1015
  9
$ACADMAINTVER
 70
     6
  9
$DWGCODEPAGE
  3
ANSI_1252
  9
$INSBASE
 10
0.0
 20
0.0
 30
0.0
  9
$EXTMIN
 10
0.0
 20
0.0
 30
0.0
  9
$EXTMAX
 10
297.0
 20
210.0
 30
0.0
  9
$LIMMIN
 10
0.0
 20
0.0
  9
$LIMMAX
 10
297.0
 20
210.0
  9
$ORTHOMODE
 70
     0
  9
$REGENMODE
 70
     1
  9
$FILLMODE
 70
     1
  9
$QTEXTMODE
 70
     0
  9
$MIRRTEXT
 70
     1
  9
$LTSCALE
 40
1.0
  9
$ATTMODE
 70
     1
  9
$TEXTSIZE
 40
2.0
  9
$TRACEWID
 40
1.0
  9
$TEXTSTYLE
  7
Standard
  9
$CLAYER
  8
0
  9
$CELTYPE
  6
ByLayer
  9
$CECOLOR
 62
   256
  9
$CELTSCALE
 40
1.0
  9
$DISPSILH
 70
     0
  9
$DIMSCALE
 40
1.0
  9
$DIMASZ
 40
3.0
  9
$DIMEXO
 40
0.0
  9
$DIMDLI
 40
3.75
  9
$DIMRND
 40
0.0
  9
$DIMDLE
 40
0.0
  9
$DIMEXE
 40
1.0
  9
$DIMTP
 40
0.0
  9
$DIMTM
 40
0.0
  9
$DIMTXT
 40
2.0
  9
$DIMCEN
 40
2.5
  9
$DIMTSZ
 40
0.0
  9
$DIMTOL
 70
     0
  9
$DIMLIM
 70
     0
  9
$DIMTIH
 70
     1
  9
$DIMTOH
 70
     1
  9
$DIMSE1
 70
     0
  9
$DIMSE2
 70
     0
  9
$DIMTAD
 70
     1
  9
$DIMZIN
 70
     0
  9
$DIMBLK
  1

  9
$DIMASO
 70
     1
  9
$DIMSHO
 70
     1
  9
$DIMPOST
  1

  9
$DIMAPOST
  1

  9
$DIMALT
 70
     0
  9
$DIMALTD
 70
     3
  9
$DIMALTF
 40
0.0393700787
  9
$DIMLFAC
 40
1.0
  9
$DIMTOFL
 70
     1
  9
$DIMTVP
 40
0.0
  9
$DIMTIX
 70
     0
  9
$DIMSOXD
 70
     0
  9
$DIMSAH
 70
     0
  9
$DIMBLK1
  1

  9
$DIMBLK2
  1

  9
$DIMSTYLE
  2
ISO-25
  9
$DIMCLRD
 70
     0
  9
$DIMCLRE
 70
     0
  9
$DIMCLRT
 70
     0
  9
$DIMTFAC
 40
1.0
  9
$DIMGAP
 40
1.524
  9
$DIMJUST
 70
     0
  9
$DIMSD1
 70
     0
  9
$DIMSD2
 70
     0
  9
$DIMTOLJ
 70
     0
  9
$DIMTZIN
 70
     0
  9
$DIMALTZ
 70
     0
  9
$DIMALTTZ
 70
     0
  9
$DIMUPT
 70
     0
  9
$DIMDEC
 70
     2
  9
$DIMTDEC
 70
     3
  9
$DIMALTU
 70
     2
  9
$DIMALTTD
 70
     3
  9
$DIMTXSTY
  7
Standard
  9
$DIMAUNIT
 70
     0
  9
$DIMADEC
 70
     2
  9
$DIMALTRND
 40
0.0
  9
$DIMAZIN
 70
     0
  9
$DIMDSEP
 70
    44
  9
$DIMATFIT
 70
     3
  9
$DIMFRAC
 70
     0
  9
$DIMLDRBLK
  1

  9
$DIMLUNIT
 70
     2
  9
$DIMLWD
 70
    -2
  9
$DIMLWE
 70
    -2
  9
$DIMTMOVE
 70
     0
  9
$LUNITS
 70
     2
  9
$LUPREC
 70
     2
  9
$SKETCHINC
 40
1.0
  9
$FILLETRAD
 40
10.0
  9
$AUNITS
 70
     0
  9
$AUPREC
 70
     2
  9
$MENU
  1
.
  9
$ELEVATION
 40
0.0
  9
$PELEVATION
 40
0.0
  9
$THICKNESS
 40
0.0
  9
$LIMCHECK
 70
     0
  9
$CHAMFERA
 40
0.0
  9
$CHAMFERB
 40
0.0
  9
$CHAMFERC
 40
0.0
  9
$CHAMFERD
 40
0.0
  9
$SKPOLY
 70
     0
  9
$TDCREATE
 40
2457662.61483434
  9
$TDUCREATE
 40
2457662.531501007
  9
$TDUPDATE
 40
2457662.614835428
  9
$TDUUPDATE
 40
2457662.531502095
  9
$TDINDWG
 40
0.0000000116
  9
$TDUSRTIMER
 40
0.0000000116
  9
$USRTIMER
 70
     1
  9
$ANGBASE
 50
0.0
  9
$ANGDIR
 70
     0
  9
$PDMODE
 70
     0
  9
$PDSIZE
 40
-1.0
  9
$PLINEWID
 40
0.0
  9
$SPLFRAME
 70
     0
  9
$SPLINETYPE
 70
     6
  9
$SPLINESEGS
 70
     8
  9
$HANDSEED
  5
203
  9
$SURFTAB1
 70
     6
  9
$SURFTAB2
 70
     6
  9
$SURFTYPE
 70
     6
  9
$SURFU
 70
     6
  9
$SURFV
 70
     6
  9
$UCSBASE
  2

  9
$UCSNAME
  2

  9
$UCSORG
 10
0.0
 20
0.0
 30
0.0
  9
$UCSXDIR
 10
1.0
 20
0.0
 30
0.0
  9
$UCSYDIR
 10
0.0
 20
1.0
 30
0.0
  9
$UCSORTHOREF
  2

  9
$UCSORTHOVIEW
 70
     0
  9
$UCSORGTOP
 10
0.0
 20
0.0
 30
0.0
  9
$UCSORGBOTTOM
 10
0.0
 20
0.0
 30
0.0
  9
$UCSORGLEFT
 10
0.0
 20
0.0
 30
0.0
  9
$UCSORGRIGHT
 10
0.0
 20
0.0
 30
0.0
  9
$UCSORGFRONT
 10
0.0
 20
0.0
 30
0.0
  9
$UCSORGBACK
 10
0.0
 20
0.0
 30
0.0
  9
$PUCSBASE
  2

  9
$PUCSNAME
  2

  9
$PUCSORG
 10
0.0
 20
0.0
 30
0.0
  9
$PUCSXDIR
 10
1.0
 20
0.0
 30
0.0
  9
$PUCSYDIR
 10
0.0
 20
1.0
 30
0.0
  9
$PUCSORTHOREF
  2

  9
$PUCSORTHOVIEW
 70
     0
  9
$PUCSORGTOP
 10
0.0
 20
0.0
 30
0.0
  9
$PUCSORGBOTTOM
 10
0.0
 20
0.0
 30
0.0
  9
$PUCSORGLEFT
 10
0.0
 20
0.0
 30
0.0
  9
$PUCSORGRIGHT
 10
0.0
 20
0.0
 30
0.0
  9
$PUCSORGFRONT
 10
0.0
 20
0.0
 30
0.0
  9
$PUCSORGBACK
 10
0.0
 20
0.0
 30
0.0
  9
$USERI1
 70
     0
  9
$USERI2
 70
     0
  9
$USERI3
 70
     0
  9
$USERI4
 70
     0
  9
$USERI5
 70
     0
  9
$USERR1
 40
0.0
  9
$USERR2
 40
0.0
  9
$USERR3
 40
0.0
  9
$USERR4
 40
0.0
  9
$USERR5
 40
0.0
  9
$WORLDVIEW
 70
     1
  9
$SHADEDGE
 70
     3
  9
$SHADEDIF
 70
    70
  9
$TILEMODE
 70
     1
  9
$MAXACTVP
 70
    64
  9
$PINSBASE
 10
0.0
 20
0.0
 30
0.0
  9
$PLIMCHECK
 70
     0
  9
$PEXTMIN
 10
1.0000000000E+20
 20
1.0000000000E+20
 30
1.0000000000E+20
  9
$PEXTMAX
 10
-1.0000000000E+20
 20
-1.0000000000E+20
 30
-1.0000000000E+20
  9
$PLIMMIN
 10
0.0
 20
0.0
  9
$PLIMMAX
 10
420.0
 20
297.0
  9
$UNITMODE
 70
     0
  9
$VISRETAIN
 70
     1
  9
$PLINEGEN
 70
     0
  9
$PSLTSCALE
 70
     1
  9
$TREEDEPTH
 70
  3020
  9
$CMLSTYLE
  2
Standard
  9
$CMLJUST
 70
     0
  9
$CMLSCALE
 40
20.0
  9
$PROXYGRAPHICS
 70
     1
  9
$MEASUREMENT
 70
     1
  9
$CELWEIGHT
370
    -1
  9
$ENDCAPS
280
     0
  9
$JOINSTYLE
280
     0
  9
$LWDISPLAY
290
     1
  9
$INSUNITS
 70
     4
  9
$HYPERLINKBASE
  1

  9
$STYLESHEET
  1

  9
$XEDIT
290
     1
  9
$CEPSNTYPE
380
     0
  9
$PSTYLEMODE
290
     1
  9
$FINGERPRINTGUID
  2
{B4AE16AA-2DDE-4262-BD91-5ABF2E15F938}
  9
$VERSIONGUID
  2
{FAEB1C32-E019-11D5-929B-00C0DF256EC4}
  9
$EXTNAMES
290
     1
  9
$PSVPSCALE
 40
0.0
  9
$OLESTARTUP
290
     0
  0
ENDSEC
  0
SECTION
  2
CLASSES
  0
CLASS
  1
ACDBDICTIONARYWDFLT
  2
AcDbDictionaryWithDefault
  3
ObjectDBX Classes
 90
        0
280
     0
281
     0
  0
CLASS
  1
VISUALSTYLE
  2
AcDbVisualStyle
  3
ObjectDBX Classes
 90
     4095
280
     0
281
     0
  0
CLASS
  1
MATERIAL
  2
AcDbMaterial
  3
ObjectDBX Classes
 90
     1153
280
     0
281
     0
  0
CLASS
  1
SCALE
  2
AcDbScale
  3
ObjectDBX Classes
 90
     1153
280
     0
281
     0
  0
CLASS
  1
TABLESTYLE
  2
AcDbTableStyle
  3
ObjectDBX Classes
 90
     4095
280
     0
281
     0
  0
CLASS
  1
MLEADERSTYLE
  2
AcDbMLeaderStyle
  3
ACDB_MLEADERSTYLE_CLASS
 90
     4095
280
     0
281
     0
  0
CLASS
  1
SUN
  2
AcDbSun
  3
SCENEOE
 90
     1153
280
     0
281
     0
  0
CLASS
  1
ACDBPLACEHOLDER
  2
AcDbPlaceHolder
  3
ObjectDBX Classes
 90
        0
280
     0
281
     0
  0
CLASS
  1
LAYOUT
  2
AcDbLayout
  3
ObjectDBX Classes
 90
        0
280
     0
281
     0
  0
ENDSEC
  0
SECTION
  2
TABLES
  0
TABLE
  2
VPORT
  5
8
330
0
100
AcDbSymbolTable
 70
     1
  0
VPORT
  5
29
330
8
100
AcDbSymbolTableRecord
100
AcDbViewportTableRecord
  2
*Active
 70
     0
 10
0.0
 20
0.0
 11
1.0
 21
1.0
 12
148.5
 22
105.0
 13
0.0
 23
0.0
 14
10.0
 24
10.0
 15
10.0
 25
10.0
 16
0.0
 26
0.0
 36
1.0
 17
0.0
 27
0.0
 37
0.0
 40
210.0
 41
1.4142857143
 42
50.0
 43
0.0
 44
0.0
 50
0.0
 51
0.0
 71
     0
 72
  2000
 73
     1
 74
     3
 75
     0
 76
     0
 77
     0
 78
     0
281
     0
 65
     1
110
0.0
120
0.0
130
0.0
111
1.0
121
0.0
131
0.0
112
0.0
122
1.0
132
0.0
 79
     0
146
0.0
  0
ENDTAB
  0
TABLE
  2
LTYPE
  5
5
330
0
100
AcDbSymbolTable
 70
     6
  0
LTYPE
  5
14
330
5
100
AcDbSymbolTableRecord
100
AcDbLinetypeTableRecord
  2
ByBlock
 70
     0
  3

 72
    65
 73
     0
 40
0.0
  0
LTYPE
  5
15
330
5
100
AcDbSymbolTableRecord
100
AcDbLinetypeTableRecord
  2
ByLayer
 70
     0
  3

 72
    65
 73
     0
 40
0.0
  0
LTYPE
  5
16
330
5
100
AcDbSymbolTableRecord
100
AcDbLinetypeTableRecord
  2
Continuous
 70
     0
  3
Solid line
 72
    65
 73
     0
 40
0.0
  0
LTYPE
  5
6E
330
5
100
AcDbSymbolTableRecord
100
AcDbLinetypeTableRecord
  2
HIDDEN
 70
     0
  3
Hidden __ __ __ __ __ __ __ __ __ __ __ __ __ __
 72
    65
 73
     2
 40
1.905
 49
1.27
 74
     0
 49
-0.635
 74
     0
  0
LTYPE
  5
6F
330
5
100
AcDbSymbolTableRecord
100
AcDbLinetypeTableRecord
  2
PHANTOM
 70
     0
  3
Phantom ______  __  __  ______  __  __  ______
 72
    65
 73
     6
 40
12.7
 49
6.35
 74
     0
 49
-1.27
 74
     0
 49
1.27
 74
     0
 49
-1.27
 74
     0
 49
1.27
 74
     0
 49
-1.27
 74
     0
  0
LTYPE
  5
70
330
5
100
AcDbSymbolTableRecord
100
AcDbLinetypeTableRecord
  2
CENTER
 70
     0
  3
Center ____ _ ____ _ ____ _ ____ _ ____ _ ____
 72
    65
 73
     4
 40
10.16
 49
6.35
 74
     0
 49
-1.27
 74
     0
 49
1.27
 74
     0
 49
-1.27
 74
     0
  0
LTYPE
  5
71
330
5
100
AcDbSymbolTableRecord
100
AcDbLinetypeTableRecord
  2
CENTERX2
 70
     0
  3
Center (2x) ________  __  ________  __  _____
 72
    65
 73
     4
 40
20.32
 49
12.7
 74
     0
 49
-2.54
 74
     0
 49
2.54
 74
     0
 49
-2.54
 74
     0
  0
LTYPE
  5
72
330
5
100
AcDbSymbolTableRecord
100
AcDbLinetypeTableRecord
  2
DOT2
 70
     0
  3
Dot (.5x) ........................................
 72
    65
 73
     2
 40
0.635
 49
0.0
 74
     0
 49
-0.635
 74
     0
  0
ENDTAB
  0
TABLE
  2
LAYER
  5
2
330
0
100
AcDbSymbolTable
 70
     5
  0
LAYER
  5
10
330
2
100
AcDbSymbolTableRecord
100
AcDbLayerTableRecord
  2
0
 70
     0
 62
     7
  6
Continuous
370
    -3
390
F
  0
LAYER
  5
73
330
2
100
AcDbSymbolTableRecord
100
AcDbLayerTableRecord
  2
FORMAT
 70
     0
 62
     7
  6
Continuous
370
    -3
390
F
  0
LAYER
  5
74
330
2
100
AcDbSymbolTableRecord
100
AcDbLayerTableRecord
  2
VERMASSUNG
 70
     0
 62
     7
  6
Continuous
370
    -3
390
F
  0
LAYER
  5
75
330
2
100
AcDbSymbolTableRecord
100
AcDbLayerTableRecord
  2
KOPF_DÜNN
 70
     0
 62
     7
  6
Continuous
370
    -3
390
F
  0
LAYER
  5
76
330
2
100
AcDbSymbolTableRecord
100
AcDbLayerTableRecord
  2
KOPF_DICK
 70
     0
 62
     7
  6
Continuous
370
    15
390
F
  0
ENDTAB
  0
TABLE
  2
STYLE
  5
3
330
0
100
AcDbSymbolTable
 70
     2
  0
STYLE
  5
11
330
3
100
AcDbSymbolTableRecord
100
AcDbTextStyleTableRecord
  2
Standard
 70
     0
 40
0.0
 41
1.0
 50
0.0
 71
     0
 42
2.0
  3
txt
  4

  0
STYLE
  5
77
330
3
100
AcDbSymbolTableRecord
100
AcDbTextStyleTableRecord
  2
SLDTEXTSTYLE0
 70
     0
 40
0.0
 41
0.7
 50
0.0
 71
     0
 42
2.0
  3
TXT
  4

  0
ENDTAB
  0
TABLE
  2
VIEW
  5
6
330
0
100
AcDbSymbolTable
 70
     0
  0
ENDTAB
  0
TABLE
  2
UCS
  5
7
330
0
100
AcDbSymbolTable
 70
     0
  0
ENDTAB
  0
TABLE
  2
APPID
  5
9
330
0
100
AcDbSymbolTable
 70
     1
  0
APPID
  5
12
330
9
100
AcDbSymbolTableRecord
100
AcDbRegAppTableRecord
  2
ACAD
 70
     0
  0
ENDTAB
  0
TABLE
  2
DIMSTYLE
  5
A
330
0
100
AcDbSymbolTable
 70
     2
100
AcDbDimStyleTable
  0
DIMSTYLE
105
27
330
A
100
AcDbSymbolTableRecord
100
AcDbDimStyleTableRecord
  2
ISO-25
 70
     0
 41
2.5
 42
0.625
 43
3.75
 44
1.25
 73
     0
 74
     0
 77
     1
 78
     8
140
2.5
141
2.5
143
0.0393700787
147
0.625
171
     3
172
     1
178
     0
271
     2
272
     2
274
     3
278
    44
283
     0
284
     8
340
11
  0
DIMSTYLE
105
10F
102
{ACAD_REACTORS
330
10E
330
11B
330
126
330
130
330
13C
330
148
102
}
330
A
100
AcDbSymbolTableRecord
100
AcDbDimStyleTableRecord
  2
SLDDIMSTYLE0
 70
     0
 41
3.0
 44
0.0
 45
0.000000001
 73
     0
 74
     0
 77
     1
 78
    12
 79
     3
140
2.0
147
0.5
173
     1
178
     0
271
     2
272
     3
276
     2
284
    12
340
77
  0
ENDTAB
  0
TABLE
  2
BLOCK_RECORD
  5
1
330
0
100
AcDbSymbolTable
 70
     7
  0
BLOCK_RECORD
  5
1F
330
1
100
AcDbSymbolTableRecord
100
AcDbBlockTableRecord
  2
*Model_Space
340
22
  0
BLOCK_RECORD
  5
1B
330
1
100
AcDbSymbolTableRecord
100
AcDbBlockTableRecord
  2
*Paper_Space
340
1E
  0
BLOCK_RECORD
  5
23
330
1
100
AcDbSymbolTableRecord
100
AcDbBlockTableRecord
  2
*Paper_Space0
340
26
  0
BLOCK_RECORD
  5
110
330
1
100
AcDbSymbolTableRecord
100
AcDbBlockTableRecord
  2
_D
340
0
  0
BLOCK_RECORD
  5
11C
330
1
100
AcDbSymbolTableRecord
100
AcDbBlockTableRecord
  2
_D_1
340
0
  0
BLOCK_RECORD
  5
127
330
1
100
AcDbSymbolTableRecord
100
AcDbBlockTableRecord
  2
_D_2
340
0
  0
BLOCK_RECORD
  5
131
330
1
100
AcDbSymbolTableRecord
100
AcDbBlockTableRecord
  2
_D_3
340
0
  0
BLOCK_RECORD
  5
13D
330
1
100
AcDbSymbolTableRecord
100
AcDbBlockTableRecord
  2
_D_4
340
0
  0
BLOCK_RECORD
  5
149
330
1
100
AcDbSymbolTableRecord
100
AcDbBlockTableRecord
  2
_D_5
340
0
  0
ENDTAB
  0
ENDSEC
  0
SECTION
  2
BLOCKS
  0
BLOCK
  5
20
330
1F
100
AcDbEntity
  8
0
100
AcDbBlockBegin
  2
*Model_Space
 70
     0
 10
0.0
 20
0.0
 30
0.0
  3
*Model_Space
  1

  0
ENDBLK
  5
21
330
1F
100
AcDbEntity
  8
0
100
AcDbBlockEnd
  0
BLOCK
  5
1C
330
1B
100
AcDbEntity
 67
     1
  8
0
100
AcDbBlockBegin
  2
*Paper_Space
 70
     0
 10
0.0
 20
0.0
 30
0.0
  3
*Paper_Space
  1

  0
ENDBLK
  5
1D
330
1B
100
AcDbEntity
 67
     1
  8
0
100
AcDbBlockEnd
  0
BLOCK
  5
24
330
23
100
AcDbEntity
  8
0
100
AcDbBlockBegin
  2
*Paper_Space0
 70
     0
 10
0.0
 20
0.0
 30
0.0
  3
*Paper_Space0
  1

  0
ENDBLK
  5
25
330
23
100
AcDbEntity
  8
0
100
AcDbBlockEnd
  0
BLOCK
  5
111
330
110
100
AcDbEntity
  8
0
100
AcDbBlockBegin
  2
_D
 70
     0
 10
0.0
 20
0.0
 30
0.0
  3
_D
  1

  0
SOLID
  5
113
330
110
100
AcDbEntity
  8
VERMASSUNG
100
AcDbTrace
 10
55.7881596441
 20
55.460816687
 30
0.0
 11
56.2381596441
 21
58.460816687
 31
0.0
 12
55.3381596441
 22
58.460816687
 32
0.0
 13
55.3381596441
 23
58.460816687
 33
0.0
  0
SOLID
  5
114
330
110
100
AcDbEntity
  8
VERMASSUNG
100
AcDbTrace
 10
55.7881596441
 20
153.885816687
 30
0.0
 11
55.3381596441
 21
150.885816687
 31
0.0
 12
56.2381596441
 22
150.885816687
 32
0.0
 13
56.2381596441
 23
150.885816687
 33
0.0
  0
LINE
  5
115
330
110
100
AcDbEntity
  8
VERMASSUNG
100
AcDbLine
 10
182.9038302807
 20
55.460816687
 30
0.0
 11
54.7881596441
 21
55.460816687
 31
0.0
  0
LINE
  5
116
330
110
100
AcDbEntity
  8
VERMASSUNG
100
AcDbLine
 10
182.9038302807
 20
153.885816687
 30
0.0
 11
54.7881596441
 21
153.885816687
 31
0.0
  0
LINE
  5
117
330
110
100
AcDbEntity
  8
VERMASSUNG
100
AcDbLine
 10
55.7881596441
 20
55.460816687
 30
0.0
 11
55.7881596441
 21
153.885816687
 31
0.0
  0
MTEXT
  5
118
330
110
100
AcDbEntity
  8
VERMASSUNG
100
AcDbMText
 10
53.0100243879
 20
94.6692281185
 30
0.0
 40
2.0
 41
0.0
 71
     1
 72
     1
  1
CAT 50
  7
SLDTEXTSTYLE0
 11
3.391901413832837E-15
 21
1.0
 31
0.0
 73
     1
 44
1.0
  0
MTEXT
  5
119
330
110
100
AcDbEntity
  8
VERMASSUNG
100
AcDbMText
 10
53.2100243392
 20
104.669227895
 30
0.0
 40
2.0
 41
0.0
 71
     1
 72
     1
  1
%%c
  7
SLDTEXTSTYLE0
 11
3.391901413832837E-15
 21
1.0
 31
0.0
 73
     1
 44
1.0
  0
MTEXT
  5
11A
330
110
100
AcDbEntity
  8
VERMASSUNG
100
AcDbMText
 10
53.2100240481
 20
108.2778769342
 30
0.0
 40
2.0
 41
0.0
 71
     1
 72
     1
  1
98.43
  7
SLDTEXTSTYLE0
 11
3.391901413832837E-15
 21
1.0
 31
0.0
 73
     1
 44
1.0
  0
ENDBLK
  5
112
330
110
100
AcDbEntity
  8
0
100
AcDbBlockEnd
  0
BLOCK
  5
11D
330
11C
100
AcDbEntity
  8
0
100
AcDbBlockBegin
  2
_D_1
 70
     0
 10
0.0
 20
0.0
 30
0.0
  3
_D_1
  1

  0
SOLID
  5
11F
330
11C
100
AcDbEntity
  8
VERMASSUNG
100
AcDbTrace
 10
241.2525879855
 20
115.673316687
 30
0.0
 11
240.8025879855
 21
112.673316687
 31
0.0
 12
241.7025879855
 22
112.673316687
 32
0.0
 13
241.7025879855
 23
112.673316687
 33
0.0
  0
SOLID
  5
120
330
11C
100
AcDbEntity
  8
VERMASSUNG
100
AcDbTrace
 10
241.2525879855
 20
93.673316687
 30
0.0
 11
241.7025879855
 21
96.673316687
 31
0.0
 12
240.8025879855
 22
96.673316687
 32
0.0
 13
240.8025879855
 23
96.673316687
 33
0.0
  0
LINE
  5
121
330
11C
100
AcDbEntity
  8
VERMASSUNG
100
AcDbLine
 10
222.8538302807
 20
115.673316687
 30
0.0
 11
242.2525879855
 21
115.673316687
 31
0.0
  0
LINE
  5
122
330
11C
100
AcDbEntity
  8
VERMASSUNG
100
AcDbLine
 10
222.8538302807
 20
93.673316687
 30
0.0
 11
242.2525879855
 21
93.673316687
 31
0.0
  0
LINE
  5
123
330
11C
100
AcDbEntity
  8
VERMASSUNG
100
AcDbLine
 10
241.2525879855
 20
115.673316687
 30
0.0
 11
241.2525879855
 21
93.673316687
 31
0.0
  0
MTEXT
  5
124
330
11C
100
AcDbEntity
  8
VERMASSUNG
100
AcDbMText
 10
238.6744524478
 20
101.4691405799
 30
0.0
 40
2.0
 41
0.0
 71
     1
 72
     1
  1
%%c
  7
SLDTEXTSTYLE0
 11
-7.044195017643634E-15
 21
1.0
 31
0.0
 73
     1
 44
1.0
  0
MTEXT
  5
125
330
11C
100
AcDbEntity
  8
VERMASSUNG
100
AcDbMText
 10
238.6744523896
 20
105.0781127735
 30
0.0
 40
2.0
 41
0.0
 71
     1
 72
     1
  1
22
  7
SLDTEXTSTYLE0
 11
-7.044195017643634E-15
 21
1.0
 31
0.0
 73
     1
 44
1.0
  0
ENDBLK
  5
11E
330
11C
100
AcDbEntity
  8
0
100
AcDbBlockEnd
  0
BLOCK
  5
128
330
127
100
AcDbEntity
  8
0
100
AcDbBlockBegin
  2
_D_2
 70
     0
 10
0.0
 20
0.0
 30
0.0
  3
_D_2
  1

  0
SOLID
  5
12A
330
127
100
AcDbEntity
  8
VERMASSUNG
100
AcDbTrace
 10
164.4538302807
 20
159.7877199962
 30
0.0
 11
167.4538302807
 21
159.3377199962
 31
0.0
 12
167.4538302807
 22
160.2377199962
 32
0.0
 13
167.4538302807
 23
160.2377199962
 33
0.0
  0
SOLID
  5
12B
330
127
100
AcDbEntity
  8
VERMASSUNG
100
AcDbTrace
 10
233.4538302807
 20
159.7877199962
 30
0.0
 11
230.4538302807
 21
160.2377199962
 31
0.0
 12
230.4538302807
 22
159.3377199962
 32
0.0
 13
230.4538302807
 23
159.3377199962
 33
0.0
  0
LINE
  5
12C
330
127
100
AcDbEntity
  8
VERMASSUNG
100
AcDbLine
 10
164.4538302807
 20
139.598316687
 30
0.0
 11
164.4538302807
 21
160.7877199962
 31
0.0
  0
LINE
  5
12D
330
127
100
AcDbEntity
  8
VERMASSUNG
100
AcDbLine
 10
233.4538302807
 20
123.773316687
 30
0.0
 11
233.4538302807
 21
160.7877199962
 31
0.0
  0
LINE
  5
12E
330
127
100
AcDbEntity
  8
VERMASSUNG
100
AcDbLine
 10
164.4538302807
 20
159.7877199962
 30
0.0
 11
233.4538302807
 21
159.7877199962
 31
0.0
  0
MTEXT
  5
12F
330
127
100
AcDbEntity
  8
VERMASSUNG
100
AcDbMText
 10
197.5541402704
 20
162.3658555921
 30
0.0
 40
2.0
 41
0.0
 71
     1
 72
     1
  1
69
  7
SLDTEXTSTYLE0
 73
     1
 44
1.0
  0
ENDBLK
  5
129
330
127
100
AcDbEntity
  8
0
100
AcDbBlockEnd
  0
BLOCK
  5
132
330
131
100
AcDbEntity
  8
0
100
AcDbBlockBegin
  2
_D_3
 70
     0
 10
0.0
 20
0.0
 30
0.0
  3
_D_3
  1

  0
ARC
  5
134
330
131
100
AcDbEntity
  8
VERMASSUNG
100
AcDbCircle
 10
217.1660573662
 20
155.6870629416
 30
0.0
 40
4.247059938537323
100
AcDbArc
 50
153.4349488229
 51
206.5650511771
  0
ARC
  5
135
330
131
100
AcDbEntity
  8
VERMASSUNG
100
AcDbCircle
 10
215.7416031953
 20
155.6870629416
 30
0.0
 40
4.247059938537323
100
AcDbArc
 50
333.4349488229
 51
26.5650511771
  0
SOLID
  5
136
330
131
100
AcDbEntity
  8
VERMASSUNG
100
AcDbTrace
 10
199.4538302807
 20
153.7877199962
 30
0.0
 11
202.4538302807
 21
153.3377199962
 31
0.0
 12
202.4538302807
 22
154.2377199962
 32
0.0
 13
202.4538302807
 23
154.2377199962
 33
0.0
  0
SOLID
  5
137
330
131
100
AcDbEntity
  8
VERMASSUNG
100
AcDbTrace
 10
233.4538302807
 20
153.7877199962
 30
0.0
 11
230.4538302807
 21
154.2377199962
 31
0.0
 12
230.4538302807
 22
153.3377199962
 32
0.0
 13
230.4538302807
 23
153.3377199962
 33
0.0
  0
LINE
  5
138
330
131
100
AcDbEntity
  8
VERMASSUNG
100
AcDbLine
 10
199.4538302807
 20
138.598316687
 30
0.0
 11
199.4538302807
 21
154.7877199962
 31
0.0
  0
LINE
  5
139
330
131
100
AcDbEntity
  8
VERMASSUNG
100
AcDbLine
 10
233.4538302807
 20
123.773316687
 30
0.0
 11
233.4538302807
 21
154.7877199962
 31
0.0
  0
LINE
  5
13A
330
131
100
AcDbEntity
  8
VERMASSUNG
100
AcDbLine
 10
199.4538302807
 20
153.7877199962
 30
0.0
 11
233.4538302807
 21
153.7877199962
 31
0.0
  0
MTEXT
  5
13B
330
131
100
AcDbEntity
  8
VERMASSUNG
100
AcDbMText
 10
214.9548714754
 20
156.3658555921
 30
0.0
 40
2.0
 41
0.0
 71
     1
 72
     1
  1
34
  7
SLDTEXTSTYLE0
 73
     1
 44
1.0
  0
ENDBLK
  5
133
330
131
100
AcDbEntity
  8
0
100
AcDbBlockEnd
  0
BLOCK
  5
13E
330
13D
100
AcDbEntity
  8
0
100
AcDbBlockBegin
  2
_D_4
 70
     0
 10
0.0
 20
0.0
 30
0.0
  3
_D_4
  1

  0
ARC
  5
140
330
13D
100
AcDbEntity
  8
VERMASSUNG
100
AcDbCircle
 10
147.4652643693
 20
167.6870629416
 30
0.0
 40
4.24705993853726
100
AcDbArc
 50
153.4349488229
 51
206.5650511771
  0
ARC
  5
141
330
13D
100
AcDbEntity
  8
VERMASSUNG
100
AcDbCircle
 10
148.8423961922
 20
167.6870629416
 30
0.0
 40
4.24705993853731
100
AcDbArc
 50
333.4349488229
 51
26.5650511771
  0
SOLID
  5
142
330
13D
100
AcDbEntity
  8
VERMASSUNG
100
AcDbTrace
 10
233.4538302807
 20
165.7877199962
 30
0.0
 11
230.4538302807
 21
166.2377199962
 31
0.0
 12
230.4538302807
 22
165.3377199962
 32
0.0
 13
230.4538302807
 23
165.3377199962
 33
0.0
  0
SOLID
  5
143
330
13D
100
AcDbEntity
  8
VERMASSUNG
100
AcDbTrace
 10
62.8538302807
 20
165.7877199962
 30
0.0
 11
65.8538302807
 21
165.3377199962
 31
0.0
 12
65.8538302807
 22
166.2377199962
 32
0.0
 13
65.8538302807
 23
166.2377199962
 33
0.0
  0
LINE
  5
144
330
13D
100
AcDbEntity
  8
VERMASSUNG
100
AcDbLine
 10
233.4538302807
 20
123.773316687
 30
0.0
 11
233.4538302807
 21
166.7877199962
 31
0.0
  0
LINE
  5
145
330
13D
100
AcDbEntity
  8
VERMASSUNG
100
AcDbLine
 10
62.8538302807
 20
123.0521612144
 30
0.0
 11
62.8538302807
 21
166.7877199962
 31
0.0
  0
LINE
  5
146
330
13D
100
AcDbEntity
  8
VERMASSUNG
100
AcDbLine
 10
233.4538302807
 20
165.7877199962
 30
0.0
 11
62.8538302807
 21
165.7877199962
 31
0.0
  0
MTEXT
  5
147
330
13D
100
AcDbEntity
  8
VERMASSUNG
100
AcDbMText
 10
145.2540784785
 20
168.3658555921
 30
0.0
 40
2.0
 41
0.0
 71
     1
 72
     1
  1
170.6
  7
SLDTEXTSTYLE0
 73
     1
 44
1.0
  0
ENDBLK
  5
13F
330
13D
100
AcDbEntity
  8
0
100
AcDbBlockEnd
  0
BLOCK
  5
14A
330
149
100
AcDbEntity
  8
0
100
AcDbBlockBegin
  2
_D_5
 70
     0
 10
0.0
 20
0.0
 30
0.0
  3
_D_5
  1

  0
SOLID
  5
14C
330
149
100
AcDbEntity
  8
VERMASSUNG
100
AcDbTrace
 10
247.2525879855
 20
124.173316687
 30
0.0
 11
246.8025879855
 21
121.173316687
 31
0.0
 12
247.7025879855
 22
121.173316687
 32
0.0
 13
247.7025879855
 23
121.173316687
 33
0.0
  0
SOLID
  5
14D
330
149
100
AcDbEntity
  8
VERMASSUNG
100
AcDbTrace
 10
247.2525879855
 20
85.173316687
 30
0.0
 11
247.7025879855
 21
88.173316687
 31
0.0
 12
246.8025879855
 22
88.173316687
 32
0.0
 13
246.8025879855
 23
88.173316687
 33
0.0
  0
LINE
  5
14E
330
149
100
AcDbEntity
  8
VERMASSUNG
100
AcDbLine
 10
233.0538302807
 20
124.173316687
 30
0.0
 11
248.2525879855
 21
124.173316687
 31
0.0
  0
LINE
  5
14F
330
149
100
AcDbEntity
  8
VERMASSUNG
100
AcDbLine
 10
233.0538302807
 20
85.173316687
 30
0.0
 11
248.2525879855
 21
85.173316687
 31
0.0
  0
LINE
  5
150
330
149
100
AcDbEntity
  8
VERMASSUNG
100
AcDbLine
 10
247.2525879855
 20
124.173316687
 30
0.0
 11
247.2525879855
 21
85.173316687
 31
0.0
  0
MTEXT
  5
151
330
149
100
AcDbEntity
  8
VERMASSUNG
100
AcDbMText
 10
244.4744527293
 20
98.4683167037
 30
0.0
 40
2.0
 41
0.0
 71
     1
 72
     1
  1
ST4
  7
SLDTEXTSTYLE0
 11
-7.044195017643634E-15
 21
1.0
 31
0.0
 73
     1
 44
1.0
  0
MTEXT
  5
152
330
149
100
AcDbEntity
  8
VERMASSUNG
100
AcDbMText
 10
244.6744526806
 20
104.4683167559
 30
0.0
 40
2.0
 41
0.0
 71
     1
 72
     1
  1
%%c
  7
SLDTEXTSTYLE0
 11
-7.044195017643634E-15
 21
1.0
 31
0.0
 73
     1
 44
1.0
  0
MTEXT
  5
153
330
149
100
AcDbEntity
  8
VERMASSUNG
100
AcDbMText
 10
244.4744527293
 20
108.0783167702
 30
0.0
 40
2.0
 41
0.0
 71
     1
 72
     1
  1
39
  7
SLDTEXTSTYLE0
 11
-7.044195017643634E-15
 21
1.0
 31
0.0
 73
     1
 44
1.0
  0
ENDBLK
  5
14B
330
149
100
AcDbEntity
  8
0
100
AcDbBlockEnd
  0
ENDSEC
  0
SECTION
  2
ENTITIES
  0
MTEXT
  5
78
330
1F
100
AcDbEntity
  8
KOPF_DÜNN
100
AcDbMText
 10
13.8892156294
 20
23.8442973028
 30
0.0
 40
3.0
 41
0.0
 71
     1
 72
     1
  1
104.350.039.069
  7
SLDTEXTSTYLE0
 73
     1
 44
1.0
  0
MTEXT
  5
79
330
1F
100
AcDbEntity
  8
VERMASSUNG
100
AcDbMText
 10
13.9329988022
 20
28.8834360957
 30
0.0
 40
3.0
 41
0.0
 71
     1
 72
     1
  1
Aufnahme_Master shank ST4
  7
SLDTEXTSTYLE0
 73
     1
 44
1.0
  0
MTEXT
  5
7A
330
1F
100
AcDbEntity
  8
VERMASSUNG
100
AcDbMText
 10
98.8601118557
 20
13.8365368761
 30
0.0
 40
2.0
 41
0.0
 71
     1
 72
     1
  1
Datum: 07.05.2008
  7
SLDTEXTSTYLE0
 73
     1
 44
1.0
  0
MTEXT
  5
7B
330
1F
100
AcDbEntity
  8
VERMASSUNG
100
AcDbMText
 10
13.933048693
 20
18.0482802738
 30
0.0
 40
2.0
 41
0.0
 71
     1
 72
     1
  1
ANSI B5.50 CAT 50
  7
SLDTEXTSTYLE0
 73
     1
 44
1.0
  0
MTEXT
  5
7C
330
1F
100
AcDbEntity
  8
VERMASSUNG
100
AcDbMText
 10
13.9808475933
 20
13.9090974274
 30
0.0
 40
2.0
 41
0.0
 71
     1
 72
     1
  1
Gewicht: 3353g
  7
SLDTEXTSTYLE0
 73
     1
 44
1.0
  0
ARC
  5
7D
330
1F
100
AcDbEntity
  8
0
  6
Continuous
 62
     7
370
    15
100
AcDbCircle
 10
184.1038302807
 20
69.148316687
 30
0.0
 40
0.6000000000000085
100
AcDbArc
 50
90.0
 51
134.8886178634
  0
ARC
  5
7E
330
1F
100
AcDbEntity
  8
0
  6
Continuous
 62
     7
370
    15
100
AcDbCircle
 10
184.1038302807
 20
140.198316687
 30
0.0
 40
0.5999999999999943
100
AcDbArc
 50
180.0
 51
270.0
  0
ARC
  5
7F
330
1F
100
AcDbEntity
  8
0
  6
Continuous
 62
     7
370
    15
100
AcDbCircle
 10
167.0288302807
 20
69.148316687
 30
0.0
 40
0.6000000000000085
100
AcDbArc
 50
45.0637195642
 51
90.0
  0
ARC
  5
80
330
1F
100
AcDbEntity
  8
0
  6
Continuous
 62
     7
370
    15
100
AcDbCircle
 10
167.0288302807
 20
140.198316687
 30
0.0
 40
0.5999999999999943
100
AcDbArc
 50
270.0
 51
0.0
  0
LINE
  5
81
330
1F
100
AcDbEntity
  8
0
  6
Continuous
 62
     7
370
    15
100
AcDbLine
 10
164.4538302807
 20
139.598316687
 30
0.0
 11
64.5652164946
 21
125.0312271766
 31
0.0
  0
LINE
  5
82
330
1F
100
AcDbEntity
  8
0
  6
Continuous
 62
     7
370
    15
100
AcDbLine
 10
64.5652164946
 20
84.3154061975
 30
0.0
 11
164.4538302807
 21
69.748316687
 31
0.0
  0
LINE
  5
83
330
1F
100
AcDbEntity
  8
0
  6
Continuous
 62
     7
370
    15
100
AcDbLine
 10
164.4538302807
 20
69.748316687
 30
0.0
 11
167.0288302807
 21
69.748316687
 31
0.0
  0
LINE
  5
84
330
1F
100
AcDbEntity
  8
0
  6
Continuous
 62
     7
370
    15
100
AcDbLine
 10
167.0288302807
 20
139.598316687
 30
0.0
 11
164.4538302807
 21
139.598316687
 31
0.0
  0
ARC
  5
85
330
1F
100
AcDbEntity
  8
0
  6
Continuous
 62
     7
370
    15
100
AcDbCircle
 10
198.4538302807
 20
70.748316687
 30
0.0
 40
1.0
100
AcDbArc
 50
270.0
 51
0.0
  0
ARC
  5
86
330
1F
100
AcDbEntity
  8
0
  6
Continuous
 62
     7
370
    15
100
AcDbCircle
 10
198.4538302807
 20
138.598316687
 30
0.0
 40
1.0
100
AcDbArc
 50
0.0
 51
90.0
  0
LINE
  5
87
330
1F
100
AcDbEntity
  8
0
  6
Continuous
 62
     7
370
    15
100
AcDbLine
 10
184.1038302807
 20
69.748316687
 30
0.0
 11
198.4538302807
 21
69.748316687
 31
0.0
  0
LINE
  5
88
330
1F
100
AcDbEntity
  8
0
  6
Continuous
 62
     7
370
    15
100
AcDbLine
 10
198.4538302807
 20
139.598316687
 30
0.0
 11
184.1038302807
 21
139.598316687
 31
0.0
  0
ARC
  5
89
330
1F
100
AcDbEntity
  8
0
  6
Continuous
 62
     7
370
    15
100
AcDbCircle
 10
203.4538302807
 20
81.173316687
 30
0.0
 40
4.000000000000014
100
AcDbArc
 50
90.0
 51
180.0
  0
ARC
  5
8A
330
1F
100
AcDbEntity
  8
0
  6
Continuous
 62
     7
370
    15
100
AcDbCircle
 10
203.4538302807
 20
128.173316687
 30
0.0
 40
4.0
100
AcDbArc
 50
180.0
 51
270.0
  0
ARC
  5
8B
330
1F
100
AcDbEntity
  8
0
  6
Continuous
 62
     7
370
    15
100
AcDbCircle
 10
64.8538302807
 20
86.2944721596
 30
0.0
 40
1.999999999999992
100
AcDbArc
 50
180.0
 51
261.7028550302
  0
ARC
  5
8C
330
1F
100
AcDbEntity
  8
0
  6
Continuous
 62
     7
370
    15
100
AcDbCircle
 10
64.8538302807
 20
123.0521612144
 30
0.0
 40
1.999999999999986
100
AcDbArc
 50
98.2971449698
 51
180.0
  0
LINE
  5
8D
330
1F
100
AcDbEntity
  8
0
  6
Continuous
 62
     7
370
    15
100
AcDbLine
 10
233.0538302807
 20
85.173316687
 30
0.0
 11
233.4538302807
 21
85.573316687
 31
0.0
  0
LINE
  5
8E
330
1F
100
AcDbEntity
  8
0
  6
Continuous
 62
     7
370
    15
100
AcDbLine
 10
233.4538302807
 20
123.773316687
 30
0.0
 11
233.0538302807
 21
124.173316687
 31
0.0
  0
LINE
  5
8F
330
1F
100
AcDbEntity
  8
0
  6
Continuous
 62
     7
370
    15
100
AcDbLine
 10
233.0538302807
 20
124.173316687
 30
0.0
 11
203.4538302807
 21
124.173316687
 31
0.0
  0
LINE
  5
90
330
1F
100
AcDbEntity
  8
0
  6
Continuous
 62
     7
370
    15
100
AcDbLine
 10
203.4538302807
 20
85.173316687
 30
0.0
 11
233.0538302807
 21
85.173316687
 31
0.0
  0
SPLINE
  5
91
330
1F
100
AcDbEntity
  8
0
  6
Continuous
 62
     7
370
    15
100
AcDbSpline
210
0.0
220
0.0
230
1.0
 70
    24
 71
     3
 72
    11
 73
     7
 74
     0
 42
0.000000001
 43
0.00000001
 40
0.0
 40
0.0
 40
0.0
 40
0.0
 40
0.1285561766307357
 40
0.4801535797842237
 40
0.8150691831753866
 40
1.0
 40
1.0
 40
1.0
 40
1.0
 10
224.5585308191157
 20
102.6733166870346
 30
0.0
 10
224.465524431929
 20
102.6733166870346
 30
0.0
 10
224.1181482815105
 20
102.6733166870346
 30
0.0
 10
223.4667401978392
 20
102.6733166870346
 30
0.0
 10
222.7614026506504
 20
102.6733166870346
 30
0.0
 10
222.3835481690442
 20
102.6733166870346
 30
0.0
 10
222.2491297423572
 20
102.6733166870346
 30
0.0
  0
SPLINE
  5
92
330
1F
100
AcDbEntity
  8
0
  6
Continuous
 62
     7
370
    15
100
AcDbSpline
210
0.0
220
0.0
230
1.0
 70
    24
 71
     3
 72
    10
 73
     6
 74
     0
 42
0.000000001
 43
0.00000001
 40
0.0
 40
0.0
 40
0.0
 40
0.0
 40
0.4391222274230467
 40
0.7513714712594581
 40
1.0
 40
1.0
 40
1.0
 40
1.0
 10
225.7132313574949
 20
104.6733166870346
 30
0.0
 10
225.5479247460326
 20
104.3869972371549
 30
0.0
 10
225.2650725829977
 20
103.8970829197476
 30
0.0
 10
224.8539003947231
 20
103.1849117989968
 30
0.0
 10
224.6492494495926
 20
102.8304459642138
 30
0.0
 10
224.5585308191157
 20
102.6733166870346
 30
0.0
  0
SPLINE
  5
93
330
1F
100
AcDbEntity
  8
0
  6
Continuous
 62
     7
370
    15
100
AcDbSpline
210
0.0
220
0.0
230
1.0
 70
    24
 71
     3
 72
    10
 73
     6
 74
     0
 42
0.000000001
 43
0.00000001
 40
0.0
 40
0.0
 40
0.0
 40
0.0
 40
0.4391222274230452
 40
0.751371471259458
 40
1.0
 40
1.0
 40
1.0
 40
1.0
 10
224.5585308191157
 20
106.6733166870346
 30
0.0
 10
224.723837430578
 20
106.3869972371549
 30
0.0
 10
225.0066895936129
 20
105.8970829197476
 30
0.0
 10
225.4178617818875
 20
105.1849117989968
 30
0.0
 10
225.622512727018
 20
104.8304459642138
 30
0.0
 10
225.7132313574949
 20
104.6733166870346
 30
0.0
  0
SPLINE
  5
94
330
1F
100
AcDbEntity
  8
0
  6
Continuous
 62
     7
370
    15
100
AcDbSpline
210
0.0
220
0.0
230
1.0
 70
    24
 71
     3
 72
    11
 73
     7
 74
     0
 42
0.000000001
 43
0.00000001
 40
0.0
 40
0.0
 40
0.0
 40
0.0
 40
0.1849308168246135
 40
0.5198464202157763
 40
0.8714438233692643
 40
1.0
 40
1.0
 40
1.0
 40
1.0
 10
222.2491297423572
 20
106.6733166870346
 30
0.0
 10
222.3835481690442
 20
106.6733166870346
 30
0.0
 10
222.7614026506504
 20
106.6733166870346
 30
0.0
 10
223.4667401978392
 20
106.6733166870346
 30
0.0
 10
224.1181482815105
 20
106.6733166870346
 30
0.0
 10
224.465524431929
 20
106.6733166870346
 30
0.0
 10
224.5585308191157
 20
106.6733166870346
 30
0.0
  0
SPLINE
  5
95
330
1F
100
AcDbEntity
  8
0
  6
Continuous
 62
     7
370
    15
100
AcDbSpline
210
0.0
220
0.0
230
1.0
 70
    24
 71
     3
 72
    10
 73
     6
 74
     0
 42
0.000000001
 43
0.00000001
 40
0.0
 40
0.0
 40
0.0
 40
0.0
 40
0.4391222274230479
 40
0.7513714712594598
 40
1.0
 40
1.0
 40
1.0
 40
1.0
 10
221.0944292039779
 20
104.6733166870346
 30
0.0
 10
221.2597358154402
 20
104.9596361369144
 30
0.0
 10
221.5425879784752
 20
105.4495504543217
 30
0.0
 10
221.9537601667498
 20
106.1617215750725
 30
0.0
 10
222.1584111118802
 20
106.5161874098555
 30
0.0
 10
222.2491297423572
 20
106.6733166870346
 30
0.0
  0
SPLINE
  5
96
330
1F
100
AcDbEntity
  8
0
  6
Continuous
 62
     7
370
    15
100
AcDbSpline
210
0.0
220
0.0
230
1.0
 70
    24
 71
     3
 72
    10
 73
     6
 74
     0
 42
0.000000001
 43
0.00000001
 40
0.0
 40
0.0
 40
0.0
 40
0.0
 40
0.439122227423046
 40
0.7513714712594577
 40
1.0
 40
1.0
 40
1.0
 40
1.0
 10
222.2491297423572
 20
102.6733166870346
 30
0.0
 10
222.0838231308949
 20
102.9596361369144
 30
0.0
 10
221.8009709678599
 20
103.4495504543217
 30
0.0
 10
221.3897987795854
 20
104.1617215750725
 30
0.0
 10
221.1851478344549
 20
104.5161874098555
 30
0.0
 10
221.0944292039779
 20
104.6733166870346
 30
0.0
  0
CIRCLE
  5
97
330
1F
100
AcDbEntity
  8
0
  6
Continuous
 62
     7
370
    15
100
AcDbCircle
 10
223.4038302807
 20
104.673316687
 30
0.0
 40
2.400000000000006
  0
CIRCLE
  5
98
330
1F
100
AcDbEntity
  8
0
  6
Continuous
 62
     7
370
    15
100
AcDbCircle
 10
223.4038302807
 20
104.673316687
 30
0.0
 40
3.620000000000005
  0
CIRCLE
  5
99
330
1F
100
AcDbEntity
  8
0
  6
Continuous
 62
     7
370
    15
100
AcDbCircle
 10
223.4038302807
 20
104.673316687
 30
0.0
 40
4.0
  0
ARC
  5
9A
330
1F
100
AcDbEntity
  8
0
  6
Continuous
 62
     7
370
    15
100
AcDbCircle
 10
223.4038302807
 20
104.673316687
 30
0.0
 40
2.000000000000016
100
AcDbArc
 50
330.0
 51
30.0
  0
ARC
  5
9B
330
1F
100
AcDbEntity
  8
0
  6
Continuous
 62
     7
370
    15
100
AcDbCircle
 10
223.4038302807
 20
104.673316687
 30
0.0
 40
2.000000000000016
100
AcDbArc
 50
210.0
 51
270.0
  0
ARC
  5
9C
330
1F
100
AcDbEntity
  8
0
  6
Continuous
 62
     7
370
    15
100
AcDbCircle
 10
223.4038302807
 20
104.673316687
 30
0.0
 40
2.000000000000016
100
AcDbArc
 50
150.0
 51
210.0
  0
ARC
  5
9D
330
1F
100
AcDbEntity
  8
0
  6
Continuous
 62
     7
370
    15
100
AcDbCircle
 10
223.4038302807
 20
104.673316687
 30
0.0
 40
2.000000000000016
100
AcDbArc
 50
90.0
 51
150.0
  0
ARC
  5
9E
330
1F
100
AcDbEntity
  8
0
  6
Continuous
 62
     7
370
    15
100
AcDbCircle
 10
223.4038302807
 20
104.673316687
 30
0.0
 40
2.0
100
AcDbArc
 50
270.0
 51
330.0
  0
ARC
  5
9F
330
1F
100
AcDbEntity
  8
0
  6
Continuous
 62
     7
370
    15
100
AcDbCircle
 10
223.4038302807
 20
104.673316687
 30
0.0
 40
2.000000000000016
100
AcDbArc
 50
30.0
 51
90.0
  0
LINE
  5
A0
330
1F
100
AcDbEntity
  8
0
  6
Continuous
 62
     7
370
    15
100
AcDbLine
 10
167.6288302807
 20
58.0755414585
 30
0.0
 11
167.6288302807
 21
151.2710919156
 31
0.0
  0
SPLINE
  5
A1
330
1F
100
AcDbEntity
  8
0
  6
Continuous
 62
     7
370
    15
100
AcDbSpline
210
0.0
220
0.0
230
1.0
 70
     8
 71
     3
 72
    10
 73
     6
 74
     0
 42
0.000000001
 43
0.00000001
 40
0.0
 40
0.0
 40
0.0
 40
0.0
 40
0.5
 40
0.5
 40
1.0
 40
1.0
 40
1.0
 40
1.0
 10
167.9175464594075
 20
151.8898387063772
 30
0.0
 10
167.841397035711
 20
151.8198864978266
 30
0.0
 10
167.7727649526149
 20
151.7331276931009
 30
0.0
 10
167.6666852726617
 20
151.5247999957782
 30
0.0
 10
167.6288302807364
 20
151.3999180848936
 30
0.0
 10
167.6288302807364
 20
151.2710919155796
 30
0.0
  0
SPLINE
  5
A2
330
1F
100
AcDbEntity
  8
0
  6
Continuous
 62
     7
370
    15
100
AcDbSpline
210
0.0
220
0.0
230
1.0
 70
     8
 71
     3
 72
     8
 73
     4
 74
     0
 42
0.000000001
 43
0.00000001
 40
0.0
 40
0.0
 40
0.0
 40
0.0
 40
1.0
 40
1.0
 40
1.0
 40
1.0
 10
168.2288302807364
 20
151.9601924017854
 30
0.0
 10
168.1172539725266
 20
151.9601924017854
 30
0.0
 10
168.0091458116048
 20
151.9347698997128
 30
0.0
 10
167.9175464594075
 20
151.8898387063772
 30
0.0
  0
SPLINE
  5
A3
330
1F
100
AcDbEntity
  8
0
  6
Continuous
 62
     7
370
    15
100
AcDbSpline
210
0.0
220
0.0
230
1.0
 70
     8
 71
     3
 72
    10
 73
     6
 74
     0
 42
0.000000001
 43
0.00000001
 40
0.0
 40
0.0
 40
0.0
 40
0.0
 40
0.5
 40
0.5
 40
1.0
 40
1.0
 40
1.0
 40
1.0
 10
167.8439525100013
 20
57.53279205086029
 30
0.0
 10
167.8926239973729
 20
57.50461870536797
 30
0.0
 10
167.9500658866742
 20
57.480481806433
 30
0.0
 10
168.0809582463084
 20
57.44607975838836
 30
0.0
 10
168.1538354053321
 20
57.43620455920352
 30
0.0
 10
168.2288302807364
 20
57.43620455920352
 30
0.0
  0
SPLINE
  5
A4
330
1F
100
AcDbEntity
  8
0
  6
Continuous
 62
     7
370
    15
100
AcDbSpline
210
0.0
220
0.0
230
1.0
 70
     8
 71
     3
 72
    10
 73
     6
 74
     0
 42
0.000000001
 43
0.00000001
 40
0.0
 40
0.0
 40
0.0
 40
0.0
 40
0.5
 40
0.5
 40
1.0
 40
1.0
 40
1.0
 40
1.0
 10
167.8439525100013
 20
57.53279205086027
 30
0.0
 10
167.7859003455343
 20
57.60011352327135
 30
0.0
 10
167.7335739753236
 20
57.68031009977414
 30
0.0
 10
167.6554150998208
 20
57.86277591281642
 30
0.0
 10
167.628830280737
 20
57.96836230890369
 30
0.0
 10
167.6288302807364
 20
58.07554145848553
 30
0.0
  0
LINE
  5
A5
330
1F
100
AcDbEntity
  8
0
  6
Continuous
 62
     7
370
    15
100
AcDbLine
 10
177.4638302807
 20
60.074390509
 30
0.0
 11
177.4638302807
 21
149.272242865
 31
0.0
  0
SPLINE
  5
A6
330
1F
100
AcDbEntity
  8
0
  6
Continuous
 62
     7
370
    15
100
AcDbSpline
210
0.0
220
0.0
230
1.0
 70
     8
 71
     3
 72
     8
 73
     4
 74
     0
 42
0.000000001
 43
0.00000001
 40
0.0
 40
0.0
 40
0.0
 40
0.0
 40
1.0
 40
1.0
 40
1.0
 40
1.0
 10
178.5230839357563
 20
151.1785548850517
 30
0.0
 10
178.1695893216888
 20
150.5433410413751
 30
0.0
 10
177.8164882545403
 20
149.9079127027979
 30
0.0
 10
177.4638302807364
 20
149.2722428650289
 30
0.0
  0
SPLINE
  5
A7
330
1F
100
AcDbEntity
  8
0
  6
Continuous
 62
     7
370
    15
100
AcDbSpline
210
0.0
220
0.0
230
1.0
 70
     8
 71
     3
 72
     8
 73
     4
 74
     0
 42
0.000000001
 43
0.00000001
 40
0.0
 40
0.0
 40
0.0
 40
0.0
 40
0.0012377667921472
 40
0.0012377667921472
 40
0.0012377667921472
 40
0.0012377667921472
 10
179.0799970498121
 20
151.9601924017854
 30
0.0
 10
178.8939052504344
 20
151.6998085812881
 30
0.0
 10
178.7082575942189
 20
151.4392657804507
 30
0.0
 10
178.523083935756
 20
151.1785548850506
 30
0.0
  0
LINE
  5
A8
330
1F
100
AcDbEntity
  8
0
  6
Continuous
 62
     7
370
    15
100
AcDbLine
 10
179.0799970498
 20
57.4362045592
 30
0.0
 11
179.0799970498
 21
151.9601924018
 31
0.0
  0
SPLINE
  5
A9
330
1F
100
AcDbEntity
  8
0
  6
Continuous
 62
     7
370
    15
100
AcDbSpline
210
0.0
220
0.0
230
1.0
 70
     8
 71
     3
 72
     8
 73
     4
 74
     0
 42
0.000000001
 43
0.00000001
 40
0.0
 40
0.0
 40
0.0
 40
0.0
 40
0.0011891741919631
 40
0.0011891741919631
 40
0.0011891741919631
 40
0.0011891741919631
 10
178.6258384058153
 20
57.98345924915571
 30
0.0
 10
178.7762230981617
 20
57.80083573645024
 30
0.0
 10
178.9276286235387
 20
57.61841991432338
 30
0.0
 10
179.0799970498121
 20
57.43620455920354
 30
0.0
  0
SPLINE
  5
AA
330
1F
100
AcDbEntity
  8
0
  6
Continuous
 62
     7
370
    15
100
AcDbSpline
210
0.0
220
0.0
230
1.0
 70
     8
 71
     3
 72
     8
 73
     4
 74
     0
 42
0.000000001
 43
0.00000001
 40
0.0
 40
0.0
 40
0.0
 40
0.0
 40
1.0
 40
1.0
 40
1.0
 40
1.0
 10
178.6258384058153
 20
57.98345924915571
 30
0.0
 10
178.2380162012616
 20
58.68016311337652
 30
0.0
 10
177.8506586710222
 20
59.3771281234912
 30
0.0
 10
177.4638302807364
 20
60.07439050904042
 30
0.0
  0
LINE
  5
AB
330
1F
100
AcDbEntity
  8
0
  6
Continuous
 62
     7
370
    15
100
AcDbLine
 10
182.9038302807
 20
151.9601924018
 30
0.0
 11
179.0799970498
 21
151.9601924018
 31
0.0
  0
LINE
  5
AC
330
1F
100
AcDbEntity
  8
0
  6
Continuous
 62
     7
370
    15
100
AcDbLine
 10
179.0799970498
 20
57.4362045592
 30
0.0
 11
182.9038302807
 21
57.4362045592
 31
0.0
  0
SPLINE
  5
AD
330
1F
100
AcDbEntity
  8
0
  6
Continuous
 62
     7
370
    15
100
AcDbSpline
210
0.0
220
0.0
230
1.0
 70
     8
 71
     3
 72
    12
 73
     8
 74
     0
 42
0.000000001
 43
0.00000001
 40
0.0
 40
0.0
 40
0.0
 40
0.0
 40
0.5000000000000014
 40
0.5000000000000014
 40
0.7500000000000007
 40
0.7500000000000007
 40
1.0
 40
1.0
 40
1.0
 40
1.0
 10
183.5038302807364
 20
151.4745710941541
 30
0.0
 10
183.5038302807364
 20
151.594868720486
 30
0.0
 10
183.4499380892603
 20
151.7129058906676
 30
0.0
 10
183.2889831643993
 20
151.8525027602089
 30
0.0
 10
183.2242645361723
 20
151.890755228288
 30
0.0
 10
183.0720778782716
 20
151.9455909301931
 30
0.0
 10
182.9893098406854
 20
151.9601924017854
 30
0.0
 10
182.9038302807364
 20
151.9601924017854
 30
0.0
  0
LINE
  5
AE
330
1F
100
AcDbEntity
  8
0
  6
Continuous
 62
     7
370
    15
100
AcDbLine
 10
183.5038302807
 20
57.852857973
 30
0.0
 11
183.5038302807
 21
151.4745710942
 31
0.0
  0
SPLINE
  5
AF
330
1F
100
AcDbEntity
  8
0
  6
Continuous
 62
     7
370
    15
100
AcDbSpline
210
0.0
220
0.0
230
1.0
 70
     8
 71
     3
 72
    12
 73
     8
 74
     0
 42
0.000000001
 43
0.00000001
 40
0.0
 40
0.0
 40
0.0
 40
0.0
 40
0.2499999999999988
 40
0.2499999999999988
 40
0.4999999999999976
 40
0.4999999999999976
 40
1.0
 40
1.0
 40
1.0
 40
1.0
 10
182.9038302807364
 20
57.43620455920354
 30
0.0
 10
182.9998111231365
 20
57.43620455920352
 30
0.0
 10
183.0922443410745
 20
57.45256100715407
 30
0.0
 10
183.2486762985103
 20
57.50620168623325
 30
0.0
 10
183.3121510743407
 20
57.54250825741359
 30
0.0
 10
183.4604193294657
 20
57.66379651347278
 30
0.0
 10
183.5038302807365
 20
57.75809891036584
 30
0.0
 10
183.5038302807365
 20
57.85285797296221
 30
0.0
  0
LINE
  5
B0
330
1F
100
AcDbEntity
  8
0
  6
Continuous
 62
     7
370
    15
100
AcDbLine
 10
172.0276635117
 20
151.9601924018
 30
0.0
 11
168.2288302807
 21
151.9601924018
 31
0.0
  0
LINE
  5
B1
330
1F
100
AcDbEntity
  8
0
  6
Continuous
 62
     7
370
    15
100
AcDbLine
 10
172.0276635117
 20
57.4362045592
 30
0.0
 11
172.0276635117
 21
151.9601924018
 31
0.0
  0
LINE
  5
B2
330
1F
100
AcDbEntity
  8
0
  6
Continuous
 62
     7
370
    15
100
AcDbLine
 10
168.2288302807
 20
57.4362045592
 30
0.0
 11
172.0276635117
 21
57.4362045592
 31
0.0
  0
SPLINE
  5
B3
330
1F
100
AcDbEntity
  8
0
  6
Continuous
 62
     7
370
    15
100
AcDbSpline
210
0.0
220
0.0
230
1.0
 70
     8
 71
     3
 72
     8
 73
     4
 74
     0
 42
0.000000001
 43
0.00000001
 40
0.0
 40
0.0
 40
0.0
 40
0.0
 40
0.0012377667921509
 40
0.0012377667921509
 40
0.0012377667921509
 40
0.0012377667921509
 10
172.5845766257185
 20
151.1785548850482
 30
0.0
 10
172.3994029672552
 20
151.4392657804491
 30
0.0
 10
172.213755311039
 20
151.6998085812873
 30
0.0
 10
172.0276635116608
 20
151.9601924017854
 30
0.0
  0
SPLINE
  5
B4
330
1F
100
AcDbEntity
  8
0
  6
Continuous
 62
     7
370
    15
100
AcDbSpline
210
0.0
220
0.0
230
1.0
 70
     8
 71
     3
 72
     8
 73
     4
 74
     0
 42
0.000000001
 43
0.00000001
 40
0.0
 40
0.0
 40
0.0
 40
0.0
 40
1.0
 40
1.0
 40
1.0
 40
1.0
 10
173.6438302807364
 20
149.2722428650289
 30
0.0
 10
173.2911723069332
 20
149.9079127027968
 30
0.0
 10
172.9380712397854
 20
150.5433410413728
 30
0.0
 10
172.5845766257185
 20
151.1785548850482
 30
0.0
  0
LINE
  5
B5
330
1F
100
AcDbEntity
  8
0
  6
Continuous
 62
     7
370
    15
100
AcDbLine
 10
173.6438302807
 20
60.074390509
 30
0.0
 11
173.6438302807
 21
149.272242865
 31
0.0
  0
SPLINE
  5
B6
330
1F
100
AcDbEntity
  8
0
  6
Continuous
 62
     7
370
    15
100
AcDbSpline
210
0.0
220
0.0
230
1.0
 70
     8
 71
     3
 72
     8
 73
     4
 74
     0
 42
0.000000001
 43
0.00000001
 40
0.0
 40
0.0
 40
0.0
 40
0.0
 40
1.0
 40
1.0
 40
1.0
 40
1.0
 10
173.6438302807364
 20
60.07439050904041
 30
0.0
 10
173.2570018904507
 20
59.3771281234912
 30
0.0
 10
172.8696443602113
 20
58.68016311337652
 30
0.0
 10
172.4818221556575
 20
57.98345924915571
 30
0.0
  0
SPLINE
  5
B7
330
1F
100
AcDbEntity
  8
0
  6
Continuous
 62
     7
370
    15
100
AcDbSpline
210
0.0
220
0.0
230
1.0
 70
     8
 71
     3
 72
     8
 73
     4
 74
     0
 42
0.000000001
 43
0.00000001
 40
0.0
 40
0.0
 40
0.0
 40
0.0
 40
0.0011891741919631
 40
0.0011891741919631
 40
0.0011891741919631
 40
0.0011891741919631
 10
172.0276635116608
 20
57.43620455920354
 30
0.0
 10
172.1800319379342
 20
57.61841991432338
 30
0.0
 10
172.3314374633112
 20
57.80083573645024
 30
0.0
 10
172.4818221556575
 20
57.98345924915571
 30
0.0
  0
SPLINE
  5
B8
330
1F
100
AcDbEntity
  8
0
  6
Continuous
 62
     7
370
    15
100
AcDbSpline
210
0.0
220
0.0
230
1.0
 70
     8
 71
     3
 72
    12
 73
     8
 74
     0
 42
0.000000001
 43
0.00000001
 40
0.0
 40
0.0
 40
0.0
 40
0.0
 40
0.4999999999999928
 40
0.4999999999999928
 40
0.7499999999999963
 40
0.7499999999999963
 40
1.0
 40
1.0
 40
1.0
 40
1.0
 10
174.4438302807364
 20
61.02555042116486
 30
0.0
 10
174.2296553142622
 20
61.02555042116486
 30
0.0
 10
174.0191555016428
 20
60.93159444854791
 30
0.0
 10
173.7984124063317
 20
60.69650274060223
 30
0.0
 10
173.7412652736114
 20
60.60487057589467
 30
0.0
 10
173.6636908499643
 20
60.40566120197413
 30
0.0
 10
173.6438302807365
 20
60.29870184162057
 30
0.0
 10
173.6438302807364
 20
60.19222519862861
 30
0.0
  0
SPLINE
  5
B9
330
1F
100
AcDbEntity
  8
0
  6
Continuous
 62
     7
370
    15
100
AcDbSpline
210
0.0
220
0.0
230
1.0
 70
     8
 71
     3
 72
    12
 73
     8
 74
     0
 42
0.000000001
 43
0.00000001
 40
0.0
 40
0.0
 40
0.0
 40
0.0
 40
0.25
 40
0.25
 40
0.5
 40
0.5
 40
1.0
 40
1.0
 40
1.0
 40
1.0
 10
174.4438302807364
 20
148.3210829529044
 30
0.0
 10
174.3360254534877
 20
148.3210829529044
 30
0.0
 10
174.2298124154283
 20
148.3438804927941
 30
0.0
 10
174.034095002436
 20
148.4302412074513
 30
0.0
 10
173.9451601742389
 20
148.4939086965827
 30
0.0
 10
173.7263579072401
 20
148.7267397995747
 30
0.0
 10
173.6438302807364
 20
148.9409727008557
 30
0.0
 10
173.6438302807364
 20
149.1544081754413
 30
0.0
  0
SPLINE
  5
BA
330
1F
100
AcDbEntity
  8
0
  6
Continuous
 62
     7
370
    15
100
AcDbSpline
210
0.0
220
0.0
230
1.0
 70
     8
 71
     3
 72
    14
 73
    10
 74
     0
 42
0.000000001
 43
0.00000001
 40
0.0
 40
0.0
 40
0.0
 40
0.0
 40
0.25
 40
0.25
 40
0.5
 40
0.5
 40
0.75
 40
0.75
 40
1.0
 40
1.0
 40
1.0
 40
1.0
 10
177.4638302807364
 20
60.19222519862802
 30
0.0
 10
177.4638302807364
 20
60.29962869812579
 30
0.0
 10
177.4439173498796
 20
60.40588081232267
 30
0.0
 10
177.3662683056324
 20
60.6051113195757
 30
0.0
 10
177.3084887975986
 20
60.6973491342214
 30
0.0
 10
177.1625737287739
 20
60.85267346462155
 30
0.0
 10
177.0739101608605
 20
60.91623580506064
 30
0.0
 10
176.8775561155324
 20
61.00288604447967
 30
0.0
 10
176.771766025511
 20
61.02555042116485
 30
0.0
 10
176.6638302807364
 20
61.02555042116486
 30
0.0
  0
SPLINE
  5
BB
330
1F
100
AcDbEntity
  8
0
  6
Continuous
 62
     7
370
    15
100
AcDbSpline
210
0.0
220
0.0
230
1.0
 70
     8
 71
     3
 72
    14
 73
    10
 74
     0
 42
0.000000001
 43
0.00000001
 40
0.0
 40
0.0
 40
0.0
 40
0.0
 40
0.25
 40
0.25
 40
0.5
 40
0.5
 40
0.75
 40
0.75
 40
1.0
 40
1.0
 40
1.0
 40
1.0
 10
177.4638302807364
 20
149.1544081754413
 30
0.0
 10
177.4638302807364
 20
149.0470658032938
 30
0.0
 10
177.4438340886722
 20
148.940436796446
 30
0.0
 10
177.3661360043276
 20
148.7412850172948
 30
0.0
 10
177.308142859434
 20
148.6488021189793
 30
0.0
 10
177.1620963666112
 20
148.4935662838702
 30
0.0
 10
177.0727586274435
 20
148.4298323422578
 30
0.0
 10
176.8780036153831
 20
148.3440020758626
 30
0.0
 10
176.7704733441742
 20
148.3210829529041
 30
0.0
 10
176.6638302807343
 20
148.3210829529044
 30
0.0
  0
LINE
  5
BC
330
1F
100
AcDbEntity
  8
0
  6
Continuous
 62
     7
370
    15
100
AcDbLine
 10
176.6638302807
 20
61.0255504212
 30
0.0
 11
174.4438302807
 21
61.0255504212
 31
0.0
  0
LINE
  5
BD
330
1F
100
AcDbEntity
  8
0
  6
Continuous
 62
     7
370
    15
100
AcDbLine
 10
176.6638302807
 20
148.3210829529
 30
0.0
 11
174.4438302807
 21
148.3210829529
 31
0.0
  0
LINE
  5
BE
330
1F
100
AcDbEntity
  8
0
  6
Continuous
 62
     7
370
    15
100
AcDbLine
 10
164.4538302807
 20
69.748316687
 30
0.0
 11
164.4538302807
 21
139.598316687
 31
0.0
  0
LINE
  5
BF
330
1F
100
AcDbEntity
  8
0
  6
Continuous
 62
     7
370
    15
100
AcDbLine
 10
199.4538302807
 20
138.598316685
 30
0.0
 11
199.4538302807
 21
70.748316687
 31
0.0
  0
LINE
  5
C0
330
1F
100
AcDbEntity
  8
0
  6
Continuous
 62
     7
370
    15
100
AcDbLine
 10
62.8538302807
 20
86.2944721596
 30
0.0
 11
62.8538302807
 21
123.0521611976
 31
0.0
  0
LINE
  5
C1
330
1F
100
AcDbEntity
  8
0
  6
Continuous
 62
     7
370
    15
100
AcDbLine
 10
233.4538302807
 20
104.673316687
 30
0.0
 11
233.4538302807
 21
85.573316687
 31
0.0
  0
LINE
  5
C2
330
1F
100
AcDbEntity
  8
0
  6
Continuous
 62
     7
370
    15
100
AcDbLine
 10
233.4538302807
 20
123.773316687
 30
0.0
 11
233.4538302807
 21
104.673316687
 31
0.0
  0
LINE
  5
C3
330
1F
100
AcDbEntity
  8
0
  6
Continuous
 62
     7
370
    15
100
AcDbLine
 10
233.0538302807
 20
104.673316687
 30
0.0
 11
233.0538302807
 21
85.173316687
 31
0.0
  0
LINE
  5
C4
330
1F
100
AcDbEntity
  8
0
  6
Continuous
 62
     7
370
    15
100
AcDbLine
 10
233.0538302807
 20
124.173316687
 30
0.0
 11
233.0538302807
 21
104.673316687
 31
0.0
  0
SPLINE
  5
C5
330
1F
100
AcDbEntity
  8
0
  6
Continuous
 62
     7
370
    15
100
AcDbSpline
210
0.0
220
0.0
230
1.0
 70
    11
 71
     3
 72
    77
 73
    73
 74
     0
 42
0.000000001
 43
0.00000001
 40
0.0
 40
0.0
 40
0.0
 40
0.0
 40
0.03125
 40
0.03125
 40
0.0624999999999999
 40
0.0624999999999999
 40
0.0937499999999999
 40
0.0937499999999999
 40
0.1249999999999999
 40
0.1249999999999999
 40
0.1562499999999998
 40
0.1562499999999998
 40
0.1874999999999998
 40
0.1874999999999998
 40
0.2187499999999998
 40
0.2187499999999998
 40
0.2499999999999997
 40
0.2499999999999997
 40
0.2812499999999997
 40
0.2812499999999997
 40
0.3124999999999997
 40
0.3124999999999997
 40
0.3437499999999996
 40
0.3437499999999996
 40
0.3593749999999996
 40
0.3593749999999996
 40
0.3749999999999996
 40
0.3906249999999996
 40
0.3906249999999996
 40
0.4062499999999996
 40
0.4062499999999996
 40
0.4374999999999996
 40
0.4374999999999996
 40
0.4687499999999996
 40
0.4687499999999996
 40
0.4999999999999996
 40
0.4999999999999996
 40
0.5312499999999996
 40
0.5312499999999996
 40
0.5624999999999994
 40
0.5624999999999994
 40
0.5937499999999994
 40
0.5937499999999994
 40
0.6249999999999994
 40
0.6249999999999994
 40
0.6562499999999993
 40
0.6562499999999993
 40
0.6874999999999993
 40
0.6874999999999993
 40
0.7187499999999993
 40
0.7187499999999993
 40
0.7499999999999992
 40
0.7499999999999992
 40
0.7656249999999994
 40
0.7656249999999994
 40
0.7812499999999997
 40
0.7812499999999997
 40
0.8124999999999998
 40
0.8124999999999998
 40
0.8437499999999999
 40
0.8437499999999999
 40
0.8749999999999999
 40
0.8749999999999999
 40
0.8906249999999999
 40
0.8906249999999999
 40
0.9062499999999999
 40
0.9062499999999999
 40
0.9375
 40
0.9375
 40
0.96875
 40
0.96875
 40
1.0
 40
1.0
 40
1.0
 40
1.0
 10
220.0534302252062
 20
107.9916759049101
 30
0.0
 10
220.2957768739451
 20
108.1881476244069
 30
0.0
 10
220.5528980287439
 20
108.3585689014681
 30
0.0
 10
221.094307137149
 20
108.6521731823361
 30
0.0
 10
221.3806276665714
 20
108.7759479974472
 30
0.0
 10
221.972149800322
 20
108.9723439273305
 30
0.0
 10
222.2731545135716
 20
109.0439800790643
 30
0.0
 10
222.885279597088
 20
109.1363982674085
 30
0.0
 10
223.199385793407
 20
109.1569976904318
 30
0.0
 10
223.8219110064276
 20
109.1449824476655
 30
0.0
 10
224.1294695730247
 20
109.1129980224211
 30
0.0
 10
224.7372710477435
 20
108.9975451253127
 30
0.0
 10
225.040448134275
 20
108.9128009520974
 30
0.0
 10
225.620625434014
 20
108.6943902163997
 30
0.0
 10
225.8981279373919
 20
108.5613246636388
 30
0.0
 10
226.4275770989576
 20
108.2461481206073
 30
0.0
 10
226.6819890694344
 20
108.0615370282439
 30
0.0
 10
227.1441729952501
 20
107.6527887657844
 30
0.0
 10
227.3534784173313
 20
107.4285695985597
 30
0.0
 10
227.7259695962971
 20
106.9375664847571
 30
0.0
 10
227.8900177989967
 20
106.6675036189239
 30
0.0
 10
228.150526868
 20
106.1078843702981
 30
0.0
 10
228.2495647311586
 20
105.8160168665969
 30
0.0
 10
228.3475531871964
 20
105.3585556880764
 30
0.0
 10
228.3716084481654
 20
105.2023304109302
 30
0.0
 10
228.4008456971857
 20
104.8922848044697
 30
0.0
 10
228.4118097428056
 20
104.5824282709737
 30
0.0
 10
228.386712511281
 20
104.2729449997668
 30
0.0
 10
228.3432492046569
 20
103.9636516757949
 30
0.0
 10
228.3121193663337
 20
103.8088237755383
 30
0.0
 10
228.1938300510941
 20
103.3568983976705
 30
0.0
 10
228.0816569901408
 20
103.0680403347847
 30
0.0
 10
227.7934376365979
 20
102.5139730327666
 30
0.0
 10
227.6201157968936
 20
102.2548328239266
 30
0.0
 10
227.2263516305613
 20
101.7780491655392
 30
0.0
 10
227.0025619423962
 20
101.5571732353824
 30
0.0
 10
226.522591280624
 20
101.1663047257744
 30
0.0
 10
226.2658001086568
 20
100.9947367671989
 30
0.0
 10
225.7196526844899
 20
100.697211046978
 30
0.0
 10
225.432107032783
 20
100.572850389271
 30
0.0
 10
224.8452776572716
 20
100.3770639148774
 30
0.0
 10
224.5437215373754
 20
100.3043613007413
 30
0.0
 10
223.9239349357615
 20
100.2101585204868
 30
0.0
 10
223.6133587148935
 20
100.1899225356929
 30
0.0
 10
222.9942766699078
 20
100.2011097419145
 30
0.0
 10
222.6844232891226
 20
100.2325930196628
 30
0.0
 10
222.0689174891691
 20
100.3492274486261
 30
0.0
 10
221.7707522009876
 20
100.4328193047909
 30
0.0
 10
221.1930935123679
 20
100.6496482637448
 30
0.0
 10
220.9121407089011
 20
100.7837258909398
 30
0.0
 10
220.3767425213063
 20
101.1025043775047
 30
0.0
 10
220.1276467224899
 20
101.2836606974337
 30
0.0
 10
219.7821321804756
 20
101.5887642980269
 30
0.0
 10
219.6716819536021
 20
101.6960662667783
 30
0.0
 10
219.4607125671128
 20
101.9225322061842
 30
0.0
 10
219.3596064677799
 20
102.0425279404612
 30
0.0
 10
219.0781087077189
 20
102.4141994201772
 30
0.0
 10
218.9185763396138
 20
102.6774859013881
 30
0.0
 10
218.6579621701915
 20
103.2366100944378
 30
0.0
 10
218.5562656547149
 20
103.5371343456587
 30
0.0
 10
218.4269498071459
 20
104.1449375053989
 30
0.0
 10
218.3976141022259
 20
104.4532441262965
 30
0.0
 10
218.4085619387446
 20
104.9225700274497
 30
0.0
 10
218.4216207329718
 20
105.080189006596
 30
0.0
 10
218.4654890071792
 20
105.38886661359
 30
0.0
 10
218.4962829856231
 20
105.5410664848296
 30
0.0
 10
218.6145015427289
 20
105.9914412402876
 30
0.0
 10
218.7295484435319
 20
106.2864887961581
 30
0.0
 10
219.0171099633364
 20
106.8371046684912
 30
0.0
 10
219.189323510883
 20
107.0946790418688
 30
0.0
 10
219.5882323925763
 20
107.5762266596321
 30
0.0
 10
219.8110835764672
 20
107.7952041854132
 30
0.0
 10
220.0534302252061
 20
107.99167590491
 30
0.0
  0
CIRCLE
  5
C6
330
1F
100
AcDbEntity
  8
0
  6
HIDDEN
 62
     7
370
     0
100
AcDbCircle
 10
223.4038302807
 20
104.673316687
 30
0.0
 40
2.953589838486224
  0
CIRCLE
  5
C7
330
1F
100
AcDbEntity
  8
0
  6
HIDDEN
 62
     7
370
     0
100
AcDbCircle
 10
223.4038302807
 20
104.673316687
 30
0.0
 40
2.753589838486235
  0
CIRCLE
  5
C8
330
1F
100
AcDbEntity
  8
0
  6
HIDDEN
 62
     7
370
     0
100
AcDbCircle
 10
223.4038302807
 20
104.673316687
 30
0.0
 40
3.624999999999986
  0
LINE
  5
C9
330
1F
100
AcDbEntity
  8
0
  6
HIDDEN
 62
     7
370
     0
100
AcDbLine
 10
167.6288302807
 20
142.173316687
 30
0.0
 11
168.2974594308
 21
142.173316687
 31
0.0
  0
ELLIPSE
  5
CA
330
1F
100
AcDbEntity
  8
0
  6
HIDDEN
 62
     7
370
     0
100
AcDbEllipse
 10
168.2974594308
 20
142.973316687
 30
0.0
 11
0.0
 21
0.7999999999999829
 31
0.0
210
0.0
220
0.0
230
1.0
 40
0.4142135624
 41
3.141592653589793
 42
4.712388980384695
  0
LINE
  5
CB
330
1F
100
AcDbEntity
  8
0
  6
HIDDEN
 62
     7
370
     0
100
AcDbLine
 10
168.2974594308
 20
69.573316687
 30
0.0
 11
167.6288302807
 21
69.573316687
 31
0.0
  0
ELLIPSE
  5
CC
330
1F
100
AcDbEntity
  8
0
  6
HIDDEN
 62
     7
370
     0
100
AcDbEllipse
 10
168.2974594308
 20
68.773316687
 30
0.0
 11
0.0
 21
0.8000000000000114
 31
0.0
210
0.0
220
0.0
230
1.0
 40
0.4142135624
 41
4.712388980384713
 42
6.283185307179586
  0
LINE
  5
CD
330
1F
100
AcDbEntity
  8
0
  6
HIDDEN
 62
     7
370
     0
100
AcDbLine
 10
168.6288302807
 20
57.9834592492
 30
0.0
 11
167.84395251
 21
57.5327920509
 31
0.0
  0
LINE
  5
CE
330
1F
100
AcDbEntity
  8
0
  6
HIDDEN
 62
     7
370
     0
100
AcDbLine
 10
167.9175464594
 20
151.8898387064
 30
0.0
 11
168.6288302807
 21
151.178554885
 31
0.0
  0
LINE
  5
CF
330
1F
100
AcDbEntity
  8
0
  6
HIDDEN
 62
     7
370
     0
100
AcDbLine
 10
70.4018320893
 20
93.548316687
 30
0.0
 11
70.4018320893
 21
115.798316687
 31
0.0
  0
LINE
  5
D0
330
1F
100
AcDbEntity
  8
0
  6
HIDDEN
 62
     7
370
     0
100
AcDbLine
 10
183.5038302807
 20
69.573316687
 30
0.0
 11
168.2974594308
 21
69.573316687
 31
0.0
  0
LINE
  5
D1
330
1F
100
AcDbEntity
  8
0
  6
HIDDEN
 62
     7
370
     0
100
AcDbLine
 10
172.4818221557
 20
57.9834592492
 30
0.0
 11
168.6288302807
 21
57.9834592492
 31
0.0
  0
LINE
  5
D2
330
1F
100
AcDbEntity
  8
0
  6
HIDDEN
 62
     7
370
     0
100
AcDbLine
 10
183.5038302807
 20
57.9834592492
 30
0.0
 11
178.6258384058
 21
57.9834592492
 31
0.0
  0
LINE
  5
D3
330
1F
100
AcDbEntity
  8
0
  6
HIDDEN
 62
     7
370
     0
100
AcDbLine
 10
168.6288302807
 20
57.9834592492
 30
0.0
 11
168.6288302807
 21
68.773316687
 31
0.0
  0
LINE
  5
D4
330
1F
100
AcDbEntity
  8
0
  6
HIDDEN
 62
     7
370
     0
100
AcDbLine
 10
168.6288302807
 20
151.178554885
 30
0.0
 11
172.5845766257
 21
151.178554885
 31
0.0
  0
LINE
  5
D5
330
1F
100
AcDbEntity
  8
0
  6
HIDDEN
 62
     7
370
     0
100
AcDbLine
 10
178.5230839358
 20
151.1785548851
 30
0.0
 11
183.5038302807
 21
151.178554885
 31
0.0
  0
LINE
  5
D6
330
1F
100
AcDbEntity
  8
0
  6
HIDDEN
 62
     7
370
     0
100
AcDbLine
 10
168.6288302807
 20
151.178554885
 30
0.0
 11
168.6288302807
 21
142.973316687
 31
0.0
  0
LINE
  5
D7
330
1F
100
AcDbEntity
  8
0
  6
HIDDEN
 62
     7
370
     0
100
AcDbLine
 10
168.2974594308
 20
142.173316687
 30
0.0
 11
183.5038302807
 21
142.173316687
 31
0.0
  0
SPLINE
  5
D8
330
1F
100
AcDbEntity
  8
0
  6
HIDDEN
 62
     7
370
     0
100
AcDbSpline
210
0.0
220
0.0
230
1.0
 70
     8
 71
     3
 72
    16
 73
    12
 74
     0
 42
0.000000001
 43
0.00000001
 40
0.0
 40
0.0
 40
0.0
 40
0.0
 40
0.249999999999993
 40
0.249999999999993
 40
0.499999999999986
 40
0.499999999999986
 40
0.6249999999999898
 40
0.6249999999999898
 40
0.7499999999999937
 40
0.7499999999999937
 40
1.0
 40
1.0
 40
1.0
 40
1.0
 10
233.4538302807365
 20
115.1374218020686
 30
0.0
 10
233.4538302807365
 20
115.0483561335633
 30
0.0
 10
233.4485105405492
 20
114.9574937601148
 30
0.0
 10
233.419073415929
 20
114.7694206436949
 30
0.0
 10
233.3956828698659
 20
114.671319451794
 30
0.0
 10
233.3275554397737
 20
114.5312911032703
 30
0.0
 10
233.2985938931832
 20
114.4865909368185
 30
0.0
 10
233.2320523502287
 20
114.4165205093385
 30
0.0
 10
233.194606215432
 20
114.3913181177982
 30
0.0
 10
233.0842369315204
 20
114.346178471145
 30
0.0
 10
233.0162055937125
 20
114.3517768067702
 30
0.0
 10
232.9538302807101
 20
114.367511757971
 30
0.0
  0
SPLINE
  5
D9
330
1F
100
AcDbEntity
  8
0
  6
HIDDEN
 62
     7
370
     0
100
AcDbSpline
210
0.0
220
0.0
230
1.0
 70
     8
 71
     3
 72
     8
 73
     4
 74
     0
 42
0.000000001
 43
0.00000001
 40
0.0
 40
0.0
 40
0.0
 40
0.0
 40
1.0
 40
1.0
 40
1.0
 40
1.0
 10
232.9538302807109
 20
114.3675117579701
 30
0.0
 10
232.8687908836517
 20
114.3100676666774
 30
0.0
 10
232.7637716327077
 20
114.2693104222645
 30
0.0
 10
232.6538302807368
 20
114.2693104222644
 30
0.0
  0
SPLINE
  5
DA
330
1F
100
AcDbEntity
  8
0
  6
HIDDEN
 62
     7
370
     0
100
AcDbSpline
210
0.0
220
0.0
230
1.0
 70
     8
 71
     3
 72
     8
 73
     4
 74
     0
 42
0.000000001
 43
0.00000001
 40
0.0
 40
0.0
 40
0.0
 40
0.0
 40
1.0
 40
1.0
 40
1.0
 40
1.0
 10
232.9538302807546
 20
94.97912161606966
 30
0.0
 10
232.8687908836863
 20
95.03656570737795
 30
0.0
 10
232.7637716327266
 20
95.0773229518048
 30
0.0
 10
232.6538302807368
 20
95.07732295180487
 30
0.0
  0
SPLINE
  5
DB
330
1F
100
AcDbEntity
  8
0
  6
HIDDEN
 62
     7
370
     0
100
AcDbSpline
210
0.0
220
0.0
230
1.0
 70
     8
 71
     3
 72
    16
 73
    12
 74
     0
 42
0.000000001
 43
0.00000001
 40
0.0
 40
0.0
 40
0.0
 40
0.0
 40
0.2499999999999946
 40
0.2499999999999946
 40
0.3749999999999918
 40
0.3749999999999918
 40
0.4999999999999891
 40
0.4999999999999891
 40
0.7499999999999946
 40
0.7499999999999946
 40
1.0
 40
1.0
 40
1.0
 40
1.0
 10
232.9538302807538
 20
94.97912161606875
 30
0.0
 10
233.0159033641116
 20
94.99478038899618
 30
0.0
 10
233.0837126479967
 20
95.00038127789671
 30
0.0
 10
233.1935684199329
 20
94.95588393881519
 30
0.0
 10
233.2308753377211
 20
94.93100381150724
 30
0.0
 10
233.2971830198834
 20
94.86186823159618
 30
0.0
 10
233.3261492410314
 20
94.81774373229368
 30
0.0
 10
233.3949611911481
 20
94.67774413553325
 30
0.0
 10
233.4186718652583
 20
94.57903678191107
 30
0.0
 10
233.4483728737035
 20
94.39074874464801
 30
0.0
 10
233.4538302807366
 20
94.29851236691046
 30
0.0
 10
233.4538302807365
 20
94.20921174820465
 30
0.0
  0
LINE
  5
DC
330
1F
100
AcDbEntity
  8
0
  6
HIDDEN
 62
     7
370
     0
100
AcDbLine
 10
208.9538302807
 20
104.673316687
 30
0.0
 11
208.9538302807
 21
94.173316687
 31
0.0
  0
LINE
  5
DD
330
1F
100
AcDbEntity
  8
0
  6
HIDDEN
 62
     7
370
     0
100
AcDbLine
 10
208.9538302807
 20
115.173316687
 30
0.0
 11
208.9538302807
 21
104.673316687
 31
0.0
  0
LINE
  5
DE
330
1F
100
AcDbEntity
  8
0
  6
HIDDEN
 62
     7
370
     0
100
AcDbLine
 10
212.8198556845
 20
104.673316687
 30
0.0
 11
212.8198556845
 21
93.673316687
 31
0.0
  0
LINE
  5
DF
330
1F
100
AcDbEntity
  8
0
  6
HIDDEN
 62
     7
370
     0
100
AcDbLine
 10
212.8198556845
 20
115.673316687
 30
0.0
 11
212.8198556845
 21
104.673316687
 31
0.0
  0
LINE
  5
E0
330
1F
100
AcDbEntity
  8
0
  6
HIDDEN
 62
     7
370
     0
100
AcDbLine
 10
124.8538302807
 20
93.548316687
 30
0.0
 11
124.8538302807
 21
115.798316687
 31
0.0
  0
LINE
  5
E1
330
1F
100
AcDbEntity
  8
0
  6
HIDDEN
 62
     7
370
     0
100
AcDbLine
 10
128.9847470366
 20
100.423316687
 30
0.0
 11
128.9847470366
 21
108.923316687
 31
0.0
  0
LINE
  5
E2
330
1F
100
AcDbEntity
  8
0
  6
HIDDEN
 62
     7
370
     0
100
AcDbLine
 10
222.8538302807
 20
114.2693104223
 30
0.0
 11
232.6538302807
 21
114.2693104223
 31
0.0
  0
LINE
  5
E3
330
1F
100
AcDbEntity
  8
0
  6
HIDDEN
 62
     7
370
     0
100
AcDbLine
 10
222.8538302807
 20
95.0773229518
 30
0.0
 11
232.6538302807
 21
95.0773229518
 31
0.0
  0
SPLINE
  5
E4
330
1F
100
AcDbEntity
  8
0
  6
HIDDEN
 62
     7
370
     0
100
AcDbSpline
210
0.0
220
0.0
230
1.0
 70
     8
 71
     3
 72
    21
 73
    17
 74
     0
 42
0.000000001
 43
0.00000001
 40
0.0
 40
0.0
 40
0.0
 40
0.0
 40
0.0704844976166529
 40
0.1522792309995233
 40
0.2769045502108293
 40
0.3438893746576002
 40
0.4111982115584658
 40
0.4653554831103677
 40
0.5341268423501828
 40
0.6032472584285631
 40
0.6703121606919737
 40
0.7376998115243134
 40
0.7919199982830197
 40
0.8607719818743271
 40
0.9299767872802077
 40
1.0
 40
1.0
 40
1.0
 40
1.0
 10
232.9071541778523
 20
120.3768726624568
 30
0.0
 10
232.9061318601553
 20
120.3764706326359
 30
0.0
 10
232.90392317941
 20
120.3756020616162
 30
0.0
 10
232.9027000385047
 20
120.3317462556807
 30
0.0
 10
232.9038405713116
 20
120.2622541392352
 30
0.0
 10
232.9073024646452
 20
120.1679900667448
 30
0.0
 10
232.9109684743704
 20
120.0862242896972
 30
0.0
 10
232.9154387928764
 20
119.9917941038801
 30
0.0
 10
232.9207114168335
 20
119.8847015664453
 30
0.0
 10
232.9271147828065
 20
119.756905781631
 30
0.0
 10
232.9337752397423
 20
119.6173659589171
 30
0.0
 10
232.9397440456591
 20
119.4770890305545
 30
0.0
 10
232.9451635933003
 20
119.326167354404
 30
0.0
 10
232.9496441960017
 20
119.164591621978
 30
0.0
 10
232.9530460987339
 20
118.9802346259643
 30
0.0
 10
232.9535678735062
 20
118.8492127234417
 30
0.0
 10
232.9538302944352
 20
118.7833166870347
 30
0.0
  0
LINE
  5
E5
330
1F
100
AcDbEntity
  8
0
  6
HIDDEN
 62
     7
370
     0
100
AcDbLine
 10
232.9538302944
 20
118.783316687
 30
0.0
 11
232.9538302807
 21
114.367511758
 31
0.0
  0
LINE
  5
E6
330
1F
100
AcDbEntity
  8
0
  6
HIDDEN
 62
     7
370
     0
100
AcDbLine
 10
232.9538302748
 20
90.563316687
 30
0.0
 11
232.9538302808
 21
94.9791216161
 31
0.0
  0
SPLINE
  5
E7
330
1F
100
AcDbEntity
  8
0
  6
HIDDEN
 62
     7
370
     0
100
AcDbSpline
210
0.0
220
0.0
230
1.0
 70
     8
 71
     3
 72
    14
 73
    10
 74
     0
 42
0.000000001
 43
0.00000001
 40
0.0
 40
0.0
 40
0.0
 40
0.0
 40
0.25
 40
0.25
 40
0.5
 40
0.5
 40
0.75
 40
0.75
 40
1.0
 40
1.0
 40
1.0
 40
1.0
 10
232.9538302807365
 20
90.56331668703463
 30
0.0
 10
232.9538302807365
 20
90.33326931055068
 30
0.0
 10
232.9538805589682
 20
90.12516727998063
 30
0.0
 10
232.9502194118914
 20
89.75047846231945
 30
0.0
 10
232.9473410363845
 20
89.58207224463857
 30
0.0
 10
232.9383779346628
 20
89.30537748419626
 30
0.0
 10
232.9327129862792
 20
89.19516107532775
 30
0.0
 10
232.9207670845992
 20
89.03394564153561
 30
0.0
 10
232.9149252270358
 20
88.98592818480539
 30
0.0
 10
232.9104856859328
 20
88.96954458408423
 30
0.0
  0
SPLINE
  5
E8
330
1F
100
AcDbEntity
  8
0
  6
HIDDEN
 62
     7
370
     0
100
AcDbSpline
210
0.0
220
0.0
230
1.0
 70
     8
 71
     3
 72
    18
 73
    14
 74
     0
 42
0.000000001
 43
0.00000001
 40
0.0
 40
0.0
 40
0.0
 40
0.0
 40
0.0069970909414996
 40
0.0873514148955216
 40
0.2508047782564235
 40
0.3341016545578689
 40
0.4142336051969266
 40
0.5772103433540838
 40
0.6602467501803401
 40
0.7435566656695266
 40
0.8274889221686389
 40
0.9133990327568312
 40
1.0
 40
1.0
 40
1.0
 40
1.0
 10
232.9068451986006
 20
88.96464541936265
 30
0.0
 10
232.9067326147708
 20
88.9644727532064
 30
0.0
 10
232.9053271225591
 20
88.96231719553522
 30
0.0
 10
232.9030099138758
 20
88.98684243997641
 30
0.0
 10
232.9028532183708
 20
89.05160031962596
 30
0.0
 10
232.9066777544936
 20
89.16466199469302
 30
0.0
 10
232.9129198200278
 20
89.30499860926147
 30
0.0
 10
232.9220216784344
 20
89.48646514194033
 30
0.0
 10
232.9328249531118
 20
89.70690056830203
 30
0.0
 10
232.9407655690812
 20
89.89251139949157
 30
0.0
 10
232.947557535337
 20
90.09750521846001
 30
0.0
 10
232.9526194101169
 20
90.32023940082708
 30
0.0
 10
232.9534255771151
 20
90.4820748902885
 30
0.0
 10
232.9538302748462
 20
90.56331668703464
 30
0.0
  0
LINE
  5
E9
330
1F
100
AcDbEntity
  8
0
  6
HIDDEN
 62
     7
370
     0
100
AcDbLine
 10
222.8538302807
 20
118.783316687
 30
0.0
 11
222.8538302807
 21
114.2693104223
 31
0.0
  0
LINE
  5
EA
330
1F
100
AcDbEntity
  8
0
  6
HIDDEN
 62
     7
370
     0
100
AcDbLine
 10
222.8538302807
 20
90.563316687
 30
0.0
 11
222.8538302807
 21
95.0773229518
 31
0.0
  0
LINE
  5
EB
330
1F
100
AcDbEntity
  8
0
  6
HIDDEN
 62
     7
370
     0
100
AcDbLine
 10
170.8038302807
 20
141.773316687
 30
0.0
 11
180.3038302807
 21
141.773316687
 31
0.0
  0
LINE
  5
EC
330
1F
100
AcDbEntity
  8
0
  6
HIDDEN
 62
     7
370
     0
100
AcDbLine
 10
222.8538302807
 20
120.383316687
 30
0.0
 11
222.8538302807
 21
118.783316687
 31
0.0
  0
LINE
  5
ED
330
1F
100
AcDbEntity
  8
0
  6
HIDDEN
 62
     7
370
     0
100
AcDbLine
 10
222.8538302807
 20
88.963316687
 30
0.0
 11
222.8538302807
 21
90.563316687
 31
0.0
  0
ARC
  5
EE
330
1F
100
AcDbEntity
  8
0
  6
HIDDEN
 62
     7
370
     0
100
AcDbCircle
 10
64.0538302807
 20
90.273316687
 30
0.0
 40
1.200000000000003
100
AcDbArc
 50
90.0
 51
180.0
  0
ARC
  5
EF
330
1F
100
AcDbEntity
  8
0
  6
HIDDEN
 62
     7
370
     0
100
AcDbCircle
 10
64.0538302807
 20
119.073316687
 30
0.0
 40
1.200000000000003
100
AcDbArc
 50
180.0
 51
270.0
  0
LINE
  5
F0
330
1F
100
AcDbEntity
  8
0
  6
HIDDEN
 62
     7
370
     0
100
AcDbLine
 10
64.0538302807
 20
91.473316687
 30
0.0
 11
68.9728901731
 21
91.473316687
 31
0.0
  0
LINE
  5
F1
330
1F
100
AcDbEntity
  8
0
  6
HIDDEN
 62
     7
370
     0
100
AcDbLine
 10
68.9728901731
 20
117.873316687
 30
0.0
 11
64.0538302807
 21
117.873316687
 31
0.0
  0
ARC
  5
F2
330
1F
100
AcDbEntity
  8
0
  6
HIDDEN
 62
     7
370
     0
100
AcDbCircle
 10
68.9728901731
 20
91.873316687
 30
0.0
 40
0.3999999999999804
100
AcDbArc
 50
270.0
 51
330.0
  0
ARC
  5
F3
330
1F
100
AcDbEntity
  8
0
  6
HIDDEN
 62
     7
370
     0
100
AcDbCircle
 10
68.9728901731
 20
117.473316687
 30
0.0
 40
0.3999999999999915
100
AcDbArc
 50
30.0
 51
90.0
  0
LINE
  5
F4
330
1F
100
AcDbEntity
  8
0
  6
HIDDEN
 62
     7
370
     0
100
AcDbLine
 10
69.3193003346
 20
91.673316687
 30
0.0
 11
70.4018320893
 21
93.548316687
 31
0.0
  0
LINE
  5
F5
330
1F
100
AcDbEntity
  8
0
  6
HIDDEN
 62
     7
370
     0
100
AcDbLine
 10
70.4018320893
 20
115.798316687
 30
0.0
 11
69.3193003346
 21
117.673316687
 31
0.0
  0
LINE
  5
F6
330
1F
100
AcDbEntity
  8
0
  6
HIDDEN
 62
     7
370
     0
100
AcDbLine
 10
210.8221777831
 20
116.173316687
 30
0.0
 11
209.9538302807
 21
116.173316687
 31
0.0
  0
LINE
  5
F7
330
1F
100
AcDbEntity
  8
0
  6
HIDDEN
 62
     7
370
     0
100
AcDbLine
 10
209.9538302807
 20
93.173316687
 30
0.0
 11
210.8221777831
 21
93.173316687
 31
0.0
  0
ARC
  5
F8
330
1F
100
AcDbEntity
  8
0
  6
HIDDEN
 62
     7
370
     0
100
AcDbCircle
 10
209.9538302807
 20
115.173316687
 30
0.0
 40
1.000000000000014
100
AcDbArc
 50
90.0
 51
180.0
  0
ARC
  5
F9
330
1F
100
AcDbEntity
  8
0
  6
HIDDEN
 62
     7
370
     0
100
AcDbCircle
 10
209.9538302807
 20
94.173316687
 30
0.0
 40
1.0
100
AcDbArc
 50
180.0
 51
270.0
  0
ARC
  5
FA
330
1F
100
AcDbEntity
  8
0
  6
HIDDEN
 62
     7
370
     0
100
AcDbCircle
 10
210.8221777831
 20
115.173316687
 30
0.0
 40
1.0
100
AcDbArc
 50
75.0
 51
90.0
  0
ARC
  5
FB
330
1F
100
AcDbEntity
  8
0
  6
HIDDEN
 62
     7
370
     0
100
AcDbCircle
 10
210.8221777831
 20
94.173316687
 30
0.0
 40
0.9999999999999858
100
AcDbArc
 50
270.0
 51
285.0
  0
LINE
  5
FC
330
1F
100
AcDbEntity
  8
0
  6
HIDDEN
 62
     7
370
     0
100
AcDbLine
 10
211.0809968283
 20
93.2073908607
 30
0.0
 11
212.8198556845
 21
93.673316687
 31
0.0
  0
LINE
  5
FD
330
1F
100
AcDbEntity
  8
0
  6
HIDDEN
 62
     7
370
     0
100
AcDbLine
 10
212.8198556845
 20
115.673316687
 30
0.0
 11
211.0809968283
 21
116.1392425133
 31
0.0
  0
LINE
  5
FE
330
1F
100
AcDbEntity
  8
0
  6
HIDDEN
 62
     7
370
     0
100
AcDbLine
 10
70.4018320893
 20
93.548316687
 30
0.0
 11
124.8538302807
 21
93.548316687
 31
0.0
  0
LINE
  5
FF
330
1F
100
AcDbEntity
  8
0
  6
HIDDEN
 62
     7
370
     0
100
AcDbLine
 10
124.8538302807
 20
115.798316687
 30
0.0
 11
70.4018320893
 21
115.798316687
 31
0.0
  0
LINE
  5
100
330
1F
100
AcDbEntity
  8
0
  6
HIDDEN
 62
     7
370
     0
100
AcDbLine
 10
124.8538302807
 20
93.548316687
 30
0.0
 11
128.9847470366
 21
100.423316687
 31
0.0
  0
LINE
  5
101
330
1F
100
AcDbEntity
  8
0
  6
HIDDEN
 62
     7
370
     0
100
AcDbLine
 10
128.9847470366
 20
108.923316687
 30
0.0
 11
124.8538302807
 21
115.798316687
 31
0.0
  0
LINE
  5
102
330
1F
100
AcDbEntity
  8
0
  6
HIDDEN
 62
     7
370
     0
100
AcDbLine
 10
222.8538302807
 20
115.673316687
 30
0.0
 11
212.8198556845
 21
115.673316687
 31
0.0
  0
LINE
  5
103
330
1F
100
AcDbEntity
  8
0
  6
HIDDEN
 62
     7
370
     0
100
AcDbLine
 10
212.8198556845
 20
93.673316687
 30
0.0
 11
222.8538302807
 21
93.673316687
 31
0.0
  0
LINE
  5
104
330
1F
100
AcDbEntity
  8
0
  6
HIDDEN
 62
     7
370
     0
100
AcDbLine
 10
233.4538302807
 20
120.9299203193
 30
0.0
 11
232.8982230218
 21
120.3743221321
 31
0.0
  0
LINE
  5
105
330
1F
100
AcDbEntity
  8
0
  6
HIDDEN
 62
     7
370
     0
100
AcDbLine
 10
232.8986489529
 20
88.9718827429
 30
0.0
 11
233.4538302807
 21
88.4167122461
 31
0.0
  0
LINE
  5
106
330
1F
100
AcDbEntity
  8
0
  6
HIDDEN
 62
     7
370
     0
100
AcDbLine
 10
170.8038302807
 20
142.173316687
 30
0.0
 11
170.8038302807
 21
141.773316687
 31
0.0
  0
LINE
  5
107
330
1F
100
AcDbEntity
  8
0
  6
HIDDEN
 62
     7
370
     0
100
AcDbLine
 10
180.3038302807
 20
141.773316687
 30
0.0
 11
180.3038302807
 21
142.173316687
 31
0.0
  0
LINE
  5
108
330
1F
100
AcDbEntity
  8
0
  6
HIDDEN
 62
     7
370
     0
100
AcDbLine
 10
170.8038302807
 20
141.773316687
 30
0.0
 11
175.5538302807
 21
138.9192287467
 31
0.0
  0
LINE
  5
109
330
1F
100
AcDbEntity
  8
0
  6
HIDDEN
 62
     7
370
     0
100
AcDbLine
 10
175.5538302807
 20
138.9192287467
 30
0.0
 11
180.3038302807
 21
141.773316687
 31
0.0
  0
LINE
  5
10A
330
1F
100
AcDbEntity
  8
0
  6
HIDDEN
 62
     7
370
     0
100
AcDbLine
 10
128.9847470366
 20
100.423316687
 30
0.0
 11
208.9538302807
 21
100.423316687
 31
0.0
  0
LINE
  5
10B
330
1F
100
AcDbEntity
  8
0
  6
HIDDEN
 62
     7
370
     0
100
AcDbLine
 10
208.9538302807
 20
108.923316687
 30
0.0
 11
128.9847470366
 21
108.923316687
 31
0.0
  0
LINE
  5
10C
330
1F
100
AcDbEntity
  8
0
  6
HIDDEN
 62
     7
370
     0
100
AcDbLine
 10
232.9077638309
 20
120.383316687
 30
0.0
 11
222.8538302807
 21
120.383316687
 31
0.0
  0
LINE
  5
10D
330
1F
100
AcDbEntity
  8
0
  6
HIDDEN
 62
     7
370
     0
100
AcDbLine
 10
222.8538302807
 20
88.963316687
 30
0.0
 11
232.9075964904
 21
88.963316687
 31
0.0
  0
DIMENSION
  5
10E
330
1F
100
AcDbEntity
  8
VERMASSUNG
100
AcDbDimension
  2
_D
 10
53.8888166987
 20
153.885816687
 30
0.0
 11
53.8888166987
 21
104.673316687
 31
0.0
 70
   160
  1
CAT 50 %%c<>
 71
     2
 42
-1.0
  3
SLDDIMSTYLE0
100
AcDbAlignedDimension
 13
182.9038302807
 23
55.460816687
 33
0.0
 14
182.9038302807
 24
153.885816687
 34
0.0
 50
90.0
100
AcDbRotatedDimension
  0
DIMENSION
  5
11B
330
1F
100
AcDbEntity
  8
VERMASSUNG
100
AcDbDimension
  2
_D_1
 10
241.2525879855
 20
93.673316687
 30
0.0
 11
241.2525879855
 21
104.673316687
 31
0.0
 70
   160
  1
%%c<>
 71
     2
 42
-1.0
  3
SLDDIMSTYLE0
100
AcDbAlignedDimension
 13
222.8538302807
 23
115.673316687
 33
0.0
 14
222.8538302807
 24
93.673316687
 34
0.0
 50
90.0
100
AcDbRotatedDimension
  0
DIMENSION
  5
126
330
1F
100
AcDbEntity
  8
VERMASSUNG
100
AcDbDimension
  2
_D_2
 10
233.4538302807
 20
159.7877199962
 30
0.0
 11
198.9538302807
 21
159.7877199962
 31
0.0
 70
   160
  1
<>
 71
     2
 42
-1.0
  3
SLDDIMSTYLE0
100
AcDbAlignedDimension
 13
164.4538302807
 23
139.598316687
 33
0.0
 14
233.4538302807
 24
123.773316687
 34
0.0
100
AcDbRotatedDimension
  0
DIMENSION
  5
130
330
1F
100
AcDbEntity
  8
VERMASSUNG
100
AcDbDimension
  2
_D_3
 10
233.4538302807
 20
153.7877199962
 30
0.0
 11
216.4538302807
 21
153.7877199962
 31
0.0
 70
   160
  1
(<>)
 71
     2
 42
-1.0
  3
SLDDIMSTYLE0
100
AcDbAlignedDimension
 13
199.4538302807
 23
138.598316687
 33
0.0
 14
233.4538302807
 24
123.773316687
 34
0.0
100
AcDbRotatedDimension
  0
DIMENSION
  5
13C
330
1F
100
AcDbEntity
  8
VERMASSUNG
100
AcDbDimension
  2
_D_4
 10
62.8538302807
 20
165.7877199962
 30
0.0
 11
148.1538302807
 21
165.7877199962
 31
0.0
 70
   160
  1
(<>)
 71
     2
 42
-1.0
  3
SLDDIMSTYLE0
100
AcDbAlignedDimension
 13
233.4538302807
 23
123.773316687
 33
0.0
 14
62.8538302807
 24
123.0521612144
 34
0.0
100
AcDbRotatedDimension
  0
DIMENSION
  5
148
330
1F
100
AcDbEntity
  8
VERMASSUNG
100
AcDbDimension
  2
_D_5
 10
247.2525879855
 20
85.173316687
 30
0.0
 11
247.2525879855
 21
104.673316687
 31
0.0
 70
   160
  1
ST4 %%c<>
 71
     2
 42
-1.0
  3
SLDDIMSTYLE0
100
AcDbAlignedDimension
 13
233.0538302807
 23
124.173316687
 33
0.0
 14
233.0538302807
 24
85.173316687
 34
0.0
 50
90.0
100
AcDbRotatedDimension
  0
LINE
  5
154
330
1F
100
AcDbEntity
  8
VERMASSUNG
  6
CENTERX2
 62
     7
370
     0
100
AcDbLine
 10
60.8538302807
 20
104.673316687
 30
0.0
 11
235.5874743326
 21
104.673316687
 31
0.0
  0
LINE
  5
155
330
1F
100
AcDbEntity
  8
0
  6
Continuous
 62
     7
370
    15
100
AcDbLine
 10
275.5573486734
 20
36.2240725556
 30
0.0
 11
275.4229765546
 21
36.3016691437
 31
0.0
  0
LINE
  5
156
330
1F
100
AcDbEntity
  8
0
  6
Continuous
 62
     7
370
    15
100
AcDbLine
 10
272.8628340805
 20
36.3016691437
 30
0.0
 11
272.7284619617
 21
36.2240725556
 31
0.0
  0
LINE
  5
157
330
1F
100
AcDbEntity
  8
0
  6
Continuous
 62
     7
370
    15
100
AcDbLine
 10
276.1429053176
 20
35.1546694706
 30
0.0
 11
276.1429053176
 21
35.4077971223
 31
0.0
  0
LINE
  5
158
330
1F
100
AcDbEntity
  8
0
  6
Continuous
 62
     7
370
    15
100
AcDbLine
 10
272.1429053176
 20
35.4077971223
 30
0.0
 11
272.1429053176
 21
35.1546694706
 31
0.0
  0
LINE
  5
159
330
1F
100
AcDbEntity
  8
0
  6
Continuous
 62
     7
370
    15
100
AcDbLine
 10
276.6293057071
 20
50.957759957
 30
0.0
 11
276.5384388144
 21
51.2714145809
 31
0.0
  0
LINE
  5
15A
330
1F
100
AcDbEntity
  8
0
  6
Continuous
 62
     7
370
    15
100
AcDbLine
 10
272.126118156
 20
57.1780139128
 30
0.0
 11
270.7741889521
 21
57.9584660298
 31
0.0
  0
LINE
  5
15B
330
1F
100
AcDbEntity
  8
0
  6
Continuous
 62
     7
370
    15
100
AcDbLine
 10
277.555816053
 20
17.6714564404
 30
0.0
 11
277.6972144243
 21
17.7531105205
 31
0.0
  0
LINE
  5
15C
330
1F
100
AcDbEntity
  8
0
  6
Continuous
 62
     7
370
    15
100
AcDbLine
 10
284.4489866534
 20
29.4487903136
 30
0.0
 11
284.4489866534
 21
29.612071936
 31
0.0
  0
LINE
  5
15D
330
1F
100
AcDbEntity
  8
0
  6
Continuous
 62
     7
370
    15
100
AcDbLine
 10
282.4292993584
 20
34.0760587991
 30
0.0
 11
271.9641189968
 21
40.1174788266
 31
0.0
  0
LINE
  5
15E
330
1F
100
AcDbEntity
  8
0
  6
Continuous
 62
     7
370
    15
100
AcDbLine
 10
262.2149113536
 20
23.2295260101
 30
0.0
 11
272.6800917152
 21
17.1881059827
 31
0.0
  0
SPLINE
  5
15F
330
1F
100
AcDbEntity
  8
0
  6
Continuous
 62
     7
370
    15
100
AcDbSpline
210
0.0
220
0.0
230
1.0
 70
     8
 71
     3
 72
    16
 73
    12
 74
     0
 42
0.000000001
 43
0.00000001
 40
0.0
 40
0.0
 40
0.0
 40
0.0
 40
0.0457775096219146
 40
0.1746167426719057
 40
0.3043234573212479
 40
0.4347818701724972
 40
0.5657726364450537
 40
0.6970720901867394
 40
0.8285057809123153
 40
0.9599444203928393
 40
1.0
 40
1.0
 40
1.0
 40
1.0
 10
259.1859143564664
 20
16.76463070032151
 30
0.0
 10
259.3054480547143
 20
16.74783908147597
 30
0.0
 10
259.7614052529096
 20
16.68378802646636
 30
0.0
 10
260.6042412045411
 20
16.71760155325488
 30
0.0
 10
261.7046761527832
 20
16.86590670252688
 30
0.0
 10
262.8411705431442
 20
17.16357893782072
 30
0.0
 10
263.9990452374309
 20
17.59701310619432
 30
0.0
 10
265.1692200540418
 20
18.16279772874969
 30
0.0
 10
266.3383353811877
 20
18.86485453819288
 30
0.0
 10
267.2340584308929
 20
19.4744972583801
 30
0.0
 10
267.7287060030389
 20
19.88411108819729
 30
0.0
 10
267.844239898636
 20
19.97978381381871
 30
0.0
  0
SPLINE
  5
160
330
1F
100
AcDbEntity
  8
0
  6
Continuous
 62
     7
370
    15
100
AcDbSpline
210
0.0
220
0.0
230
1.0
 70
     8
 71
     3
 72
    16
 73
    12
 74
     0
 42
0.000000001
 43
0.00000001
 40
0.0
 40
0.0
 40
0.0
 40
0.0
 40
0.005057503789756
 40
0.1373800341658371
 40
0.2698150059318439
 40
0.4023509109932293
 40
0.5349465377113243
 40
0.667479101533164
 40
0.7997791554114886
 40
0.9316104075157304
 40
1.0
 40
1.0
 40
1.0
 40
1.0
 10
277.6017174913619
 20
36.86296249000208
 30
0.0
 10
277.6051157680952
 20
36.88158448714015
 30
0.0
 10
277.6974252142447
 20
37.38742505778821
 30
0.0
 10
277.7793354546718
 20
38.34941550220066
 30
0.0
 10
277.8363215920235
 20
39.7310479868264
 30
0.0
 10
277.7697652948165
 20
41.04940051662354
 30
0.0
 10
277.5946543134669
 20
42.29701377807825
 30
0.0
 10
277.3091405367166
 20
43.46309818389821
 30
0.0
 10
276.9096759524072
 20
44.52927791023954
 30
0.0
 10
276.5007731052157
 20
45.35632179046078
 30
0.0
 10
276.1870439610992
 20
45.78052085732801
 30
0.0
 10
276.0798832488334
 20
45.92541486861279
 30
0.0
  0
LINE
  5
161
330
1F
100
AcDbEntity
  8
0
  6
Continuous
 62
     7
370
    15
100
AcDbLine
 10
268.2808125181
 20
59.3978616068
 30
0.0
 11
266.937722149
 21
60.1732111731
 31
0.0
  0
LINE
  5
162
330
1F
100
AcDbEntity
  8
0
  6
Continuous
 62
     7
370
    15
100
AcDbLine
 10
251.5177166329
 20
20.4994984
 30
0.0
 11
256.5912077879
 21
17.5706342988
 31
0.0
  0
LINE
  5
163
330
1F
100
AcDbEntity
  8
0
  6
Continuous
 62
     7
370
    15
100
AcDbLine
 10
274.0522886566
 20
47.8173908175
 30
0.0
 11
268.9787975016
 21
50.7462549186
 31
0.0
  0
SPLINE
  5
164
330
1F
100
AcDbEntity
  8
0
  6
Continuous
 62
     7
370
    15
100
AcDbSpline
210
0.0
220
0.0
230
1.0
 70
     8
 71
     3
 72
    28
 73
    24
 74
     0
 42
0.000000001
 43
0.00000001
 40
0.0
 40
0.0
 40
0.0
 40
0.0
 40
0.0222323008251288
 40
0.0726594548536054
 40
0.1231342113473847
 40
0.1736338607370241
 40
0.224141865496131
 40
0.2746458484994027
 40
0.3251410990476417
 40
0.3756256270600999
 40
0.4260991983258726
 40
0.4765626608319973
 40
0.5270175016983351
 40
0.5774655697596505
 40
0.6279089101175303
 40
0.6783496710542769
 40
0.7287900554630248
 40
0.7792319336670885
 40
0.8296771781078565
 40
0.8801280503714054
 40
0.9305867964621851
 40
0.9810555969083857
 40
1.0
 40
1.0
 40
1.0
 40
1.0
 10
259.3145042553602
 20
60.95442825726182
 30
0.0
 10
259.1195652421843
 20
60.91037864617937
 30
0.0
 10
258.4824668807294
 20
60.76641600583289
 30
0.0
 10
257.3758977441408
 20
60.37650421391512
 30
0.0
 10
256.0056143901028
 20
59.79296960340297
 30
0.0
 10
254.6255293627219
 20
59.07070889791957
 30
0.0
 10
253.2463963411647
 20
58.22463406243889
 30
0.0
 10
251.8762938884246
 20
57.25750900856631
 30
0.0
 10
250.5238458296704
 20
56.17627174874322
 30
0.0
 10
249.197312071844
 20
54.9875741873115
 30
0.0
 10
247.904825185273
 20
53.69894058098071
 30
0.0
 10
246.6542918491619
 20
52.3184121369325
 30
0.0
 10
245.4533697785599
 20
50.85458845306941
 30
0.0
 10
244.3094203437735
 20
49.31655741941965
 30
0.0
 10
243.2294689411345
 20
47.71385006396267
 30
0.0
 10
242.2201543930209
 20
46.05638104353091
 30
0.0
 10
241.2877206250022
 20
44.35440115553161
 30
0.0
 10
240.4378662727966
 20
42.61840758884787
 30
0.0
 10
239.6761226272108
 20
40.85917880695798
 30
0.0
 10
239.0062685602183
 20
39.08731519770002
 30
0.0
 10
238.4361002313909
 20
37.31462058971
 30
0.0
 10
238.0558223372473
 20
35.91646437344382
 30
0.0
 10
237.8807575163431
 20
35.11646485468654
 30
0.0
 10
237.8329784431216
 20
34.89812723901694
 30
0.0
  0
SPLINE
  5
165
330
1F
100
AcDbEntity
  8
0
  6
Continuous
 62
     7
370
    15
100
AcDbSpline
210
0.0
220
0.0
230
1.0
 70
     8
 71
     3
 72
    19
 73
    15
 74
     0
 42
0.000000001
 43
0.00000001
 40
0.0
 40
0.0
 40
0.0
 40
0.0
 40
0.0168183991946782
 40
0.1082648787292294
 40
0.1998491907031472
 40
0.2914284747770877
 40
0.3828712443198087
 40
0.474077238905898
 40
0.5649583142642882
 40
0.6554754285242356
 40
0.7457339796883989
 40
0.8360386639938023
 40
0.9272317143574144
 40
1.0
 40
1.0
 40
1.0
 40
1.0
 10
274.1728966818625
 20
25.88381162041958
 30
0.0
 10
274.1919747330888
 20
25.93498181257271
 30
0.0
 10
274.3147856426459
 20
26.26437907469519
 30
0.0
 10
274.6034178268069
 20
26.86776703992189
 30
0.0
 10
275.0658198743893
 20
27.66383124960217
 30
0.0
 10
275.5992669006651
 20
28.40455364504788
 30
0.0
 10
276.1830722290428
 20
29.06865463086692
 30
0.0
 10
276.8007503981277
 20
29.63741475574006
 30
0.0
 10
277.4327927534254
 20
30.09560212840037
 30
0.0
 10
278.0590542079339
 20
30.43169519670426
 30
0.0
 10
278.6601502169913
 20
30.64058058140761
 30
0.0
 10
279.2152310688365
 20
30.71708962182436
 30
0.0
 10
279.683069447012
 20
30.6850443740958
 30
0.0
 10
279.9311070936196
 20
30.57575193029591
 30
0.0
 10
280.0411895969592
 20
30.52724644746241
 30
0.0
  0
LINE
  5
166
330
1F
100
AcDbEntity
  8
0
  6
Continuous
 62
     7
370
    15
100
AcDbLine
 10
274.0969697981
 20
21.5107025491
 30
0.0
 11
274.0340663164
 21
21.5949839938
 31
0.0
  0
SPLINE
  5
167
330
1F
100
AcDbEntity
  8
0
  6
Continuous
 62
     7
370
    15
100
AcDbSpline
210
0.0
220
0.0
230
1.0
 70
     8
 71
     3
 72
    10
 73
     6
 74
     0
 42
0.000000001
 43
0.00000001
 40
0.0
 40
0.0
 40
0.0
 40
0.0
 40
0.139046479096689
 40
0.7868897297089253
 40
1.0
 40
1.0
 40
1.0
 40
1.0
 10
274.7853643615321
 20
20.90019507414888
 30
0.0
 10
274.7522292521661
 20
20.91191360212373
 30
0.0
 10
274.5647115428196
 20
20.97823091825155
 30
0.0
 10
274.3693872417806
 20
21.13562791382213
 30
0.0
 10
274.2322781322649
 20
21.327410147025
 30
0.0
 10
274.1983397619825
 20
21.37488165688306
 30
0.0
  0
LINE
  5
168
330
1F
100
AcDbEntity
  8
0
  6
Continuous
 62
     7
370
    15
100
AcDbLine
 10
253.074926765
 20
58.0823779135
 30
0.0
 11
222.5219934901
 21
69.0924439893
 31
0.0
  0
LINE
  5
169
330
1F
100
AcDbEntity
  8
0
  6
Continuous
 62
     7
370
    15
100
AcDbLine
 10
212.3981344174
 20
51.5555055429
 30
0.0
 11
242.0099727281
 21
26.5515140708
 31
0.0
  0
SPLINE
  5
16A
330
1F
100
AcDbEntity
  8
0
  6
Continuous
 62
     7
370
    15
100
AcDbSpline
210
0.0
220
0.0
230
1.0
 70
     8
 71
     3
 72
    13
 73
     9
 74
     0
 42
0.000000001
 43
0.00000001
 40
0.0
 40
0.0
 40
0.0
 40
0.0
 40
0.0742804607153255
 40
0.2808080955846841
 40
0.4875407172689619
 40
0.6943828701948722
 40
0.9012655937567604
 40
1.0
 40
1.0
 40
1.0
 40
1.0
 10
255.1285634502455
 20
13.77127173464704
 30
0.0
 10
255.2873023553533
 20
13.80592930609291
 30
0.0
 10
255.8873951551189
 20
13.93694796889578
 30
0.0
 10
256.956168111954
 20
14.30694885825678
 30
0.0
 10
258.3251672750654
 20
14.87571640206058
 30
0.0
 10
259.7043816693789
 20
15.5912891679444
 30
0.0
 10
260.8451820409549
 20
16.2646054373736
 30
0.0
 10
261.5191276205035
 20
16.74319819237416
 30
0.0
 10
261.7368563082881
 20
16.89781508681141
 30
0.0
  0
LINE
  5
16B
330
1F
100
AcDbEntity
  8
0
  6
Continuous
 62
     7
370
    15
100
AcDbLine
 10
246.1699386372
 20
15.3380363899
 30
0.0
 11
247.5218678411
 21
14.5575842729
 31
0.0
  0
LINE
  5
16C
330
1F
100
AcDbEntity
  8
0
  6
Continuous
 62
     7
370
    15
100
AcDbLine
 10
242.3334718341
 20
17.5527815331
 30
0.0
 11
243.6765622032
 21
16.7774319668
 31
0.0
  0
LINE
  5
16D
330
1F
100
AcDbEntity
  8
0
  6
Continuous
 62
     7
370
    15
100
AcDbLine
 10
237.8437236621
 20
23.7261471928
 30
0.0
 11
237.9353046079
 21
23.4206222564
 31
0.0
  0
SPLINE
  5
16E
330
1F
100
AcDbEntity
  8
0
  6
Continuous
 62
     7
370
    15
100
AcDbSpline
210
0.0
220
0.0
230
1.0
 70
     8
 71
     3
 72
    26
 73
    22
 74
     0
 42
0.000000001
 43
0.00000001
 40
0.0
 40
0.0
 40
0.0
 40
0.0
 40
0.0405842767625713
 40
0.0925046667064573
 40
0.1453699611462223
 40
0.19948432913045
 40
0.2547378918328399
 40
0.3107502114046901
 40
0.3671092785124591
 40
0.4234910223378486
 40
0.4797691861489649
 40
0.5359241867936132
 40
0.5919783812199388
 40
0.6479728423321756
 40
0.7039564458737464
 40
0.7599746400023846
 40
0.8160706750233109
 40
0.8722989289945845
 40
0.9287106698664321
 40
0.9853447143550291
 40
1.0
 40
1.0
 40
1.0
 40
1.0
 10
222.5117491693715
 20
69.08277530919221
 30
0.0
 10
222.3151109593531
 20
69.14914095223905
 30
0.0
 10
221.8669090070078
 20
69.30040967452584
 30
0.0
 10
221.1067954352309
 20
69.37021282962193
 30
0.0
 10
220.2556732384315
 20
69.3222302697682
 30
0.0
 10
219.3696864301446
 20
69.12959486552143
 30
0.0
 10
218.4614599756571
 20
68.79797099069302
 30
0.0
 10
217.5444632398263
 20
68.32915642053214
 30
0.0
 10
216.6349607787839
 20
67.73145978576085
 30
0.0
 10
215.7483811279221
 20
67.01598680764711
 30
0.0
 10
214.8984669741034
 20
66.19569694211526
 30
0.0
 10
214.0971516467307
 20
65.28404481427954
 30
0.0
 10
213.3552975271715
 20
64.29501405448961
 30
0.0
 10
212.6829880500292
 20
63.24317457983225
 30
0.0
 10
212.0895807322011
 20
62.14366892585873
 30
0.0
 10
211.5836075087315
 20
61.01208376118369
 30
0.0
 10
211.1727941819525
 20
59.86425889796273
 30
0.0
 10
210.8635086961758
 20
58.71571576002464
 30
0.0
 10
210.6627974899262
 20
57.58256566928024
 30
0.0
 10
210.5939381909298
 20
56.7519281988883
 30
0.0
 10
210.5899353285517
 20
56.30314296262134
 30
0.0
 10
210.5891124411513
 20
56.21088405349126
 30
0.0
  0
SPLINE
  5
16F
330
1F
100
AcDbEntity
  8
0
  6
Continuous
 62
     7
370
    15
100
AcDbSpline
210
0.0
220
0.0
230
1.0
 70
     8
 71
     3
 72
    13
 73
     9
 74
     0
 42
0.000000001
 43
0.00000001
 40
0.0
 40
0.0
 40
0.0
 40
0.0
 40
0.101922879232802
 40
0.2941153737771591
 40
0.486305366811859
 40
0.6767112694542596
 40
0.8634894180007229
 40
0.9999999999999999
 40
0.9999999999999999
 40
0.9999999999999999
 40
0.9999999999999999
 10
210.5891124411513
 20
56.21088405349126
 30
0.0
 10
210.592460108979
 20
56.0231163435148
 30
0.0
 10
210.6021203597671
 20
55.48128147171074
 30
0.0
 10
210.7104318253311
 20
54.63024966383115
 30
0.0
 10
210.9539846349786
 20
53.69382972953878
 30
0.0
 10
211.3240361366513
 20
52.85708803347769
 30
0.0
 10
211.7562912518802
 20
52.17824858526899
 30
0.0
 10
212.1114803250559
 20
51.8396334047972
 30
0.0
 10
212.2614610157442
 20
51.69665113850551
 30
0.0
  0
LWPOLYLINE
  5
170
330
1F
100
AcDbEntity
  8
0
  6
Continuous
 62
     7
370
    15
100
AcDbPolyline
 90
       21
 70
   128
 43
0.0
 10
272.8630420436
 20
34.8240905353
 10
272.5301835088
 20
35.0885693987
 10
272.3551894211
 20
35.3994829496
 10
272.3551894211
 20
35.7263968034
 10
272.5301835088
 20
36.0373103543
 10
272.8630420436
 20
36.3017892177
 10
273.321182513
 20
36.4939443597
 10
273.8597589358
 20
36.5949662963
 10
274.4260516993
 20
36.5949662963
 10
274.9646281221
 20
36.4939443597
 10
275.4227685915
 20
36.3017892177
 10
275.7556271263
 20
36.0373103543
 10
275.930621214
 20
35.7263968034
 10
275.930621214
 20
35.3994829496
 10
275.7556271263
 20
35.0885693987
 10
275.4227685915
 20
34.8240905353
 10
274.9646281221
 20
34.6319353933
 10
274.4260516993
 20
34.5309134568
 10
273.8597589358
 20
34.5309134568
 10
273.321182513
 20
34.6319353933
 10
272.8630420436
 20
34.8240905353
  0
LWPOLYLINE
  5
171
330
1F
100
AcDbEntity
  8
0
  6
Continuous
 62
     7
370
    15
100
AcDbPolyline
 90
        7
 70
   128
 43
0.0
 10
272.7286917552
 20
34.5913890104
 10
272.3746745306
 20
34.8683002476
 10
272.1777723711
 20
35.1931481496
 10
272.1554808978
 20
35.5370685548
 10
272.3097808058
 20
35.8695026259
 10
272.6269618713
 20
36.1609121368
 10
272.7284619617
 20
36.2240725556
  0
LWPOLYLINE
  5
172
330
1F
100
AcDbEntity
  8
0
  6
Continuous
 62
     7
370
    15
100
AcDbPolyline
 90
       12
 70
   128
 43
0.0
 10
275.5573486734
 20
36.2240725556
 10
275.7521008771
 20
36.0934073149
 10
276.0306719782
 20
35.7891292103
 10
276.1415067271
 20
35.4509680763
 10
276.0747569701
 20
35.1089710135
 10
275.836353716
 20
34.7935259619
 10
275.4474801401
 20
34.5326615985
 10
274.9426893662
 20
34.3495568669
 10
274.3668342698
 20
34.260481426
 10
273.7710821032
 20
34.2733500197
 10
273.208368061
 20
34.3870192168
 10
272.7286917552
 20
34.5913890104
  0
LWPOLYLINE
  5
173
330
1F
100
AcDbEntity
  8
0
  6
Continuous
 62
     7
370
    15
100
AcDbPolyline
 90
       17
 70
   128
 43
0.0
 10
273.2943771801
 20
35.0730950094
 10
273.0342498785
 20
35.2978377448
 10
272.9429053176
 20
35.5629398765
 10
273.0342498785
 20
35.8280420083
 10
273.2943771801
 20
36.0527847436
 10
273.6836851987
 20
36.2029530384
 10
274.1429053176
 20
36.255685131
 10
274.6021254364
 20
36.2029530384
 10
274.991433455
 20
36.0527847436
 10
275.2515607566
 20
35.8280420083
 10
275.3429053176
 20
35.5629398765
 10
275.2515607566
 20
35.2978377448
 10
274.991433455
 20
35.0730950094
 10
274.6021254364
 20
34.9229267146
 10
274.1429053176
 20
34.870194622
 10
273.6836851987
 20
34.9229267146
 10
273.2943771801
 20
35.0730950094
  0
SPLINE
  5
174
330
1F
100
AcDbEntity
  8
0
  6
Continuous
 62
     7
370
    15
100
AcDbSpline
210
0.0
220
0.0
230
1.0
 70
     8
 71
     3
 72
     9
 73
     5
 74
     0
 42
0.000000001
 43
0.00000001
 40
0.0
 40
0.0
 40
0.0
 40
0.0
 40
0.6300416123970557
 40
1.0
 40
1.0
 40
1.0
 40
1.0
 10
273.4359390526049
 20
34.99484329024984
 30
0.0
 10
273.3461015443078
 20
35.05649990340899
 30
0.0
 10
273.203511743048
 20
35.15436107947411
 30
0.0
 10
273.0750687927153
 20
35.29966666345294
 30
0.0
 10
273.0275502459112
 20
35.35342368301145
 30
0.0
  0
SPLINE
  5
175
330
1F
100
AcDbEntity
  8
0
  6
Continuous
 62
     7
370
    15
100
AcDbSpline
210
0.0
220
0.0
230
1.0
 70
     8
 71
     3
 72
    10
 73
     6
 74
     0
 42
0.000000001
 43
0.00000001
 40
0.0
 40
0.0
 40
0.0
 40
0.0
 40
0.4391222274230452
 40
0.751371471259458
 40
1.0
 40
1.0
 40
1.0
 40
1.0
 10
275.258260389212
 20
35.69847835170473
 30
0.0
 10
275.2154758898842
 20
35.55037534015547
 30
0.0
 10
275.1422683631423
 20
35.29695984274655
 30
0.0
 10
275.0358491700004
 20
35.11021978354953
 30
0.0
 10
274.9828816078024
 20
35.07168115720539
 30
0.0
 10
274.9594018984893
 20
35.05459757422865
 30
0.0
  0
SPLINE
  5
176
330
1F
100
AcDbEntity
  8
0
  6
Continuous
 62
     7
370
    15
100
AcDbSpline
210
0.0
220
0.0
230
1.0
 70
     8
 71
     3
 72
    11
 73
     7
 74
     0
 42
0.000000001
 43
0.00000001
 40
0.0
 40
0.0
 40
0.0
 40
0.0
 40
0.1849308168246135
 40
0.5198464202157763
 40
0.8714438233692643
 40
1.0
 40
1.0
 40
1.0
 40
1.0
 10
274.4417638082843
 20
36.16983179483416
 30
0.0
 10
274.4892878987977
 20
36.11691910132578
 30
0.0
 10
274.6228796319205
 20
35.96817983343842
 30
0.0
 10
274.8722541132418
 20
35.77130575047183
 30
0.0
 10
275.1025616498836
 20
35.70314750777078
 30
0.0
 10
275.2253776656754
 20
35.69946445196945
 30
0.0
 10
275.258260389212
 20
35.69847835170473
 30
0.0
  0
SPLINE
  5
177
330
1F
100
AcDbEntity
  8
0
  6
Continuous
 62
     7
370
    15
100
AcDbSpline
210
0.0
220
0.0
230
1.0
 70
     8
 71
     3
 72
    10
 73
     6
 74
     0
 42
0.000000001
 43
0.00000001
 40
0.0
 40
0.0
 40
0.0
 40
0.0
 40
0.4391222274230479
 40
0.7513714712594598
 40
1.0
 40
1.0
 40
1.0
 40
1.0
 10
273.3264087366339
 20
35.99730446048753
 30
0.0
 10
273.4860826619017
 20
35.96607820966548
 30
0.0
 10
273.7592968711989
 20
35.91264772367128
 30
0.0
 10
274.156458706905
 20
36.01661880446768
 30
0.0
 10
274.354136340181
 20
36.12277456956395
 30
0.0
 10
274.4417638082843
 20
36.16983179483416
 30
0.0
  0
SPLINE
  5
178
330
1F
100
AcDbEntity
  8
0
  6
Continuous
 62
     7
370
    15
100
AcDbSpline
210
0.0
220
0.0
230
1.0
 70
     8
 71
     3
 72
    10
 73
     6
 74
     0
 42
0.000000001
 43
0.00000001
 40
0.0
 40
0.0
 40
0.0
 40
0.0
 40
0.439122227423046
 40
0.7513714712594577
 40
1.0
 40
1.0
 40
1.0
 40
1.0
 10
273.0275502459112
 20
35.35342368301145
 30
0.0
 10
273.070334745239
 20
35.38967626145728
 30
0.0
 10
273.1435422719809
 20
35.45170717563725
 30
0.0
 10
273.2499614651229
 20
35.72352041136527
 30
0.0
 10
273.3029290273208
 20
35.91321552230989
 30
0.0
 10
273.3264087366339
 20
35.99730446048753
 30
0.0
  0
LINE
  5
179
330
1F
100
AcDbEntity
  8
0
  6
Continuous
 62
     7
370
    15
100
AcDbLine
 10
273.3264087366
 20
35.0552766818
 30
0.0
 11
273.3264087366
 21
35.9973044605
 31
0.0
  0
LINE
  5
17A
330
1F
100
AcDbEntity
  8
0
  6
Continuous
 62
     7
370
    15
100
AcDbLine
 10
274.4417638083
 20
34.8920223655
 30
0.0
 11
274.4417638083
 21
36.1698317948
 31
0.0
  0
SPLINE
  5
17B
330
1F
100
AcDbEntity
  8
0
  6
Continuous
 62
     7
370
    15
100
AcDbSpline
210
0.0
220
0.0
230
1.0
 70
     8
 71
     3
 72
    10
 73
     6
 74
     0
 42
0.000000001
 43
0.00000001
 40
0.0
 40
0.0
 40
0.0
 40
0.0
 40
0.4070843788062188
 40
0.8152602571932802
 40
0.9999999999999999
 40
0.9999999999999999
 40
0.9999999999999999
 40
0.9999999999999999
 10
276.5828672125455
 20
50.6646981856593
 30
0.0
 10
276.6011480704973
 20
50.70357058283737
 30
0.0
 10
276.6377588021573
 20
50.78141960424675
 30
0.0
 10
276.6518131492844
 20
50.88836496738121
 30
0.0
 10
276.6339739175652
 20
50.94108184172921
 30
0.0
 10
276.6284155970186
 20
50.9575072848454
 30
0.0
  0
LWPOLYLINE
  5
17C
330
1F
100
AcDbEntity
  8
0
  6
Continuous
 62
     7
370
    15
100
AcDbPolyline
 90
       17
 70
   128
 43
0.0
 10
243.5764095136
 20
31.9561753512
 10
243.9272187215
 20
33.364816114
 10
244.4846923647
 20
35.2179838029
 10
245.1511087543
 20
37.0748457754
 10
245.9217994309
 20
38.9223941209
 10
246.7913654605
 20
40.747686174
 10
247.7537152558
 20
42.5379351817
 10
248.8021072493
 20
44.2805998785
 10
249.9291971208
 20
45.9634723425
 10
251.1270892462
 20
47.5747635152
 10
252.387392009
 20
49.1031857879
 10
253.7012765865
 20
50.5380320752
 10
255.059538798
 20
51.869250821
 10
256.4526635836
 20
53.0875164135
 10
257.8708916596
 20
54.1842945136
 10
259.304287886
 20
55.1519018408
 10
259.6364478973
 20
55.3562872157
  0
SPLINE
  5
17D
330
1F
100
AcDbEntity
  8
0
  6
Continuous
 62
     7
370
    15
100
AcDbSpline
210
0.0
220
0.0
230
1.0
 70
     8
 71
     3
 72
    12
 73
     8
 74
     0
 42
0.000000001
 43
0.00000001
 40
0.0
 40
0.0
 40
0.0
 40
0.0
 40
0.2499999999999988
 40
0.2499999999999988
 40
0.4999999999999976
 40
0.4999999999999976
 40
1.0
 40
1.0
 40
1.0
 40
1.0
 10
243.1231518439047
 20
31.86200335702056
 30
0.0
 10
243.1570861961672
 20
31.84241347244182
 30
0.0
 10
243.1955491514036
 20
31.81525596205733
 30
0.0
 10
243.2698210443144
 20
31.75613538983078
 30
0.0
 10
243.305099077868
 20
31.72477488290361
 30
0.0
 10
243.4004016963536
 20
31.63302741918078
 30
0.0
 10
243.4490907175269
 20
31.57636169822863
 30
0.0
 10
243.4825931053973
 20
31.52832473931991
 30
0.0
  0
LWPOLYLINE
  5
17E
330
1F
100
AcDbEntity
  8
0
  6
Continuous
 62
     7
370
    15
100
AcDbPolyline
 90
       14
 70
   128
 43
0.0
 10
264.645040231
 20
57.9562511001
 10
264.844745881
 20
58.0035386718
 10
266.2104775557
 20
58.2442062022
 10
267.5321137903
 20
58.3303759786
 10
268.8005293562
 20
58.2614530422
 10
270.0069664864
 20
58.0379132709
 10
271.1430953439
 20
57.6613000938
 10
272.2010715345
 20
57.1342138339
 10
273.1735902686
 20
56.4602937547
 10
274.0539367972
 20
55.6441929331
 10
274.8360327734
 20
54.6915461318
 10
275.5144782208
 20
53.6089308941
 10
276.0845888173
 20
52.4038221299
 10
276.4553989176
 20
51.3717789908
  0
LINE
  5
17F
330
1F
100
AcDbEntity
  8
0
  6
Continuous
 62
     7
370
    15
100
AcDbLine
 10
241.77122264
 20
32.642455474
 30
0.0
 11
243.1231518439
 21
31.862003357
 31
0.0
  0
LWPOLYLINE
  5
180
330
1F
100
AcDbEntity
  8
0
  6
Continuous
 62
     7
370
    15
100
AcDbPolyline
 90
       26
 70
   128
 43
0.0
 10
241.77122264
 20
32.642455474
 10
242.2340339954
 20
34.4912890721
 10
242.8089607195
 20
36.355015401
 10
243.4920332346
 20
38.2207663745
 10
244.2785352712
 20
40.0756599276
 10
245.1630364311
 20
41.9068889599
 10
246.1394296819
 20
43.7018097629
 10
247.200973523
 20
45.4480293177
 10
248.3403385319
 20
47.1334908631
 10
249.5496579705
 20
48.7465571411
 10
250.8205821008
 20
50.2760907461
 10
252.1443358356
 20
51.7115310237
 10
253.511779326
 20
53.0429669859
 10
254.9134710676
 20
54.2612057421
 10
256.339733089
 20
55.3578359708
 10
257.7807177735
 20
56.325285996
 10
259.2264758521
 20
57.1568760652
 10
260.6670250976
 20
57.8468644706
 10
262.0924192474
 20
58.3904871915
 10
263.4928166771
 20
58.7839907888
 10
264.8585483519
 20
59.0246583192
 10
266.1801845865
 20
59.1108280956
 10
267.4486001523
 20
59.0419051592
 10
268.6550372825
 20
58.8183653879
 10
269.79116614
 20
58.4417522108
 10
270.7741889521
 20
57.9584660298
  0
ARC
  5
181
330
1F
100
AcDbEntity
  8
0
  6
Continuous
 62
     7
370
    15
100
AcDbCircle
 10
247.0123145825
 20
23.6896426441
 30
0.0
 40
0.6147219230286188
100
AcDbArc
 50
302.60547834
 51
357.3945215144
  0
LINE
  5
182
330
1F
100
AcDbEntity
  8
0
  6
Continuous
 62
     7
370
    15
100
AcDbLine
 10
247.6264010231
 20
26.3445853208
 30
0.0
 11
247.6264010231
 21
23.6616983032
 31
0.0
  0
LINE
  5
183
330
1F
100
AcDbEntity
  8
0
  6
Continuous
 62
     7
370
    15
100
AcDbLine
 10
247.6264010231
 20
33.5010150864
 30
0.0
 11
247.6264010231
 21
30.8181280689
 31
0.0
  0
ARC
  5
184
330
1F
100
AcDbEntity
  8
0
  6
Continuous
 62
     7
370
    15
100
AcDbCircle
 10
247.4539712761
 20
33.5289859652
 30
0.0
 40
0.1746836789714035
100
AcDbArc
 50
350.7859630095
 51
129.2032852357
  0
LINE
  5
185
330
1F
100
AcDbEntity
  8
0
  6
Continuous
 62
     7
370
    15
100
AcDbLine
 10
247.3435583106
 20
33.6643497888
 30
0.0
 11
243.5287676294
 21
31.4621180044
 31
0.0
  0
LINE
  5
186
330
1F
100
AcDbEntity
  8
0
  6
Continuous
 62
     7
370
    15
100
AcDbLine
 10
243.4825931054
 20
31.5283247393
 30
0.0
 11
243.5287676294
 21
31.4621180044
 31
0.0
  0
LINE
  5
187
330
1F
100
AcDbEntity
  8
0
  6
Continuous
 62
     7
370
    15
100
AcDbLine
 10
276.4782096781
 20
50.4834260192
 30
0.0
 11
276.5828672125
 21
50.6646981857
 31
0.0
  0
LINE
  5
188
330
1F
100
AcDbEntity
  8
0
  6
Continuous
 62
     7
370
    15
100
AcDbLine
 10
273.5772198926
 20
48.8087202631
 30
0.0
 11
276.4782096781
 21
50.4834260192
 31
0.0
  0
ARC
  5
189
330
1F
100
AcDbEntity
  8
0
  6
Continuous
 62
     7
370
    15
100
AcDbCircle
 10
273.9084636207
 20
48.2908779751
 30
0.0
 40
0.6147219230290547
100
AcDbArc
 50
122.60547834
 51
177.3945215143
  0
LINE
  5
18A
330
1F
100
AcDbEntity
  8
0
  6
Continuous
 62
     7
370
    15
100
AcDbLine
 10
273.2943771801
 20
48.2549237997
 30
0.0
 11
273.2943771801
 21
48.318822316
 31
0.0
  0
LINE
  5
18B
330
1F
100
AcDbEntity
  8
0
  6
Continuous
 62
     7
370
    15
100
AcDbLine
 10
243.5287676294
 20
20.9695685717
 30
0.0
 11
243.4825931054
 21
20.8500498661
 31
0.0
  0
LINE
  5
18C
330
1F
100
AcDbEntity
  8
0
  6
Continuous
 62
     7
370
    15
100
AcDbLine
 10
243.5287676294
 20
20.9695685717
 30
0.0
 11
247.3435583106
 21
23.1718003561
 31
0.0
  0
LWPOLYLINE
  5
18D
330
1F
100
AcDbEntity
  8
0
  6
Continuous
 62
     7
370
    15
100
AcDbPolyline
 90
       48
 70
   128
 43
0.0
 10
277.696116893
 20
33.3484063332
 10
276.7960474426
 20
32.7592298666
 10
275.9120397529
 20
32.0414124022
 10
275.059868962
 20
31.2077634097
 10
274.2547420779
 20
30.2731593752
 10
273.5110266089
 20
29.2542783297
 10
272.8419941752
 20
28.1693022296
 10
272.2595836763
 20
27.0375924992
 10
271.7741882415
 20
25.8793445254
 10
271.3944697638
 20
24.7152272708
 10
271.1272043284
 20
23.5660144353
 10
270.9771612933
 20
22.4522137492
 10
270.9470181801
 20
21.3937010121
 10
271.0373128933
 20
20.4093654089
 10
271.2464341216
 20
19.5167724318
 10
271.5706500918
 20
18.7318504236
 10
272.0041751622
 20
18.0686063361
 10
272.5392730675
 20
17.5388757758
 10
273.1663949732
 20
17.152111797
 10
273.8743498738
 20
16.9152162121
 10
274.6505042974
 20
16.8324164286
 10
275.4810077499
 20
16.9051900103
 10
276.3510398775
 20
17.1322383112
 10
277.2450749364
 20
17.5095096488
 10
278.1471588497
 20
18.0302716072
 10
279.0411939085
 20
18.6852311769
 10
279.9112260362
 20
19.4627005889
 10
280.7417294887
 20
20.3488058831
 10
281.5178839123
 20
21.3277344895
 10
282.2258388129
 20
22.382017404
 10
282.8529607185
 20
23.4928409229
 10
283.3880586239
 20
24.6403823744
 10
283.8215836943
 20
25.8041638539
 10
284.1457996644
 20
26.9634176534
 10
284.3549208928
 20
28.0974568614
 10
284.445215606
 20
29.1860445214
 10
284.4150724927
 20
30.2097547607
 10
284.2650294577
 20
31.150319446
 10
283.9977640223
 20
31.990954178
 10
283.6180455445
 20
32.7166578102
 10
283.1326501097
 20
33.3144801439
 10
282.5502396109
 20
33.7737530256
 10
281.8812071772
 20
34.0862807197
 10
281.1374917081
 20
34.2464861621
 10
280.332364824
 20
34.2515104829
 10
279.4801940331
 20
34.101264023
 10
278.5961863434
 20
33.798427934
 10
277.696116893
 20
33.3484063332
  0
LWPOLYLINE
  5
18E
330
1F
100
AcDbEntity
  8
0
  6
Continuous
 62
     7
370
    15
100
AcDbPolyline
 90
       25
 70
   128
 43
0.0
 10
277.5546955368
 20
33.5933553068
 10
276.6357764644
 20
32.991840066
 10
275.7332555246
 20
32.2589897751
 10
274.863238225
 20
31.407882165
 10
274.0412500449
 20
30.4537052711
 10
273.2819593828
 20
29.4134864026
 10
272.5989157986
 20
28.30578829
 10
272.0043082213
 20
27.1503778323
 10
271.5087474371
 20
25.9678733564
 10
271.1210767399
 20
24.7793766829
 10
270.8482141226
 20
23.6060965628
 10
270.695028825
 20
22.4689702079
 10
270.6642544424
 20
21.3882896648
 10
270.7564401444
 20
20.3833397035
 10
270.9699408749
 20
19.4720536797
 10
271.3009467083
 20
18.6706935142
 10
271.7435508377
 20
17.9935594982
 10
272.289854982
 20
17.4527351041
 10
272.9301103307
 20
17.0578713562
 10
273.6528915119
 20
16.8160146073
 10
274.4453004784
 20
16.7314807968
 10
275.2931966734
 20
16.8057784326
 10
276.1814493691
 20
17.0375816717
 10
277.0942076753
 20
17.4227539797
 10
277.555816053
 20
17.6714564404
  0
LWPOLYLINE
  5
18F
330
1F
100
AcDbEntity
  8
0
  6
Continuous
 62
     7
370
    15
100
AcDbPolyline
 90
       13
 70
   128
 43
0.0
 10
284.4489866534
 20
29.612071936
 10
284.4143622485
 20
30.3889728113
 10
284.2611769509
 20
31.3492351863
 10
283.9883143336
 20
32.2074748342
 10
283.6006436365
 20
32.9483764482
 10
283.1050828523
 20
33.5587186214
 10
282.5104752749
 20
34.0276097833
 10
281.8274316907
 20
34.34668256
 10
281.0681410287
 20
34.5102430902
 10
280.2461528486
 20
34.5153726324
 10
279.3761355489
 20
34.3619796498
 10
278.4736146092
 20
34.0528014438
 10
277.5546955368
 20
33.5933553068
  0
SPLINE
  5
190
330
1F
100
AcDbEntity
  8
0
  6
Continuous
 62
     7
370
    15
100
AcDbSpline
210
0.0
220
0.0
230
1.0
 70
    11
 71
     3
 72
    77
 73
    73
 74
     0
 42
0.000000001
 43
0.00000001
 40
0.0
 40
0.0
 40
0.0
 40
0.0
 40
0.03125
 40
0.03125
 40
0.0624999999999999
 40
0.0624999999999999
 40
0.0937499999999999
 40
0.0937499999999999
 40
0.1249999999999999
 40
0.1249999999999999
 40
0.1562499999999998
 40
0.1562499999999998
 40
0.1874999999999998
 40
0.1874999999999998
 40
0.2187499999999998
 40
0.2187499999999998
 40
0.2499999999999997
 40
0.2499999999999997
 40
0.2812499999999997
 40
0.2812499999999997
 40
0.3124999999999997
 40
0.3124999999999997
 40
0.3437499999999996
 40
0.3437499999999996
 40
0.3593749999999996
 40
0.3593749999999996
 40
0.3749999999999996
 40
0.3906249999999996
 40
0.3906249999999996
 40
0.4062499999999996
 40
0.4062499999999996
 40
0.4374999999999996
 40
0.4374999999999996
 40
0.4687499999999996
 40
0.4687499999999996
 40
0.4999999999999996
 40
0.4999999999999996
 40
0.5312499999999996
 40
0.5312499999999996
 40
0.5624999999999994
 40
0.5624999999999994
 40
0.5937499999999994
 40
0.5937499999999994
 40
0.6249999999999994
 40
0.6249999999999994
 40
0.6562499999999993
 40
0.6562499999999993
 40
0.6874999999999993
 40
0.6874999999999993
 40
0.7187499999999993
 40
0.7187499999999993
 40
0.7499999999999992
 40
0.7499999999999992
 40
0.7656249999999994
 40
0.7656249999999994
 40
0.7812499999999997
 40
0.7812499999999997
 40
0.8124999999999998
 40
0.8124999999999998
 40
0.8437499999999999
 40
0.8437499999999999
 40
0.8749999999999999
 40
0.8749999999999999
 40
0.8906249999999999
 40
0.8906249999999999
 40
0.9062499999999999
 40
0.9062499999999999
 40
0.9375
 40
0.9375
 40
0.96875
 40
0.96875
 40
1.0
 40
1.0
 40
1.0
 40
1.0
 10
274.1315771707713
 20
36.80792674141934
 30
0.0
 10
274.2867228927157
 20
36.78471140397937
 30
0.0
 10
274.4378819691223
 20
36.75376149458186
 30
0.0
 10
274.7331037840905
 20
36.67915924633552
 30
0.0
 10
274.8780943836169
 20
36.63514807369871
 30
0.0
 10
275.1566654865243
 20
36.53681316011545
 30
0.0
 10
275.2884139278128
 20
36.48324576934967
 30
0.0
 10
275.5375075903988
 20
36.36839803932841
 30
0.0
 10
275.6558438969679
 20
36.30648673447635
 30
0.0
 10
275.8716917669423
 20
36.17813308003988
 30
0.0
 10
275.9691219389774
 20
36.11193383899354
 30
0.0
 10
276.1431934479454
 20
35.97518636368672
 30
0.0
 10
276.2204211450655
 20
35.90389438740566
 30
0.0
 10
276.3483249403855
 20
35.76022658801982
 30
0.0
 10
276.3993911140032
 20
35.6878217660661
 30
0.0
 10
276.4751479247972
 20
35.54051156327998
 30
0.0
 10
276.4998262619205
 20
35.4647603469743
 30
0.0
 10
276.5187186218787
 20
35.31461909439175
 30
0.0
 10
276.5134458167169
 20
35.2399382318326
 30
0.0
 10
276.4715455203295
 20
35.08971418722745
 30
0.0
 10
276.4340636767259
 20
35.01340756409696
 30
0.0
 10
276.3283122585595
 20
34.86618266699083
 30
0.0
 10
276.2601366853388
 20
34.79443905015631
 30
0.0
 10
276.1330438854792
 20
34.68910167307433
 30
0.0
 10
276.086314728125
 20
34.6543006133808
 30
0.0
 10
275.9870339812451
 20
34.58748045838234
 30
0.0
 10
275.8813595287336
 20
34.52291695737124
 30
0.0
 10
275.7630674575665
 20
34.46277919981019
 30
0.0
 10
275.638349154765
 20
34.40492718903405
 30
0.0
 10
275.5726031657831
 20
34.37711436145369
 30
0.0
 10
275.3710018276689
 20
34.29940038284196
 30
0.0
 10
275.2292159141021
 20
34.25433731510149
 30
0.0
 10
274.931422611177
 20
34.17813907091668
 30
0.0
 10
274.7785241876114
 20
34.14791280941471
 30
0.0
 10
274.4707390525081
 20
34.10419672680381
 30
0.0
 10
274.3135260154701
 20
34.09052739315243
 30
0.0
 10
274.0056378737672
 20
34.08121326511522
 30
0.0
 10
273.8541900507723
 20
34.08530368352892
 30
0.0
 10
273.5559065500215
 20
34.11173335067102
 30
0.0
 10
273.4102756777214
 20
34.13415355409582
 30
0.0
 10
273.1335791904555
 20
34.19634311257203
 30
0.0
 10
273.0012587460791
 20
34.23620580479771
 30
0.0
 10
272.748825379272
 20
34.33453633563678
 30
0.0
 10
272.6318656023106
 20
34.39182341176745
 30
0.0
 10
272.4169423209414
 20
34.52154025718147
 30
0.0
 10
272.318523627173
 20
34.59426330923498
 30
0.0
 10
272.1421459624895
 20
34.75467725974581
 30
0.0
 10
272.0662827980686
 20
34.84037043993938
 30
0.0
 10
271.9387102237185
 20
35.0217214314962
 30
0.0
 10
271.8867820071536
 20
35.1179230079106
 30
0.0
 10
271.8101953773851
 20
35.31762689427097
 30
0.0
 10
271.7861751442694
 20
35.41902886582444
 30
0.0
 10
271.7718877189129
 20
35.57245220789272
 30
0.0
 10
271.7707746415794
 20
35.62381496394525
 30
0.0
 10
271.7762535004056
 20
35.7268250346559
 30
0.0
 10
271.7829319948871
 20
35.77880419419735
 30
0.0
 10
271.8148132192135
 20
35.93178843582358
 30
0.0
 10
271.8514958376901
 20
36.03005578013284
 30
0.0
 10
271.9570350686697
 20
36.2175355601772
 30
0.0
 10
272.0273312887861
 20
36.30788536144626
 30
0.0
 10
272.19650210036
 20
36.46893372842296
 30
0.0
 10
272.2951332135809
 20
36.54031931831575
 30
0.0
 10
272.4649356219476
 20
36.63296321278492
 30
0.0
 10
272.5252793274227
 20
36.66137884276539
 30
0.0
 10
272.6499231190612
 20
36.71179848555934
 30
0.0
 10
272.7146212150744
 20
36.73403997605536
 30
0.0
 10
272.9156493086001
 20
36.79222260696531
 30
0.0
 10
273.0606395942204
 20
36.819736527899
 30
0.0
 10
273.3569800531293
 20
36.8515528355612
 30
0.0
 10
273.5089330298082
 20
36.85634238953384
 30
0.0
 10
273.8202214104609
 20
36.84611543682979
 30
0.0
 10
273.9764314488269
 20
36.83114207885932
 30
0.0
 10
274.1315771707713
 20
36.80792674141934
 30
0.0
  0
LINE
  5
191
330
1F
100
AcDbEntity
  8
0
  6
Continuous
 62
     7
370
    15
100
AcDbLine
 10
281.3957575357
 20
25.4596731444
 30
0.0
 11
282.7731435819
 21
27.1731282914
 31
0.0
  0
SPLINE
  5
192
330
1F
100
AcDbEntity
  8
0
  6
Continuous
 62
     7
370
    15
100
AcDbSpline
210
0.0
220
0.0
230
1.0
 70
     8
 71
     3
 72
    22
 73
    18
 74
     0
 42
0.000000001
 43
0.00000001
 40
0.0
 40
0.0
 40
0.0
 40
0.0
 40
0.0500000000000153
 40
0.1
 40
0.1499999999999999
 40
0.2000000000000001
 40
0.25
 40
0.2968749999999255
 40
0.34375
 40
0.390625
 40
0.4374999999999989
 40
0.515352885058417
 40
0.515352885058417
 40
0.53125
 40
0.6249999999995614
 40
0.8125
 40
0.8824198414277784
 40
0.8824198414277784
 40
0.8824198414277784
 40
0.8824198414277784
 10
282.7731435819386
 20
27.17312829144597
 30
0.0
 10
282.8388817708725
 20
27.25490597351849
 30
0.0
 10
282.9676364841488
 20
27.43290886456988
 30
0.0
 10
283.1439415737317
 20
27.73827383341557
 30
0.0
 10
283.2926496317559
 20
28.07684485309438
 30
0.0
 10
283.3993372254488
 20
28.43263151852629
 30
0.0
 10
283.4498847184233
 20
28.77624171525749
 30
0.0
 10
283.440955842995
 20
29.08635101378327
 30
0.0
 10
283.3759271583796
 20
29.34666981791265
 30
0.0
 10
283.259728899884
 20
29.5508147794889
 30
0.0
 10
283.0678813957038
 20
29.72364012832266
 30
0.0
 10
282.8926522845132
 20
29.77787572190946
 30
0.0
 10
282.7557052040689
 20
29.79096154643457
 30
0.0
 10
282.6077645637324
 20
29.80482016202034
 30
0.0
 10
282.2710866513179
 20
29.83405376942216
 30
0.0
 10
282.0431429918053
 20
29.85484685831144
 30
0.0
 10
281.5429265239929
 20
29.89959930585904
 30
0.0
 10
281.3957367359687
 20
29.91275825776188
 30
0.0
  0
SPLINE
  5
193
330
1F
100
AcDbEntity
  8
0
  6
Continuous
 62
     7
370
    15
100
AcDbSpline
210
0.0
220
0.0
230
1.0
 70
     8
 71
     3
 72
    22
 73
    18
 74
     0
 42
0.000000001
 43
0.00000001
 40
0.0
 40
0.0
 40
0.0
 40
0.0
 40
0.0500000000000153
 40
0.1
 40
0.1499999999999999
 40
0.2000000000000001
 40
0.25
 40
0.2968749999999255
 40
0.34375
 40
0.390625
 40
0.4374999999999989
 40
0.515352885058417
 40
0.515352885058417
 40
0.53125
 40
0.6249999999995614
 40
0.8125
 40
0.8812161579339215
 40
0.8812161579339215
 40
0.8812161579339215
 40
0.8812161579339215
 10
272.6190902041095
 20
21.31131804856452
 30
0.0
 10
272.5543213626201
 20
21.31710935899579
 30
0.0
 10
272.4241474264089
 20
21.34658212311889
 30
0.0
 10
272.2484127553656
 20
21.44833856053743
 30
0.0
 10
272.0995518575857
 20
21.61522859124921
 30
0.0
 10
271.992905204376
 20
21.84783266996218
 30
0.0
 10
271.9423470167699
 20
22.13308312084593
 30
0.0
 10
271.951278116513
 20
22.45350061049556
 30
0.0
 10
272.0163079363286
 20
22.78890230061067
 30
0.0
 10
272.1324994780633
 20
23.12719830644673
 30
0.0
 10
272.3243783824824
 20
23.52156520640791
 30
0.0
 10
272.4994864207883
 20
23.77796539900237
 30
0.0
 10
272.6364917786142
 20
23.94923944540258
 30
0.0
 10
272.7845362293733
 20
24.13403581859795
 30
0.0
 10
273.1223594641381
 20
24.55341425226602
 30
0.0
 10
273.3413406697788
 20
24.82623486472654
 30
0.0
 10
273.849876042624
 20
25.45887475655688
 30
0.0
 10
273.9964971123818
 20
25.64126828232311
 30
0.0
  0
LINE
  5
194
330
1F
100
AcDbEntity
  8
0
  6
Continuous
 62
     7
370
    15
100
AcDbLine
 10
273.9964762504
 20
21.1881589802
 30
0.0
 11
272.6190902041
 21
21.3113180486
 31
0.0
  0
LWPOLYLINE
  5
195
330
1F
100
AcDbEntity
  8
0
  6
Continuous
 62
     7
370
    15
100
AcDbPolyline
 90
       22
 70
   128
 43
0.0
 10
240.7819870346
 20
33.9013273105
 10
241.2305980775
 20
35.7052301238
 10
241.7924897511
 20
37.524310634
 10
242.4635071234
 20
39.3451175721
 10
243.2386883275
 20
41.1541869029
 10
244.1123012527
 20
42.9381413856
 10
245.0778859308
 20
44.6837894922
 10
246.1283023044
 20
46.3782229526
 10
247.2557830244
 20
48.008912206
 10
248.4519908862
 20
49.5637990506
 10
249.7080804795
 20
51.0313858088
 10
251.0147635957
 20
52.4008203472
 10
252.3623779105
 20
53.6619763235
 10
253.7409584318
 20
54.8055280654
 10
255.1403111869
 20
55.8230195306
 10
256.5500886016
 20
56.7069268348
 10
257.9598660164
 20
57.4507138872
 10
259.3592187714
 20
58.0488807228
 10
260.7377992928
 20
58.497004171
 10
262.0854136076
 20
58.7917705639
 10
263.3920967238
 20
58.9310002386
 10
264.253621921
 20
58.9362134621
  0
SPLINE
  5
196
330
1F
100
AcDbEntity
  8
0
  6
Continuous
 62
     7
370
    15
100
AcDbSpline
210
0.0
220
0.0
230
1.0
 70
     8
 71
     3
 72
     8
 73
     4
 74
     0
 42
0.000000001
 43
0.00000001
 40
0.0
 40
0.0
 40
0.0
 40
0.0
 40
1.0
 40
1.0
 40
1.0
 40
1.0
 10
240.7819870345913
 20
33.90132731050813
 30
0.0
 10
240.398703065084
 20
33.83796710252848
 30
0.0
 10
240.0153371544451
 20
33.77477558801568
 30
0.0
 10
239.6318992856431
 20
33.71173221487932
 30
0.0
  0
SPLINE
  5
197
330
1F
100
AcDbEntity
  8
0
  6
Continuous
 62
     7
370
    15
100
AcDbSpline
210
0.0
220
0.0
230
1.0
 70
     8
 71
     3
 72
     8
 73
     4
 74
     0
 42
0.000000001
 43
0.00000001
 40
0.0
 40
0.0
 40
0.0
 40
0.0
 40
0.0011891741919631
 40
0.0011891741919631
 40
0.0011891741919631
 40
0.0011891741919631
 10
239.2778462060401
 20
34.08185105097305
 30
0.0
 10
239.3961394363892
 20
33.95838047918231
 30
0.0
 10
239.5141631056516
 20
33.83500481309642
 30
0.0
 10
239.6318992856431
 20
33.71173221487932
 30
0.0
  0
LWPOLYLINE
  5
198
330
1F
100
AcDbEntity
  8
0
  6
Continuous
 62
     7
370
    15
100
AcDbPolyline
 90
       28
 70
   128
 43
0.0
 10
239.277846206
 20
34.081851051
 10
239.7406575614
 20
35.9306846491
 10
240.3155842855
 20
37.794410978
 10
240.9986568006
 20
39.6601619515
 10
241.7851588372
 20
41.5150555046
 10
242.6696599971
 20
43.3462845369
 10
243.6460532479
 20
45.1412053399
 10
244.707597089
 20
46.8874248947
 10
245.8469620979
 20
48.5728864401
 10
247.0562815365
 20
50.185952718
 10
248.3272056668
 20
51.7154863231
 10
249.6509594016
 20
53.1509266006
 10
251.018402892
 20
54.4823625629
 10
252.4200946336
 20
55.7006013191
 10
253.846356655
 20
56.7972315478
 10
255.2873413395
 20
57.7646815729
 10
256.7330994181
 20
58.5962716422
 10
258.1736486636
 20
59.2862600475
 10
259.5990428134
 20
59.8298827685
 10
260.9994402431
 20
60.2233863657
 10
262.3651719179
 20
60.4640538962
 10
263.6868081525
 20
60.5502236725
 10
264.9552237183
 20
60.4813007361
 10
266.1616608485
 20
60.2577609649
 10
267.297789706
 20
59.8811477877
 10
268.3557658966
 20
59.3540615278
 10
269.3282846308
 20
58.6801414487
 10
269.4641891235
 20
58.5684930072
  0
ARC
  5
199
330
1F
100
AcDbEntity
  8
0
  6
Continuous
 62
     7
370
    15
100
AcDbCircle
 10
271.0083504158
 20
42.5429980368
 30
0.0
 40
6.082211698880871
100
AcDbArc
 50
34.9935654465
 51
84.1512507397
  0
ARC
  5
19A
330
1F
100
AcDbEntity
  8
0
  6
Continuous
 62
     7
370
    15
100
AcDbCircle
 10
259.6338927983
 20
22.8420247142
 30
0.0
 40
6.079347863615173
100
AcDbArc
 50
215.1132989788
 51
264.5114031609
  0
LINE
  5
19B
330
1F
100
AcDbEntity
  8
0
  6
Continuous
 62
     7
370
    15
100
AcDbLine
 10
237.9347558369
 20
34.8572006173
 30
0.0
 11
239.277846206
 21
34.081851051
 31
0.0
  0
ARC
  5
19C
330
1F
100
AcDbEntity
  8
0
  6
Continuous
 62
     7
370
    15
100
AcDbCircle
 10
262.2378368603
 20
51.344965845
 30
0.0
 40
10.00134177498983
100
AcDbArc
 50
61.9705409057
 51
106.1956966013
  0
ARC
  5
19D
330
1F
100
AcDbEntity
  8
0
  6
Continuous
 62
     7
370
    15
100
AcDbCircle
 10
265.7446497727
 20
44.863126545
 30
0.0
 40
6.713487245235009
100
AcDbArc
 50
61.2009682324
 51
99.6021171168
  0
ARC
  5
19E
330
1F
100
AcDbEntity
  8
0
  6
Continuous
 62
     7
370
    15
100
AcDbCircle
 10
255.134725749
 20
26.3638603104
 30
0.0
 40
6.890101273731295
100
AcDbArc
 50
199.8076377743
 51
238.3346297336
  0
LINE
  5
19F
330
1F
100
AcDbEntity
  8
0
  6
Continuous
 62
     7
370
    15
100
AcDbLine
 10
241.9947344072
 20
33.5894904884
 30
0.0
 11
241.401115559
 21
33.9321793551
 31
0.0
  0
SPLINE
  5
1A0
330
1F
100
AcDbEntity
  8
0
  6
Continuous
 62
     7
370
    15
100
AcDbSpline
210
0.0
220
0.0
230
1.0
 70
     8
 71
     3
 72
    12
 73
     8
 74
     0
 42
0.000000001
 43
0.00000001
 40
0.0
 40
0.0
 40
0.0
 40
0.0
 40
0.4999999999999928
 40
0.4999999999999928
 40
0.7499999999999963
 40
0.7499999999999963
 40
1.0
 40
1.0
 40
1.0
 40
1.0
 10
241.401115558994
 20
33.93217935511833
 30
0.0
 10
241.3253932734168
 20
33.97589290011307
 30
0.0
 10
241.2177518982608
 20
33.99967973420329
 30
0.0
 10
241.0565899580189
 20
33.99675115326624
 30
0.0
 10
241.0039885329632
 20
33.98971268830352
 30
0.0
 10
240.9061306828719
 20
33.96488674828242
 30
0.0
 10
240.8612930667736
 20
33.94710970838117
 30
0.0
 10
240.8236478886247
 20
33.92537760961661
 30
0.0
  0
SPLINE
  5
1A1
330
1F
100
AcDbEntity
  8
0
  6
Continuous
 62
     7
370
    15
100
AcDbSpline
210
0.0
220
0.0
230
1.0
 70
     8
 71
     3
 72
    10
 73
     6
 74
     0
 42
0.000000001
 43
0.00000001
 40
0.0
 40
0.0
 40
0.0
 40
0.0
 40
0.5
 40
0.5
 40
1.0
 40
1.0
 40
1.0
 40
1.0
 10
237.8328298313052
 20
34.88679109192023
 30
0.0
 10
237.8400770188674
 20
34.89113927886043
 30
0.0
 10
237.8518521111351
 20
34.89165118129448
 30
0.0
 10
237.885966587957
 20
34.88237548677241
 30
0.0
 10
237.9082411444721
 20
34.87250722342643
 30
0.0
 10
237.9347558369484
 20
34.85720061727014
 30
0.0
  0
LINE
  5
1A2
330
1F
100
AcDbEntity
  8
0
  6
Continuous
 62
     7
370
    15
100
AcDbLine
 10
240.8236478886
 20
33.9253776096
 30
0.0
 11
240.7819870346
 21
33.9013273105
 31
0.0
  0
SPLINE
  5
1A3
330
1F
100
AcDbEntity
  8
0
  6
Continuous
 62
     7
370
    15
100
AcDbSpline
210
0.0
220
0.0
230
1.0
 70
     8
 71
     3
 72
    16
 73
    12
 74
     0
 42
0.000000001
 43
0.00000001
 40
0.0
 40
0.0
 40
0.0
 40
0.0
 40
0.106739912859618
 40
0.21449293887749
 40
0.3255046923945614
 40
0.4376584035564915
 40
0.5291320355395561
 40
0.7151867854711159
 40
0.8099889373982379
 40
0.9014942576319199
 40
1.0
 40
1.0
 40
1.0
 40
1.0
 10
272.5307018564563
 20
21.64118084109876
 30
0.0
 10
272.4996937795937
 20
21.64528967268563
 30
0.0
 10
272.4373833152416
 20
21.65354633449853
 30
0.0
 10
272.3500695746387
 20
21.68382763932497
 30
0.0
 10
272.2678074851725
 20
21.72785985763879
 30
0.0
 10
272.1972874376414
 20
21.78332895454674
 30
0.0
 10
272.11917222658
 20
21.86647965825374
 30
0.0
 10
272.0569464644688
 20
21.96406691033952
 30
0.0
 10
272.0102912598609
 20
22.0781018492668
 30
0.0
 10
271.9801851370001
 20
22.17119663891596
 30
0.0
 10
271.9713629378715
 20
22.24204919572745
 30
0.0
 10
271.9667893237745
 20
22.27878065552683
 30
0.0
  0
SPLINE
  5
1A4
330
1F
100
AcDbEntity
  8
0
  6
Continuous
 62
     7
370
    15
100
AcDbSpline
210
0.0
220
0.0
230
1.0
 70
     8
 71
     3
 72
    13
 73
     9
 74
     0
 42
0.000000001
 43
0.00000001
 40
0.0
 40
0.0
 40
0.0
 40
0.0
 40
0.00574002325291
 40
0.1395061178509165
 40
0.3664065559925154
 40
0.5783227556096292
 40
0.7952451232111045
 40
1.0
 40
1.0
 40
1.0
 40
1.0
 10
274.1702023880054
 20
25.88479487612804
 30
0.0
 10
274.170192179169
 20
25.88462778005021
 30
0.0
 10
274.1699440625551
 20
25.8805666597204
 30
0.0
 10
274.1556613235437
 20
25.85554323602948
 30
0.0
 10
274.1277619014164
 20
25.81255652257115
 30
0.0
 10
274.0857919355851
 20
25.75533321075161
 30
0.0
 10
274.0422362012455
 20
25.6985584886431
 30
0.0
 10
274.0114473379323
 20
25.65999409273155
 30
0.0
 10
273.9964971123794
 20
25.64126828232002
 30
0.0
  0
SPLINE
  5
1A5
330
1F
100
AcDbEntity
  8
0
  6
Continuous
 62
     7
370
    15
100
AcDbSpline
210
0.0
220
0.0
230
1.0
 70
     8
 71
     3
 72
    16
 73
    12
 74
     0
 42
0.000000001
 43
0.00000001
 40
0.0
 40
0.0
 40
0.0
 40
0.0
 40
0.249999999999993
 40
0.249999999999993
 40
0.499999999999986
 40
0.499999999999986
 40
0.6249999999999898
 40
0.6249999999999898
 40
0.7499999999999937
 40
0.7499999999999937
 40
1.0
 40
1.0
 40
1.0
 40
1.0
 10
281.3957367359687
 20
29.91275825776188
 30
0.0
 10
281.3642472668832
 20
29.91557345584528
 30
0.0
 10
281.3302417544928
 20
29.91702255352289
 30
0.0
 10
281.2533402712843
 20
29.91509398611024
 30
0.0
 10
281.2103864553981
 20
29.91193865963399
 30
0.0
 10
281.1367922740969
 20
29.89814557900013
 30
0.0
 10
281.1107489256939
 20
29.8918136786404
 30
0.0
 10
281.0624493003511
 20
29.87623550824237
 30
0.0
 10
281.040299701449
 20
29.86701976151755
 30
0.0
 10
280.9853189917803
 20
29.8389376157686
 30
0.0
 10
280.9632455921737
 20
29.82057335103702
 30
0.0
 10
280.9467557341202
 20
29.80340119106965
 30
0.0
  0
SPLINE
  5
1A6
330
1F
100
AcDbEntity
  8
0
  6
Continuous
 62
     7
370
    15
100
AcDbSpline
210
0.0
220
0.0
230
1.0
 70
     8
 71
     3
 72
     8
 73
     4
 74
     0
 42
0.000000001
 43
0.00000001
 40
0.0
 40
0.0
 40
0.0
 40
0.0
 40
1.0
 40
1.0
 40
1.0
 40
1.0
 10
280.9467557341202
 20
29.80340119106951
 30
0.0
 10
280.8963802137098
 20
29.82257388457042
 30
0.0
 10
280.8448404395076
 20
29.84529698546343
 30
0.0
 10
280.8059703017518
 20
29.86773623835689
 30
0.0
  0
LINE
  5
1A7
330
1F
100
AcDbEntity
  8
0
  6
Continuous
 62
     7
370
    15
100
AcDbLine
 10
280.1630506953
 20
30.4769919451
 30
0.0
 11
280.0280073277
 21
30.5476451096
 31
0.0
  0
SPLINE
  5
1A8
330
1F
100
AcDbEntity
  8
0
  6
Continuous
 62
     7
370
    15
100
AcDbSpline
210
0.0
220
0.0
230
1.0
 70
     8
 71
     3
 72
    20
 73
    16
 74
     0
 42
0.000000001
 43
0.00000001
 40
0.0
 40
0.0
 40
0.0
 40
0.0
 40
0.25
 40
0.25
 40
0.5
 40
0.5
 40
0.53125
 40
0.53125
 40
0.5625
 40
0.5625
 40
0.625
 40
0.625
 40
0.75
 40
0.75
 40
1.0
 40
1.0
 40
1.0
 40
1.0
 10
247.6264010230661
 20
30.81812806890403
 30
0.0
 10
247.6264010230661
 20
30.44793127188325
 30
0.0
 10
247.642760564932
 20
30.0683260215077
 30
0.0
 10
247.6739650280571
 20
29.31048953076329
 30
0.0
 10
247.6884232823765
 20
28.932187633098
 30
0.0
 10
247.6888311204226
 20
28.51514174845822
 30
0.0
 10
247.6886773220226
 20
28.46781456008267
 30
0.0
 10
247.68797210227
 20
28.37427159786902
 30
0.0
 10
247.687421837818
 20
28.32761795342983
 30
0.0
 10
247.6852170202334
 20
28.18798731536932
 30
0.0
 10
247.6830028981103
 20
28.09533938036317
 30
0.0
 10
247.6746980868621
 20
27.81842003732399
 30
0.0
 10
247.666949188948
 20
27.63519326594783
 30
0.0
 10
247.6432190803029
 20
27.08577869108325
 30
0.0
 10
247.6264010230661
 20
26.72008408765251
 30
0.0
 10
247.6264010230661
 20
26.34458532075416
 30
0.0
  0
LINE
  5
1A9
330
1F
100
AcDbEntity
  8
0
  6
Continuous
 62
     7
370
    15
100
AcDbLine
 10
279.395733111
 20
30.6818488397
 30
0.0
 11
280.8059703018
 21
29.8677362384
 31
0.0
  0
ARC
  5
1AA
330
1F
100
AcDbEntity
  8
0
  6
Continuous
 62
     7
370
    15
100
AcDbCircle
 10
271.0404470531
 20
30.0126447236
 30
0.0
 40
6.791770351525002
100
AcDbArc
 50
338.0785066567
 51
2.3410933653
  0
LINE
  5
1AB
330
1F
100
AcDbEntity
  8
0
  6
Continuous
 62
     7
370
    15
100
AcDbLine
 10
277.3411470739
 20
27.4770336029
 30
0.0
 11
280.8059703018
 21
25.476833729
 31
0.0
  0
LINE
  5
1AC
330
1F
100
AcDbEntity
  8
0
  6
Continuous
 62
     7
370
    15
100
AcDbLine
 10
274.6634976658
 20
20.950454459
 30
0.0
 11
274.7985488756
 21
20.8797975968
 31
0.0
  0
LINE
  5
1AD
330
1F
100
AcDbEntity
  8
0
  6
Continuous
 62
     7
370
    15
100
AcDbLine
 10
272.0165612198
 20
22.716604462
 30
0.0
 11
274.0205780593
 21
21.5597101657
 31
0.0
  0
LINE
  5
1AE
330
1F
100
AcDbEntity
  8
0
  6
Continuous
 62
     7
370
    15
100
AcDbLine
 10
274.0919246613
 20
21.5015839963
 30
0.0
 11
272.5307018565
 21
21.6411808411
 31
0.0
  0
SPLINE
  5
1AF
330
1F
100
AcDbEntity
  8
0
  6
Continuous
 62
     7
370
    15
100
AcDbSpline
210
0.0
220
0.0
230
1.0
 70
     8
 71
     3
 72
    16
 73
    12
 74
     0
 42
0.000000001
 43
0.00000001
 40
0.0
 40
0.0
 40
0.0
 40
0.0
 40
0.2499999999999997
 40
0.2499999999999997
 40
0.4999999999999994
 40
0.4999999999999994
 40
0.6249999999999993
 40
0.6249999999999993
 40
0.7499999999999991
 40
0.7499999999999991
 40
1.0
 40
1.0
 40
1.0
 40
1.0
 10
273.9964762503876
 20
21.18815898018714
 30
0.0
 10
274.0275250044615
 20
21.18538275369903
 30
0.0
 10
274.0581987282114
 20
21.18603009043372
 30
0.0
 10
274.1146782581804
 20
21.20013093208103
 30
0.0
 10
274.1412456453733
 20
21.21304901283916
 30
0.0
 10
274.1664675683004
 20
21.25510493119262
 30
0.0
 10
274.1718381955222
 20
21.27323285813037
 30
0.0
 10
274.1728674691615
 20
21.31589869945417
 30
0.0
 10
274.1684681746877
 20
21.34036058276608
 30
0.0
 10
274.1453413785866
 20
21.41322597968839
 30
0.0
 10
274.1193139296103
 20
21.45930023955028
 30
0.0
 10
274.0919246613189
 20
21.50158399626652
 30
0.0
  0
LINE
  5
1B0
330
1F
100
AcDbEntity
  8
0
  6
Continuous
 62
     7
370
    15
100
AcDbLine
 10
243.5287676294
 20
31.4621180044
 30
0.0
 11
241.8041370627
 21
32.4577260384
 31
0.0
  0
SPLINE
  5
1B1
330
1F
100
AcDbEntity
  8
0
  6
Continuous
 62
     7
370
    15
100
AcDbSpline
210
0.0
220
0.0
230
1.0
 70
     8
 71
     3
 72
     8
 73
     4
 74
     0
 42
0.000000001
 43
0.00000001
 40
0.0
 40
0.0
 40
0.0
 40
0.0
 40
0.0011891741919631
 40
0.0011891741919631
 40
0.0011891741919631
 40
0.0011891741919631
 10
241.8041370627465
 20
32.45772603842948
 30
0.0
 10
241.7927389184999
 20
32.51961099528381
 30
0.0
 10
241.7817751229406
 20
32.58118231182341
 30
0.0
 10
241.7712226400481
 20
32.64245547401654
 30
0.0
  0
SPLINE
  5
1B2
330
1F
100
AcDbEntity
  8
0
  6
Continuous
 62
     7
370
    15
100
AcDbSpline
210
0.0
220
0.0
230
1.0
 70
     8
 71
     3
 72
     8
 73
     4
 74
     0
 42
0.000000001
 43
0.00000001
 40
0.0
 40
0.0
 40
0.0
 40
0.0
 40
1.0
 40
1.0
 40
1.0
 40
1.0
 10
274.0205780593461
 20
21.55971016574674
 30
0.0
 10
274.0595341417261
 20
21.53722129807772
 30
0.0
 10
274.0820161155177
 20
21.51736705640684
 30
0.0
 10
274.0919246613189
 20
21.50158399626656
 30
0.0
  0
SPLINE
  5
1B3
330
1F
100
AcDbEntity
  8
0
  6
Continuous
 62
     7
370
    15
100
AcDbSpline
210
0.0
220
0.0
230
1.0
 70
     8
 71
     3
 72
     8
 73
     4
 74
     0
 42
0.000000001
 43
0.00000001
 40
0.0
 40
0.0
 40
0.0
 40
0.0
 40
1.0
 40
1.0
 40
1.0
 40
1.0
 10
280.8059703017527
 20
25.47683372896867
 30
0.0
 10
280.8449263841329
 20
25.45434486129962
 30
0.0
 10
280.8955947076004
 20
25.45076225294519
 30
0.0
 10
280.9467557341358
 20
25.45879374302583
 30
0.0
  0
SPLINE
  5
1B4
330
1F
100
AcDbEntity
  8
0
  6
Continuous
 62
     7
370
    15
100
AcDbSpline
210
0.0
220
0.0
230
1.0
 70
     8
 71
     3
 72
    16
 73
    12
 74
     0
 42
0.000000001
 43
0.00000001
 40
0.0
 40
0.0
 40
0.0
 40
0.0
 40
0.2500000000000053
 40
0.2500000000000053
 40
0.3750000000000081
 40
0.3750000000000081
 40
0.5000000000000109
 40
0.5000000000000109
 40
0.7500000000000054
 40
0.7500000000000054
 40
1.0
 40
1.0
 40
1.0
 40
1.0
 10
280.9467557341359
 20
25.45879374302576
 30
0.0
 10
280.9630714412834
 20
25.41025499198691
 30
0.0
 10
280.9854462583151
 20
25.36142293865406
 30
0.0
 10
281.0395808956612
 20
25.30722214330708
 30
0.0
 10
281.0615146853443
 20
25.29289410486358
 30
0.0
 10
281.1096297051171
 20
25.27840599070182
 30
0.0
 10
281.1355980188198
 20
25.27828941445978
 30
0.0
 10
281.2092456324228
 20
25.29338034730452
 30
0.0
 10
281.2526661244297
 20
25.32081709697097
 30
0.0
 10
281.3298697715539
 20
25.38372505330275
 30
0.0
 10
281.364492698928
 20
25.42077998477363
 30
0.0
 10
281.3957575356604
 20
25.4596731444396
 30
0.0
  0
SPLINE
  5
1B5
330
1F
100
AcDbEntity
  8
0
  6
Continuous
 62
     7
370
    15
100
AcDbSpline
210
0.0
220
0.0
230
1.0
 70
     8
 71
     3
 72
    20
 73
    16
 74
     0
 42
0.000000001
 43
0.00000001
 40
0.0
 40
0.0
 40
0.0
 40
0.0
 40
0.0158001785353974
 40
0.0316006135818424
 40
0.1292207640732513
 40
0.226838030430665
 40
0.324453714883942
 40
0.4222432766042686
 40
0.5198667726926
 40
0.617491185021279
 40
0.7151171139762315
 40
0.8128399242447326
 40
0.9018069794494689
 40
0.9907969693819351
 40
1.0
 40
1.0
 40
1.0
 40
1.0
 10
242.0137409473979
 20
29.58470501455054
 30
0.0
 10
242.013725535326
 20
29.59921586848966
 30
0.0
 10
242.013694710932
 20
29.62823781194716
 30
0.0
 10
242.0130477922686
 20
29.74721252427896
 30
0.0
 10
242.009788150492
 20
29.94276995964863
 30
0.0
 10
242.0015424214793
 20
30.21615804673703
 30
0.0
 10
241.9910227990166
 20
30.49090464930205
 30
0.0
 10
241.9795489480749
 20
30.76615341876801
 30
0.0
 10
241.9684605517907
 20
31.04121006446815
 30
0.0
 10
241.959118527403
 20
31.31520120627799
 30
0.0
 10
241.9528453566953
 20
31.58763543338676
 30
0.0
 10
241.950627880019
 20
31.8498763483398
 30
0.0
 10
241.9527282008937
 20
32.10168690568167
 30
0.0
 10
241.9559119752244
 20
32.27160487180176
 30
0.0
 10
241.9588220289591
 20
32.35998731279984
 30
0.0
 10
241.9590947704785
 20
32.36827085786287
 30
0.0
  0
LWPOLYLINE
  5
1B6
330
1F
100
AcDbEntity
  8
0
  6
Continuous
 62
     7
370
    15
100
AcDbPolyline
 90
        3
 70
   128
 43
0.0
 10
240.9530807756
 20
32.5052181823
 10
241.0144400268
 20
33.9603625088
 10
241.0148720091
 20
33.9655882053
  0
ARC
  5
1B7
330
1F
100
AcDbEntity
  8
0
  6
Continuous
 62
     7
370
    15
100
AcDbCircle
 10
252.5211228787
 20
32.1852013985
 30
0.0
 40
11.57246770745547
100
AcDbArc
 50
178.4153812963
 51
204.7745347699
  0
LINE
  5
1B8
330
1F
100
AcDbEntity
  8
0
  6
Continuous
 62
     7
370
    15
100
AcDbLine
 10
212.3981344174
 20
51.5555055429
 30
0.0
 11
212.2749286901
 21
51.6645687592
 31
0.0
  0
LINE
  5
1B9
330
1F
100
AcDbEntity
  8
0
  6
Continuous
 62
     7
370
    15
100
AcDbLine
 10
238.2696609443
 20
34.4981356702
 30
0.0
 11
237.8328298313
 21
34.8867910919
 31
0.0
  0
LINE
  5
1BA
330
1F
100
AcDbEntity
  8
0
  6
Continuous
 62
     7
370
    15
100
AcDbLine
 10
239.6318992856
 20
33.7117322149
 30
0.0
 11
238.2696609443
 21
34.4981356702
 31
0.0
  0
SPLINE
  5
1BB
330
1F
100
AcDbEntity
  8
0
  6
Continuous
 62
     7
370
    15
100
AcDbSpline
210
0.0
220
0.0
230
1.0
 70
     8
 71
     3
 72
    26
 73
    22
 74
     0
 42
0.000000001
 43
0.00000001
 40
0.0
 40
0.0
 40
0.0
 40
0.0
 40
0.1250000000000002
 40
0.1250000000000002
 40
0.1875000000000004
 40
0.1875000000000004
 40
0.2500000000000004
 40
0.2500000000000004
 40
0.3750000000000005
 40
0.3750000000000005
 40
0.5000000000000004
 40
0.5000000000000004
 40
0.6250000000000004
 40
0.6250000000000004
 40
0.6875000000000004
 40
0.6875000000000004
 40
0.7500000000000003
 40
0.7500000000000003
 40
0.8750000000000002
 40
0.8750000000000002
 40
1.0
 40
1.0
 40
1.0
 40
1.0
 10
282.5079785389984
 20
27.40094007000797
 30
0.0
 10
282.5942860681091
 20
27.50830581571129
 30
0.0
 10
282.6722840716638
 20
27.62246607449298
 30
0.0
 10
282.7758698810829
 20
27.80434813600759
 30
0.0
 10
282.8083421832065
 20
27.86721236879863
 30
0.0
 10
282.8672192283219
 20
27.99328588182159
 30
0.0
 10
282.8937586063864
 20
28.05671288151462
 30
0.0
 10
282.9648320220368
 20
28.2481483200705
 30
0.0
 10
283.0010829059632
 20
28.3790876095564
 30
0.0
 10
283.0476237590034
 20
28.63049954203057
 30
0.0
 10
283.0585912081921
 20
28.7530868025174
 30
0.0
 10
283.0559554319555
 20
28.98352847119656
 30
0.0
 10
283.0426174794246
 20
29.08893068833544
 30
0.0
 10
283.0051294500196
 20
29.23203521604687
 30
0.0
 10
282.9896300967441
 20
29.27710004034213
 30
0.0
 10
282.9535676027181
 20
29.35952039801443
 30
0.0
 10
282.9328862598676
 20
29.39726839076624
 30
0.0
 10
282.8628034731428
 20
29.50025718615104
 30
0.0
 10
282.8048543833448
 20
29.55524312007456
 30
0.0
 10
282.6712491047056
 20
29.63255249848601
 30
0.0
 10
282.5942944575157
 20
29.65608639648801
 30
0.0
 10
282.5079785438417
 20
29.66380434343547
 30
0.0
  0
LINE
  5
1BC
330
1F
100
AcDbEntity
  8
0
  6
Continuous
 62
     7
370
    15
100
AcDbLine
 10
282.5079785438
 20
29.6638043434
 30
0.0
 11
280.9467557341
 21
29.8034011911
 31
0.0
  0
LINE
  5
1BD
330
1F
100
AcDbEntity
  8
0
  6
Continuous
 62
     7
370
    15
100
AcDbLine
 10
242.0137409474
 20
26.6288365025
 30
0.0
 11
242.0137409474
 21
29.5847050146
 31
0.0
  0
ARC
  5
1BE
330
1F
100
AcDbEntity
  8
0
  6
Continuous
 62
     7
370
    15
100
AcDbCircle
 10
276.9449949197
 20
31.0926791214
 30
0.0
 40
2.574168997249496
100
AcDbArc
 50
320.7034755418
 51
349.7435996042
  0
LINE
  5
1BF
330
1F
100
AcDbEntity
  8
0
  6
Continuous
 62
     7
370
    15
100
AcDbLine
 10
280.9467557341
 20
25.458793743
 30
0.0
 11
282.507978539
 21
27.40094007
 31
0.0
  0
LINE
  5
1C0
330
1F
100
AcDbEntity
  8
0
  6
Continuous
 62
     7
370
    15
100
AcDbLine
 10
277.3411470739
 20
27.4770336029
 30
0.0
 11
278.937089294
 21
29.4623705524
 31
0.0
  0
LINE
  5
1C1
330
1F
100
AcDbEntity
  8
0
  6
Continuous
 62
     7
370
    15
100
AcDbLine
 10
241.8041370627
 20
21.9651766057
 30
0.0
 11
243.5287676294
 21
20.9695685717
 31
0.0
  0
SPLINE
  5
1C2
330
1F
100
AcDbEntity
  8
0
  6
Continuous
 62
     7
370
    15
100
AcDbSpline
210
0.0
220
0.0
230
1.0
 70
     8
 71
     3
 72
    14
 73
    10
 74
     0
 42
0.000000001
 43
0.00000001
 40
0.0
 40
0.0
 40
0.0
 40
0.0
 40
0.25
 40
0.25
 40
0.5
 40
0.5
 40
0.75
 40
0.75
 40
1.0
 40
1.0
 40
1.0
 40
1.0
 10
243.4825931053973
 20
20.85004986611235
 30
0.0
 10
243.4658378388195
 20
20.80668032813661
 30
0.0
 10
243.4454637480389
 20
20.76645296906399
 30
0.0
 10
243.3970132192813
 20
20.69268610075897
 30
0.0
 10
243.3687190620233
 20
20.65911793357166
 30
0.0
 10
243.3056581088098
 20
20.60556685486237
 30
0.0
 10
243.2704326923339
 20
20.58510896246969
 30
0.0
 10
243.1956554128306
 20
20.5676721296398
 30
0.0
 10
243.1570983923115
 20
20.57161714328992
 30
0.0
 10
243.1231518439047
 20
20.59121406855291
 30
0.0
  0
LINE
  5
1C3
330
1F
100
AcDbEntity
  8
0
  6
Continuous
 62
     7
370
    15
100
AcDbLine
 10
243.1231518439
 20
20.5912140686
 30
0.0
 11
241.77122264
 21
21.3716661855
 31
0.0
  0
SPLINE
  5
1C4
330
1F
100
AcDbEntity
  8
0
  6
Continuous
 62
     7
370
    15
100
AcDbSpline
210
0.0
220
0.0
230
1.0
 70
     8
 71
     3
 72
     8
 73
     4
 74
     0
 42
0.000000001
 43
0.00000001
 40
0.0
 40
0.0
 40
0.0
 40
0.0
 40
0.0011891741919631
 40
0.0011891741919631
 40
0.0011891741919631
 40
0.0011891741919631
 10
241.7712226400481
 20
21.37166618554888
 30
0.0
 10
241.7817751229406
 20
21.56951780434887
 30
0.0
 10
241.7927389184999
 20
21.76735634888934
 30
0.0
 10
241.8041370627465
 20
21.9651766056976
 30
0.0
  0
LWPOLYLINE
  5
1C5
330
1F
100
AcDbEntity
  8
0
  6
Continuous
 62
     7
370
    15
100
AcDbPolyline
 90
       14
 70
   128
 43
0.0
 10
254.995287783
 20
13.7774785633
 10
254.8637085299
 20
13.7460607724
 10
253.4962650395
 20
13.4986800866
 10
252.1725113047
 20
13.4057468344
 10
250.9015871744
 20
13.4679026726
 10
249.6922677357
 20
13.6847184467
 10
248.5529027268
 20
14.0546971536
 10
247.4913588858
 20
14.5752842779
 10
246.5149656349
 20
15.2428854291
 10
245.6304644751
 20
16.0528911596
 10
244.8439624385
 20
16.9997087902
 10
244.1608899233
 20
18.0768010248
 10
243.5859631992
 20
19.2767310873
 10
243.1994572627
 20
20.3420348876
  0
SPLINE
  5
1C6
330
1F
100
AcDbEntity
  8
0
  6
Continuous
 62
     7
370
    15
100
AcDbSpline
210
0.0
220
0.0
230
1.0
 70
     8
 71
     3
 72
     8
 73
     4
 74
     0
 42
0.000000001
 43
0.00000001
 40
0.0
 40
0.0
 40
0.0
 40
0.0
 40
1.0
 40
1.0
 40
1.0
 40
1.0
 10
242.1325609866576
 20
22.62910813098555
 30
0.0
 10
242.0228059950768
 20
22.40784300514959
 30
0.0
 10
241.9133432208139
 20
22.18653057570528
 30
0.0
 10
241.8041370627465
 20
21.9651766056976
 30
0.0
  0
LINE
  5
1C7
330
1F
100
AcDbEntity
  8
0
  6
Continuous
 62
     7
370
    15
100
AcDbLine
 10
242.1742218407
 20
22.6531584301
 30
0.0
 11
242.1325609867
 21
22.629108131
 31
0.0
  0
SPLINE
  5
1C8
330
1F
100
AcDbEntity
  8
0
  6
Continuous
 62
     7
370
    15
100
AcDbSpline
210
0.0
220
0.0
230
1.0
 70
     8
 71
     3
 72
    12
 73
     8
 74
     0
 42
0.000000001
 43
0.00000001
 40
0.0
 40
0.0
 40
0.0
 40
0.0
 40
0.25
 40
0.25
 40
0.5
 40
0.5
 40
1.0
 40
1.0
 40
1.0
 40
1.0
 10
242.186004086111
 20
22.98652342032484
 30
0.0
 10
242.2236118829262
 20
22.96481290134482
 30
0.0
 10
242.2538493303317
 20
22.93792217896878
 30
0.0
 10
242.2923304471075
 20
22.88044299931597
 30
0.0
 10
242.301228050283
 20
22.84931611762973
 30
0.0
 10
242.2961854520966
 20
22.75721267490008
 30
0.0
 10
242.2495972016736
 20
22.69667169978327
 30
0.0
 10
242.1742218406908
 20
22.65315843009391
 30
0.0
  0
LINE
  5
1C9
330
1F
100
AcDbEntity
  8
0
  6
Continuous
 62
     7
370
    15
100
AcDbLine
 10
241.401115559
 20
23.4396299224
 30
0.0
 11
242.1860040861
 21
22.9865234203
 31
0.0
  0
SPLINE
  5
1CA
330
1F
100
AcDbEntity
  8
0
  6
Continuous
 62
     7
370
    15
100
AcDbSpline
210
0.0
220
0.0
230
1.0
 70
     8
 71
     3
 72
    12
 73
     8
 74
     0
 42
0.000000001
 43
0.00000001
 40
0.0
 40
0.0
 40
0.0
 40
0.0
 40
0.5000000000000073
 40
0.5000000000000073
 40
0.7500000000000037
 40
0.7500000000000037
 40
1.0
 40
1.0
 40
1.0
 40
1.0
 10
240.8236478886245
 20
23.4328281768846
 30
0.0
 10
240.8988532563384
 20
23.47624331154868
 30
0.0
 10
241.0030980553488
 20
23.5032876143916
 30
0.0
 10
241.1644900614443
 20
23.50613332516618
 30
0.0
 10
241.2179094972107
 20
23.50094920368712
 30
0.0
 10
241.3177334902268
 20
23.47855407947014
 30
0.0
 10
241.3634661668159
 20
23.46136445385834
 30
0.0
 10
241.401115558994
 20
23.43962992238645
 30
0.0
  0
LINE
  5
1CB
330
1F
100
AcDbEntity
  8
0
  6
Continuous
 62
     7
370
    15
100
AcDbLine
 10
240.7819870346
 20
23.4087778778
 30
0.0
 11
240.8236478886
 21
23.4328281769
 31
0.0
  0
SPLINE
  5
1CC
330
1F
100
AcDbEntity
  8
0
  6
Continuous
 62
     7
370
    15
100
AcDbSpline
210
0.0
220
0.0
230
1.0
 70
     8
 71
     3
 72
     8
 73
     4
 74
     0
 42
0.000000001
 43
0.00000001
 40
0.0
 40
0.0
 40
0.0
 40
0.0
 40
1.0
 40
1.0
 40
1.0
 40
1.0
 10
239.6318992856431
 20
23.21918278214743
 30
0.0
 10
240.0153371544451
 20
23.28222615528379
 30
0.0
 10
240.398703065084
 20
23.34541766979659
 30
0.0
 10
240.7819870345913
 20
23.40877787777624
 30
0.0
  0
LINE
  5
1CD
330
1F
100
AcDbEntity
  8
0
  6
Continuous
 62
     7
370
    15
100
AcDbLine
 10
238.2696609443
 20
24.0055862375
 30
0.0
 11
239.6318992856
 21
23.2191827821
 31
0.0
  0
LINE
  5
1CE
330
1F
100
AcDbEntity
  8
0
  6
Continuous
 62
     7
370
    15
100
AcDbLine
 10
238.2696609443
 20
24.0055862375
 30
0.0
 11
242.0844516255
 21
26.2078180219
 31
0.0
  0
ARC
  5
1CF
330
1F
100
AcDbEntity
  8
0
  6
Continuous
 62
     7
370
    15
100
AcDbCircle
 10
251.4805378116
 20
23.8298588493
 30
0.0
 40
10.01566334660244
100
AcDbArc
 50
194.207532472
 51
237.9790441783
  0
ARC
  5
1D0
330
1F
100
AcDbEntity
  8
0
  6
Continuous
 62
     7
370
    15
100
AcDbCircle
 10
251.7480479409
 20
26.4910279857
 30
0.0
 40
11.39099458029923
100
AcDbArc
 50
195.6991739239
 51
211.7569450809
  0
ARC
  5
1D1
330
1F
100
AcDbEntity
  8
0
  6
Continuous
 62
     7
370
    15
100
AcDbCircle
 10
248.5012546811
 20
24.9619874602
 30
0.0
 40
9.470889359197015
100
AcDbArc
 50
193.1269352432
 51
248.2162297357
  0
SPLINE
  5
1D2
330
1F
100
AcDbEntity
  8
0
  6
Continuous
 62
     7
370
    15
100
AcDbSpline
210
0.0
220
0.0
230
1.0
 70
     8
 71
     3
 72
     8
 73
     4
 74
     0
 42
0.000000001
 43
0.00000001
 40
0.0
 40
0.0
 40
0.0
 40
0.0
 40
0.0011891741919631
 40
0.0011891741919631
 40
0.0011891741919631
 40
0.0011891741919631
 10
239.6318992856431
 20
23.21918278214743
 30
0.0
 10
239.5141631056516
 20
23.08275016670196
 30
0.0
 10
239.3961394363892
 20
22.94671597170776
 30
0.0
 10
239.2778462060401
 20
22.81106176250539
 30
0.0
  0
ELLIPSE
  5
1D3
330
1F
100
AcDbEntity
  8
0
  6
Continuous
 62
     7
370
    15
100
AcDbEllipse
 10
241.967294338
 20
26.6020678092
 30
0.0
 11
-3.002985189937135E-5
 21
0.4267244807413597
 31
0.0
210
0.0
220
0.0
230
1.0
 40
0.7174342186
 41
3.534193645557629
 42
5.104989972352331
  0
LINE
  5
1D4
330
1F
100
AcDbEntity
  8
0
  6
Continuous
 62
     7
370
    15
100
AcDbLine
 10
237.8328298313
 20
23.753356927
 30
0.0
 11
238.2696609443
 21
24.0055862375
 31
0.0
  0
LINE
  5
1D5
330
1F
100
AcDbEntity
  8
0
  6
Continuous
 62
     7
370
    15
100
AcDbLine
 10
239.277846206
 20
22.8110617625
 30
0.0
 11
237.9347558369
 21
23.5864113288
 31
0.0
  0
SPLINE
  5
1D6
330
1F
100
AcDbEntity
  8
0
  6
Continuous
 62
     7
370
    15
100
AcDbSpline
210
0.0
220
0.0
230
1.0
 70
     8
 71
     3
 72
    10
 73
     6
 74
     0
 42
0.000000001
 43
0.00000001
 40
0.0
 40
0.0
 40
0.0
 40
0.0
 40
0.5
 40
0.5
 40
1.0
 40
1.0
 40
1.0
 40
1.0
 10
237.9347558369484
 20
23.58641132880248
 30
0.0
 10
237.9082960935242
 20
23.6016862135462
 30
0.0
 10
237.8859954344836
 20
23.62560742725466
 30
0.0
 10
237.8519240521377
 20
23.68367790557487
 30
0.0
 10
237.8400732437001
 20
23.7176589729347
 30
0.0
 10
237.8328298313051
 20
23.75335692704113
 30
0.0
  0
ARC
  5
1D7
330
1F
100
AcDbEntity
  8
0
  6
Continuous
 62
     7
370
    15
100
AcDbCircle
 10
247.5903576653
 20
25.9869748795
 30
0.0
 40
9.938333162323154
100
AcDbArc
 50
195.5709933221
 51
238.0654314205
  0
ELLIPSE
  5
1D8
330
1F
100
AcDbEntity
  8
0
  6
Continuous
 62
     7
370
    15
100
AcDbEllipse
 10
241.7308982349
 20
26.4655548801
 30
0.0
 11
0.1300037894604884
 21
0.4852718104954619
 31
0.0
210
0.0
220
0.0
230
1.0
 40
0.5176380889
 41
3.619174351347832
 42
5.189970678142605
  0
LINE
  5
1D9
330
1F
100
AcDbEntity
  8
0
  6
Continuous
 62
     7
370
     0
100
AcDbLine
 10
243.4825931054
 20
31.5283247393
 30
0.0
 11
243.5764095136
 21
31.9561753512
 31
0.0
  0
LWPOLYLINE
  5
1DA
330
1F
100
AcDbEntity
  8
0
  6
Continuous
 62
     7
370
     0
100
AcDbPolyline
 90
       17
 70
   128
 43
0.0
 10
259.6364478973
 20
55.3562872157
 10
260.7428108652
 20
55.9835599972
 10
262.1763832846
 20
56.673442952
 10
263.5949625123
 20
57.2167178552
 10
264.9886109482
 20
57.6095788928
 10
266.3475656406
 20
57.8492739478
 10
267.6623066784
 20
57.93412388
 10
268.9236238811
 20
57.8635342885
 10
270.1226813194
 20
57.6379996759
 10
271.2510792136
 20
57.2590999842
 10
272.3009127765
 20
56.7294895264
 10
273.264827589
 20
56.0528783929
 10
274.1360711204
 20
55.2340064604
 10
274.9085400319
 20
54.278610188
 10
275.5768229324
 20
53.1933824313
 10
276.1362382869
 20
51.985925557
 10
276.5828672125
 20
50.6646981857
  0
LWPOLYLINE
  5
1DB
330
1F
100
AcDbEntity
  8
0
  6
Continuous
 62
     7
370
     0
100
AcDbPolyline
 90
       20
 70
   128
 43
0.0
 10
243.1231518439
 20
31.862003357
 10
243.5859631992
 20
33.7108369551
 10
244.1608899233
 20
35.574563284
 10
244.8439624385
 20
37.4403142576
 10
245.6304644751
 20
39.2952078106
 10
246.5149656349
 20
41.126436843
 10
247.4913588858
 20
42.9213576459
 10
248.5529027268
 20
44.6675772007
 10
249.6922677357
 20
46.3530387461
 10
250.9015871744
 20
47.9661050241
 10
252.1725113047
 20
49.4956386291
 10
253.4962650395
 20
50.9310789067
 10
254.8637085299
 20
52.262514869
 10
256.2654002715
 20
53.4807536251
 10
257.6916622928
 20
54.5773838539
 10
259.1326469774
 20
55.544833879
 10
260.578405056
 20
56.3764239482
 10
262.0189543015
 20
57.0664123536
 10
263.4443484513
 20
57.6100350746
 10
264.645040231
 20
57.9562511001
  0
LWPOLYLINE
  5
1DC
330
1F
100
AcDbEntity
  8
0
  6
Continuous
 62
     7
370
     0
100
AcDbPolyline
 90
       26
 70
   128
 43
0.0
 10
247.6264010231
 20
30.8181280689
 10
247.8752355133
 20
32.3521328717
 10
248.2405946522
 20
33.9186510873
 10
248.7189775981
 20
35.5026724663
 10
249.305800525
 20
37.0890190454
 10
249.9954405435
 20
38.6624905814
 10
250.7812895794
 20
40.2080101988
 10
251.6558176915
 20
41.7107688552
 10
252.610645223
 20
43.1563672399
 10
253.6366230945
 20
44.5309537475
 10
254.7239204701
 20
45.8213572025
 10
255.8621189553
 20
47.0152130647
 10
257.0403124252
 20
48.1010819047
 10
258.2472115265
 20
49.0685590162
 10
259.4712518506
 20
49.9083741127
 10
260.7007047433
 20
50.6124801547
 10
261.9237896877
 20
51.1741304555
 10
263.1287871837
 20
51.587943328
 10
264.304151044
 20
51.8499536511
 10
265.4386190282
 20
51.9576508633
 10
266.521320757
 20
51.9100030188
 10
267.5418818708
 20
51.7074666752
 10
268.4905234366
 20
51.3519825192
 10
269.3581556486
 20
50.8469567711
 10
270.1364649257
 20
50.1972285461
 10
270.3921821171
 20
49.9303253476
  0
LWPOLYLINE
  5
1DD
330
1F
100
AcDbEntity
  8
0
  6
Continuous
 62
     7
370
     0
100
AcDbPolyline
 90
       10
 70
   128
 43
0.0
 10
252.9311012484
 20
19.683568829
 10
252.610645223
 20
19.7610320111
 10
251.6558176915
 20
20.1042099936
 10
250.7812895794
 20
20.597259984
 10
249.9954405435
 20
21.2354576175
 10
249.305800525
 20
22.0126877366
 10
248.7189775981
 20
22.921502986
 10
248.2405946522
 20
23.9531951722
 10
247.8752355133
 20
25.0978787051
 10
247.6264010231
 20
26.3445853208
  0
LWPOLYLINE
  5
1DE
330
1F
100
AcDbEntity
  8
0
  6
Continuous
 62
     7
370
     0
100
AcDbPolyline
 90
       18
 70
   128
 43
0.0
 10
261.4883628988
 20
16.8076280345
 10
260.7428108652
 20
16.3230378495
 10
259.304287886
 20
15.4938127271
 10
257.8708916596
 20
14.8064559982
 10
256.4526635836
 20
14.2657828158
 10
255.059538798
 20
13.8755807681
 10
253.7012765865
 20
13.638583345
 10
252.387392009
 20
13.5564507889
 10
251.1270892462
 20
13.6297584646
 10
249.9291971208
 20
13.8579928284
 10
248.8021072493
 20
14.2395550259
 10
247.7537152558
 20
14.7717720922
 10
246.7913654605
 20
15.4509156768
 10
245.9217994309
 20
16.2722281624
 10
245.1511087543
 20
17.2299559931
 10
244.4846923647
 20
18.3173899799
 10
243.9272187215
 20
19.5269123007
 10
243.4825931054
 20
20.8500498661
  0
LWPOLYLINE
  5
1DF
330
1F
100
AcDbEntity
  8
0
  6
Continuous
 62
     7
370
     0
100
AcDbPolyline
 90
        7
 70
   128
 43
0.0
 10
260.1952240587
 20
27.6935128732
 10
260.2567384528
 20
26.6678905492
 10
260.4401839094
 20
25.7315934876
 10
260.74228684
 20
24.9013299316
 10
261.1576562107
 20
24.1919159541
 10
261.678879745
 20
23.6160110643
 10
262.2149113536
 20
23.2295260101
  0
LWPOLYLINE
  5
1E0
330
1F
100
AcDbEntity
  8
0
  6
Continuous
 62
     7
370
     0
100
AcDbPolyline
 90
       19
 70
   128
 43
0.0
 10
271.9641189968
 20
40.1174788266
 10
271.5406615368
 20
40.3227380671
 10
270.7992115626
 20
40.5255599698
 10
269.9915619685
 20
40.5704166958
 10
269.1321252806
 20
40.4565077757
 10
268.236238167
 20
40.1858659169
 10
267.3198877544
 20
39.7633207298
 10
266.3994263377
 20
39.1964125434
 10
265.4912795726
 20
38.4952578475
 10
264.6116533597
 20
37.6723687643
 10
263.7762446497
 20
36.7424297692
 10
262.9999613306
 20
35.7220356453
 10
262.2966561968
 20
34.6293953501
 10
261.678879745
 20
33.4840070755
 10
261.1576562107
 20
32.3063103024
 10
260.74228684
 20
31.1173210577
 10
260.4401839094
 20
29.9382568825
 10
260.2567384528
 20
28.7901582049
 10
260.1952240587
 20
27.6935128732
  0
LWPOLYLINE
  5
1E1
330
1F
100
AcDbEntity
  8
0
  6
Continuous
 62
     7
370
     0
100
AcDbPolyline
 90
       13
 70
   128
 43
0.0
 10
273.9964762504
 20
21.1881589802
 10
274.4058640412
 20
20.6890491972
 10
274.9236124358
 20
20.3500436483
 10
275.5326700002
 20
20.1823070823
 10
276.2129781407
 20
20.1913637054
 10
276.9421317097
 20
20.3769152483
 10
277.696116893
 20
20.7328507896
 10
278.4501020763
 20
21.2474480111
 10
279.1792556454
 20
21.9037592595
 10
279.8595637859
 20
22.6801696963
 10
280.4686213503
 20
23.5511091581
 10
280.9863697448
 20
24.4878942791
 10
281.3957575357
 20
25.4596731444
  0
LWPOLYLINE
  5
1E2
330
1F
100
AcDbEntity
  8
0
  6
Continuous
 62
     7
370
     0
100
AcDbPolyline
 90
       13
 70
   128
 43
0.0
 10
281.395736736
 20
29.9127582578
 10
280.9863466934
 20
30.4118547999
 10
280.4685989478
 20
30.7508495856
 10
279.8595445745
 20
30.9185784413
 10
279.1792416659
 20
30.9095175238
 10
278.4500947543
 20
30.7239652378
 10
277.6961169604
 20
30.3680324087
 10
276.9421391643
 20
29.8534410334
 10
276.2129922462
 20
29.1971382382
 10
275.5326893268
 20
28.4207381555
 10
274.9236349389
 20
27.5498101028
 10
274.4058871755
 20
26.6130365031
 10
273.9964971124
 20
25.6412682823
  0
LWPOLYLINE
  5
1E3
330
1F
100
AcDbEntity
  8
0
  6
Continuous
 62
     7
370
     0
100
AcDbPolyline
 90
       23
 70
   128
 43
0.0
 10
252.9738960558
 20
25.5657492318
 10
253.035255307
 20
27.0208935583
 10
253.2187232447
 20
28.5324198902
 10
253.5224764821
 20
30.0853059998
 10
253.9434961832
 20
31.6641186071
 10
254.4775980649
 20
33.2531667632
 10
255.1194739828
 20
34.8366577936
 10
255.8627446857
 20
36.398854253
 10
256.7000232153
 20
37.9242303312
 10
257.6229883216
 20
39.3976261554
 10
258.6224671626
 20
40.8043984559
 10
259.6885264685
 20
42.1305660976
 10
260.810571263
 20
43.3629490307
 10
261.9774501609
 20
44.4892992799
 10
263.1775661955
 20
45.4984226704
 10
264.3989920743
 20
46.3802900806
 10
265.6295887182
 20
47.126137116
 10
266.8571259051
 20
47.7285512136
 10
268.0694038187
 20
48.1815453114
 10
269.2543742966
 20
48.4806173507
 10
270.4002605697
 20
48.6227950191
 10
271.4956743055
 20
48.6066652912
 10
271.6281444528
 20
48.5935479707
  0
ARC
  5
1E4
330
1F
100
AcDbEntity
  8
0
  6
Continuous
 62
     7
370
     0
100
AcDbCircle
 10
263.4596656979
 20
25.0704383872
 30
0.0
 40
10.49746149406599
100
AcDbArc
 50
177.2955593396
 51
213.0514132031
  0
LWPOLYLINE
  5
1E5
330
1F
100
AcDbEntity
  8
0
  6
Continuous
 62
     7
370
     0
100
AcDbPolyline
 90
       19
 70
   128
 43
0.0
 10
253.681002837
 20
25.5657492318
 10
253.7425417051
 20
24.2000355824
 10
253.9265268376
 20
22.9193872681
 10
254.2310702978
 20
21.7369454733
 10
254.6530470579
 20
20.6648436512
 10
255.1881270651
 20
19.7140830171
 10
255.8308196747
 20
18.8944196617
 10
256.5745299907
 20
18.2142644403
 10
257.4116265388
 20
17.6805966658
 10
258.3335195757
 20
17.2988924917
 10
259.3307492313
 20
17.0730687195
 10
260.3930825799
 20
17.0054426066
 10
261.5096186438
 20
17.0967080884
 10
262.668900252
 20
17.3459286575
 10
263.8590316065
 20
17.7505469738
 10
265.0678003491
 20
18.3064111057
 10
266.2828028767
 20
19.007817135
 10
267.4915716192
 20
19.8475676868
 10
267.7414329748
 20
20.0391329877
  0
LWPOLYLINE
  5
1E6
330
1F
100
AcDbEntity
  8
0
  6
Continuous
 62
     7
370
     0
100
AcDbPolyline
 90
       35
 70
   128
 43
0.0
 10
277.490640618
 20
36.9270858041
 10
277.6080615206
 20
37.9773069144
 10
277.6696003887
 20
39.4140718286
 10
277.6080615206
 20
40.7797854779
 10
277.4240763882
 20
42.0604337923
 10
277.1195329279
 20
43.242875587
 10
276.6975561679
 20
44.3149774092
 10
276.1624761606
 20
45.2657380433
 10
275.519783551
 20
46.0854013987
 10
274.7760732351
 20
46.7655566201
 10
273.9389766869
 20
47.2992243946
 10
273.01708365
 20
47.6809285686
 10
272.0198539944
 20
47.9067523409
 10
270.9575206458
 20
47.9743784538
 10
269.8409845819
 20
47.883112972
 10
268.6817029737
 20
47.6338924028
 10
267.4915716192
 20
47.2292740866
 10
266.2828028767
 20
46.6734099547
 10
265.0678003491
 20
45.9720039253
 10
263.8590316065
 20
45.1322533736
 10
262.668900252
 20
44.1627752764
 10
261.5096186438
 20
43.0735177911
 10
260.3930825799
 20
41.8756581733
 10
259.3307492313
 20
40.5814880838
 10
258.3335195757
 20
39.2042874589
 10
257.4116265388
 20
37.7581882407
 10
256.5745299907
 20
36.2580293641
 10
255.8308196747
 20
34.7192044892
 10
255.1881270651
 20
33.1575040415
 10
254.6530470579
 20
31.588953181
 10
254.2310702978
 20
30.0296473621
 10
253.9265268376
 20
28.4955871726
 10
253.7425417051
 20
27.0025141459
 10
253.681002837
 20
25.5657492318
 10
253.681002837
 20
25.5657492318
  0
LWPOLYLINE
  5
1E7
330
1F
100
AcDbEntity
  8
0
  6
Continuous
 62
     7
370
     0
100
AcDbPolyline
 90
       20
 70
   128
 43
0.0
 10
237.9347558369
 20
34.8572006173
 10
238.3975671923
 20
36.7060342154
 10
238.9724939164
 20
38.5697605443
 10
239.6555664315
 20
40.4355115178
 10
240.4420684681
 20
42.2904050709
 10
241.326569628
 20
44.1216341032
 10
242.3029628788
 20
45.9165549062
 10
243.3645067199
 20
47.662774461
 10
244.5038717288
 20
49.3482360064
 10
245.7131911674
 20
50.9613022843
 10
246.9841152977
 20
52.4908358894
 10
248.3078690325
 20
53.9262761669
 10
249.6753125229
 20
55.2577121292
 10
251.0770042645
 20
56.4759508854
 10
252.5032662859
 20
57.5725811141
 10
253.9442509704
 20
58.5400311392
 10
255.390009049
 20
59.3716212085
 10
256.8305582945
 20
60.0616096138
 10
258.2559524443
 20
60.6052323348
 10
259.4482728232
 20
60.9494007468
  0
LWPOLYLINE
  5
1E8
330
1F
100
AcDbEntity
  8
0
  6
Continuous
 62
     7
370
     0
100
AcDbPolyline
 90
       21
 70
   128
 43
0.0
 10
247.9004049008
 20
28.4946133329
 10
247.9617641519
 20
29.9497576595
 10
248.1452320897
 20
31.4612839914
 10
248.4489853271
 20
33.0141701009
 10
248.8700050282
 20
34.5929827082
 10
249.4041069099
 20
36.1820308643
 10
250.0459828278
 20
37.7655218947
 10
250.7892535307
 20
39.3277183541
 10
251.6265320603
 20
40.8530944323
 10
252.5494971666
 20
42.3264902565
 10
253.5489760076
 20
43.733262557
 10
254.6150353135
 20
45.0594301988
 10
255.737080108
 20
46.2918131319
 10
256.9039590059
 20
47.4181633811
 10
258.1040750404
 20
48.4272867716
 10
259.3255009193
 20
49.3091541818
 10
260.5560975632
 20
50.0550012171
 10
261.7836347501
 20
50.6574153147
 10
262.9959126637
 20
51.1104094126
 10
264.1808831415
 20
51.4094814519
 10
264.6248053257
 20
51.4825569893
  0
ARC
  5
1E9
330
1F
100
AcDbEntity
  8
0
  6
Continuous
 62
     7
370
     0
100
AcDbCircle
 10
260.1305958287
 20
28.2577436335
 30
0.0
 40
12.2324845140704
100
AcDbArc
 50
178.8904557903
 51
200.2241137273
  0
LWPOLYLINE
  5
1EA
330
1F
100
AcDbEntity
  8
0
  6
Continuous
 62
     7
370
     0
100
AcDbPolyline
 90
       26
 70
   128
 43
0.0
 10
257.3667969339
 20
27.6935128732
 10
257.4273752876
 20
28.8849556578
 10
257.6082269798
 20
30.1289668021
 10
257.9067147856
 20
31.4074058223
 10
258.3184860807
 20
32.7016301988
 10
258.8375363124
 20
33.9927672257
 10
259.4562965594
 20
35.2619892179
 10
260.1657439041
 20
36.4907880606
 10
260.9555330067
 20
37.6612450998
 10
261.8141469635
 20
38.756292436
 10
262.7290652497
 20
39.7599618135
 10
263.6869462964
 20
40.6576174725
 10
264.673822041
 20
41.4361695722
 10
265.6753016129
 20
42.0842650698
 10
266.6767811847
 20
42.5924532737
 10
267.6636569293
 20
42.9533236554
 10
268.621537976
 20
43.1616139122
 10
269.5364562622
 20
43.2142867031
 10
270.395070219
 20
43.1105739402
 10
271.1848593216
 20
42.8519879891
 10
271.8943066663
 20
42.4422996154
 10
272.5130669133
 20
41.8874829979
 10
273.032117145
 20
41.1956286123
 10
273.4438884401
 20
40.3768252536
 10
273.7423762459
 20
39.4430129184
 10
273.8288911278
 20
39.0409687895
  0
LWPOLYLINE
  5
1EB
330
1F
100
AcDbEntity
  8
0
  6
Continuous
 62
     7
370
     0
100
AcDbPolyline
 90
       13
 70
   128
 43
0.0
 10
264.0796834846
 20
22.1530159731
 10
263.6869462964
 20
22.026497405
 10
262.7290652497
 20
21.8182071482
 10
261.8141469635
 20
21.7655343573
 10
260.9555330067
 20
21.8692471202
 10
260.1657439041
 20
22.1278330712
 10
259.4562965594
 20
22.537521445
 10
258.8375363124
 20
23.0923380625
 10
258.3184860807
 20
23.784192448
 10
257.9067147856
 20
24.6029958068
 10
257.6082269798
 20
25.536808142
 10
257.4273752876
 20
26.572012367
 10
257.3667969339
 20
27.6935128732
  0
LWPOLYLINE
  5
1EC
330
1F
100
AcDbEntity
  8
0
  6
Continuous
 62
     7
370
     0
100
AcDbPolyline
 90
       19
 70
   128
 43
0.0
 10
241.401115559
 20
33.9321793551
 10
241.8635549918
 20
35.7550984064
 10
242.4433869334
 20
37.5924423895
 10
243.1360642388
 20
39.4298025263
 10
243.9361548093
 20
41.2527699123
 10
244.8373841927
 20
43.0470485133
 10
245.8326847879
 20
44.7985672777
 10
246.9142512708
 20
46.4935904841
 10
248.073601805
 20
48.1188254595
 10
249.3016445575
 20
49.6615268223
 10
250.5887489989
 20
51.1095964344
 10
251.9248214274
 20
52.4516782766
 10
253.2993841257
 20
53.6772475046
 10
254.7016575289
 20
54.7766929868
 10
256.1206447598
 20
55.7413926764
 10
257.5452178684
 20
56.5637812269
 10
258.9642050993
 20
57.2374093214
 10
260.3664785025
 20
57.7569942485
 10
260.6815322394
 20
57.8531017418
  0
LWPOLYLINE
  5
1ED
330
1F
100
AcDbEntity
  8
0
  6
Continuous
 62
     7
370
     0
100
AcDbPolyline
 90
       22
 70
   128
 43
0.0
 10
240.8236478886
 20
33.9253776096
 10
241.2718288263
 20
35.7240702845
 10
241.8328622295
 20
37.5377849315
 10
242.5026040398
 20
39.353124595
 10
243.2761072268
 20
41.1566803159
 10
244.1476583295
 20
42.9351301774
 10
245.1108196584
 20
44.6753377059
 10
246.1584768478
 20
46.3644489043
 10
247.2828914052
 20
47.9899871969
 10
248.4757578719
 20
49.5399455877
 10
249.728265171
 20
51.0028753496
 10
251.0311616901
 20
52.3679705903
 10
252.3748236183
 20
53.6251480695
 10
253.749326032
 20
54.7651216788
 10
255.144516205
 20
55.7794710329
 10
256.5500886016
 20
56.6607036669
 10
257.9556609983
 20
57.402310379
 10
259.3508511713
 20
57.9988133107
 10
260.7253535849
 20
58.4458064086
 10
262.0690155131
 20
58.7399879701
 10
263.3719120323
 20
58.8791850307
 10
263.9995732593
 20
58.8903701405
  0
LINE
  5
1EE
330
1F
100
AcDbEntity
  8
0
  6
Continuous
 62
     7
370
     0
100
AcDbLine
 10
272.5307018565
 20
21.6411808411
 30
0.0
 11
272.6190902041
 21
21.3113180486
 31
0.0
  0
LWPOLYLINE
  5
1EF
330
1F
100
AcDbEntity
  8
0
  6
Continuous
 62
     7
370
     0
100
AcDbPolyline
 90
        3
 70
   128
 43
0.0
 10
280.8059703018
 20
29.8677362384
 10
280.4190199906
 20
30.2987341977
 10
280.1630506953
 20
30.4769919451
  0
LWPOLYLINE
  5
1F0
330
1F
100
AcDbEntity
  8
0
  6
Continuous
 62
     7
370
     0
100
AcDbPolyline
 90
       12
 70
   128
 43
0.0
 10
274.7985488756
 20
20.8797975968
 10
274.888050334
 20
20.8404498879
 10
275.4471848557
 20
20.7038970834
 10
276.0675255599
 20
20.7233048082
 10
276.7297606657
 20
20.8980688818
 10
277.4132741805
 20
21.2227487367
 10
278.0967876954
 20
21.6872367881
 10
278.7590228012
 20
22.2770730927
 10
279.3793635054
 20
22.9738954996
 10
279.9384980271
 20
23.7560112817
 10
280.4190199906
 20
24.59907245
 10
280.8059703018
 20
25.476833729
  0
LINE
  5
1F1
330
1F
100
AcDbEntity
  8
0
  6
Continuous
 62
     7
370
     0
100
AcDbLine
 10
272.1196977386
 20
21.878448468
 30
0.0
 11
272.5307018565
 21
21.6411808411
 31
0.0
  0
LINE
  5
1F2
330
1F
100
AcDbEntity
  8
0
  6
Continuous
 62
     7
370
     0
100
AcDbLine
 10
241.8634807564
 20
31.9796554603
 30
0.0
 11
241.8683359041
 21
32.382276083
 31
0.0
  0
LWPOLYLINE
  5
1F3
330
1F
100
AcDbEntity
  8
0
  6
Continuous
 62
     7
370
     0
100
AcDbPolyline
 90
        3
 70
   128
 43
0.0
 10
241.9101538073
 20
33.2451845281
 10
241.9248400076
 20
33.4347997868
 10
241.9410758743
 20
33.6204669001
  0
LINE
  5
1F4
330
1F
100
AcDbEntity
  8
0
  6
Continuous
 62
     7
370
     0
100
AcDbLine
 10
241.9145279137
 20
30.7139147238
 30
0.0
 11
241.8634807564
 21
31.9796554603
 31
0.0
  0
LWPOLYLINE
  5
1F5
330
1F
100
AcDbEntity
  8
0
  6
Continuous
 62
     7
370
     0
100
AcDbPolyline
 90
       19
 70
   128
 43
0.0
 10
210.7873665774
 20
55.8658593362
 10
210.848943114
 20
56.9862793872
 10
211.0326191322
 20
58.1586234963
 10
211.3352518844
 20
59.3628325309
 10
211.7516632403
 20
60.5783021404
 10
212.2747282861
 20
61.7842353028
 10
212.895497234
 20
62.9599981675
 10
213.603348555
 20
64.0854731057
 10
214.3861707169
 20
65.1414029293
 10
215.2305694153
 20
66.1097203863
 10
216.1220967546
 20
66.9738572964
 10
217.0454984546
 20
67.7190280375
 10
217.9849748563
 20
68.3324825318
 10
218.9244512581
 20
68.8037244026
 10
219.8478529581
 20
69.1246905709
 10
220.7393802973
 20
69.2898892167
 10
221.5837789958
 20
69.2964937452
 10
222.3666011577
 20
69.1443911512
 10
222.5219934901
 20
69.0924439893
  0
ARC
  5
1F6
330
1F
100
AcDbEntity
  8
0
  6
Continuous
 62
     7
370
     0
100
AcDbCircle
 10
216.2456318988
 20
55.4344840125
 30
0.0
 40
5.475284923112711
100
AcDbArc
 50
175.4812165825
 51
223.5141079793
  0
LINE
  5
1F7
330
1F
100
AcDbEntity
  8
0
  6
Continuous
 62
     7
370
     0
100
AcDbLine
 10
247.6264010231
 20
33.5010150864
 30
0.0
 11
247.343512337
 21
33.6643232488
 31
0.0
  0
LINE
  5
1F8
330
1F
100
AcDbEntity
  8
0
  6
Continuous
 62
     7
370
     0
100
AcDbLine
 10
282.7731435819
 20
27.1731282914
 30
0.0
 11
282.507978539
 21
27.40094007
 31
0.0
  0
LINE
  5
1F9
330
1F
100
AcDbEntity
  8
0
  6
Continuous
 62
     7
370
     0
100
AcDbLine
 10
242.2501370505
 20
26.7653494315
 30
0.0
 11
247.6264010231
 21
23.6616983032
 31
0.0
  0
LINE
  5
1FA
330
1F
100
AcDbEntity
  8
0
  6
Continuous
 62
     7
370
     0
100
AcDbLine
 10
242.0137409474
 20
26.6288365025
 30
0.0
 11
242.2501370505
 21
26.7653494315
 31
0.0
  0
LINE
  5
1FB
330
1F
100
AcDbEntity
  8
0
  6
Continuous
 62
     7
370
     0
100
AcDbLine
 10
278.937089294
 20
29.4623705524
 30
0.0
 11
282.507978539
 21
27.40094007
 31
0.0
  0
LINE
  5
1FC
330
1F
100
AcDbEntity
  8
0
  6
Continuous
 62
     7
370
     0
100
AcDbLine
 10
243.1994572627
 20
20.3420348876
 30
0.0
 11
243.1231518439
 21
20.5912140686
 31
0.0
  0
LINE
  5
1FD
330
1F
100
AcDbEntity
  8
0
  6
Continuous
 62
     7
370
     0
100
AcDbLine
 10
247.3435583106
 20
23.1718003561
 30
0.0
 11
242.0844516255
 21
26.2078180219
 31
0.0
  0
LINE
  5
1FE
330
1F
100
AcDbEntity
  8
0
  6
Continuous
 62
     7
370
     0
100
AcDbLine
 10
242.2351100254
 20
22.8259660554
 30
0.0
 11
242.1860040861
 21
22.9865234203
 31
0.0
  0
LWPOLYLINE
  5
1FF
330
1F
100
AcDbEntity
  8
0
  6
Continuous
 62
     7
370
     0
100
AcDbPolyline
 90
        3
 70
   128
 43
0.0
 10
241.8689626519
 20
22.1379062582
 10
241.8635549918
 20
22.1506320754
 10
241.401115559
 20
23.4396299224
  0
ARC
  5
200
330
1F
100
AcDbEntity
  8
0
  6
Continuous
 62
     7
370
     0
100
AcDbCircle
 10
251.8447170741
 20
26.549884836
 30
0.0
 40
11.45338413780678
100
AcDbArc
 50
195.7923389603
 51
210.4893931685
  0
LINE
  5
201
330
1F
100
AcDbEntity
  8
0
  6
Continuous
 62
     7
370
     0
100
AcDbLine
 10
238.0167753704
 20
23.3192065074
 30
0.0
 11
237.9347558369
 21
23.5864113288
 31
0.0
  0
OLE2FRAME
  5
202
330
1F
100
AcDbEntity
  8
0
100
AcDbOle2Frame
 70
     2
  3
Paintbrush-Bild
 10
13.8511154363
 20
38.264191557
 30
0.0
 11
51.6290888628
 21
31.9806341108
 31
0.0
 71
     2
 72
     0
 73
     1
 90
    12928
310
80552BED0767C5B32B40DDAF6807D121434000000000000000006FFBDDFB85D0
310
4940DDAF6807D121434000000000000000006FFBDDFB85D04940416F4BD60AFB
310
3F4000000000000000002BED0767C5B32B40416F4BD60AFB3F40000000000000
310
0000000000000100000000010000010000000100000000000100000000320000
310
D0CF11E0A1B11AE1000000000000000000000000000000003E000300FEFF0900
310
0600000000000000000000000100000001000000000000000010000002000000
310
01000000FEFFFFFF0000000000000000FFFFFFFFFFFFFFFFFFFFFFFFFFFFFFFF
310
FFFFFFFFFFFFFFFFFFFFFFFFFFFFFFFFFFFFFFFFFFFFFFFFFFFFFFFFFFFFFFFF
310
FFFFFFFFFFFFFFFFFFFFFFFFFFFFFFFFFFFFFFFFFFFFFFFFFFFFFFFFFFFFFFFF
310
FFFFFFFFFFFFFFFFFFFFFFFFFFFFFFFFFFFFFFFFFFFFFFFFFFFFFFFFFFFFFFFF
310
FFFFFFFFFFFFFFFFFFFFFFFFFFFFFFFFFFFFFFFFFFFFFFFFFFFFFFFFFFFFFFFF
310
FFFFFFFFFFFFFFFFFFFFFFFFFFFFFFFFFFFFFFFFFFFFFFFFFFFFFFFFFFFFFFFF
310
FFFFFFFFFFFFFFFFFFFFFFFFFFFFFFFFFFFFFFFFFFFFFFFFFFFFFFFFFFFFFFFF
310
FFFFFFFFFFFFFFFFFFFFFFFFFFFFFFFFFFFFFFFFFFFFFFFFFFFFFFFFFFFFFFFF
310
FFFFFFFFFFFFFFFFFFFFFFFFFFFFFFFFFFFFFFFFFFFFFFFFFFFFFFFFFFFFFFFF
310
FFFFFFFFFFFFFFFFFFFFFFFFFFFFFFFFFFFFFFFFFFFFFFFFFFFFFFFFFFFFFFFF
310
FFFFFFFFFFFFFFFFFFFFFFFFFFFFFFFFFFFFFFFFFFFFFFFFFFFFFFFFFFFFFFFF
310
FFFFFFFFFFFFFFFFFFFFFFFFFFFFFFFFFFFFFFFFFFFFFFFFFFFFFFFFFFFFFFFF
310
FFFFFFFFFFFFFFFFFFFFFFFFFFFFFFFFFFFFFFFFFFFFFFFFFFFFFFFFFFFFFFFF
310
FFFFFFFFFFFFFFFFFFFFFFFFFFFFFFFFFFFFFFFFFFFFFFFFFFFFFFFFFFFFFFFF
310
FDFFFFFFFEFFFFFFFEFFFFFFFEFFFFFF05000000060000000700000008000000
310
090000000A0000000B0000000C0000000D0000000E0000000F00000010000000
310
11000000120000001300000014000000150000001600000017000000FEFFFFFF
310
FFFFFFFFFFFFFFFFFFFFFFFFFFFFFFFFFFFFFFFFFFFFFFFFFFFFFFFFFFFFFFFF
310
FFFFFFFFFFFFFFFFFFFFFFFFFFFFFFFFFFFFFFFFFFFFFFFFFFFFFFFFFFFFFFFF
310
FFFFFFFFFFFFFFFFFFFFFFFFFFFFFFFFFFFFFFFFFFFFFFFFFFFFFFFFFFFFFFFF
310
FFFFFFFFFFFFFFFFFFFFFFFFFFFFFFFFFFFFFFFFFFFFFFFFFFFFFFFFFFFFFFFF
310
FFFFFFFFFFFFFFFFFFFFFFFFFFFFFFFFFFFFFFFFFFFFFFFFFFFFFFFFFFFFFFFF
310
FFFFFFFFFFFFFFFFFFFFFFFFFFFFFFFFFFFFFFFFFFFFFFFFFFFFFFFFFFFFFFFF
310
FFFFFFFFFFFFFFFFFFFFFFFFFFFFFFFFFFFFFFFFFFFFFFFFFFFFFFFFFFFFFFFF
310
FFFFFFFFFFFFFFFFFFFFFFFFFFFFFFFFFFFFFFFFFFFFFFFFFFFFFFFFFFFFFFFF
310
FFFFFFFFFFFFFFFFFFFFFFFFFFFFFFFFFFFFFFFFFFFFFFFFFFFFFFFFFFFFFFFF
310
FFFFFFFFFFFFFFFFFFFFFFFFFFFFFFFFFFFFFFFFFFFFFFFFFFFFFFFFFFFFFFFF
310
FFFFFFFFFFFFFFFFFFFFFFFFFFFFFFFFFFFFFFFFFFFFFFFFFFFFFFFFFFFFFFFF
310
FFFFFFFFFFFFFFFFFFFFFFFFFFFFFFFFFFFFFFFFFFFFFFFFFFFFFFFFFFFFFFFF
310
FFFFFFFFFFFFFFFFFFFFFFFFFFFFFFFFFFFFFFFFFFFFFFFFFFFFFFFFFFFFFFFF
310
52006F006F007400200045006E00740072007900000000000000000000000000
310
0000000000000000000000000000000000000000000000000000000000000000
310
16000500FFFFFFFFFFFFFFFF020000000A00030000000000C000000000000046
310
0000000000000000000000003064C981181BD20103000000C000000000000000
310
01004F006C006500000000000000000000000000000000000000000000000000
310
0000000000000000000000000000000000000000000000000000000000000000
310
0A000200FFFFFFFFFFFFFFFFFFFFFFFF00000000000000000000000000000000
310
0000000000000000000000000000000000000000000000001400000000000000
310
010043006F006D0070004F0062006A0000000000000000000000000000000000
310
0000000000000000000000000000000000000000000000000000000000000000
310
120002010100000003000000FFFFFFFF00000000000000000000000000000000
310
0000000000000000000000000000000000000000010000004D00000000000000
310
01004F006C006500310030004E00610074006900760065000000000000000000
310
0000000000000000000000000000000000000000000000000000000000000000
310
1A000200FFFFFFFFFFFFFFFFFFFFFFFF00000000000000000000000000000000
310
0000000000000000000000000000000000000000040000002426000000000000
310
FEFFFFFF02000000FEFFFFFFFFFFFFFFFFFFFFFFFFFFFFFFFFFFFFFFFFFFFFFF
310
FFFFFFFFFFFFFFFFFFFFFFFFFFFFFFFFFFFFFFFFFFFFFFFFFFFFFFFFFFFFFFFF
310
FFFFFFFFFFFFFFFFFFFFFFFFFFFFFFFFFFFFFFFFFFFFFFFFFFFFFFFFFFFFFFFF
310
FFFFFFFFFFFFFFFFFFFFFFFFFFFFFFFFFFFFFFFFFFFFFFFFFFFFFFFFFFFFFFFF
310
FFFFFFFFFFFFFFFFFFFFFFFFFFFFFFFFFFFFFFFFFFFFFFFFFFFFFFFFFFFFFFFF
310
FFFFFFFFFFFFFFFFFFFFFFFFFFFFFFFFFFFFFFFFFFFFFFFFFFFFFFFFFFFFFFFF
310
FFFFFFFFFFFFFFFFFFFFFFFFFFFFFFFFFFFFFFFFFFFFFFFFFFFFFFFFFFFFFFFF
310
FFFFFFFFFFFFFFFFFFFFFFFFFFFFFFFFFFFFFFFFFFFFFFFFFFFFFFFFFFFFFFFF
310
FFFFFFFFFFFFFFFFFFFFFFFFFFFFFFFFFFFFFFFFFFFFFFFFFFFFFFFFFFFFFFFF
310
FFFFFFFFFFFFFFFFFFFFFFFFFFFFFFFFFFFFFFFFFFFFFFFFFFFFFFFFFFFFFFFF
310
FFFFFFFFFFFFFFFFFFFFFFFFFFFFFFFFFFFFFFFFFFFFFFFFFFFFFFFFFFFFFFFF
310
FFFFFFFFFFFFFFFFFFFFFFFFFFFFFFFFFFFFFFFFFFFFFFFFFFFFFFFFFFFFFFFF
310
FFFFFFFFFFFFFFFFFFFFFFFFFFFFFFFFFFFFFFFFFFFFFFFFFFFFFFFFFFFFFFFF
310
FFFFFFFFFFFFFFFFFFFFFFFFFFFFFFFFFFFFFFFFFFFFFFFFFFFFFFFFFFFFFFFF
310
FFFFFFFFFFFFFFFFFFFFFFFFFFFFFFFFFFFFFFFFFFFFFFFFFFFFFFFFFFFFFFFF
310
FFFFFFFFFFFFFFFFFFFFFFFFFFFFFFFFFFFFFFFFFFFFFFFFFFFFFFFFFFFFFFFF
310
0100000200000000000000000000000000000000000000000000000000000000
310
0000000000000000000000000000000000000000000000000000000000000000
310
0100FEFF030A0000FFFFFFFF0A00030000000000C00000000000004607000000
310
5042727573680007000000504272757368000700000050427275736800F439B2
310
7100000000000000000000000000000000000000000000000000000000000000
310
0000000000000000000000000000000000000000000000000000000000000000
310
0000000000000000000000000000000000000000000000000000000000000000
310
0000000000000000000000000000000000000000000000000000000000000000
310
0000000000000000000000000000000000000000000000000000000000000000
310
0000000000000000000000000000000000000000000000000000000000000000
310
0000000000000000000000000000000000000000000000000000000000000000
310
0000000000000000000000000000000000000000000000000000000000000000
310
0000000000000000000000000000000000000000000000000000000000000000
310
0000000000000000000000000000000000000000000000000000000000000000
310
0000000000000000000000000000000000000000000000000000000000000000
310
0000000000000000000000000000000000000000000000000000000000000000
310
20260000424D0E260000000000003E00000028000000B40200006E0000000100
310
01000000000000000000130B0000130B00000200000002000000000000FFFFFF
310
FFFFFFFFFFFFFFFFFFFFFFFFFFFFFFFFFFFFFFFFFFFFFFFFFFFFFFFFFFFFFFFF
310
FFFFFFFFFFFFFFFFFFFFFFFFFFFFFFFFFFFFFFFFFFFFFFFFFFFFFFFFFFFFFFFF
310
FFFFFFFFFFFFFFFFFFFFFFFFFFFFFFFFFFFFFFFFFFFFFFFFF000FFFFFFFFFFFF
310
FFFFFFFFFFFFFFFFFFFFFFFFFFFFFFFFFFFFFFFFFFFFFFFFFFFFFFFFFFFFFFFF
310
FFFFFFFFFFFFFFFFFFFFFFFFFFFFFFFFFFFFFFFFFFFFFFFFFFFFFFFFFFFFFFFF
310
FFFFFFFFFFFFFFFFFFFFFFFFFFFFFFFFF000FFFFFFFFFFFFFFFFFFFFFFFFFFFF
310
FFFFFFFFFFFFFFFFFFFFFFFFFFFFFFFFFFFFFFFFFFFFFFFFFFFFFFFFFFFFFFFF
310
FFFFFFFFFFFFFFFFFFFFFFFFFFFFFFFFFFFFFFFFFFFFFFFFFFFFFFFFFFFFFFFF
310
FFFFFFFFFFFFFFFFF000FFFFFFFFFFFFFFFFFFFFFFFFFFFFFFFFFFFFFFFFFFFF
310
FFFFFFFFFFFFFFFFFFFFFFFFFFFFFFFFFFFFFFFFFFFFFFFFFFFFFFFFFFFFFFFF
310
FFFFFFFFFFFFFFFFFFFFFFFFFFFFFFFFFFFFFFFFFFFFFFFFFFFFFFFFFFFFFFFF
310
F000FFFFFFFFFFFFFFFFFFFFFFFFFFFFFFFFFFFFFFFFFFFFFFFFFFFFFFFFFFFF
310
FFFFFFFFFFFFFFFFFFFFFFFFFFFFFFFFFFFFFFFFFFFFFFFFFFFFFFFFFFFFFFFF
310
FFFFFFFFFFFFFFFFFFFFFFFFFFFFFFFFFFFFFFFFFFFFFFFFF000FFFFFFFFFFFF
310
FFFFFFFFFFFFFFFFFFFFFFFFFFFFFFFFFFFFFFFFFFFFFFFFFFFFFFFFFFFFFFFF
310
FFFFFFFFFFFFFFFFFFFFFFFFFFFFFFFFFFFFFFFFFFFFFFFFFFFFFFFFFFFFFFFF
310
FFFFFFFFFFFFFFFFFFFFFFFFFFFFFFFFF000FFFFFFFFFFFFFFFFFFFFFFFFFFFF
310
FFFFFFFFFFFFFFFFFFFFFFFFFFFFFFFFFFFFFFFFFFFFFFFFFFFFFFFFFFFFFFFF
310
FFFFFFFFFFFFFFFFFFFFFFFFFFFFFFFFFFFFFFFFFFFFFFFFFFFFFFFFFFFFFFFF
310
FFFFFFFFFFFFFFFFF000FFFFFFFFFFFFFFFFFFFFFFFFFFFFFFFFFFFFFFFFFFFF
310
FFFFFFFFFFFFFFFFFFFFFFFFFFFFFFFFFFFFFFFFFFFFFFFFFFFFFFFFFFFFFFFF
310
FFFFFFFFFFFFFFFFFFFFFFFFFFFFFFFFFFFFFFFFFFFFFFFFFFFFFFFFFFFFFFFF
310
F000FFFFFFFFFFFFFFFFFFFFFFFFFFFFFFFFFFFFFFFFFFFFFFFFFFFFFFFFFFFF
310
FFFFFFFFFFFFFFFFFFFFFFFFFFFFFFFFFFFFFFFFFFFFFFFFFFFFFFFFFFFFFFFF
310
FFFFFFFFFFFFFFFFFFFFFFFFFFFFFFFFFFFFFFFFFFFFFFFFF000FFFFFFFFFFFF
310
FFFFFFFFFFFFFFFFFFFFFFFFFFFFFFFFFFFFFFFFFFFFFFFFFFFFFFFFFFFFFFFF
310
FFFFFFFFFFFFFFFFFFFFFFFFFFFFFFFFFFFFFFFFFFFFFFFFFFFFFFFFFFFFFFFF
310
FFFFFFFFFFFFFFFFFFFFFFFFFFFFFFFFF000FFFFFFFFFFFFFFFFFFFFFFFFFFFF
310
FFFFFFFFFFFFFFFFFFFFFFFFFFFFFFFFFFFFFFFFFFFFFFFFFFFFFFFFFFFFFFFF
310
FFFFFFFFFFFFFFFFFFFFFFFFFFFFFFFFFFFFFFFFFFFFFFFFFFFFFFFFFFFFFFFF
310
FFFFFFFFFFFFFFFFF000FFFFFFFFFFFFFFFFFFFFFFFFFFFFFFFFFFFFFFFFFFFF
310
FFFFFFFFFFFFFFFFFFFFFFFFFFFFFFFFFFFFFFFFFFFFFFFFFFFFFFFFFFFFFFFF
310
FFFFFFFFFFFFFFFFFFFFFFFFFFFFFFFFFFFFFFFFFFFFFFFFFFFFFFFFFFFFFFFF
310
F000FFFFFFFFFFFFFFFFFFFFFFFFFFFFFFFFFFFFFFFFFFFFFFFFFFFFFFFFFFFF
310
FFFFFFFFFFFFFFFFFFFFFFFFFFFFFFFFFFFFFFFFFFFFFFFFFFFFFFFFFFFFFFFF
310
FFFFFFFFFFFFFFFFFFFFFFFFFFFFFFFFFFFFFFFFFFFFFFFFF000FFFFFFFFFFFF
310
FFFFFFFFFFFFFFFFFFFFFFFFFFFFFFFFFFFFFFFFFFFFFFFFFFFFFFFFFFFFFFFF
310
FFFFFFFFFFFFFFFFFFFFFFFFFFFFFFFFFFFFFFFFFFFFFFFFFFFFFFFFFFFFFFFF
310
FFFFFFFFFFFFFFFFFFFFFFFFFFFFFFFFF000FFFFFFFFFFFFFFFFFFFFFFFFFFFF
310
FFFFFFFFFFFFFFFFFFFFFFFFFFFFFFFFFFFFFFFFFFFFFFFFFFFFFFFFFFFFFFFF
310
FFFFFFFFFFFFFFFFFFFFFFFFFFFFFFFFFFFFFFFFFFFFFFFFFFFFFFFFFFFFFFFF
310
FFFFFFFFFFFFFFFFF000FFFFFFFFFFFFFFFFFFFFFFFFFFFFFFFFFFFFFFFFFFFF
310
FFFFFFFFFFFFFFFFFFFFFFFFFFFFFFFFFFFFFFFFFFFFFFFFFFFFFFFFFFFFFFFF
310
FFFFFFFFFFFFFFFFFFFFFFFFFFFFFFFFFFFFFFFFFFFFFFFFFFFFFFFFFFFFFFFF
310
F000FFFFFFFFFFFFFFFFFFFFFFFFFFFFFFFFFFFFFFFFFFFFFFFFFFFFFFFFFFFF
310
FFFFFFFFFFFFFFFFFFFFFFFFFFFFFFFFFFFFFFFFFFFFFFFFFFFFFFFFFFFFFFFF
310
FFFFFFFFFFFFFFFFFFFFFFFFFFFFFFFFFFFFFFFFFFFFFFFFF000FFFFFFFFFFFF
310
FFFFFFFFFFFFFFFFFFFFFFFFFFFFFFFFFFFFFFFFFFFFFFFFFFFFFFFFFFFFFFFF
310
FFFFFFFFFFFFFFFFFFFFFFFFFFFFFFFFFFFFFFFFFFFFFFFFFFFFFFFFFFFFFFFF
310
FFFFFFFFFFFFFFFFFFFFFFFFFFFFFFFFF000FFFFFFFFFFFFFFFFFFFFFFFFFFFF
310
FFFFFFFFFFFFFFFFFFFFFFFFFFFFFFFFFFFFFFFFFFFFFFFFFFFFFFFFFFFFFFFF
310
FFFFFFFFFFFFFFFFFFFFFFFFFFFFFFFFFFFFFFFFFFFFFFFFFFFFFFFFFFFFFFFF
310
FFFFFFFFFFFFFFFFF000FFFFF80003FFFFFFFFFFFFFFFFFFFFFFFFFFFFFFFFFF
310
FFFFF00007FFFFFFFFFF00007FFFFFF800000000000000007FFFFFFFFFFFFFFF
310
FFFFFFFC001FFFFFFFFFFFFFFC001FFFFFFFFFFFFFFFFFFFFFFFFFFE0007FFFF
310
F000FFFF8000007FFFFFFFF8000FFFFFC0007FFFFF80007FFFFF0000007FFFFF
310
FFF8000007FFFFF800000000000000007FFFFFF0001FFFFFFFFFFFC00001FFFF
310
FFFFFFFFC00001FFFFFFFF000000000003FFFFE000007FFFF000FFFE0000000F
310
FFFFFFF0000FFFFF80007FFFFF80007FFFFC0000001FFFFFFFC0000001FFFFF8
310
00000000000000007FFFFFF0001FFFFFFFFFFE0000003FFFFFFFFFFE0000003F
310
FFFFFF000000000003FFFF0000000FFFF000FFF800000003FFFFFFF00007FFFF
310
80007FFFFF80007FFFF000000007FFFFFF000000003FFFF80000000000000000
310
7FFFFFF0001FFFFFFFFFF80000000FFFFFFFFFF80000000FFFFFFF0000000000
310
03FFFC00000003FFF000FFE000000000FFFFFFF00007FFFF80003FFFFF80007F
310
FFC000000001FFFFFC000000001FFFF800000000000000007FFFFFF0001FFFFF
310
FFFFE000000003FFFFFFFFE000000003FFFFFF000000000003FFF000000000FF
310
F000FF80000000007FFFFFF00007FFFF80003FFFFF80007FFF8000000000FFFF
310
F80000000007FFF800000000000000007FFFFFF0001FFFFFFFFFC000000001FF
310
FFFFFFC000000001FFFFFF000000000003FFC0000000007FF000FF0000000000
310
3FFFFFE00007FFFF00003FFFFF80007FFE00000000003FFFF00000000003FFF8
310
00000000000000007FFFFFF0001FFFFFFFFF8000000000FFFFFFFF8000000000
310
FFFFFF000000000003FF80000000003FF000FE00000000001FFFFFE00003FFFF
310
00003FFFFF80007FFC00000000001FFFE00000000001FFF8000001FFFE000000
310
7FFFFFF0001FFFFFFFFE00000000003FFFFFFE00000000003FFFFF0000000000
310
03FF00000000001FF000FC00000000000FFFFFE00003FFFF00001FFFFF80007F
310
F800000000001FFFC00000000000FFF8000001FFFE0000007FFFFFF0001FFFFF
310
FFFC00000000001FFFFFFC00000000001FFFFF000000000003FE00000000000F
310
F000F8000000000007FFFFE00003FFFF00001FFFFF80007FF800000000000FFF
310
800000000000FFF8000001FFFE0000007FFFFFF0001FFFFFFFF800000000000F
310
FFFFF800000000000FFFFF000000000003FC000000000007F000F80000000000
310
03FFFFC00003FFFE00001FFFFF80007FF0000000000007FF0000000000007FF8
310
000001FFFE0000007FFFFFF0001FFFFFFFF0000000000007FFFFF00000000000
310
07FFFF000000000003F8000000000003F000F0000000000003FFFFC00001FFFE
310
00001FFFFF80007FE0000000000007FE0000000000003FF8000001FFFE000000
310
7FFFFFF0001FFFFFFFF0000000000007FFFFF0000000000007FFFF0000000000
310
03F800001F800003F000E00001FFF00001FFFFC00001FFFE00000FFFFF80007F
310
E00001FFE00003FE00001FFF00003FF8000001FFFE0000007FFFFFF0001FFFFF
310
FFE000003E000003FFFFE000003E000003FFFF000000000003F00001FFF80001
310
F000E00007FFFC0001FFFFC00001FFFE00000FFFFF80007FC0000FFFFC0003FC
310
0000FFFFC0001FF8000001FFFE0000007FFFFFF0001FFFFFFFC00003FFE00001
310
FFFFC00003FFE00001FFFF0001FFFFFFFFF00007FFFE0001F000E0000FFFFF00
310
00FFFF800001FFFC00000FFFFF80007FC0001FFFFE0001FC0001FFFFE0001FF8
310
000001FFFE0000007FFFFFF0001FFFFFFF80000FFFF80000FFFF80000FFFF800
310
00FFFF0003FFFFFFFFE0000FFFFF8000F000C0003FFFFF8000FFFF800000FFFC
310
000007FFFF80007F80003FFFFF0001FC0003FFFFF0001FF8000001FFFE000000
310
7FFFFFF0001FFFFFFF80003FFFFE0000FFFF80003FFFFE0000FFFF0003FFFFFF
310
FFE0003FFFFF8000F000C0003FFFFF8000FFFF800000FFFC000007FFFF80007F
310
80007FFFFF8001F80007FFFFF8000FF8000001FFFE0000007FFFFFF0001FFFFF
310
FF00007FFFFF00007FFF00007FFFFF00007FFF0003FFFFFFFFE0003FFFFFC000
310
F000C0007FFFFFC000FFFF000000FFFC000007FFFF80007F8000FFFFFF8000F8
310
000FFFFFF8000FF8000001FFFE0000007FFFFFF0001FFFFFFF0000FFFFFF8000
310
7FFF0000FFFFFF80007FFF0003FFFFFFFFC0007FFFFFC00070008000FFFFFFC0
310
00FFFF000000FFF8000007FFFF80007F8000FFFFFF8000F8000FFFFFF8000FF8
310
000001FFFE0000007FFFFFF0001FFFFFFE0001FFFFFFC0003FFE0001FFFFFFC0
310
003FFF0003FFFFFFFFC0007FFFFFE00070008000FFFFFFC0007FFF0000007FF8
310
000003FFFF80007F0001FFFFFF8000F8000FFFFFF8000FF8000001FFFE000000
310
7FFFFFF0001FFFFFFE0001FFFFFFC0003FFE0001FFFFFFC0003FFF0003FFFFFF
310
FFC000FFFFFFE00070008000FFFFFFC0007FFF0000007FF8000003FFFF80007F
310
0001FFFFFF8000F8001FFFFFF8000FF8000001FFFE0000007FFFFFF0001FFFFF
310
FE0003FFFFFFE0003FFE0003FFFFFFE0003FFF0003FFFFFFFFC000FFFFFFE000
310
70008000FFFFFFC0007FFE0000007FF8000003FFFF80007F0001FFFFFF8000F0
310
001FFFFFF8000FF8000001FFFE0000007FFFFFF0001FFFFFFC0003FFFFFFE000
310
1FFC0003FFFFFFE0001FFF0003FFFFFFFFC000FFFFFFC00070008000FFFFFF80
310
007FFE0000007FF0000003FFFF80007F0001FFFFFF0000F0001FFFFFF8000FF8
310
000001FFFE0000007FFFFFF0001FFFFFFC0007FFFFFFF0001FFC0007FFFFFFF0
310
001FFF0003FFFFFFFFC000FFFFFFC00070008001FFFFFF0000FFFE0000003FF0
310
000001FFFF80007F0001FFFFFF0000F8001FFFFFF0000FF8000001FFFE000000
310
7FFFFFF0001FFFFFFC0007FFFFFFF0001FFC0007FFFFFFF0001FFF0003FFFFFF
310
FFC001FFFFFF80007000FFFFFFFFFE0000FFFE0008003FF0008001FFFF80007F
310
FFFFFFFFFC0000FFFFFFFFFFE0000FF8000001FFFE0000007FFFFFF0001FFFFF
310
F8000FFFFFFFF8000FF8000FFFFFFFF8000FFF0003FFFFFFFFFFFFFFFFFF0000
310
7000FFFFFFFFFC0000FFFC0008003FF0008001FFFF80007FFFFFFFFFF80001FF
310
FFFFFFFF80000FF8000001FFFE0000007FFFFFF0001FFFFFF8000FFFFFFFF800
310
0FF8000FFFFFFFF8000FFF0003FFFFFFFFFFFFFFFFFE0000F000FFFFFFFFE000
310
00FFFC000C003FE000C001FFFF80007FFFFFFFFFC00001FFFFFFFFFE00001FF8
310
000001FFFE0000007FFFFFF0001FFFFFF8000FFFFFFFF8000FF8000FFFFFFFF8
310
000FFF0003FFFFFFFFFFFFFFFFF00000F000FFFFFFFE000001FFFC000C001FE0
310
00C000FFFF80007FFFFFFFFE000001FFFFFFFFE000001FF80FFFFFFFFFFFFFC0
310
7FFFFFF0001FFFFFF8000FFFFFFFF8000FF8000FFFFFFFF8000FFF0003FFFFFF
310
FFFFFFFFFF800000F000FFFFFFC0000001FFFC001C001FE001C000FFFF80007F
310
FFFFFF80000003FFFFFFF80000001FF80FFFFFFFFFFFFFC07FFFFFF0001FFFFF
310
F8001FFFFFFFFC000FF8001FFFFFFFFC000FFF0003FFFFFFFFFFFFFFF0000001
310
F000FFFFF800000001FFF8001C001FE001C000FFFF80007FFFFFF800000003FF
310
FFFF800000003FF80FFFFFFFFFFFFFC07FFFFFF0001FFFFFF8001FFFFFFFFC00
310
0FF8001FFFFFFFFC000FFF0003FFFFFFFFFFFFFE00000001F000FFFFC0000000
310
03FFF8001E001FC001E000FFFF80007FFFFF8000000007FFFFFC000000003FF8
310
0FFFFFFFFFFFFFC07FFFFFF0001FFFFFF8001FFFFFFFFC000FF8001FFFFFFFFC
310
000FFF0003FFFFFFFFFFFFE000000003F000FFFE0000000007FFF8001E000FC0
310
01E0007FFF80007FFFFE0000000007FFFFE0000000007FF80FFFFFFFFFFFFFC0
310
7FFFFFF0001FFFFFF0001FFFFFFFFC0007F0001FFFFFFFFC0007FF0003FFFFFF
310
FFFFFF0000000003F000FFF80000000007FFF8001E000FC003E0007FFF80007F
310
FFF0000000000FFFFF8000000000FFF80FFFFFFFFFFFFFC07FFFFFF0001FFFFF
310
F0001FFFFFFFFC0007F0001FFFFFFFFC0007FF0003FFFFFFFFFFFC0000000007
310
F000FFE0000000000FFFF0003E000FC003E0007FFF80007FFFC0000000001FFF
310
FE0000000001FFF80FFFFFFFFFFFFFC07FFFFFF0001FFFFFF0001FFFFFFFFC00
310
07F0001FFFFFFFFC0007FF0003FFFFFFFFFFF0000000000FF000FFC000000000
310
1FFFF0003F000F8003F0003FFF80007FFF80000000003FFFF80000000003FFF8
310
0FFFFFFFFFFFFFC07FFFFFF0001FFFFFF0001FFFFFFFFC0007F0001FFFFFFFFC
310
0007FF0003FFFFFFFFFFE0000000001FF000FF00000000007FFFF0003F000780
310
03F0003FFF80007FFF00000000007FFFF00000000007FFF80FFFFFFFFFFFFFC0
310
7FFFFFF0001FFFFFF0001FFFFFFFFC0007F0001FFFFFFFFC0007FF0003FFFFFF
310
FFFF80000000007FF000FE0000000000FFFFE0003F00078007F0003FFF80007F
310
FE0000000001FFFFE0000000001FFFF80FFFFFFFFFFFFFC07FFFFFF0001FFFFF
310
F0001FFFFFFFFC0007F0001FFFFFFFFC0007FF0003FFFFFFFFFF0000000000FF
310
F000FC0000000003FFFFE0007F00078007F0003FFF80007FFC0000000007FFFF
310
C0000000007FFFF80FFFFFFFFFFFFFC07FFFFFF0001FFFFFF8001FFFFFFFFC00
310
0FF8001FFFFFFFFC000FFF0003FFFFFFFFFE0000000003FFF000FC000000000F
310
FFFFE0007F80070007F8001FFF80007FF8000000001FFFFF8000000001FFFFF8
310
0FFFFFFFFFFFFFC07FFFFFF0001FFFFFF8001FFFFFFFFC000FF8001FFFFFFFFC
310
000FFF0003FFFFFFFFFC000000000FFFF000F8000000007FFFFFE0007F800700
310
07F8001FFF80007FF000000000FFFFFF800000000FFFFFF80FFFFFFFFFFFFFC0
310
7FFFFFF0001FFFFFF8000FFFFFFFF8000FF8000FFFFFFFF8000FFF0003FFFFFF
310
FFFC000000007FFFF000F800000007FFFFFFC0007F8003000FF8001FFF80007F
310
F000000007FFFFFF000000007FFFFFF80FFFFFFFFFFFFFC07FFFFFF0001FFFFF
310
F8000FFFFFFFF8000FF8000FFFFFFFF8000FFF0003FFFFFFFFF80000000FFFFF
310
F000F0000000FFFFFFFFC000FF8003000FF8001FFF80007FE0000000FFFFFFFF
310
0000000FFFFFFFF8000001FFFE0000007FFFFFF0001FFFFFF8000FFFFFFFF800
310
0FF8000FFFFFFFF8000FFF0003FFFFFFFFF8000000FFFFFFF000F000000FFFFF
310
FFFFC000FFC002000FF8000FFF80007FE000001FFFFFFFFE000001FFFFFFFFF8
310
000001FFFE0000007FFFFFF0001FFFFFF8000FFFFFFFF8000FF8000FFFFFFFF8
310
000FFF0003FFFFFFFFF000001FFFFFFFF000E00000FFFFFFFFFFC000FFC00200
310
0FFC000FFF80007FE00001FFFFFFFFFE00001FFFFFFFFFF8000001FFFE000000
310
7FFFFFF0001FFFFFFC000FFFFFFFF8001FFC000FFFFFFFF8001FFF0003FFFFFF
310
FFF00001FFFFFFFFF000E00007FFFFFFFFFF8000FFC000001FFC000FFF80007F
310
C0000FFFFFFFFFFE0000FFFFFFFFFFF8000001FFFE0000007FFFFFF0001FFFFF
310
FC0007FFFFFFF0001FFC0007FFFFFFF0001FFF0003FFFFFFFFF00007FFFFFFFF
310
F000E0001FFFFFFFFFFF8000FFC000001FFC000FFF80007FC0003FFFFFFFFFFE
310
0001FFFFFFFFFFF8000001FFFE0000007FFFFFF0001FFFFFFC0007FFFFFFF000
310
1FFC0007FFFFFFF0001FFF0003FFFFFFFFF0001FFFFFFFFFF000E0003FFFFF00
310
03FF8001FFE000001FFC0007FF80007FC0007FFFFF0007FC0003FFFFF0003FF8
310
000001FFFE0000007FFFFFF0001FFFFFFC0003FFFFFFE0001FFC0003FFFFFFE0
310
001FFF0003FFFFFFFFF0003FFFFFFFFFF000E0003FFFFF0001FF8001FFE00000
310
1FFE0007FF80007FC0007FFFFE0003FC0007FFFFE0003FF8000001FFFE000000
310
7FFFFFF0001FFFFFFE0003FFFFFFE0003FFE0003FFFFFFE0003FFF0003FFFFFF
310
FFF0003FFFFF8001F000E0003FFFFF0001FF0001FFE000001FFE0007FF80007F
310
C0007FFFFE0003FC0007FFFFE0003FF8000001FFFE0000007FFFFFF0001FFFFF
310
FE0001FFFFFFC0003FFE0001FFFFFFC0003FFF0003FFFFFFFFF0003FFFFF0001
310
F000E0003FFFFF0003FF0001FFE000003FFE0007FF80007FC0007FFFFE0003FC
310
0007FFFFE0003FF8000001FFFE0000007FFFFFF0001FFFFFFF0001FFFFFFC000
310
7FFF0001FFFFFFC0007FFF0003FFFFFFFFF0003FFFFF0001F000E0003FFFFE00
310
03FF0003FFF000003FFE0003FF80007FC0007FFFFC0003FE0007FFFFE0003FF8
310
000001FFFE0000007FFFFFF0001FFFFFFF0000FFFFFF80007FFF0000FFFFFF80
310
007FFF0003FFFFFFFFF0003FFFFF0001F000E0003FFFFE0003FF0003FFF00000
310
3FFF0003FF80007FC0007FFFFC0007FE0007FFFFC0003FF8000001FFFE000000
310
7FFFFFF0001FFFFFFF80007FFFFF0000FFFF80007FFFFF0000FFFF0003FFFFFF
310
FFF0003FFFFF0003F000E0003FFFFC0003FE0003FFF000003FFF0003FF80007F
310
E0003FFFF80007FE0003FFFFC0007FF8000001FFFE0000007FFFFFF0001FFFFF
310
FF80003FFFFE0000FFFF80003FFFFE0000FFFF0003FFFFFFFFF0001FFFFE0003
310
F000F0001FFFF80003FE0003FFF000007FFF0001FF80007FE0003FFFF00007FE
310
0001FFFF80007FF8000001FFFE0000007FFFFFF0001FFFFFFFC0000FFFF80001
310
FFFFC0000FFFF80001FFFF0003FFFFFFFFF0001FFFFC0003F000F0000FFFF000
310
07FE0007FFF800007FFF0001FF80007FE0001FFFE00007FF0000FFFE00007FF8
310
000001FFFE0000007FFFFFF0001FFFFFFFC00003FFE00001FFFFC00003FFE000
310
01FFFF0003FFFFFFFFF8000FFFF80003F000F00003FFC00007FC0007FFF80000
310
7FFF8001FF80007FF00007FF80000FFF00007FF80000FFF8000001FFFE000000
310
7F80000000000001FFE000003E000003FFFFE000003E000003FFFF0003FFFFFF
310
FFF80003FFE00007F000F800000000000FFC0007FFF800007FFF8001FF80007F
310
F000000000000FFF000000000000FFF8000001FFFE0000007F80000000000001
310
FFF0000000000007FFFFF0000000000007FFFF0003FFFFFFFFFC00007E000007
310
F000F800000000000FFC0007FFF80000FFFF8000FF80007FF800000000001FFF
310
800000000001FFF8000001FFFE0000007F80000000000001FFF800000000000F
310
FFFFF800000000000FFFFF0003FFFFFFFFFC00000000000FF000FC0000000000
310
1FFC0007FFFC0000FFFF8000FF80007FF800000000003FFFC00000000001FFF8
310
000001FFFE0000007F80000000000001FFF800000000000FFFFFF80000000000
310
0FFFFF0003FFFFFFFFFE00000000001FF000FE00000000003FF8000FFFFC0000
310
FFFF8000FF80007FFC00000000003FFFC00000000003FFF8000001FFFE000000
310
7F80000000000001FFFC00000000001FFFFFFC00000000001FFFFF0003FFFFFF
310
FFFF00000000001FF000FF00000000003FF8000FFFFC0000FFFFC000FF80007F
310
FE00000000007FFFE00000000007FFF8000001FFFE0000007F80000000000001
310
FFFE00000000003FFFFFFE00000000003FFFFF0003FFFFFFFFFF80000000003F
310
F000FF80000000007FF8000FFFFC0001FFFFC0007F80007FFF0000000000FFFF
310
F0000000000FFFF800000000000000007F80000000000001FFFF8000000000FF
310
FFFFFF8000000000FFFFFF0003FFFFFFFFFFC0000000007FF000FFC000000000
310
FFF8000FFFFE0001FFFFC0007F80007FFF8000000001FFFFF8000000001FFFF8
310
00000000000000007F80000000000001FFFFC000000001FFFFFFFFC000000001
310
FFFFFF0003FFFFFFFFFFE000000000FFF000FFE000000003FFF0001FFFFE0001
310
FFFFC0007F80007FFFC000000007FFFFFE000000003FFFF80000000000000000
310
7F80000000000001FFFFE000000003FFFFFFFFE000000003FFFFFF0003FFFFFF
310
FFFFF000000003FFF000FFF80000000FFFF0001FFFFE0001FFFFE0007F80007F
310
FFF00000000FFFFFFF00000000FFFFF800000000000000007F80000000000001
310
FFFFF80000000FFFFFFFFFF80000000FFFFFFF0003FFFFFFFFFFFC0000000FFF
310
F000FFFE0000003FFFF0001FFFFE0003FFFFE0003F80007FFFFC0000003FFFFF
310
FFC0000003FFFFF800000000000000007F80000000000001FFFFFE0000003FFF
310
FFFFFFFE0000003FFFFFFF0003FFFFFFFFFFFF0000003FFFF000FFFF800000FF
310
FFF0001FFFFF0003FFFFE0003F80007FFFFF000001FFFFFFFFF800001FFFFFF8
310
00000000000000007F80000000000001FFFFFFC00001FFFFFFFFFFFFC00001FF
310
FFFFFF0003FFFFFFFFFFFFC00000FFFFF000FFFFF8000FFFFFFFFFFFFFFFFFFF
310
FFFFFFFFFFFFFFFFFFFFF0001FFFFFFFFFFF0000FFFFFFF80000000000000000
310
7FFFFFFFFFFFFFFFFFFFFFFC001FFFFFFFFFFFFFFC001FFFFFFFFFFFFFFFFFFF
310
FFFFFFFC001FFFFFF000FFFFFFFFFFFFFFFFFFFFFFFFFFFFFFFFFFFFFFFFFFFF
310
FFFFFFFFFFFFFFFFFFFFFFFFFFFFFFFFFFFFFFFFFFFFFFFFFFFFFFFFFFFFFFFF
310
FFFFFFFFFFFFFFFFFFFFFFFFFFFFFFFFFFFFFFFFFFFFFFFFFFFFFFFFFFFFFFFF
310
F000FFFFFFFFFFFFFFFFFFFFFFFFFFFFFFFFFFFFFFFFFFFFFFFFFFFFFFFFFFFF
310
FFFFFFFFFFFFFFFFFFFFFFFFFFFFFFFFFFFFFFFFFFFFFFFFFFFFFFFFFFFFFFFF
310
FFFFFFFFFFFFFFFFFFFFFFFFFFFFFFFFFFFFFFFFFFFFFFFFF000FFFFFFFFFFFF
310
FFFFFFFFFFFFFFFFFFFFFFFFFFFFFFFFFFFFFFFFFFFFFFFFFFFFFFFFFFFFFFFF
310
FFFFFFFFFFFFFFFFFFFFFFFFFFFFFFFFFFFFFFFFFFFFFFFFFFFFFFFFFFFFFFFF
310
FFFFFFFFFFFFFFFFFFFFFFFFFFFFFFFFF000FFFFFFFFFFFFFFFFFFFFFFFFFFFF
310
FFFFFFFFFFFFFFFFFFFFFFFFFFFFFFFFFFFFFFFFFFFFFFFFFFFFFFFFFFFFFFFF
310
FFFFFFFFFFFFFFFFFFFFFFFFFFFFFFFFFFFFFFFFFFFFFFFFFFFFFFFFFFFFFFFF
310
FFFFFFFFFFFFFFFFF000FFFFFFFFFFFFFFFFFFFFFFFFFFFFFFFFFFFFFFFFFFFF
310
FFFFFFFFFFFFFFFFFFFFFFFFFFFFFFFFFFFFFFFFFFFFFFFFFFFFFFFFFFFFFFFF
310
FFFFFFFFFFFFFFFFFFFFFFFFFFFFFFFFFFFFFFFFFFFFFFFFFFFFFFFFFFFFFFFF
310
F000FFFFFFFFFFFFFFFFFFFFFFFFFFFFFFFFFFFFFFFFFFFFFFFFFFFFFFFFFFFF
310
FFFFFFFFFFFFFFFFFFFFFFFFFFFFFFFFFFFFFFFFFFFFFFFFFFFFFFFFFFFFFFFF
310
FFFFFFFFFFFFFFFFFFFFFFFFFFFFFFFFFFFFFFFFFFFFFFFFF000FFFFFFFFFFFF
310
FFFFFFFFFFFFFFFFFFFFFFFFFFFFFFFFFFFFFFFFFFFFFFFFFFFFFFFFFFFFFFFF
310
FFFFFFFFFFFFFFFFFFFFFFFFFFFFFFFFFFFFFFFFFFFFFFFFFFFFFFFFFFFFFFFF
310
FFFFFFFFFFFFFFFFFFFFFFFFFFFFFFFFF000FFFFFFFFFFFFFFFFFFFFFFFFFFFF
310
FFFFFFFFFFFFFFFFFFFFFFFFFFFFFFFFFFFFFFFFFFFFFFFFFFFFFFFFFFFFFFFF
310
FFFFFFFFFFFFFFFFFFFFFFFFFFFFFFFFFFFFFFFFFFFFFFFFFFFFFFFFFFFFFFFF
310
FFFFFFFFFFFFFFFFF000FFFFFFFFFFFFFFFFFFFFFFFFFFFFFFFFFFFFFFFFFFFF
310
FFFFFFFFFFFFFFFFFFFFFFFFFFFFFFFFFFFFFFFFFFFFFFFFFFFFFFFFFFFFFFFF
310
FFFFFFFFFFFFFFFFFFFFFFFFFFFFFFFFFFFFFFFFFFFFFFFFFFFFFFFFFFFFFFFF
310
F000FFFFFFFFFFFFFFFFFFFFFFFFFFFFFFFFFFFFFFFFFFFFFFFFFFFFFFFFFFFF
310
FFFFFFFFFFFFFFFFFFFFFFFFFFFFFFFFFFFFFFFFFFFFFFFFFFFFFFFFFFFFFFFF
310
FFFFFFFFFFFFFFFFFFFFFFFFFFFFFFFFFFFFFFFFFFFFFFFFF000FFFFFFFFFFFF
310
FFFFFFFFFFFFFFFFFFFFFFFFFFFFFFFFFFFFFFFFFFFFFFFFFFFFFFFFFFFFFFFF
310
FFFFFFFFFFFFFFFFFFFFFFFFFFFFFFFFFFFFFFFFFFFFFFFFFFFFFFFFFFFFFFFF
310
FFFFFFFFFFFFFFFFFFFFFFFFFFFFFFFFF000FFFFFFFFFFFFFFFFFFFFFFFFFFFF
310
FFFFFFFFFFFFFFFFFFFFFFFFFFFFFFFFFFFFFFFFFFFFFFFFFFFFFFFFFFFFFFFF
310
FFFFFFFFFFFFFFFFFFFFFFFFFFFFFFFFFFFFFFFFFFFFFFFFFFFFFFFFFFFFFFFF
310
FFFFFFFFFFFFFFFFF000FFFFFFFFFFFFFFFFFFFFFFFFFFFFFFFFFFFFFFFFFFFF
310
FFFFFFFFFFFFFFFFFFFFFFFFFFFFFFFFFFFFFFFFFFFFFFFFFFFFFFFFFFFFFFFF
310
FFFFFFFFFFFFFFFFFFFFFFFFFFFFFFFFFFFFFFFFFFFFFFFFFFFFFFFFFFFFFFFF
310
F000FFFFFFFFFFFFFFFFFFFFFFFFFFFFFFFFFFFFFFFFFFFFFFFFFFFFFFFFFFFF
310
FFFFFFFFFFFFFFFFFFFFFFFFFFFFFFFFFFFFFFFFFFFFFFFFFFFFFFFFFFFFFFFF
310
FFFFFFFFFFFFFFFFFFFFFFFFFFFFFFFFFFFFFFFFFFFFFFFFF000FFFFFFFFFFFF
310
FFFFFFFFFFFFFFFFFFFFFFFFFFFFFFFFFFFFFFFFFFFFFFFFFFFFFFFFFFFFFFFF
310
FFFFFFFFFFFFFFFFFFFFFFFFFFFFFFFFFFFFFFFFFFFFFFFFFFFFFFFFFFFFFFFF
310
FFFFFFFFFFFFFFFFFFFFFFFFFFFFFFFFF000FFFFFFFFFFFFFFFFFFFFFFFFFFFF
310
FFFFFFFFFFFFFFFFFFFFFFFFFFFFFFFFFFFFFFFFFFFFFFFFFFFFFFFFFFFFFFFF
310
FFFFFFFFFFFFFFFFFFFFFFFFFFFFFFFFFFFFFFFFFFFFFFFFFFFFFFFFFFFFFFFF
310
FFFFFFFFFFFFFFFFF000FFFFFFFFFFFFFFFFFFFFFFFFFFFFFFFFFFFFFFFFFFFF
310
FFFFFFFFFFFFFFFFFFFFFFFFFFFFFFFFFFFFFFFFFFFFFFFFFFFFFFFFFFFFFFFF
310
FFFFFFFFFFFFFFFFFFFFFFFFFFFFFFFFFFFFFFFFFFFFFFFFFFFFFFFFFFFFFFFF
310
F000FFFFFFFFFFFFFFFFFFFFFFFFFFFFFFFFFFFFFFFFFFFFFFFFFFFFFFFFFFFF
310
FFFFFFFFFFFFFFFFFFFFFFFFFFFFFFFFFFFFFFFFFFFFFFFFFFFFFFFFFFFFFFFF
310
FFFFFFFFFFFFFFFFFFFFFFFFFFFFFFFFFFFFFFFFFFFFFFFFF000FFFFFFFFFFFF
310
FFFFFFFFFFFFFFFFFFFFFFFFFFFFFFFFFFFFFFFFFFFFFFFFFFFFFFFFFFFFFFFF
310
FFFFFFFFFFFFFFFFFFFFFFFFFFFFFFFFFFFFFFFFFFFFFFFFFFFFFFFFFFFFFFFF
310
FFFFFFFFFFFFFFFFFFFFFFFFFFFFFFFFF000FFFFFFFFFFFFFFFFFFFFFFFFFFFF
310
FFFFFFFFFFFFFFFFFFFFFFFFFFFFFFFFFFFFFFFFFFFFFFFFFFFFFFFFFFFFFFFF
310
FFFFFFFFFFFFFFFFFFFFFFFFFFFFFFFFFFFFFFFFFFFFFFFFFFFFFFFFFFFFFFFF
310
FFFFFFFFFFFFFFFFF000FFFFFFFFFFFFFFFFFFFFFFFFFFFFFFFFFFFFFFFFFFFF
310
FFFFFFFFFFFFFFFFFFFFFFFFFFFFFFFFFFFFFFFFFFFFFFFFFFFFFFFFFFFFFFFF
310
FFFFFFFFFFFFFFFFFFFFFFFFFFFFFFFFFFFFFFFFFFFFFFFFFFFFFFFFFFFFFFFF
310
F000FFFFFFFFFFFFFFFFFFFFFFFFFFFFFFFFFFFFFFFFFFFFFFFFFFFFFFFFFFFF
310
FFFFFFFFFFFFFFFFFFFFFFFFFFFFFFFFFFFFFFFFFFFFFFFFFFFFFFFFFFFFFFFF
310
FFFFFFFFFFFFFFFFFFFFFFFFFFFFFFFFFFFFFFFFFFFFFFFFF000FFFFFFFFFFFF
310
FFFFFFFFFFFFFFFFFFFFFFFFFFFFFFFFFFFFFFFFFFFFFFFFFFFFFFFFFFFFFFFF
310
FFFFFFFFFFFFFFFFFFFFFFFFFFFFFFFFFFFFFFFFFFFFFFFFFFFFFFFFFFFFFFFF
310
FFFFFFFFFFFFFFFFFFFFFFFFFFFFFFFFF0000000000000000000000000000000
310
0000000000000000000000000000000000000000000000000000000000000000
310
0000000000000000000000000000000000000000000000000000000000000000
310
0000000000000000000000000000000000000000000000000000000000000000
310
0000000000000000000000000000000000000000000000000000000000000000
310
0000000000000000000000000000000000000000000000000000000000000000
310
0000000000000000000000000000000000000000000000000000000000000000
310
0000000000000000000000000000000000000000000000000000000000000000
310
0000000000000000000000000000000000000000000000000000000000000000
310
0000000000000000000000000000000000000000000000000000000000000000
310
0000000000000000000000000000000000000000000000000000000000000000
310
0000000000000000000000000000000000000000000000000000000000000000
310
0000000000000000000000000000000000000000000000000000000000000000
310
0000000000000000000000000000000000000000000000000000000000000000
310
0000000000000000000000000000000000000000000000000000000000000000
310
0000000000000000000000000000000000000000000000000000000000000000
  1
OLE
  0
ENDSEC
  0
SECTION
  2
OBJECTS
  0
DICTIONARY
  5
C
330
0
100
AcDbDictionary
281
     1
  3
ACAD_GROUP
350
D
  3
ACAD_LAYOUT
350
1A
  3
ACAD_MLINESTYLE
350
17
  3
ACAD_PLOTSETTINGS
350
19
  3
ACAD_PLOTSTYLENAME
350
E
  3
ACAD_SCALELIST
350
47
  0
DICTIONARY
  5
D
102
{ACAD_REACTORS
330
C
102
}
330
C
100
AcDbDictionary
281
     1
  0
DICTIONARY
  5
1A
102
{ACAD_REACTORS
330
C
102
}
330
C
100
AcDbDictionary
281
     1
  3
Layout1
350
1E
  3
Layout2
350
26
  3
Model
350
22
  0
DICTIONARY
  5
17
102
{ACAD_REACTORS
330
C
102
}
330
C
100
AcDbDictionary
281
     1
  3
Standard
350
18
  0
DICTIONARY
  5
19
102
{ACAD_REACTORS
330
C
102
}
330
C
100
AcDbDictionary
281
     1
  0
ACDBDICTIONARYWDFLT
  5
E
102
{ACAD_REACTORS
330
C
102
}
330
C
100
AcDbDictionary
281
     1
  3
Normal
350
F
100
AcDbDictionaryWithDefault
340
F
  0
DICTIONARY
  5
47
102
{ACAD_REACTORS
330
C
102
}
330
C
100
AcDbDictionary
281
     1
  3
A0
350
48
  3
A1
350
49
  3
A2
350
4A
  3
A3
350
4B
  3
A4
350
4C
  3
A5
350
4D
  3
A6
350
4E
  3
A7
350
4F
  3
A8
350
50
  3
A9
350
51
  3
B0
350
52
  3
B1
350
53
  3
B2
350
54
  3
B3
350
55
  3
B4
350
56
  3
B5
350
57
  3
B6
350
58
  3
B7
350
59
  3
B8
350
5A
  3
B9
350
5B
  3
C0
350
5C
  3
C1
350
5D
  3
C2
350
5E
  3
C3
350
5F
  3
C4
350
60
  3
C5
350
61
  3
C6
350
62
  3
C7
350
63
  3
C8
350
64
  3
C9
350
65
  3
D0
350
66
  3
D1
350
67
  3
D2
350
68
  0
LAYOUT
  5
1E
102
{ACAD_REACTORS
330
1A
102
}
330
1A
100
AcDbPlotSettings
  1

  2
none_device
  4

  6

 40
0.0
 41
0.0
 42
0.0
 43
0.0
 44
0.0
 45
0.0
 46
0.0
 47
0.0
 48
0.0
 49
0.0
140
0.0
141
0.0
142
1.0
143
1.0
 70
   688
 72
     1
 73
     0
 74
     5
  7

 75
    16
147
1.0
148
0.0
149
0.0
100
AcDbLayout
  1
Layout1
 70
     1
 71
     1
 10
0.0
 20
0.0
 11
420.0
 21
297.0
 12
0.0
 22
0.0
 32
0.0
 14
1.0000000000E+20
 24
1.0000000000E+20
 34
1.0000000000E+20
 15
-1.0000000000E+20
 25
-1.0000000000E+20
 35
-1.0000000000E+20
146
0.0
 13
0.0
 23
0.0
 33
0.0
 16
1.0
 26
0.0
 36
0.0
 17
0.0
 27
1.0
 37
0.0
 76
     0
330
1B
  0
LAYOUT
  5
26
102
{ACAD_REACTORS
330
1A
102
}
330
1A
100
AcDbPlotSettings
  1

  2
none_device
  4

  6

 40
0.0
 41
0.0
 42
0.0
 43
0.0
 44
0.0
 45
0.0
 46
0.0
 47
0.0
 48
0.0
 49
0.0
140
0.0
141
0.0
142
1.0
143
1.0
 70
   688
 72
     1
 73
     0
 74
     5
  7

 75
    16
147
1.0
148
0.0
149
0.0
100
AcDbLayout
  1
Layout2
 70
     1
 71
     2
 10
0.0
 20
0.0
 11
0.0
 21
0.0
 12
0.0
 22
0.0
 32
0.0
 14
0.0
 24
0.0
 34
0.0
 15
0.0
 25
0.0
 35
0.0
146
0.0
 13
0.0
 23
0.0
 33
0.0
 16
1.0
 26
0.0
 36
0.0
 17
0.0
 27
1.0
 37
0.0
 76
     0
330
23
  0
LAYOUT
  5
22
102
{ACAD_REACTORS
330
1A
102
}
330
1A
100
AcDbPlotSettings
  1

  2
none_device
  4
Letter_(8.50_x_11.00_Inches)
  6

 40
6.35
 41
6.35
 42
6.35000508
 43
6.35000508
 44
215.9
 45
279.4
 46
0.0
 47
0.0
 48
0.0
 49
0.0
140
0.0
141
0.0
142
1.0
143
1.0
 70
  1712
 72
     1
 73
     0
 74
     0
  7

 75
     0
147
1.0
148
0.0
149
0.0
100
AcDbLayout
  1
Model
 70
     1
 71
     0
 10
0.0
 20
0.0
 11
297.0
 21
210.0
 12
0.0
 22
0.0
 32
0.0
 14
0.0
 24
0.0
 34
0.0
 15
297.0
 25
210.0
 35
0.0
146
0.0
 13
0.0
 23
0.0
 33
0.0
 16
1.0
 26
0.0
 36
0.0
 17
0.0
 27
1.0
 37
0.0
 76
     0
330
1F
331
29
  0
MLINESTYLE
  5
18
102
{ACAD_REACTORS
330
17
102
}
330
17
100
AcDbMlineStyle
  2
Standard
 70
     0
  3

 62
   256
 51
90.0
 52
90.0
 71
     2
 49
0.5
 62
   256
  6
BYLAYER
 49
-0.5
 62
   256
  6
BYLAYER
  0
ACDBPLACEHOLDER
  5
F
102
{ACAD_REACTORS
330
E
102
}
330
E
  0
SCALE
  5
48
102
{ACAD_REACTORS
330
47
102
}
330
47
100
AcDbScale
 70
     0
300
1:1
140
1.0
141
1.0
290
     1
  0
SCALE
  5
49
102
{ACAD_REACTORS
330
47
102
}
330
47
100
AcDbScale
 70
     0
300
1:2
140
1.0
141
2.0
290
     0
  0
SCALE
  5
4A
102
{ACAD_REACTORS
330
47
102
}
330
47
100
AcDbScale
 70
     0
300
1:4
140
1.0
141
4.0
290
     0
  0
SCALE
  5
4B
102
{ACAD_REACTORS
330
47
102
}
330
47
100
AcDbScale
 70
     0
300
1:5
140
1.0
141
5.0
290
     0
  0
SCALE
  5
4C
102
{ACAD_REACTORS
330
47
102
}
330
47
100
AcDbScale
 70
     0
300
1:8
140
1.0
141
8.0
290
     0
  0
SCALE
  5
4D
102
{ACAD_REACTORS
330
47
102
}
330
47
100
AcDbScale
 70
     0
300
1:10
140
1.0
141
10.0
290
     0
  0
SCALE
  5
4E
102
{ACAD_REACTORS
330
47
102
}
330
47
100
AcDbScale
 70
     0
300
1:16
140
1.0
141
16.0
290
     0
  0
SCALE
  5
4F
102
{ACAD_REACTORS
330
47
102
}
330
47
100
AcDbScale
 70
     0
300
1:20
140
1.0
141
20.0
290
     0
  0
SCALE
  5
50
102
{ACAD_REACTORS
330
47
102
}
330
47
100
AcDbScale
 70
     0
300
1:30
140
1.0
141
30.0
290
     0
  0
SCALE
  5
51
102
{ACAD_REACTORS
330
47
102
}
330
47
100
AcDbScale
 70
     0
300
1:40
140
1.0
141
40.0
290
     0
  0
SCALE
  5
52
102
{ACAD_REACTORS
330
47
102
}
330
47
100
AcDbScale
 70
     0
300
1:50
140
1.0
141
50.0
290
     0
  0
SCALE
  5
53
102
{ACAD_REACTORS
330
47
102
}
330
47
100
AcDbScale
 70
     0
300
1:100
140
1.0
141
100.0
290
     0
  0
SCALE
  5
54
102
{ACAD_REACTORS
330
47
102
}
330
47
100
AcDbScale
 70
     0
300
2:1
140
2.0
141
1.0
290
     0
  0
SCALE
  5
55
102
{ACAD_REACTORS
330
47
102
}
330
47
100
AcDbScale
 70
     0
300
4:1
140
4.0
141
1.0
290
     0
  0
SCALE
  5
56
102
{ACAD_REACTORS
330
47
102
}
330
47
100
AcDbScale
 70
     0
300
8:1
140
8.0
141
1.0
290
     0
  0
SCALE
  5
57
102
{ACAD_REACTORS
330
47
102
}
330
47
100
AcDbScale
 70
     0
300
10:1
140
10.0
141
1.0
290
     0
  0
SCALE
  5
58
102
{ACAD_REACTORS
330
47
102
}
330
47
100
AcDbScale
 70
     0
300
100:1
140
100.0
141
1.0
290
     0
  0
SCALE
  5
59
102
{ACAD_REACTORS
330
47
102
}
330
47
100
AcDbScale
 70
     0
300
1/128" = 1'-0"
140
0.0078125
141
12.0
290
     0
  0
SCALE
  5
5A
102
{ACAD_REACTORS
330
47
102
}
330
47
100
AcDbScale
 70
     0
300
1/64" = 1'-0"
140
0.015625
141
12.0
290
     0
  0
SCALE
  5
5B
102
{ACAD_REACTORS
330
47
102
}
330
47
100
AcDbScale
 70
     0
300
1/32" = 1'-0"
140
0.03125
141
12.0
290
     0
  0
SCALE
  5
5C
102
{ACAD_REACTORS
330
47
102
}
330
47
100
AcDbScale
 70
     0
300
1/16" = 1'-0"
140
0.0625
141
12.0
290
     0
  0
SCALE
  5
5D
102
{ACAD_REACTORS
330
47
102
}
330
47
100
AcDbScale
 70
     0
300
3/32" = 1'-0"
140
0.09375
141
12.0
290
     0
  0
SCALE
  5
5E
102
{ACAD_REACTORS
330
47
102
}
330
47
100
AcDbScale
 70
     0
300
1/8" = 1'-0"
140
0.125
141
12.0
290
     0
  0
SCALE
  5
5F
102
{ACAD_REACTORS
330
47
102
}
330
47
100
AcDbScale
 70
     0
300
3/16" = 1'-0"
140
0.1875
141
12.0
290
     0
  0
SCALE
  5
60
102
{ACAD_REACTORS
330
47
102
}
330
47
100
AcDbScale
 70
     0
300
1/4" = 1'-0"
140
0.25
141
12.0
290
     0
  0
SCALE
  5
61
102
{ACAD_REACTORS
330
47
102
}
330
47
100
AcDbScale
 70
     0
300
3/8" = 1'-0"
140
0.375
141
12.0
290
     0
  0
SCALE
  5
62
102
{ACAD_REACTORS
330
47
102
}
330
47
100
AcDbScale
 70
     0
300
1/2" = 1'-0"
140
0.5
141
12.0
290
     0
  0
SCALE
  5
63
102
{ACAD_REACTORS
330
47
102
}
330
47
100
AcDbScale
 70
     0
300
3/4" = 1'-0"
140
0.75
141
12.0
290
     0
  0
SCALE
  5
64
102
{ACAD_REACTORS
330
47
102
}
330
47
100
AcDbScale
 70
     0
300
1" = 1'-0"
140
1.0
141
12.0
290
     0
  0
SCALE
  5
65
102
{ACAD_REACTORS
330
47
102
}
330
47
100
AcDbScale
 70
     0
300
1-1/2" = 1'-0"
140
1.5
141
12.0
290
     0
  0
SCALE
  5
66
102
{ACAD_REACTORS
330
47
102
}
330
47
100
AcDbScale
 70
     0
300
3" = 1'-0"
140
3.0
141
12.0
290
     0
  0
SCALE
  5
67
102
{ACAD_REACTORS
330
47
102
}
330
47
100
AcDbScale
 70
     0
300
6" = 1'-0"
140
6.0
141
12.0
290
     0
  0
SCALE
  5
68
102
{ACAD_REACTORS
330
47
102
}
330
47
100
AcDbScale
 70
     0
300
1'-0" = 1'-0"
140
12.0
141
12.0
290
     0
  0
ENDSEC
  0
EOF
