  0
SECTION
  2
HEADER
  9
$ACADVER
  1
AC1015
  9
$ACADMAINTVER
 70
     6
  9
$DWGCODEPAGE
  3
ANSI_1252
  9
$INSBASE
 10
0.0
 20
0.0
 30
0.0
  9
$EXTMIN
 10
0.0
 20
0.0
 30
0.0
  9
$EXTMAX
 10
297.0
 20
210.0
 30
0.0
  9
$LIMMIN
 10
0.0
 20
0.0
  9
$LIMMAX
 10
297.0
 20
210.0
  9
$ORTHOMODE
 70
     0
  9
$REGENMODE
 70
     1
  9
$FILLMODE
 70
     1
  9
$QTEXTMODE
 70
     0
  9
$MIRRTEXT
 70
     1
  9
$LTSCALE
 40
1.0
  9
$ATTMODE
 70
     1
  9
$TEXTSIZE
 40
2.0
  9
$TRACEWID
 40
1.0
  9
$TEXTSTYLE
  7
Standard
  9
$CLAYER
  8
0
  9
$CELTYPE
  6
ByLayer
  9
$CECOLOR
 62
   256
  9
$CELTSCALE
 40
1.0
  9
$DISPSILH
 70
     0
  9
$DIMSCALE
 40
1.0
  9
$DIMASZ
 40
3.0
  9
$DIMEXO
 40
0.0
  9
$DIMDLI
 40
3.75
  9
$DIMRND
 40
0.0
  9
$DIMDLE
 40
0.0
  9
$DIMEXE
 40
1.0
  9
$DIMTP
 40
0.0
  9
$DIMTM
 40
0.0
  9
$DIMTXT
 40
2.0
  9
$DIMCEN
 40
2.5
  9
$DIMTSZ
 40
0.0
  9
$DIMTOL
 70
     0
  9
$DIMLIM
 70
     0
  9
$DIMTIH
 70
     1
  9
$DIMTOH
 70
     1
  9
$DIMSE1
 70
     0
  9
$DIMSE2
 70
     0
  9
$DIMTAD
 70
     1
  9
$DIMZIN
 70
     0
  9
$DIMBLK
  1

  9
$DIMASO
 70
     1
  9
$DIMSHO
 70
     1
  9
$DIMPOST
  1

  9
$DIMAPOST
  1

  9
$DIMALT
 70
     0
  9
$DIMALTD
 70
     3
  9
$DIMALTF
 40
0.0393700787
  9
$DIMLFAC
 40
1.0
  9
$DIMTOFL
 70
     1
  9
$DIMTVP
 40
0.0
  9
$DIMTIX
 70
     0
  9
$DIMSOXD
 70
     0
  9
$DIMSAH
 70
     0
  9
$DIMBLK1
  1

  9
$DIMBLK2
  1

  9
$DIMSTYLE
  2
ISO-25
  9
$DIMCLRD
 70
     0
  9
$DIMCLRE
 70
     0
  9
$DIMCLRT
 70
     0
  9
$DIMTFAC
 40
1.0
  9
$DIMGAP
 40
1.524
  9
$DIMJUST
 70
     0
  9
$DIMSD1
 70
     0
  9
$DIMSD2
 70
     0
  9
$DIMTOLJ
 70
     0
  9
$DIMTZIN
 70
     0
  9
$DIMALTZ
 70
     0
  9
$DIMALTTZ
 70
     0
  9
$DIMUPT
 70
     0
  9
$DIMDEC
 70
     2
  9
$DIMTDEC
 70
     3
  9
$DIMALTU
 70
     2
  9
$DIMALTTD
 70
     3
  9
$DIMTXSTY
  7
Standard
  9
$DIMAUNIT
 70
     0
  9
$DIMADEC
 70
     2
  9
$DIMALTRND
 40
0.0
  9
$DIMAZIN
 70
     0
  9
$DIMDSEP
 70
    44
  9
$DIMATFIT
 70
     3
  9
$DIMFRAC
 70
     0
  9
$DIMLDRBLK
  1

  9
$DIMLUNIT
 70
     2
  9
$DIMLWD
 70
    -2
  9
$DIMLWE
 70
    -2
  9
$DIMTMOVE
 70
     0
  9
$LUNITS
 70
     2
  9
$LUPREC
 70
     2
  9
$SKETCHINC
 40
1.0
  9
$FILLETRAD
 40
10.0
  9
$AUNITS
 70
     0
  9
$AUPREC
 70
     2
  9
$MENU
  1
.
  9
$ELEVATION
 40
0.0
  9
$PELEVATION
 40
0.0
  9
$THICKNESS
 40
0.0
  9
$LIMCHECK
 70
     0
  9
$CHAMFERA
 40
0.0
  9
$CHAMFERB
 40
0.0
  9
$CHAMFERC
 40
0.0
  9
$CHAMFERD
 40
0.0
  9
$SKPOLY
 70
     0
  9
$TDCREATE
 40
2457662.416265162
  9
$TDUCREATE
 40
2457662.332931829
  9
$TDUPDATE
 40
2457662.416266354
  9
$TDUUPDATE
 40
2457662.332933021
  9
$TDINDWG
 40
0.0000000116
  9
$TDUSRTIMER
 40
0.0000000116
  9
$USRTIMER
 70
     1
  9
$ANGBASE
 50
0.0
  9
$ANGDIR
 70
     0
  9
$PDMODE
 70
     0
  9
$PDSIZE
 40
-1.0
  9
$PLINEWID
 40
0.0
  9
$SPLFRAME
 70
     0
  9
$SPLINETYPE
 70
     6
  9
$SPLINESEGS
 70
     8
  9
$HANDSEED
  5
1F6
  9
$SURFTAB1
 70
     6
  9
$SURFTAB2
 70
     6
  9
$SURFTYPE
 70
     6
  9
$SURFU
 70
     6
  9
$SURFV
 70
     6
  9
$UCSBASE
  2

  9
$UCSNAME
  2

  9
$UCSORG
 10
0.0
 20
0.0
 30
0.0
  9
$UCSXDIR
 10
1.0
 20
0.0
 30
0.0
  9
$UCSYDIR
 10
0.0
 20
1.0
 30
0.0
  9
$UCSORTHOREF
  2

  9
$UCSORTHOVIEW
 70
     0
  9
$UCSORGTOP
 10
0.0
 20
0.0
 30
0.0
  9
$UCSORGBOTTOM
 10
0.0
 20
0.0
 30
0.0
  9
$UCSORGLEFT
 10
0.0
 20
0.0
 30
0.0
  9
$UCSORGRIGHT
 10
0.0
 20
0.0
 30
0.0
  9
$UCSORGFRONT
 10
0.0
 20
0.0
 30
0.0
  9
$UCSORGBACK
 10
0.0
 20
0.0
 30
0.0
  9
$PUCSBASE
  2

  9
$PUCSNAME
  2

  9
$PUCSORG
 10
0.0
 20
0.0
 30
0.0
  9
$PUCSXDIR
 10
1.0
 20
0.0
 30
0.0
  9
$PUCSYDIR
 10
0.0
 20
1.0
 30
0.0
  9
$PUCSORTHOREF
  2

  9
$PUCSORTHOVIEW
 70
     0
  9
$PUCSORGTOP
 10
0.0
 20
0.0
 30
0.0
  9
$PUCSORGBOTTOM
 10
0.0
 20
0.0
 30
0.0
  9
$PUCSORGLEFT
 10
0.0
 20
0.0
 30
0.0
  9
$PUCSORGRIGHT
 10
0.0
 20
0.0
 30
0.0
  9
$PUCSORGFRONT
 10
0.0
 20
0.0
 30
0.0
  9
$PUCSORGBACK
 10
0.0
 20
0.0
 30
0.0
  9
$USERI1
 70
     0
  9
$USERI2
 70
     0
  9
$USERI3
 70
     0
  9
$USERI4
 70
     0
  9
$USERI5
 70
     0
  9
$USERR1
 40
0.0
  9
$USERR2
 40
0.0
  9
$USERR3
 40
0.0
  9
$USERR4
 40
0.0
  9
$USERR5
 40
0.0
  9
$WORLDVIEW
 70
     1
  9
$SHADEDGE
 70
     3
  9
$SHADEDIF
 70
    70
  9
$TILEMODE
 70
     1
  9
$MAXACTVP
 70
    64
  9
$PINSBASE
 10
0.0
 20
0.0
 30
0.0
  9
$PLIMCHECK
 70
     0
  9
$PEXTMIN
 10
1.0000000000E+20
 20
1.0000000000E+20
 30
1.0000000000E+20
  9
$PEXTMAX
 10
-1.0000000000E+20
 20
-1.0000000000E+20
 30
-1.0000000000E+20
  9
$PLIMMIN
 10
0.0
 20
0.0
  9
$PLIMMAX
 10
420.0
 20
297.0
  9
$UNITMODE
 70
     0
  9
$VISRETAIN
 70
     1
  9
$PLINEGEN
 70
     0
  9
$PSLTSCALE
 70
     1
  9
$TREEDEPTH
 70
  3020
  9
$CMLSTYLE
  2
Standard
  9
$CMLJUST
 70
     0
  9
$CMLSCALE
 40
20.0
  9
$PROXYGRAPHICS
 70
     1
  9
$MEASUREMENT
 70
     1
  9
$CELWEIGHT
370
    -1
  9
$ENDCAPS
280
     0
  9
$JOINSTYLE
280
     0
  9
$LWDISPLAY
290
     1
  9
$INSUNITS
 70
     4
  9
$HYPERLINKBASE
  1

  9
$STYLESHEET
  1

  9
$XEDIT
290
     1
  9
$CEPSNTYPE
380
     0
  9
$PSTYLEMODE
290
     1
  9
$FINGERPRINTGUID
  2
{9290E889-09A1-4372-9A42-9BA44A8C0853}
  9
$VERSIONGUID
  2
{FAEB1C32-E019-11D5-929B-00C0DF256EC4}
  9
$EXTNAMES
290
     1
  9
$PSVPSCALE
 40
0.0
  9
$OLESTARTUP
290
     0
  0
ENDSEC
  0
SECTION
  2
CLASSES
  0
CLASS
  1
ACDBDICTIONARYWDFLT
  2
AcDbDictionaryWithDefault
  3
ObjectDBX Classes
 90
        0
280
     0
281
     0
  0
CLASS
  1
VISUALSTYLE
  2
AcDbVisualStyle
  3
ObjectDBX Classes
 90
     4095
280
     0
281
     0
  0
CLASS
  1
MATERIAL
  2
AcDbMaterial
  3
ObjectDBX Classes
 90
     1153
280
     0
281
     0
  0
CLASS
  1
SCALE
  2
AcDbScale
  3
ObjectDBX Classes
 90
     1153
280
     0
281
     0
  0
CLASS
  1
TABLESTYLE
  2
AcDbTableStyle
  3
ObjectDBX Classes
 90
     4095
280
     0
281
     0
  0
CLASS
  1
MLEADERSTYLE
  2
AcDbMLeaderStyle
  3
ACDB_MLEADERSTYLE_CLASS
 90
     4095
280
     0
281
     0
  0
CLASS
  1
SUN
  2
AcDbSun
  3
SCENEOE
 90
     1153
280
     0
281
     0
  0
CLASS
  1
ACDBPLACEHOLDER
  2
AcDbPlaceHolder
  3
ObjectDBX Classes
 90
        0
280
     0
281
     0
  0
CLASS
  1
LAYOUT
  2
AcDbLayout
  3
ObjectDBX Classes
 90
        0
280
     0
281
     0
  0
ENDSEC
  0
SECTION
  2
TABLES
  0
TABLE
  2
VPORT
  5
8
330
0
100
AcDbSymbolTable
 70
     1
  0
VPORT
  5
29
330
8
100
AcDbSymbolTableRecord
100
AcDbViewportTableRecord
  2
*Active
 70
     0
 10
0.0
 20
0.0
 11
1.0
 21
1.0
 12
148.5
 22
105.0
 13
0.0
 23
0.0
 14
10.0
 24
10.0
 15
10.0
 25
10.0
 16
0.0
 26
0.0
 36
1.0
 17
0.0
 27
0.0
 37
0.0
 40
210.0
 41
1.4142857143
 42
50.0
 43
0.0
 44
0.0
 50
0.0
 51
0.0
 71
     0
 72
  2000
 73
     1
 74
     3
 75
     0
 76
     0
 77
     0
 78
     0
281
     0
 65
     1
110
0.0
120
0.0
130
0.0
111
1.0
121
0.0
131
0.0
112
0.0
122
1.0
132
0.0
 79
     0
146
0.0
  0
ENDTAB
  0
TABLE
  2
LTYPE
  5
5
330
0
100
AcDbSymbolTable
 70
     6
  0
LTYPE
  5
14
330
5
100
AcDbSymbolTableRecord
100
AcDbLinetypeTableRecord
  2
ByBlock
 70
     0
  3

 72
    65
 73
     0
 40
0.0
  0
LTYPE
  5
15
330
5
100
AcDbSymbolTableRecord
100
AcDbLinetypeTableRecord
  2
ByLayer
 70
     0
  3

 72
    65
 73
     0
 40
0.0
  0
LTYPE
  5
16
330
5
100
AcDbSymbolTableRecord
100
AcDbLinetypeTableRecord
  2
Continuous
 70
     0
  3
Solid line
 72
    65
 73
     0
 40
0.0
  0
LTYPE
  5
6E
330
5
100
AcDbSymbolTableRecord
100
AcDbLinetypeTableRecord
  2
HIDDEN
 70
     0
  3
Hidden __ __ __ __ __ __ __ __ __ __ __ __ __ __
 72
    65
 73
     2
 40
1.905
 49
1.27
 74
     0
 49
-0.635
 74
     0
  0
LTYPE
  5
6F
330
5
100
AcDbSymbolTableRecord
100
AcDbLinetypeTableRecord
  2
PHANTOM
 70
     0
  3
Phantom ______  __  __  ______  __  __  ______
 72
    65
 73
     6
 40
12.7
 49
6.35
 74
     0
 49
-1.27
 74
     0
 49
1.27
 74
     0
 49
-1.27
 74
     0
 49
1.27
 74
     0
 49
-1.27
 74
     0
  0
LTYPE
  5
70
330
5
100
AcDbSymbolTableRecord
100
AcDbLinetypeTableRecord
  2
CENTER
 70
     0
  3
Center ____ _ ____ _ ____ _ ____ _ ____ _ ____
 72
    65
 73
     4
 40
10.16
 49
6.35
 74
     0
 49
-1.27
 74
     0
 49
1.27
 74
     0
 49
-1.27
 74
     0
  0
LTYPE
  5
71
330
5
100
AcDbSymbolTableRecord
100
AcDbLinetypeTableRecord
  2
CENTERX2
 70
     0
  3
Center (2x) ________  __  ________  __  _____
 72
    65
 73
     4
 40
20.32
 49
12.7
 74
     0
 49
-2.54
 74
     0
 49
2.54
 74
     0
 49
-2.54
 74
     0
  0
LTYPE
  5
72
330
5
100
AcDbSymbolTableRecord
100
AcDbLinetypeTableRecord
  2
DOT2
 70
     0
  3
Dot (.5x) ........................................
 72
    65
 73
     2
 40
0.635
 49
0.0
 74
     0
 49
-0.635
 74
     0
  0
ENDTAB
  0
TABLE
  2
LAYER
  5
2
330
0
100
AcDbSymbolTable
 70
     5
  0
LAYER
  5
10
330
2
100
AcDbSymbolTableRecord
100
AcDbLayerTableRecord
  2
0
 70
     0
 62
     7
  6
Continuous
370
    -3
390
F
  0
LAYER
  5
73
330
2
100
AcDbSymbolTableRecord
100
AcDbLayerTableRecord
  2
FORMAT
 70
     0
 62
     7
  6
Continuous
370
    -3
390
F
  0
LAYER
  5
74
330
2
100
AcDbSymbolTableRecord
100
AcDbLayerTableRecord
  2
VERMASSUNG
 70
     0
 62
     7
  6
Continuous
370
    -3
390
F
  0
LAYER
  5
75
330
2
100
AcDbSymbolTableRecord
100
AcDbLayerTableRecord
  2
KOPF_DÜNN
 70
     0
 62
     7
  6
Continuous
370
    -3
390
F
  0
LAYER
  5
76
330
2
100
AcDbSymbolTableRecord
100
AcDbLayerTableRecord
  2
KOPF_DICK
 70
     0
 62
     7
  6
Continuous
370
    15
390
F
  0
ENDTAB
  0
TABLE
  2
STYLE
  5
3
330
0
100
AcDbSymbolTable
 70
     2
  0
STYLE
  5
11
330
3
100
AcDbSymbolTableRecord
100
AcDbTextStyleTableRecord
  2
Standard
 70
     0
 40
0.0
 41
1.0
 50
0.0
 71
     0
 42
2.0
  3
txt
  4

  0
STYLE
  5
77
330
3
100
AcDbSymbolTableRecord
100
AcDbTextStyleTableRecord
  2
SLDTEXTSTYLE0
 70
     0
 40
0.0
 41
0.7
 50
0.0
 71
     0
 42
2.0
  3
TXT
  4

  0
ENDTAB
  0
TABLE
  2
VIEW
  5
6
330
0
100
AcDbSymbolTable
 70
     0
  0
ENDTAB
  0
TABLE
  2
UCS
  5
7
330
0
100
AcDbSymbolTable
 70
     0
  0
ENDTAB
  0
TABLE
  2
APPID
  5
9
330
0
100
AcDbSymbolTable
 70
     1
  0
APPID
  5
12
330
9
100
AcDbSymbolTableRecord
100
AcDbRegAppTableRecord
  2
ACAD
 70
     0
  0
ENDTAB
  0
TABLE
  2
DIMSTYLE
  5
A
330
0
100
AcDbSymbolTable
 70
     3
100
AcDbDimStyleTable
  0
DIMSTYLE
105
27
330
A
100
AcDbSymbolTableRecord
100
AcDbDimStyleTableRecord
  2
ISO-25
 70
     0
 41
2.5
 42
0.625
 43
3.75
 44
1.25
 73
     0
 74
     0
 77
     1
 78
     8
140
2.5
141
2.5
143
0.0393700787
147
0.625
171
     3
172
     1
178
     0
271
     2
272
     2
274
     3
278
    44
283
     0
284
     8
340
11
  0
DIMSTYLE
105
112
102
{ACAD_REACTORS
330
111
102
}
330
A
100
AcDbSymbolTableRecord
100
AcDbDimStyleTableRecord
  2
SLDDIMSTYLE0
 70
     0
 41
3.0
 44
0.0
 45
0.000000001
 73
     0
 74
     0
 77
     1
 78
    12
 79
     3
140
2.0
147
0.5
173
     1
178
     0
271
     3
272
     3
276
     2
284
    12
340
77
  0
DIMSTYLE
105
11F
102
{ACAD_REACTORS
330
11E
330
12A
330
134
330
140
330
14C
102
}
330
A
100
AcDbSymbolTableRecord
100
AcDbDimStyleTableRecord
  2
SLDDIMSTYLE1
 70
     0
 41
3.0
 44
0.0
 45
0.000000001
 73
     0
 74
     0
 77
     1
 78
    12
 79
     3
140
2.0
147
0.5
173
     1
178
     0
271
     2
272
     3
276
     2
284
    12
340
77
  0
ENDTAB
  0
TABLE
  2
BLOCK_RECORD
  5
1
330
0
100
AcDbSymbolTable
 70
     7
  0
BLOCK_RECORD
  5
1F
330
1
100
AcDbSymbolTableRecord
100
AcDbBlockTableRecord
  2
*Model_Space
340
22
  0
BLOCK_RECORD
  5
1B
330
1
100
AcDbSymbolTableRecord
100
AcDbBlockTableRecord
  2
*Paper_Space
340
1E
  0
BLOCK_RECORD
  5
23
330
1
100
AcDbSymbolTableRecord
100
AcDbBlockTableRecord
  2
*Paper_Space0
340
26
  0
BLOCK_RECORD
  5
113
330
1
100
AcDbSymbolTableRecord
100
AcDbBlockTableRecord
  2
_D
340
0
  0
BLOCK_RECORD
  5
120
330
1
100
AcDbSymbolTableRecord
100
AcDbBlockTableRecord
  2
_D_1
340
0
  0
BLOCK_RECORD
  5
12B
330
1
100
AcDbSymbolTableRecord
100
AcDbBlockTableRecord
  2
_D_2
340
0
  0
BLOCK_RECORD
  5
135
330
1
100
AcDbSymbolTableRecord
100
AcDbBlockTableRecord
  2
_D_3
340
0
  0
BLOCK_RECORD
  5
141
330
1
100
AcDbSymbolTableRecord
100
AcDbBlockTableRecord
  2
_D_4
340
0
  0
BLOCK_RECORD
  5
14D
330
1
100
AcDbSymbolTableRecord
100
AcDbBlockTableRecord
  2
_D_5
340
0
  0
ENDTAB
  0
ENDSEC
  0
SECTION
  2
BLOCKS
  0
BLOCK
  5
20
330
1F
100
AcDbEntity
  8
0
100
AcDbBlockBegin
  2
*Model_Space
 70
     0
 10
0.0
 20
0.0
 30
0.0
  3
*Model_Space
  1

  0
ENDBLK
  5
21
330
1F
100
AcDbEntity
  8
0
100
AcDbBlockEnd
  0
BLOCK
  5
1C
330
1B
100
AcDbEntity
 67
     1
  8
0
100
AcDbBlockBegin
  2
*Paper_Space
 70
     0
 10
0.0
 20
0.0
 30
0.0
  3
*Paper_Space
  1

  0
ENDBLK
  5
1D
330
1B
100
AcDbEntity
 67
     1
  8
0
100
AcDbBlockEnd
  0
BLOCK
  5
24
330
23
100
AcDbEntity
  8
0
100
AcDbBlockBegin
  2
*Paper_Space0
 70
     0
 10
0.0
 20
0.0
 30
0.0
  3
*Paper_Space0
  1

  0
ENDBLK
  5
25
330
23
100
AcDbEntity
  8
0
100
AcDbBlockEnd
  0
BLOCK
  5
114
330
113
100
AcDbEntity
  8
0
100
AcDbBlockBegin
  2
_D
 70
     0
 10
0.0
 20
0.0
 30
0.0
  3
_D
  1

  0
SOLID
  5
116
330
113
100
AcDbEntity
  8
VERMASSUNG
100
AcDbTrace
 10
71.9584107072
 20
75.4113379678
 30
0.0
 11
72.4084107072
 21
78.4113379678
 31
0.0
 12
71.5084107072
 22
78.4113379678
 32
0.0
 13
71.5084107072
 23
78.4113379678
 33
0.0
  0
SOLID
  5
117
330
113
100
AcDbEntity
  8
VERMASSUNG
100
AcDbTrace
 10
71.9584107072
 20
138.9113379678
 30
0.0
 11
71.5084107072
 21
135.9113379678
 31
0.0
 12
72.4084107072
 22
135.9113379678
 32
0.0
 13
72.4084107072
 23
135.9113379678
 33
0.0
  0
LINE
  5
118
330
113
100
AcDbEntity
  8
VERMASSUNG
100
AcDbLine
 10
164.3867822754
 20
75.4113379678
 30
0.0
 11
70.9584107072
 21
75.4113379678
 31
0.0
  0
LINE
  5
119
330
113
100
AcDbEntity
  8
VERMASSUNG
100
AcDbLine
 10
164.3867822754
 20
138.9113379678
 30
0.0
 11
70.9584107072
 21
138.9113379678
 31
0.0
  0
LINE
  5
11A
330
113
100
AcDbEntity
  8
VERMASSUNG
100
AcDbLine
 10
71.9584107072
 20
75.4113379678
 30
0.0
 11
71.9584107072
 21
138.9113379678
 31
0.0
  0
MTEXT
  5
11B
330
113
100
AcDbEntity
  8
VERMASSUNG
100
AcDbMText
 10
69.180275451
 20
97.8576458978
 30
0.0
 40
2.0
 41
0.0
 71
     1
 72
     1
  1
CAT 40
  7
SLDTEXTSTYLE0
 11
3.391901413832837E-15
 21
1.0
 31
0.0
 73
     1
 44
1.0
  0
MTEXT
  5
11C
330
113
100
AcDbEntity
  8
VERMASSUNG
100
AcDbMText
 10
69.3802754023
 20
108.0576453346
 30
0.0
 40
2.0
 41
0.0
 71
     1
 72
     1
  1
%%c
  7
SLDTEXTSTYLE0
 11
3.391901413832837E-15
 21
1.0
 31
0.0
 73
     1
 44
1.0
  0
MTEXT
  5
11D
330
113
100
AcDbEntity
  8
VERMASSUNG
100
AcDbMText
 10
69.3802751113
 20
111.6670382768
 30
0.0
 40
2.0
 41
0.0
 71
     1
 72
     1
  1
63.5
  7
SLDTEXTSTYLE0
 11
3.391901413832837E-15
 21
1.0
 31
0.0
 73
     1
 44
1.0
  0
ENDBLK
  5
115
330
113
100
AcDbEntity
  8
0
100
AcDbBlockEnd
  0
BLOCK
  5
121
330
120
100
AcDbEntity
  8
0
100
AcDbBlockBegin
  2
_D_1
 70
     0
 10
0.0
 20
0.0
 30
0.0
  3
_D_1
  1

  0
SOLID
  5
123
330
120
100
AcDbEntity
  8
VERMASSUNG
100
AcDbTrace
 10
212.7315200596
 20
121.1613379678
 30
0.0
 11
212.2815200596
 21
118.1613379678
 31
0.0
 12
213.1815200596
 22
118.1613379678
 32
0.0
 13
213.1815200596
 23
118.1613379678
 33
0.0
  0
SOLID
  5
124
330
120
100
AcDbEntity
  8
VERMASSUNG
100
AcDbTrace
 10
212.7315200596
 20
93.1613379678
 30
0.0
 11
213.1815200596
 21
96.1613379678
 31
0.0
 12
212.2815200596
 22
96.1613379678
 32
0.0
 13
212.2815200596
 23
96.1613379678
 33
0.0
  0
LINE
  5
125
330
120
100
AcDbEntity
  8
VERMASSUNG
100
AcDbLine
 10
191.3367822754
 20
121.1613379678
 30
0.0
 11
213.7315200596
 21
121.1613379678
 31
0.0
  0
LINE
  5
126
330
120
100
AcDbEntity
  8
VERMASSUNG
100
AcDbLine
 10
191.3367822754
 20
93.1613379678
 30
0.0
 11
213.7315200596
 21
93.1613379678
 31
0.0
  0
LINE
  5
127
330
120
100
AcDbEntity
  8
VERMASSUNG
100
AcDbLine
 10
212.7315200596
 20
121.1613379678
 30
0.0
 11
212.7315200596
 21
93.1613379678
 31
0.0
  0
MTEXT
  5
128
330
120
100
AcDbEntity
  8
VERMASSUNG
100
AcDbMText
 10
210.1533845219
 20
103.9571618607
 30
0.0
 40
2.0
 41
0.0
 71
     1
 72
     1
  1
%%c
  7
SLDTEXTSTYLE0
 11
-7.044195017643634E-15
 21
1.0
 31
0.0
 73
     1
 44
1.0
  0
MTEXT
  5
129
330
120
100
AcDbEntity
  8
VERMASSUNG
100
AcDbMText
 10
210.1533844637
 20
107.5661340544
 30
0.0
 40
2.0
 41
0.0
 71
     1
 72
     1
  1
28
  7
SLDTEXTSTYLE0
 11
-7.044195017643634E-15
 21
1.0
 31
0.0
 73
     1
 44
1.0
  0
ENDBLK
  5
122
330
120
100
AcDbEntity
  8
0
100
AcDbBlockEnd
  0
BLOCK
  5
12C
330
12B
100
AcDbEntity
  8
0
100
AcDbBlockBegin
  2
_D_2
 70
     0
 10
0.0
 20
0.0
 30
0.0
  3
_D_2
  1

  0
SOLID
  5
12E
330
12B
100
AcDbEntity
  8
VERMASSUNG
100
AcDbTrace
 10
145.9367822754
 20
152.6443144873
 30
0.0
 11
148.9367822754
 21
152.1943144873
 31
0.0
 12
148.9367822754
 22
153.0943144873
 32
0.0
 13
148.9367822754
 23
153.0943144873
 33
0.0
  0
SOLID
  5
12F
330
12B
100
AcDbEntity
  8
VERMASSUNG
100
AcDbTrace
 10
204.9367822754
 20
152.6443144873
 30
0.0
 11
201.9367822754
 21
153.0943144873
 31
0.0
 12
201.9367822754
 22
152.1943144873
 32
0.0
 13
201.9367822754
 23
152.1943144873
 33
0.0
  0
LINE
  5
130
330
12B
100
AcDbEntity
  8
VERMASSUNG
100
AcDbLine
 10
145.9367822754
 20
129.3863379678
 30
0.0
 11
145.9367822754
 21
153.6443144873
 31
0.0
  0
LINE
  5
131
330
12B
100
AcDbEntity
  8
VERMASSUNG
100
AcDbLine
 10
204.9367822754
 20
131.6613379678
 30
0.0
 11
204.9367822754
 21
153.6443144873
 31
0.0
  0
LINE
  5
132
330
12B
100
AcDbEntity
  8
VERMASSUNG
100
AcDbLine
 10
145.9367822754
 20
152.6443144873
 30
0.0
 11
204.9367822754
 21
152.6443144873
 31
0.0
  0
MTEXT
  5
133
330
12B
100
AcDbEntity
  8
VERMASSUNG
100
AcDbMText
 10
174.0370922651
 20
155.2224500832
 30
0.0
 40
2.0
 41
0.0
 71
     1
 72
     1
  1
59
  7
SLDTEXTSTYLE0
 73
     1
 44
1.0
  0
ENDBLK
  5
12D
330
12B
100
AcDbEntity
  8
0
100
AcDbBlockEnd
  0
BLOCK
  5
136
330
135
100
AcDbEntity
  8
0
100
AcDbBlockBegin
  2
_D_3
 70
     0
 10
0.0
 20
0.0
 30
0.0
  3
_D_3
  1

  0
ARC
  5
138
330
135
100
AcDbEntity
  8
VERMASSUNG
100
AcDbCircle
 10
193.6490093609
 20
148.5436574327
 30
0.0
 40
4.247059938537272
100
AcDbArc
 50
153.4349488229
 51
206.5650511771
  0
ARC
  5
139
330
135
100
AcDbEntity
  8
VERMASSUNG
100
AcDbCircle
 10
192.22455519
 20
148.5436574327
 30
0.0
 40
4.247059938537297
100
AcDbArc
 50
333.4349488229
 51
26.5650511771
  0
SOLID
  5
13A
330
135
100
AcDbEntity
  8
VERMASSUNG
100
AcDbTrace
 10
180.9367822754
 20
146.6443144873
 30
0.0
 11
183.9367822754
 21
146.1943144873
 31
0.0
 12
183.9367822754
 22
147.0943144873
 32
0.0
 13
183.9367822754
 23
147.0943144873
 33
0.0
  0
SOLID
  5
13B
330
135
100
AcDbEntity
  8
VERMASSUNG
100
AcDbTrace
 10
204.9367822754
 20
146.6443144873
 30
0.0
 11
201.9367822754
 21
147.0943144873
 31
0.0
 12
201.9367822754
 22
146.1943144873
 32
0.0
 13
201.9367822754
 23
146.1943144873
 33
0.0
  0
LINE
  5
13C
330
135
100
AcDbEntity
  8
VERMASSUNG
100
AcDbLine
 10
180.9367822754
 20
131.1613379678
 30
0.0
 11
180.9367822754
 21
147.6443144873
 31
0.0
  0
LINE
  5
13D
330
135
100
AcDbEntity
  8
VERMASSUNG
100
AcDbLine
 10
204.9367822754
 20
131.6613379678
 30
0.0
 11
204.9367822754
 21
147.6443144873
 31
0.0
  0
LINE
  5
13E
330
135
100
AcDbEntity
  8
VERMASSUNG
100
AcDbLine
 10
180.9367822754
 20
146.6443144873
 30
0.0
 11
204.9367822754
 21
146.6443144873
 31
0.0
  0
MTEXT
  5
13F
330
135
100
AcDbEntity
  8
VERMASSUNG
100
AcDbMText
 10
191.4378234701
 20
149.2224500832
 30
0.0
 40
2.0
 41
0.0
 71
     1
 72
     1
  1
24
  7
SLDTEXTSTYLE0
 73
     1
 44
1.0
  0
ENDBLK
  5
137
330
135
100
AcDbEntity
  8
0
100
AcDbBlockEnd
  0
BLOCK
  5
142
330
141
100
AcDbEntity
  8
0
100
AcDbBlockBegin
  2
_D_4
 70
     0
 10
0.0
 20
0.0
 30
0.0
  3
_D_4
  1

  0
ARC
  5
144
330
141
100
AcDbEntity
  8
VERMASSUNG
100
AcDbCircle
 10
139.9239228522
 20
160.5436574327
 30
0.0
 40
4.24705993853731
100
AcDbArc
 50
153.4349488229
 51
206.5650511771
  0
ARC
  5
145
330
141
100
AcDbEntity
  8
VERMASSUNG
100
AcDbCircle
 10
142.6996416987
 20
160.5436574327
 30
0.0
 40
4.247059938537284
100
AcDbArc
 50
333.4349488229
 51
26.5650511771
  0
SOLID
  5
146
330
141
100
AcDbEntity
  8
VERMASSUNG
100
AcDbTrace
 10
77.6867822754
 20
158.6443144873
 30
0.0
 11
80.6867822754
 21
158.1943144873
 31
0.0
 12
80.6867822754
 22
159.0943144873
 32
0.0
 13
80.6867822754
 23
159.0943144873
 33
0.0
  0
SOLID
  5
147
330
141
100
AcDbEntity
  8
VERMASSUNG
100
AcDbTrace
 10
204.9367822754
 20
158.6443144873
 30
0.0
 11
201.9367822754
 21
159.0943144873
 31
0.0
 12
201.9367822754
 22
158.1943144873
 32
0.0
 13
201.9367822754
 23
158.1943144873
 33
0.0
  0
LINE
  5
148
330
141
100
AcDbEntity
  8
VERMASSUNG
100
AcDbLine
 10
77.6867822754
 20
118.5684685649
 30
0.0
 11
77.6867822754
 21
159.6443144873
 31
0.0
  0
LINE
  5
149
330
141
100
AcDbEntity
  8
VERMASSUNG
100
AcDbLine
 10
204.9367822754
 20
131.6613379678
 30
0.0
 11
204.9367822754
 21
159.6443144873
 31
0.0
  0
LINE
  5
14A
330
141
100
AcDbEntity
  8
VERMASSUNG
100
AcDbLine
 10
77.6867822754
 20
158.6443144873
 30
0.0
 11
204.9367822754
 21
158.6443144873
 31
0.0
  0
MTEXT
  5
14B
330
141
100
AcDbEntity
  8
VERMASSUNG
100
AcDbMText
 10
137.7127369613
 20
161.2224500832
 30
0.0
 40
2.0
 41
0.0
 71
     1
 72
     1
  1
127.25
  7
SLDTEXTSTYLE0
 73
     1
 44
1.0
  0
ENDBLK
  5
143
330
141
100
AcDbEntity
  8
0
100
AcDbBlockEnd
  0
BLOCK
  5
14E
330
14D
100
AcDbEntity
  8
0
100
AcDbBlockBegin
  2
_D_5
 70
     0
 10
0.0
 20
0.0
 30
0.0
  3
_D_5
  1

  0
SOLID
  5
150
330
14D
100
AcDbEntity
  8
VERMASSUNG
100
AcDbTrace
 10
218.7315200596
 20
132.1613379678
 30
0.0
 11
218.2815200596
 21
129.1613379678
 31
0.0
 12
219.1815200596
 22
129.1613379678
 32
0.0
 13
219.1815200596
 23
129.1613379678
 33
0.0
  0
SOLID
  5
151
330
14D
100
AcDbEntity
  8
VERMASSUNG
100
AcDbTrace
 10
218.7315200596
 20
82.1613379678
 30
0.0
 11
219.1815200596
 21
85.1613379678
 31
0.0
 12
218.2815200596
 22
85.1613379678
 32
0.0
 13
218.2815200596
 23
85.1613379678
 33
0.0
  0
LINE
  5
152
330
14D
100
AcDbEntity
  8
VERMASSUNG
100
AcDbLine
 10
204.4367822754
 20
132.1613379678
 30
0.0
 11
219.7315200596
 21
132.1613379678
 31
0.0
  0
LINE
  5
153
330
14D
100
AcDbEntity
  8
VERMASSUNG
100
AcDbLine
 10
204.4367822754
 20
82.1613379678
 30
0.0
 11
219.7315200596
 21
82.1613379678
 31
0.0
  0
LINE
  5
154
330
14D
100
AcDbEntity
  8
VERMASSUNG
100
AcDbLine
 10
218.7315200596
 20
132.1613379678
 30
0.0
 11
218.7315200596
 21
82.1613379678
 31
0.0
  0
MTEXT
  5
155
330
14D
100
AcDbEntity
  8
VERMASSUNG
100
AcDbMText
 10
215.9533848034
 20
101.056338746
 30
0.0
 40
2.0
 41
0.0
 71
     1
 72
     1
  1
ST5
  7
SLDTEXTSTYLE0
 11
-7.044195017643634E-15
 21
1.0
 31
0.0
 73
     1
 44
1.0
  0
MTEXT
  5
156
330
14D
100
AcDbEntity
  8
VERMASSUNG
100
AcDbMText
 10
216.1533847547
 20
106.8563386722
 30
0.0
 40
2.0
 41
0.0
 71
     1
 72
     1
  1
%%c
  7
SLDTEXTSTYLE0
 11
-7.044195017643634E-15
 21
1.0
 31
0.0
 73
     1
 44
1.0
  0
MTEXT
  5
157
330
14D
100
AcDbEntity
  8
VERMASSUNG
100
AcDbMText
 10
215.9533848034
 20
110.4663382209
 30
0.0
 40
2.0
 41
0.0
 71
     1
 72
     1
  1
50
  7
SLDTEXTSTYLE0
 11
-7.044195017643634E-15
 21
1.0
 31
0.0
 73
     1
 44
1.0
  0
ENDBLK
  5
14F
330
14D
100
AcDbEntity
  8
0
100
AcDbBlockEnd
  0
ENDSEC
  0
SECTION
  2
ENTITIES
  0
MTEXT
  5
78
330
1F
100
AcDbEntity
  8
KOPF_DÜNN
100
AcDbMText
 10
13.8892156294
 20
23.8442973028
 30
0.0
 40
3.0
 41
0.0
 71
     1
 72
     1
  1
104.340.050.059
  7
SLDTEXTSTYLE0
 73
     1
 44
1.0
  0
MTEXT
  5
79
330
1F
100
AcDbEntity
  8
VERMASSUNG
100
AcDbMText
 10
13.9329988022
 20
28.8834360957
 30
0.0
 40
3.0
 41
0.0
 71
     1
 72
     1
  1
Aufnahme_Master shank ST5
  7
SLDTEXTSTYLE0
 73
     1
 44
1.0
  0
MTEXT
  5
7A
330
1F
100
AcDbEntity
  8
VERMASSUNG
100
AcDbMText
 10
98.8601118557
 20
13.8365368761
 30
0.0
 40
2.0
 41
0.0
 71
     1
 72
     1
  1
Datum: 07.05.2008
  7
SLDTEXTSTYLE0
 73
     1
 44
1.0
  0
MTEXT
  5
7B
330
1F
100
AcDbEntity
  8
VERMASSUNG
100
AcDbMText
 10
13.933048693
 20
18.0482802738
 30
0.0
 40
2.0
 41
0.0
 71
     1
 72
     1
  1
ANSI B5.50 CAT 40
  7
SLDTEXTSTYLE0
 73
     1
 44
1.0
  0
MTEXT
  5
7C
330
1F
100
AcDbEntity
  8
VERMASSUNG
100
AcDbMText
 10
13.9808475933
 20
13.9090974274
 30
0.0
 40
2.0
 41
0.0
 71
     1
 72
     1
  1
Gewicht: 1212g
  7
SLDTEXTSTYLE0
 73
     1
 44
1.0
  0
LINE
  5
7D
330
1F
100
AcDbEntity
  8
0
  6
Continuous
 62
     7
370
    15
100
AcDbLine
 10
204.4367822754
 20
132.1613379678
 30
0.0
 11
181.9367822754
 21
132.1613379678
 31
0.0
  0
LINE
  5
7E
330
1F
100
AcDbEntity
  8
0
  6
Continuous
 62
     7
370
    15
100
AcDbLine
 10
181.9367822754
 20
82.1613379678
 30
0.0
 11
204.4367822754
 21
82.1613379678
 31
0.0
  0
LINE
  5
7F
330
1F
100
AcDbEntity
  8
0
  6
Continuous
 62
     7
370
    15
100
AcDbLine
 10
204.4367822754
 20
82.1613379678
 30
0.0
 11
204.9367822754
 21
82.6613379678
 31
0.0
  0
LINE
  5
80
330
1F
100
AcDbEntity
  8
0
  6
Continuous
 62
     7
370
    15
100
AcDbLine
 10
204.9367822754
 20
131.6613379678
 30
0.0
 11
204.4367822754
 21
132.1613379678
 31
0.0
  0
ARC
  5
81
330
1F
100
AcDbEntity
  8
0
  6
Continuous
 62
     7
370
    15
100
AcDbCircle
 10
181.9367822754
 20
83.1613379678
 30
0.0
 40
1.0
100
AcDbArc
 50
180.0
 51
270.0
  0
ARC
  5
82
330
1F
100
AcDbEntity
  8
0
  6
Continuous
 62
     7
370
    15
100
AcDbCircle
 10
181.9367822754
 20
131.1613379678
 30
0.0
 40
1.0
100
AcDbArc
 50
90.0
 51
180.0
  0
ARC
  5
83
330
1F
100
AcDbEntity
  8
0
  6
Continuous
 62
     7
370
    15
100
AcDbCircle
 10
179.9367822754
 20
83.9363379678
 30
0.0
 40
1.0
100
AcDbArc
 50
0.0
 51
90.0
  0
ARC
  5
84
330
1F
100
AcDbEntity
  8
0
  6
Continuous
 62
     7
370
    15
100
AcDbCircle
 10
179.9367822754
 20
130.3863379678
 30
0.0
 40
1.0
100
AcDbArc
 50
270.0
 51
0.0
  0
ARC
  5
85
330
1F
100
AcDbEntity
  8
0
  6
Continuous
 62
     7
370
    15
100
AcDbCircle
 10
148.5117822754
 20
84.3363379678
 30
0.0
 40
0.6000000000000085
100
AcDbArc
 50
45.0660568222
 51
90.0
  0
ARC
  5
86
330
1F
100
AcDbEntity
  8
0
  6
Continuous
 62
     7
370
    15
100
AcDbCircle
 10
148.5117822754
 20
129.9863379678
 30
0.0
 40
0.5999999999999943
100
AcDbArc
 50
270.0
 51
0.0
  0
ARC
  5
87
330
1F
100
AcDbEntity
  8
0
  6
Continuous
 62
     7
370
    15
100
AcDbCircle
 10
165.5867822754
 20
84.3363379678
 30
0.0
 40
0.6000000000000085
100
AcDbArc
 50
90.0
 51
134.8884275748
  0
ARC
  5
88
330
1F
100
AcDbEntity
  8
0
  6
Continuous
 62
     7
370
    15
100
AcDbCircle
 10
165.5867822754
 20
129.9863379678
 30
0.0
 40
0.5999999999999943
100
AcDbArc
 50
180.0
 51
270.0
  0
LINE
  5
89
330
1F
100
AcDbEntity
  8
0
  6
Continuous
 62
     7
370
    15
100
AcDbLine
 10
145.9367822754
 20
84.9363379678
 30
0.0
 11
148.5117822754
 21
84.9363379678
 31
0.0
  0
LINE
  5
8A
330
1F
100
AcDbEntity
  8
0
  6
Continuous
 62
     7
370
    15
100
AcDbLine
 10
148.5117822754
 20
129.3863379678
 30
0.0
 11
145.9367822754
 21
129.3863379678
 31
0.0
  0
LINE
  5
8B
330
1F
100
AcDbEntity
  8
0
  6
Continuous
 62
     7
370
    15
100
AcDbLine
 10
145.9367822754
 20
129.3863379678
 30
0.0
 11
78.5424753824
 21
119.5580015459
 31
0.0
  0
LINE
  5
8C
330
1F
100
AcDbEntity
  8
0
  6
Continuous
 62
     7
370
    15
100
AcDbLine
 10
78.5424753824
 20
94.7646743898
 30
0.0
 11
145.9367822754
 21
84.9363379678
 31
0.0
  0
LINE
  5
8D
330
1F
100
AcDbEntity
  8
0
  6
Continuous
 62
     7
370
    15
100
AcDbLine
 10
165.5867822754
 20
84.9363379678
 30
0.0
 11
179.9367822754
 21
84.9363379678
 31
0.0
  0
LINE
  5
8E
330
1F
100
AcDbEntity
  8
0
  6
Continuous
 62
     7
370
    15
100
AcDbLine
 10
179.9367822754
 20
129.3863379678
 30
0.0
 11
165.5867822754
 21
129.3863379678
 31
0.0
  0
ARC
  5
8F
330
1F
100
AcDbEntity
  8
0
  6
Continuous
 62
     7
370
    15
100
AcDbCircle
 10
78.6867822754
 20
95.7542073708
 30
0.0
 40
1.00000000000001
100
AcDbArc
 50
180.0
 51
261.7028550302
  0
ARC
  5
90
330
1F
100
AcDbEntity
  8
0
  6
Continuous
 62
     7
370
    15
100
AcDbCircle
 10
78.6867822754
 20
118.5684685649
 30
0.0
 40
1.00000000000001
100
AcDbArc
 50
98.2971449698
 51
180.0
  0
SPLINE
  5
91
330
1F
100
AcDbEntity
  8
0
  6
Continuous
 62
     7
370
    15
100
AcDbSpline
210
0.0
220
0.0
230
1.0
 70
    24
 71
     3
 72
    11
 73
     7
 74
     0
 42
0.000000001
 43
0.00000001
 40
0.0
 40
0.0
 40
0.0
 40
0.0
 40
0.1285561766307338
 40
0.4801535797842219
 40
0.8150691831753865
 40
1.0
 40
1.0
 40
1.0
 40
1.0
 10
193.3301579484057
 20
104.6613379678496
 30
0.0
 10
193.2138999644223
 20
104.6613379678496
 30
0.0
 10
192.7796797763992
 20
104.6613379678496
 30
0.0
 10
191.9654196718101
 20
104.6613379678496
 30
0.0
 10
191.0837477378241
 20
104.6613379678496
 30
0.0
 10
190.6114296358163
 20
104.6613379678496
 30
0.0
 10
190.4434066024575
 20
104.6613379678496
 30
0.0
  0
SPLINE
  5
92
330
1F
100
AcDbEntity
  8
0
  6
Continuous
 62
     7
370
    15
100
AcDbSpline
210
0.0
220
0.0
230
1.0
 70
    24
 71
     3
 72
    11
 73
     7
 74
     0
 42
0.000000001
 43
0.00000001
 40
0.0
 40
0.0
 40
0.0
 40
0.0
 40
0.216454300964504
 40
0.4403089937225365
 40
0.7518987489759474
 40
1.0
 40
1.0
 40
1.0
 40
1.0
 10
194.7735336213798
 20
107.1613379678496
 30
0.0
 10
194.6746614907558
 20
106.9900864141563
 30
0.0
 10
194.4735368739278
 20
106.6417283591575
 30
0.0
 10
194.1003024421095
 20
105.9952673601141
 30
0.0
 10
193.699939620689
 20
105.3018186119521
 30
0.0
 10
193.4437308313716
 20
104.8580519715086
 30
0.0
 10
193.3301579484057
 20
104.6613379678496
 30
0.0
  0
SPLINE
  5
93
330
1F
100
AcDbEntity
  8
0
  6
Continuous
 62
     7
370
    15
100
AcDbSpline
210
0.0
220
0.0
230
1.0
 70
    24
 71
     3
 72
    11
 73
     7
 74
     0
 42
0.000000001
 43
0.00000001
 40
0.0
 40
0.0
 40
0.0
 40
0.0
 40
0.2164543009645036
 40
0.4403089937225356
 40
0.7518987489759454
 40
1.0
 40
1.0
 40
1.0
 40
1.0
 10
193.3301579484057
 20
109.6613379678496
 30
0.0
 10
193.4290300790296
 20
109.4900864141563
 30
0.0
 10
193.6301546958576
 20
109.1417283591575
 30
0.0
 10
194.0033891276759
 20
108.4952673601141
 30
0.0
 10
194.4037519490965
 20
107.8018186119521
 30
0.0
 10
194.6599607384138
 20
107.3580519715086
 30
0.0
 10
194.7735336213798
 20
107.1613379678496
 30
0.0
  0
SPLINE
  5
94
330
1F
100
AcDbEntity
  8
0
  6
Continuous
 62
     7
370
    15
100
AcDbSpline
210
0.0
220
0.0
230
1.0
 70
    24
 71
     3
 72
    11
 73
     7
 74
     0
 42
0.000000001
 43
0.00000001
 40
0.0
 40
0.0
 40
0.0
 40
0.0
 40
0.1849308168246117
 40
0.5198464202157771
 40
0.871443823369266
 40
1.0
 40
1.0
 40
1.0
 40
1.0
 10
190.4434066024576
 20
109.6613379678496
 30
0.0
 10
190.6114296358163
 20
109.6613379678496
 30
0.0
 10
191.0837477378241
 20
109.6613379678496
 30
0.0
 10
191.9654196718101
 20
109.6613379678496
 30
0.0
 10
192.7796797763992
 20
109.6613379678496
 30
0.0
 10
193.2138999644223
 20
109.6613379678496
 30
0.0
 10
193.3301579484057
 20
109.6613379678496
 30
0.0
  0
SPLINE
  5
95
330
1F
100
AcDbEntity
  8
0
  6
Continuous
 62
     7
370
    15
100
AcDbSpline
210
0.0
220
0.0
230
1.0
 70
    24
 71
     3
 72
    11
 73
     7
 74
     0
 42
0.000000001
 43
0.00000001
 40
0.0
 40
0.0
 40
0.0
 40
0.0
 40
0.2164543009645041
 40
0.440308993722535
 40
0.7518987489759466
 40
1.0
 40
1.0
 40
1.0
 40
1.0
 10
190.4434066024575
 20
104.6613379678496
 30
0.0
 10
190.3445344718336
 20
104.8325895215429
 30
0.0
 10
190.1434098550056
 20
105.1809475765418
 30
0.0
 10
189.7701754231874
 20
105.8274085755851
 30
0.0
 10
189.3698126017668
 20
106.5208573237472
 30
0.0
 10
189.1136038124494
 20
106.9646239641906
 30
0.0
 10
189.0000309294835
 20
107.1613379678496
 30
0.0
  0
CIRCLE
  5
96
330
1F
100
AcDbEntity
  8
0
  6
Continuous
 62
     7
370
    15
100
AcDbCircle
 10
191.8867822754
 20
107.1613379678
 30
0.0
 40
3.0
  0
SPLINE
  5
97
330
1F
100
AcDbEntity
  8
0
  6
Continuous
 62
     7
370
    15
100
AcDbSpline
210
0.0
220
0.0
230
1.0
 70
    24
 71
     3
 72
    11
 73
     7
 74
     0
 42
0.000000001
 43
0.00000001
 40
0.0
 40
0.0
 40
0.0
 40
0.0
 40
0.2164543009645046
 40
0.4403089937225373
 40
0.7518987489759485
 40
1.0
 40
1.0
 40
1.0
 40
1.0
 10
189.0000309294835
 20
107.1613379678496
 30
0.0
 10
189.0989030601075
 20
107.3325895215429
 30
0.0
 10
189.3000276769354
 20
107.6809475765418
 30
0.0
 10
189.6732621087537
 20
108.3274085755851
 30
0.0
 10
190.0736249301743
 20
109.0208573237472
 30
0.0
 10
190.3298337194917
 20
109.4646239641906
 30
0.0
 10
190.4434066024576
 20
109.6613379678496
 30
0.0
  0
CIRCLE
  5
98
330
1F
100
AcDbEntity
  8
0
  6
Continuous
 62
     7
370
    15
100
AcDbCircle
 10
191.8867822754
 20
107.1613379678
 30
0.0
 40
4.500000000000014
  0
CIRCLE
  5
99
330
1F
100
AcDbEntity
  8
0
  6
Continuous
 62
     7
370
    15
100
AcDbCircle
 10
191.8867822754
 20
107.1613379678
 30
0.0
 40
5.000000000000014
  0
ARC
  5
9A
330
1F
100
AcDbEntity
  8
0
  6
Continuous
 62
     7
370
    15
100
AcDbCircle
 10
191.8867822754
 20
107.1613379678
 30
0.0
 40
2.500000000000008
100
AcDbArc
 50
330.0
 51
30.0
  0
ARC
  5
9B
330
1F
100
AcDbEntity
  8
0
  6
Continuous
 62
     7
370
    15
100
AcDbCircle
 10
191.8867822754
 20
107.1613379678
 30
0.0
 40
2.500000000000001
100
AcDbArc
 50
30.0
 51
90.0
  0
ARC
  5
9C
330
1F
100
AcDbEntity
  8
0
  6
Continuous
 62
     7
370
    15
100
AcDbCircle
 10
191.8867822754
 20
107.1613379678
 30
0.0
 40
2.500000000000008
100
AcDbArc
 50
90.0
 51
150.0
  0
ARC
  5
9D
330
1F
100
AcDbEntity
  8
0
  6
Continuous
 62
     7
370
    15
100
AcDbCircle
 10
191.8867822754
 20
107.1613379678
 30
0.0
 40
2.500000000000008
100
AcDbArc
 50
270.0
 51
330.0
  0
ARC
  5
9E
330
1F
100
AcDbEntity
  8
0
  6
Continuous
 62
     7
370
    15
100
AcDbCircle
 10
191.8867822754
 20
107.1613379678
 30
0.0
 40
2.500000000000008
100
AcDbArc
 50
150.0
 51
210.0
  0
ARC
  5
9F
330
1F
100
AcDbEntity
  8
0
  6
Continuous
 62
     7
370
    15
100
AcDbCircle
 10
191.8867822754
 20
107.1613379678
 30
0.0
 40
2.500000000000008
100
AcDbArc
 50
210.0
 51
270.0
  0
LINE
  5
A0
330
1F
100
AcDbEntity
  8
0
  6
Continuous
 62
     7
370
    15
100
AcDbLine
 10
149.1117822754
 20
77.3947442763
 30
0.0
 11
149.1117822754
 21
136.9279316594
 31
0.0
  0
SPLINE
  5
A1
330
1F
100
AcDbEntity
  8
0
  6
Continuous
 62
     7
370
    15
100
AcDbSpline
210
0.0
220
0.0
230
1.0
 70
     8
 71
     3
 72
    10
 73
     6
 74
     0
 42
0.000000001
 43
0.00000001
 40
0.0
 40
0.0
 40
0.0
 40
0.0
 40
0.5
 40
0.5
 40
1.0
 40
1.0
 40
1.0
 40
1.0
 10
149.4007751116212
 20
137.5505148945387
 30
0.0
 10
149.3244674128117
 20
137.4799981134279
 30
0.0
 10
149.2568049515604
 20
137.3942945609742
 30
0.0
 10
149.1494961026035
 20
137.1827948964107
 30
0.0
 10
149.1117822754316
 20
137.0586419361595
 30
0.0
 10
149.1117822754316
 20
136.9279316594362
 30
0.0
  0
SPLINE
  5
A2
330
1F
100
AcDbEntity
  8
0
  6
Continuous
 62
     7
370
    15
100
AcDbSpline
210
0.0
220
0.0
230
1.0
 70
     8
 71
     3
 72
     8
 73
     4
 74
     0
 42
0.000000001
 43
0.00000001
 40
0.0
 40
0.0
 40
0.0
 40
0.0
 40
1.0
 40
1.0
 40
1.0
 40
1.0
 10
149.7117822754316
 20
137.6205325448643
 30
0.0
 10
149.6003611252173
 20
137.6205325448643
 30
0.0
 10
149.492366694621
 20
137.5952657642971
 30
0.0
 10
149.4007751116212
 20
137.5505148945387
 30
0.0
  0
SPLINE
  5
A3
330
1F
100
AcDbEntity
  8
0
  6
Continuous
 62
     7
370
    15
100
AcDbSpline
210
0.0
220
0.0
230
1.0
 70
     8
 71
     3
 72
    10
 73
     6
 74
     0
 42
0.000000001
 43
0.00000001
 40
0.0
 40
0.0
 40
0.0
 40
0.0
 40
0.5
 40
0.5
 40
1.0
 40
1.0
 40
1.0
 40
1.0
 10
149.3286979407914
 20
76.84685068890808
 30
0.0
 10
149.3774332616595
 20
76.81894287093954
 30
0.0
 10
149.4347994706746
 20
76.79513293976966
 30
0.0
 10
149.5651378682103
 20
76.76128071881361
 30
0.0
 10
149.6374342929341
 20
76.75162942639257
 30
0.0
 10
149.7117822754316
 20
76.75162942639257
 30
0.0
  0
SPLINE
  5
A4
330
1F
100
AcDbEntity
  8
0
  6
Continuous
 62
     7
370
    15
100
AcDbSpline
210
0.0
220
0.0
230
1.0
 70
     8
 71
     3
 72
    10
 73
     6
 74
     0
 42
0.000000001
 43
0.00000001
 40
0.0
 40
0.0
 40
0.0
 40
0.0
 40
0.5
 40
0.5
 40
1.0
 40
1.0
 40
1.0
 40
1.0
 10
149.3286979407914
 20
76.84685068890809
 30
0.0
 10
149.2703724058859
 20
76.91455159813442
 30
0.0
 10
149.2178130036405
 20
76.99503192313823
 30
0.0
 10
149.1386256005787
 20
77.17990506353374
 30
0.0
 10
149.1117822754316
 20
77.28552050832161
 30
0.0
 10
149.1117822754316
 20
77.39474427626308
 30
0.0
  0
SPLINE
  5
A5
330
1F
100
AcDbEntity
  8
0
  6
Continuous
 62
     7
370
    15
100
AcDbSpline
210
0.0
220
0.0
230
1.0
 70
     8
 71
     3
 72
     8
 73
     4
 74
     0
 42
0.000000001
 43
0.00000001
 40
0.0
 40
0.0
 40
0.0
 40
0.0
 40
1.0
 40
1.0
 40
1.0
 40
1.0
 10
160.0042682823881
 20
136.8395077307283
 30
0.0
 10
159.6511202606313
 20
136.2050288915625
 30
0.0
 10
159.2985828298876
 20
135.5702164285222
 30
0.0
 10
158.9467822754316
 20
134.9350013399652
 30
0.0
  0
SPLINE
  5
A6
330
1F
100
AcDbEntity
  8
0
  6
Continuous
 62
     7
370
    15
100
AcDbSpline
210
0.0
220
0.0
230
1.0
 70
     8
 71
     3
 72
     8
 73
     4
 74
     0
 42
0.000000001
 43
0.00000001
 40
0.0
 40
0.0
 40
0.0
 40
0.0
 40
0.0012371390485494
 40
0.0012371390485494
 40
0.0012371390485494
 40
0.0012371390485494
 10
160.5615056688343
 20
137.6205325448643
 30
0.0
 10
160.375064002508
 20
137.3604397653751
 30
0.0
 10
160.1892942989892
 20
137.1001054820694
 30
0.0
 10
160.0042682823881
 20
136.8395077307283
 30
0.0
  0
LINE
  5
A7
330
1F
100
AcDbEntity
  8
0
  6
Continuous
 62
     7
370
    15
100
AcDbLine
 10
160.5615056688
 20
76.7516294264
 30
0.0
 11
160.5615056688
 21
137.6205325449
 31
0.0
  0
SPLINE
  5
A8
330
1F
100
AcDbEntity
  8
0
  6
Continuous
 62
     7
370
    15
100
AcDbSpline
210
0.0
220
0.0
230
1.0
 70
     8
 71
     3
 72
     8
 73
     4
 74
     0
 42
0.000000001
 43
0.00000001
 40
0.0
 40
0.0
 40
0.0
 40
0.0
 40
0.0011858378198547
 40
0.0011858378198547
 40
0.0011858378198547
 40
0.0011858378198547
 10
160.1061060887456
 20
77.30024219980261
 30
0.0
 10
160.256374075239
 20
77.1170539147392
 30
0.0
 10
160.408219677908
 20
76.93418885560735
 30
0.0
 10
160.5615056688343
 20
76.75162942639258
 30
0.0
  0
SPLINE
  5
A9
330
1F
100
AcDbEntity
  8
0
  6
Continuous
 62
     7
370
    15
100
AcDbSpline
210
0.0
220
0.0
230
1.0
 70
     8
 71
     3
 72
     8
 73
     4
 74
     0
 42
0.000000001
 43
0.00000001
 40
0.0
 40
0.0
 40
0.0
 40
0.0
 40
1.0
 40
1.0
 40
1.0
 40
1.0
 10
160.1061060887456
 20
77.30024219980261
 30
0.0
 10
159.7188937587035
 20
77.99562220303282
 30
0.0
 10
159.332393108566
 20
78.69141128285578
 30
0.0
 10
158.9467822754316
 20
79.38767459573403
 30
0.0
  0
LINE
  5
AA
330
1F
100
AcDbEntity
  8
0
  6
Continuous
 62
     7
370
    15
100
AcDbLine
 10
164.3867822754
 20
137.6205325449
 30
0.0
 11
160.5615056688
 21
137.6205325449
 31
0.0
  0
LINE
  5
AB
330
1F
100
AcDbEntity
  8
0
  6
Continuous
 62
     7
370
    15
100
AcDbLine
 10
160.5615056688
 20
76.7516294264
 30
0.0
 11
164.3867822754
 21
76.7516294264
 31
0.0
  0
SPLINE
  5
AC
330
1F
100
AcDbEntity
  8
0
  6
Continuous
 62
     7
370
    15
100
AcDbSpline
210
0.0
220
0.0
230
1.0
 70
     8
 71
     3
 72
    12
 73
     8
 74
     0
 42
0.000000001
 43
0.00000001
 40
0.0
 40
0.0
 40
0.0
 40
0.0
 40
0.4999999999999953
 40
0.4999999999999953
 40
0.7499999999999977
 40
0.7499999999999977
 40
1.0
 40
1.0
 40
1.0
 40
1.0
 10
164.9867822754316
 20
137.1358857620932
 30
0.0
 10
164.9867822754316
 20
137.2560559409633
 30
0.0
 10
164.9328701637436
 20
137.3739584329484
 30
0.0
 10
164.7717498078849
 20
137.5132773018014
 30
0.0
 10
164.7069516990427
 20
137.5514169927936
 30
0.0
 10
164.5548962717247
 20
137.6059970781288
 30
0.0
 10
164.4721640092734
 20
137.6205325448643
 30
0.0
 10
164.3867822754316
 20
137.6205325448643
 30
0.0
  0
LINE
  5
AD
330
1F
100
AcDbEntity
  8
0
  6
Continuous
 62
     7
370
    15
100
AcDbLine
 10
164.9867822754
 20
77.1677651845
 30
0.0
 11
164.9867822754
 21
137.1358857621
 31
0.0
  0
SPLINE
  5
AE
330
1F
100
AcDbEntity
  8
0
  6
Continuous
 62
     7
370
    15
100
AcDbSpline
210
0.0
220
0.0
230
1.0
 70
     8
 71
     3
 72
    12
 73
     8
 74
     0
 42
0.000000001
 43
0.00000001
 40
0.0
 40
0.0
 40
0.0
 40
0.0
 40
0.2500000000000008
 40
0.2500000000000008
 40
0.5000000000000017
 40
0.5000000000000017
 40
1.0
 40
1.0
 40
1.0
 40
1.0
 10
164.3867822754316
 20
76.75162942639258
 30
0.0
 10
164.4823241855676
 20
76.75162942639258
 30
0.0
 10
164.5744691274304
 20
76.76776520987472
 30
0.0
 10
164.7307954040403
 20
76.82098481599806
 30
0.0
 10
164.7944635466603
 20
76.85713185620143
 30
0.0
 10
164.9433313920906
 20
76.97836974927334
 30
0.0
 10
164.9867822754316
 20
77.07283229493409
 30
0.0
 10
164.9867822754316
 20
77.16776518451245
 30
0.0
  0
LINE
  5
AF
330
1F
100
AcDbEntity
  8
0
  6
Continuous
 62
     7
370
    15
100
AcDbLine
 10
153.512058882
 20
137.6205325449
 30
0.0
 11
149.7117822754
 21
137.6205325449
 31
0.0
  0
LINE
  5
B0
330
1F
100
AcDbEntity
  8
0
  6
Continuous
 62
     7
370
    15
100
AcDbLine
 10
153.512058882
 20
76.7516294264
 30
0.0
 11
153.512058882
 21
137.6205325449
 31
0.0
  0
LINE
  5
B1
330
1F
100
AcDbEntity
  8
0
  6
Continuous
 62
     7
370
    15
100
AcDbLine
 10
149.7117822754
 20
76.7516294264
 30
0.0
 11
153.512058882
 21
76.7516294264
 31
0.0
  0
SPLINE
  5
B2
330
1F
100
AcDbEntity
  8
0
  6
Continuous
 62
     7
370
    15
100
AcDbSpline
210
0.0
220
0.0
230
1.0
 70
     8
 71
     3
 72
     8
 73
     4
 74
     0
 42
0.000000001
 43
0.00000001
 40
0.0
 40
0.0
 40
0.0
 40
0.0
 40
0.0012371390485494
 40
0.0012371390485494
 40
0.0012371390485494
 40
0.0012371390485494
 10
154.0692962684752
 20
136.8395077307283
 30
0.0
 10
153.8842702518741
 20
137.1001054820694
 30
0.0
 10
153.6985005483552
 20
137.3604397653751
 30
0.0
 10
153.512058882029
 20
137.6205325448643
 30
0.0
  0
SPLINE
  5
B3
330
1F
100
AcDbEntity
  8
0
  6
Continuous
 62
     7
370
    15
100
AcDbSpline
210
0.0
220
0.0
230
1.0
 70
     8
 71
     3
 72
     8
 73
     4
 74
     0
 42
0.000000001
 43
0.00000001
 40
0.0
 40
0.0
 40
0.0
 40
0.0
 40
1.0
 40
1.0
 40
1.0
 40
1.0
 10
155.1267822754316
 20
134.9350013399652
 30
0.0
 10
154.7749817209756
 20
135.5702164285222
 30
0.0
 10
154.4224442902319
 20
136.2050288915625
 30
0.0
 10
154.0692962684752
 20
136.8395077307283
 30
0.0
  0
SPLINE
  5
B4
330
1F
100
AcDbEntity
  8
0
  6
Continuous
 62
     7
370
    15
100
AcDbSpline
210
0.0
220
0.0
230
1.0
 70
     8
 71
     3
 72
     8
 73
     4
 74
     0
 42
0.000000001
 43
0.00000001
 40
0.0
 40
0.0
 40
0.0
 40
0.0
 40
1.0
 40
1.0
 40
1.0
 40
1.0
 10
155.1267822754317
 20
79.38767459573401
 30
0.0
 10
154.7411714422973
 20
78.69141128285578
 30
0.0
 10
154.3546707921598
 20
77.99562220303282
 30
0.0
 10
153.9674584621177
 20
77.30024219980261
 30
0.0
  0
SPLINE
  5
B5
330
1F
100
AcDbEntity
  8
0
  6
Continuous
 62
     7
370
    15
100
AcDbSpline
210
0.0
220
0.0
230
1.0
 70
     8
 71
     3
 72
     8
 73
     4
 74
     0
 42
0.000000001
 43
0.00000001
 40
0.0
 40
0.0
 40
0.0
 40
0.0
 40
0.0011858378198547
 40
0.0011858378198547
 40
0.0011858378198547
 40
0.0011858378198547
 10
153.512058882029
 20
76.75162942639257
 30
0.0
 10
153.6653448729552
 20
76.93418885560735
 30
0.0
 10
153.8171904756242
 20
77.1170539147392
 30
0.0
 10
153.9674584621177
 20
77.30024219980261
 30
0.0
  0
SPLINE
  5
B6
330
1F
100
AcDbEntity
  8
0
  6
Continuous
 62
     7
370
    15
100
AcDbSpline
210
0.0
220
0.0
230
1.0
 70
     8
 71
     3
 72
    12
 73
     8
 74
     0
 42
0.000000001
 43
0.00000001
 40
0.0
 40
0.0
 40
0.0
 40
0.0
 40
0.2500000000000015
 40
0.2500000000000015
 40
0.500000000000003
 40
0.500000000000003
 40
1.0
 40
1.0
 40
1.0
 40
1.0
 10
155.9267822754316
 20
80.19469190275655
 30
0.0
 10
155.8203223202449
 20
80.19469190275655
 30
0.0
 10
155.7120527139442
 20
80.17166530544054
 30
0.0
 10
155.5160123585575
 20
80.08467081646958
 30
0.0
 10
155.427550938462
 20
80.02100347664276
 30
0.0
 10
155.2088677366467
 20
79.78736764545211
 30
0.0
 10
155.1267822754316
 20
79.5727213945189
 30
0.0
 10
155.1267822754316
 20
79.3597552790889
 30
0.0
  0
LINE
  5
B7
330
1F
100
AcDbEntity
  8
0
  6
Continuous
 62
     7
370
    15
100
AcDbLine
 10
155.1267822754
 20
79.3597552791
 30
0.0
 11
155.1267822754
 21
134.9629206566
 31
0.0
  0
SPLINE
  5
B8
330
1F
100
AcDbEntity
  8
0
  6
Continuous
 62
     7
370
    15
100
AcDbSpline
210
0.0
220
0.0
230
1.0
 70
     8
 71
     3
 72
    12
 73
     8
 74
     0
 42
0.000000001
 43
0.00000001
 40
0.0
 40
0.0
 40
0.0
 40
0.0
 40
0.2500000000000015
 40
0.2500000000000015
 40
0.500000000000003
 40
0.500000000000003
 40
1.0
 40
1.0
 40
1.0
 40
1.0
 10
155.9267822754316
 20
134.1279840329427
 30
0.0
 10
155.8202895349353
 20
134.1279840329427
 30
0.0
 10
155.7131558319014
 20
134.150702664669
 30
0.0
 10
155.5171114783466
 20
134.2373378527415
 30
0.0
 10
155.4286421927632
 20
134.3006146572812
 30
0.0
 10
155.2078368938105
 20
134.5361943255921
 30
0.0
 10
155.1267822754316
 20
134.7499126050802
 30
0.0
 10
155.1267822754316
 20
134.9629206566103
 30
0.0
  0
SPLINE
  5
B9
330
1F
100
AcDbEntity
  8
0
  6
Continuous
 62
     7
370
    15
100
AcDbSpline
210
0.0
220
0.0
230
1.0
 70
     8
 71
     3
 72
    14
 73
    10
 74
     0
 42
0.000000001
 43
0.00000001
 40
0.0
 40
0.0
 40
0.0
 40
0.0
 40
0.25
 40
0.25
 40
0.5
 40
0.5
 40
0.75
 40
0.75
 40
1.0
 40
1.0
 40
1.0
 40
1.0
 10
158.9467822754316
 20
79.3597552790889
 30
0.0
 10
158.9467822754316
 20
79.46678463665654
 30
0.0
 10
158.9267945866201
 20
79.5738189664926
 30
0.0
 10
158.8495296981463
 20
79.77264354700833
 30
0.0
 10
158.7916037331587
 20
79.86546759919834
 30
0.0
 10
158.6461469011329
 20
80.02085199214069
 30
0.0
 10
158.5573360387698
 20
80.08485919043436
 30
0.0
 10
158.360601465957
 20
80.1719763047995
 30
0.0
 10
158.2542578912599
 20
80.19469190275655
 30
0.0
 10
158.1467822754316
 20
80.19469190275655
 30
0.0
  0
SPLINE
  5
BA
330
1F
100
AcDbEntity
  8
0
  6
Continuous
 62
     7
370
    15
100
AcDbSpline
210
0.0
220
0.0
230
1.0
 70
     8
 71
     3
 72
    12
 73
     8
 74
     0
 42
0.000000001
 43
0.00000001
 40
0.0
 40
0.0
 40
0.0
 40
0.0
 40
0.5
 40
0.5
 40
0.75
 40
0.75
 40
1.0
 40
1.0
 40
1.0
 40
1.0
 10
158.9467822754316
 20
134.9629206566103
 30
0.0
 10
158.9467822754316
 20
134.7497520454317
 30
0.0
 10
158.8642813465874
 20
134.5346719975643
 30
0.0
 10
158.6457015691899
 20
134.3014356319141
 30
0.0
 10
158.5567013679967
 20
134.2375265327885
 30
0.0
 10
158.3611239665481
 20
134.1509401779442
 30
0.0
 10
158.2547210354519
 20
134.1279840329427
 30
0.0
 10
158.1467822754316
 20
134.1279840329427
 30
0.0
  0
LINE
  5
BB
330
1F
100
AcDbEntity
  8
0
  6
Continuous
 62
     7
370
    15
100
AcDbLine
 10
158.9467822754
 20
79.3597552791
 30
0.0
 11
158.9467822754
 21
134.9629206566
 31
0.0
  0
LINE
  5
BC
330
1F
100
AcDbEntity
  8
0
  6
Continuous
 62
     7
370
    15
100
AcDbLine
 10
158.1467822754
 20
80.1946919028
 30
0.0
 11
155.9267822754
 21
80.1946919028
 31
0.0
  0
LINE
  5
BD
330
1F
100
AcDbEntity
  8
0
  6
Continuous
 62
     7
370
    15
100
AcDbLine
 10
158.1467822754
 20
134.1279840329
 30
0.0
 11
155.9267822754
 21
134.1279840329
 31
0.0
  0
SPLINE
  5
BE
330
1F
100
AcDbEntity
  8
0
  6
Continuous
 62
     7
370
    15
100
AcDbSpline
210
0.0
220
0.0
230
1.0
 70
    11
 71
     3
 72
    83
 73
    79
 74
     0
 42
0.000000001
 43
0.00000001
 40
0.0
 40
0.0
 40
0.0
 40
0.0
 40
0.0312499999999996
 40
0.0312499999999996
 40
0.0624999999999993
 40
0.0624999999999993
 40
0.0937499999999989
 40
0.0937499999999989
 40
0.1093749999999988
 40
0.1093749999999988
 40
0.1249999999999986
 40
0.1249999999999986
 40
0.1562499999999988
 40
0.1562499999999988
 40
0.187499999999999
 40
0.187499999999999
 40
0.2187499999999993
 40
0.2187499999999993
 40
0.2499999999999994
 40
0.2499999999999994
 40
0.2812499999999997
 40
0.2812499999999997
 40
0.3124999999999999
 40
0.3124999999999999
 40
0.3437500000000001
 40
0.3437500000000001
 40
0.3593750000000002
 40
0.3593750000000002
 40
0.3750000000000002
 40
0.3906250000000003
 40
0.3906250000000003
 40
0.4062500000000003
 40
0.4062500000000003
 40
0.4375000000000004
 40
0.4375000000000004
 40
0.4687500000000004
 40
0.4687500000000004
 40
0.5000000000000006
 40
0.5000000000000006
 40
0.5312500000000007
 40
0.5312500000000007
 40
0.5468750000000007
 40
0.5468750000000007
 40
0.5625000000000007
 40
0.5625000000000007
 40
0.5937500000000003
 40
0.5937500000000003
 40
0.625
 40
0.625
 40
0.6562499999999997
 40
0.6562499999999997
 40
0.6874999999999992
 40
0.6874999999999992
 40
0.7187499999999989
 40
0.7187499999999989
 40
0.7499999999999986
 40
0.7499999999999986
 40
0.7656249999999986
 40
0.7656249999999986
 40
0.7812499999999987
 40
0.7812499999999987
 40
0.8124999999999989
 40
0.8124999999999989
 40
0.8281249999999991
 40
0.8281249999999991
 40
0.8437499999999992
 40
0.8437499999999992
 40
0.8749999999999994
 40
0.8749999999999994
 40
0.8906249999999994
 40
0.8906249999999994
 40
0.9062499999999996
 40
0.9062499999999996
 40
0.9374999999999997
 40
0.9374999999999997
 40
0.9687499999999999
 40
0.9687499999999999
 40
1.0
 40
1.0
 40
1.0
 40
1.0
 10
187.696484599741
 20
111.3177497774032
 30
0.0
 10
187.9994094987775
 20
111.5641520318835
 30
0.0
 10
188.3208965153474
 20
111.7779334858436
 30
0.0
 10
188.9980169943713
 20
112.1462810369594
 30
0.0
 10
189.3562434777359
 20
112.3016054261238
 30
0.0
 10
190.0962187966545
 20
112.5479916748319
 30
0.0
 10
190.4728215824803
 20
112.6378649033654
 30
0.0
 10
191.0472987249329
 20
112.7248039907481
 30
0.0
 10
191.2403969553788
 20
112.7457505597631
 30
0.0
 10
191.6298679078432
 20
112.7712915670147
 30
0.0
 10
191.8266346270881
 20
112.7757956036833
 30
0.0
 10
192.4107678726676
 20
112.7644091094516
 30
0.0
 10
192.7955901478441
 20
112.7242203286526
 30
0.0
 10
193.5561413220057
 20
112.579186812576
 30
0.0
 10
193.9355293963413
 20
112.4727264549903
 30
0.0
 10
194.6610882013872
 20
112.1985638164812
 30
0.0
 10
195.0081331913428
 20
112.0315395393429
 30
0.0
 10
195.670236445246
 20
111.6359017003866
 30
0.0
 10
195.9882890551986
 20
111.4041847816436
 30
0.0
 10
196.5655922789968
 20
110.8915981048468
 30
0.0
 10
196.8270084273107
 20
110.6104253757884
 30
0.0
 10
197.2921440071815
 20
109.9947073751442
 30
0.0
 10
197.4967294945584
 20
109.6563470771067
 30
0.0
 10
197.8214446645441
 20
108.9556149762911
 30
0.0
 10
197.944884727211
 20
108.5901182279764
 30
0.0
 10
198.0669324929019
 20
108.017182232645
 30
0.0
 10
198.0968248810804
 20
107.821783272729
 30
0.0
 10
198.1331330673613
 20
107.4339823211906
 30
0.0
 10
198.1466970717813
 20
107.0463413003913
 30
0.0
 10
198.1153184450258
 20
106.6590164131061
 30
0.0
 10
198.0610229482685
 20
106.2718525990938
 30
0.0
 10
198.0221771478045
 20
106.0781659035711
 30
0.0
 10
197.8746086105984
 20
105.5127106802445
 30
0.0
 10
197.7346681810783
 20
105.1510841615792
 30
0.0
 10
197.3748770272262
 20
104.4571239591744
 30
0.0
 10
197.1585414165857
 20
104.1325682044864
 30
0.0
 10
196.6667256769189
 20
103.535081970284
 30
0.0
 10
196.3870908195934
 20
103.2581690845212
 30
0.0
 10
195.7871590490417
 20
102.7680598101012
 30
0.0
 10
195.4661004283817
 20
102.552882867841
 30
0.0
 10
194.9538435257356
 20
102.2729885642697
 30
0.0
 10
194.7774564668848
 20
102.1867644791453
 30
0.0
 10
194.4208237926955
 20
102.031630408774
 30
0.0
 10
194.2398632776909
 20
101.9622787263133
 30
0.0
 10
193.6892625788232
 20
101.7780822774218
 30
0.0
 10
193.3119676559278
 20
101.6868895462451
 30
0.0
 10
192.5364295124788
 20
101.5687693132697
 30
0.0
 10
192.1478841732377
 20
101.5434369702114
 30
0.0
 10
191.3732569856556
 20
101.5575991981208
 30
0.0
 10
190.98540680028
 20
101.5972019892642
 30
0.0
 10
190.21548240645
 20
101.7436966870741
 30
0.0
 10
189.8425151705779
 20
101.8486562570422
 30
0.0
 10
189.1199595441218
 20
102.1208914382021
 30
0.0
 10
188.7683924808026
 20
102.2893192798487
 30
0.0
 10
188.099215283075
 20
102.6892796296735
 30
0.0
 10
187.7879117234292
 20
102.9165486799089
 30
0.0
 10
187.3561844187651
 20
103.2992849512575
 30
0.0
 10
187.2181880146152
 20
103.4338849310353
 30
0.0
 10
186.9546347844997
 20
103.7179538390295
 30
0.0
 10
186.8283679731738
 20
103.8684488540977
 30
0.0
 10
186.4771625220037
 20
104.3341177301111
 30
0.0
 10
186.2781490035858
 20
104.6639716499991
 30
0.0
 10
186.0343795902209
 20
105.1893087495882
 30
0.0
 10
185.9623158595991
 20
105.3695506482889
 30
0.0
 10
185.837888434262
 20
105.7410674800742
 30
0.0
 10
185.7861816036578
 20
105.9308653552643
 30
0.0
 10
185.6654631273476
 20
106.5012058841312
 30
0.0
 10
185.6289685211573
 20
106.8870188159812
 30
0.0
 10
185.6427534831113
 20
107.4744567754951
 30
0.0
 10
185.6590692764616
 20
107.6715756114629
 30
0.0
 10
185.7138066002778
 20
108.0577172954203
 30
0.0
 10
185.7522162370864
 20
108.2481552755835
 30
0.0
 10
185.8996818950576
 20
108.8117968832906
 30
0.0
 10
186.0431990489596
 20
109.1811791012576
 30
0.0
 10
186.4020211346605
 20
109.8706656631633
 30
0.0
 10
186.6169817504346
 20
110.1933454106427
 30
0.0
 10
187.1151427780247
 20
110.7968059084814
 30
0.0
 10
187.3935597007045
 20
111.0713475229229
 30
0.0
 10
187.696484599741
 20
111.3177497774032
 30
0.0
  0
LINE
  5
BF
330
1F
100
AcDbEntity
  8
0
  6
Continuous
 62
     7
370
    15
100
AcDbLine
 10
204.4367822754
 20
107.1613379678
 30
0.0
 11
204.4367822754
 21
82.1613379678
 31
0.0
  0
LINE
  5
C0
330
1F
100
AcDbEntity
  8
0
  6
Continuous
 62
     7
370
    15
100
AcDbLine
 10
204.4367822754
 20
132.1613379678
 30
0.0
 11
204.4367822754
 21
107.1613379678
 31
0.0
  0
LINE
  5
C1
330
1F
100
AcDbEntity
  8
0
  6
Continuous
 62
     7
370
    15
100
AcDbLine
 10
204.9367822754
 20
107.1613379678
 30
0.0
 11
204.9367822754
 21
82.6613379678
 31
0.0
  0
LINE
  5
C2
330
1F
100
AcDbEntity
  8
0
  6
Continuous
 62
     7
370
    15
100
AcDbLine
 10
204.9367822754
 20
131.6613379678
 30
0.0
 11
204.9367822754
 21
107.1613379678
 31
0.0
  0
LINE
  5
C3
330
1F
100
AcDbEntity
  8
0
  6
Continuous
 62
     7
370
    15
100
AcDbLine
 10
180.9367822754
 20
83.1613379678
 30
0.0
 11
180.9367822754
 21
131.1613379678
 31
0.0
  0
LINE
  5
C4
330
1F
100
AcDbEntity
  8
0
  6
Continuous
 62
     7
370
    15
100
AcDbLine
 10
148.9353114922
 20
84.7613379678
 30
0.0
 11
148.9508142832
 21
84.7613379678
 31
0.0
  0
SPLINE
  5
C5
330
1F
100
AcDbEntity
  8
0
  6
Continuous
 62
     7
370
    15
100
AcDbSpline
210
0.0
220
0.0
230
1.0
 70
    24
 71
     3
 72
    10
 73
     6
 74
     0
 42
0.000000001
 43
0.00000001
 40
0.0
 40
0.0
 40
0.0
 40
0.0
 40
0.5
 40
0.5
 40
1.0
 40
1.0
 40
1.0
 40
1.0
 10
164.9867822754316
 20
84.76133796784963
 30
0.0
 10
164.9867822754316
 20
84.76133796784963
 30
0.0
 10
165.0335320348903
 20
84.76133796784963
 30
0.0
 10
165.1224250909748
 20
84.76133796784963
 30
0.0
 10
165.1632583916982
 20
84.76133796784963
 30
0.0
 10
165.1632554165953
 20
84.76133796784963
 30
0.0
  0
LINE
  5
C6
330
1F
100
AcDbEntity
  8
0
  6
Continuous
 62
     7
370
    15
100
AcDbLine
 10
145.9367822754
 20
84.9363379678
 30
0.0
 11
145.9367822754
 21
129.3863379678
 31
0.0
  0
LINE
  5
C7
330
1F
100
AcDbEntity
  8
0
  6
Continuous
 62
     7
370
    15
100
AcDbLine
 10
77.6867822754
 20
95.7542073708
 30
0.0
 11
77.6867822754
 21
118.568468564
 31
0.0
  0
CIRCLE
  5
C8
330
1F
100
AcDbEntity
  8
0
  6
HIDDEN
 62
     7
370
     0
100
AcDbCircle
 10
191.8867822754
 20
107.1613379678
 30
0.0
 40
3.680384757729357
  0
CIRCLE
  5
C9
330
1F
100
AcDbEntity
  8
0
  6
HIDDEN
 62
     7
370
     0
100
AcDbCircle
 10
191.8867822754
 20
107.1613379678
 30
0.0
 40
3.38038475772936
  0
SPLINE
  5
CA
330
1F
100
AcDbEntity
  8
0
  6
HIDDEN
 62
     7
370
     0
100
AcDbSpline
210
0.0
220
0.0
230
1.0
 70
     8
 71
     3
 72
    16
 73
    12
 74
     0
 42
0.000000001
 43
0.00000001
 40
0.0
 40
0.0
 40
0.0
 40
0.0
 40
0.2500000000000037
 40
0.2500000000000037
 40
0.5000000000000073
 40
0.5000000000000073
 40
0.6250000000000054
 40
0.6250000000000054
 40
0.7500000000000037
 40
0.7500000000000037
 40
1.0
 40
1.0
 40
1.0
 40
1.0
 10
204.9367822754316
 20
120.2298144255482
 30
0.0
 10
204.9367822754316
 20
120.1402940336453
 30
0.0
 10
204.9315547685557
 20
120.0489909254751
 30
0.0
 10
204.9022829328449
 20
119.8599685909629
 30
0.0
 10
204.8785394092486
 20
119.7601233395267
 30
0.0
 10
204.8102303484106
 20
119.6199360544733
 30
0.0
 10
204.7813595067529
 20
119.5754988255386
 30
0.0
 10
204.7149084631584
 20
119.5056104972213
 30
0.0
 10
204.6771014466436
 20
119.4802103940203
 30
0.0
 10
204.5668792284385
 20
119.4353880125246
 30
0.0
 10
204.4988689792554
 20
119.4412304534895
 30
0.0
 10
204.4367822754147
 20
119.4574355080337
 30
0.0
  0
SPLINE
  5
CB
330
1F
100
AcDbEntity
  8
0
  6
HIDDEN
 62
     7
370
     0
100
AcDbSpline
210
0.0
220
0.0
230
1.0
 70
     8
 71
     3
 72
     8
 73
     4
 74
     0
 42
0.000000001
 43
0.00000001
 40
0.0
 40
0.0
 40
0.0
 40
0.0
 40
1.0
 40
1.0
 40
1.0
 40
1.0
 10
204.4367822754147
 20
119.4574355080337
 30
0.0
 10
204.3505388906074
 20
119.3987786638872
 30
0.0
 10
204.2471595821884
 20
119.3587058279176
 30
0.0
 10
204.1367822754316
 20
119.3587058279176
 30
0.0
  0
SPLINE
  5
CC
330
1F
100
AcDbEntity
  8
0
  6
HIDDEN
 62
     7
370
     0
100
AcDbSpline
210
0.0
220
0.0
230
1.0
 70
     8
 71
     3
 72
     8
 73
     4
 74
     0
 42
0.000000001
 43
0.00000001
 40
0.0
 40
0.0
 40
0.0
 40
0.0
 40
1.0
 40
1.0
 40
1.0
 40
1.0
 10
204.4367822754479
 20
94.86524042764295
 30
0.0
 10
204.350538890633
 20
94.92389727180206
 30
0.0
 10
204.2471595822026
 20
94.96397010778165
 30
0.0
 10
204.1367822754316
 20
94.96397010778165
 30
0.0
  0
SPLINE
  5
CD
330
1F
100
AcDbEntity
  8
0
  6
HIDDEN
 62
     7
370
     0
100
AcDbSpline
210
0.0
220
0.0
230
1.0
 70
     8
 71
     3
 72
    16
 73
    12
 74
     0
 42
0.000000001
 43
0.00000001
 40
0.0
 40
0.0
 40
0.0
 40
0.0
 40
0.2500000000000018
 40
0.2500000000000018
 40
0.3750000000000028
 40
0.3750000000000028
 40
0.5000000000000037
 40
0.5000000000000037
 40
0.7500000000000018
 40
0.7500000000000018
 40
1.0
 40
1.0
 40
1.0
 40
1.0
 10
204.4367822754378
 20
94.86524042764599
 30
0.0
 10
204.4988554248221
 20
94.88144202203506
 30
0.0
 10
204.5669169822165
 20
94.88726984514703
 30
0.0
 10
204.6770636641882
 20
94.84248689891619
 30
0.0
 10
204.7144924311257
 20
94.81739034333772
 30
0.0
 10
204.7809028462593
 20
94.74777809964428
 30
0.0
 10
204.8098968623656
 20
94.7033320042863
 30
0.0
 10
204.8784955546884
 20
94.56283906942916
 30
0.0
 10
204.9020346255015
 20
94.4638000583733
 30
0.0
 10
204.93143516902
 20
94.27496627160501
 30
0.0
 10
204.9367822754316
 20
94.1824561658101
 30
0.0
 10
204.9367822754316
 20
94.09286268989574
 30
0.0
  0
LINE
  5
CE
330
1F
100
AcDbEntity
  8
0
  6
HIDDEN
 62
     7
370
     0
100
AcDbLine
 10
174.4367822754
 20
107.1613379678
 30
0.0
 11
174.4367822754
 21
93.6613379678
 31
0.0
  0
LINE
  5
CF
330
1F
100
AcDbEntity
  8
0
  6
HIDDEN
 62
     7
370
     0
100
AcDbLine
 10
174.4367822754
 20
120.6613379678
 30
0.0
 11
174.4367822754
 21
107.1613379678
 31
0.0
  0
LINE
  5
D0
330
1F
100
AcDbEntity
  8
0
  6
HIDDEN
 62
     7
370
     0
100
AcDbLine
 10
179.3028076792
 20
107.1613379678
 30
0.0
 11
179.3028076792
 21
93.1613379678
 31
0.0
  0
LINE
  5
D1
330
1F
100
AcDbEntity
  8
0
  6
HIDDEN
 62
     7
370
     0
100
AcDbLine
 10
179.3028076792
 20
121.1613379678
 30
0.0
 11
179.3028076792
 21
107.1613379678
 31
0.0
  0
LINE
  5
D2
330
1F
100
AcDbEntity
  8
0
  6
HIDDEN
 62
     7
370
     0
100
AcDbLine
 10
191.3367822754
 20
119.3587058279
 30
0.0
 11
204.1367822754
 21
119.3587058279
 31
0.0
  0
LINE
  5
D3
330
1F
100
AcDbEntity
  8
0
  6
HIDDEN
 62
     7
370
     0
100
AcDbLine
 10
191.3367822754
 20
94.9639701078
 30
0.0
 11
204.1367822754
 21
94.9639701078
 31
0.0
  0
LINE
  5
D4
330
1F
100
AcDbEntity
  8
0
  6
HIDDEN
 62
     7
370
     0
100
AcDbLine
 10
149.1117822754
 20
131.9613379678
 30
0.0
 11
149.7804114255
 21
131.9613379678
 31
0.0
  0
ELLIPSE
  5
D5
330
1F
100
AcDbEntity
  8
0
  6
HIDDEN
 62
     7
370
     0
100
AcDbEllipse
 10
149.7804114255
 20
132.7613379678
 30
0.0
 11
0.0
 21
0.7999999999999829
 31
0.0
210
0.0
220
0.0
230
1.0
 40
0.4142135624
 41
3.141592653589793
 42
4.712388980384695
  0
LINE
  5
D6
330
1F
100
AcDbEntity
  8
0
  6
HIDDEN
 62
     7
370
     0
100
AcDbLine
 10
149.7804114255
 20
84.7613379678
 30
0.0
 11
149.1117822754
 21
84.7613379678
 31
0.0
  0
ELLIPSE
  5
D7
330
1F
100
AcDbEntity
  8
0
  6
HIDDEN
 62
     7
370
     0
100
AcDbEllipse
 10
149.7804114255
 20
83.9613379678
 30
0.0
 11
0.0
 21
0.7999999999999972
 31
0.0
210
0.0
220
0.0
230
1.0
 40
0.4142135624
 41
4.712388980384677
 42
6.283185307179586
  0
LINE
  5
D8
330
1F
100
AcDbEntity
  8
0
  6
HIDDEN
 62
     7
370
     0
100
AcDbLine
 10
150.1117822754
 20
77.3002421998
 30
0.0
 11
149.3286979408
 21
76.8468506889
 31
0.0
  0
LINE
  5
D9
330
1F
100
AcDbEntity
  8
0
  6
HIDDEN
 62
     7
370
     0
100
AcDbLine
 10
149.4007751116
 20
137.5505148945
 30
0.0
 11
150.1117822754
 21
136.8395077307
 31
0.0
  0
SPLINE
  5
DA
330
1F
100
AcDbEntity
  8
0
  6
HIDDEN
 62
     7
370
     0
100
AcDbSpline
210
0.0
220
0.0
230
1.0
 70
     8
 71
     3
 72
    14
 73
    10
 74
     0
 42
0.000000001
 43
0.00000001
 40
0.0
 40
0.0
 40
0.0
 40
0.0
 40
0.0746618067444324
 40
0.240634841696214
 40
0.4015158956308864
 40
0.5670617176468978
 40
0.7280026561331252
 40
0.8935907796943616
 40
1.0
 40
1.0
 40
1.0
 40
1.0
 10
204.3777779024846
 20
87.27631605342933
 30
0.0
 10
204.3762869079216
 20
87.27495079078976
 30
0.0
 10
204.3714814356692
 20
87.27055055225449
 30
0.0
 10
204.3718923477192
 20
87.39009526755319
 30
0.0
 10
204.3805941695725
 20
87.62772462689318
 30
0.0
 10
204.3979762673982
 20
87.97707189308325
 30
0.0
 10
204.4188928912529
 20
88.42752950570707
 30
0.0
 10
204.4340936424325
 20
88.89750297533925
 30
0.0
 10
204.4360262222006
 20
89.2309059812602
 30
0.0
 10
204.4367822748274
 20
89.36133796784961
 30
0.0
  0
LINE
  5
DB
330
1F
100
AcDbEntity
  8
0
  6
HIDDEN
 62
     7
370
     0
100
AcDbLine
 10
164.9867822754
 20
84.7613379678
 30
0.0
 11
149.7804114255
 21
84.7613379678
 31
0.0
  0
LINE
  5
DC
330
1F
100
AcDbEntity
  8
0
  6
HIDDEN
 62
     7
370
     0
100
AcDbLine
 10
153.9674584621
 20
77.3002421998
 30
0.0
 11
150.1117822754
 21
77.3002421998
 31
0.0
  0
LINE
  5
DD
330
1F
100
AcDbEntity
  8
0
  6
HIDDEN
 62
     7
370
     0
100
AcDbLine
 10
164.9867822754
 20
77.3002421998
 30
0.0
 11
160.1061060887
 21
77.3002421998
 31
0.0
  0
LINE
  5
DE
330
1F
100
AcDbEntity
  8
0
  6
HIDDEN
 62
     7
370
     0
100
AcDbLine
 10
150.1117822754
 20
77.3002421998
 30
0.0
 11
150.1117822754
 21
83.9613379678
 31
0.0
  0
LINE
  5
DF
330
1F
100
AcDbEntity
  8
0
  6
HIDDEN
 62
     7
370
     0
100
AcDbLine
 10
150.1117822754
 20
136.8395077307
 30
0.0
 11
154.0692962685
 21
136.8395077307
 31
0.0
  0
LINE
  5
E0
330
1F
100
AcDbEntity
  8
0
  6
HIDDEN
 62
     7
370
     0
100
AcDbLine
 10
160.0042682824
 20
136.8395077307
 30
0.0
 11
164.9867822754
 21
136.8395077307
 31
0.0
  0
LINE
  5
E1
330
1F
100
AcDbEntity
  8
0
  6
HIDDEN
 62
     7
370
     0
100
AcDbLine
 10
150.1117822754
 20
136.8395077307
 30
0.0
 11
150.1117822754
 21
132.7613379678
 31
0.0
  0
LINE
  5
E2
330
1F
100
AcDbEntity
  8
0
  6
HIDDEN
 62
     7
370
     0
100
AcDbLine
 10
149.7804114255
 20
131.9613379678
 30
0.0
 11
164.9867822754
 21
131.9613379678
 31
0.0
  0
LINE
  5
E3
330
1F
100
AcDbEntity
  8
0
  6
HIDDEN
 62
     7
370
     0
100
AcDbLine
 10
83.3126004198
 20
100.4113379678
 30
0.0
 11
83.3126004198
 21
113.9113379678
 31
0.0
  0
LINE
  5
E4
330
1F
100
AcDbEntity
  8
0
  6
HIDDEN
 62
     7
370
     0
100
AcDbLine
 10
191.3367822754
 20
89.3613379678
 30
0.0
 11
191.3367822754
 21
94.9639701078
 31
0.0
  0
LINE
  5
E5
330
1F
100
AcDbEntity
  8
0
  6
HIDDEN
 62
     7
370
     0
100
AcDbLine
 10
191.3367822754
 20
124.9613379678
 30
0.0
 11
191.3367822754
 21
119.3587058279
 31
0.0
  0
LINE
  5
E6
330
1F
100
AcDbEntity
  8
0
  6
HIDDEN
 62
     7
370
     0
100
AcDbLine
 10
120.6867822754
 20
100.4113379678
 30
0.0
 11
120.6867822754
 21
113.9113379678
 31
0.0
  0
LINE
  5
E7
330
1F
100
AcDbEntity
  8
0
  6
HIDDEN
 62
     7
370
     0
100
AcDbLine
 10
121.6782022968
 20
102.0613379678
 30
0.0
 11
121.6782022968
 21
112.2613379678
 31
0.0
  0
LINE
  5
E8
330
1F
100
AcDbEntity
  8
0
  6
HIDDEN
 62
     7
370
     0
100
AcDbLine
 10
152.2867822754
 20
131.5613379678
 30
0.0
 11
161.7867822754
 21
131.5613379678
 31
0.0
  0
LINE
  5
E9
330
1F
100
AcDbEntity
  8
0
  6
HIDDEN
 62
     7
370
     0
100
AcDbLine
 10
191.3367822754
 20
87.2613379678
 30
0.0
 11
191.3367822754
 21
89.3613379678
 31
0.0
  0
LINE
  5
EA
330
1F
100
AcDbEntity
  8
0
  6
HIDDEN
 62
     7
370
     0
100
AcDbLine
 10
191.3367822754
 20
127.0613379678
 30
0.0
 11
191.3367822754
 21
124.9613379678
 31
0.0
  0
ARC
  5
EB
330
1F
100
AcDbEntity
  8
0
  6
HIDDEN
 62
     7
370
     0
100
AcDbCircle
 10
175.4367822754
 20
120.6613379678
 30
0.0
 40
1.0
100
AcDbArc
 50
0.0
 51
180.0
  0
ARC
  5
EC
330
1F
100
AcDbEntity
  8
0
  6
HIDDEN
 62
     7
370
     0
100
AcDbCircle
 10
175.4367822754
 20
120.6613379678
 30
0.0
 40
1.0
100
AcDbArc
 50
180.0
 51
0.0
  0
ARC
  5
ED
330
1F
100
AcDbEntity
  8
0
  6
HIDDEN
 62
     7
370
     0
100
AcDbCircle
 10
175.4367822754
 20
93.6613379678
 30
0.0
 40
1.0
100
AcDbArc
 50
180.0
 51
0.0
  0
ARC
  5
EE
330
1F
100
AcDbEntity
  8
0
  6
HIDDEN
 62
     7
370
     0
100
AcDbCircle
 10
175.4367822754
 20
93.6613379678
 30
0.0
 40
1.0
100
AcDbArc
 50
0.0
 51
180.0
  0
LINE
  5
EF
330
1F
100
AcDbEntity
  8
0
  6
HIDDEN
 62
     7
370
     0
100
AcDbLine
 10
174.4367822754
 20
120.6613379678
 30
0.0
 11
174.4367822754
 21
93.6613379678
 31
0.0
  0
LINE
  5
F0
330
1F
100
AcDbEntity
  8
0
  6
HIDDEN
 62
     7
370
     0
100
AcDbLine
 10
176.4367822754
 20
93.6613379678
 30
0.0
 11
176.4367822754
 21
120.6613379678
 31
0.0
  0
LINE
  5
F1
330
1F
100
AcDbEntity
  8
0
  6
HIDDEN
 62
     7
370
     0
100
AcDbLine
 10
177.3051297778
 20
121.6613379678
 30
0.0
 11
175.4367822754
 21
121.6613379678
 31
0.0
  0
LINE
  5
F2
330
1F
100
AcDbEntity
  8
0
  6
HIDDEN
 62
     7
370
     0
100
AcDbLine
 10
175.4367822754
 20
92.6613379678
 30
0.0
 11
177.3051297778
 21
92.6613379678
 31
0.0
  0
ARC
  5
F3
330
1F
100
AcDbEntity
  8
0
  6
HIDDEN
 62
     7
370
     0
100
AcDbCircle
 10
177.3051297778
 20
120.6613379678
 30
0.0
 40
1.0
100
AcDbArc
 50
75.0
 51
90.0
  0
ARC
  5
F4
330
1F
100
AcDbEntity
  8
0
  6
HIDDEN
 62
     7
370
     0
100
AcDbCircle
 10
177.3051297778
 20
93.6613379678
 30
0.0
 40
1.0
100
AcDbArc
 50
270.0
 51
285.0
  0
ARC
  5
F5
330
1F
100
AcDbEntity
  8
0
  6
HIDDEN
 62
     7
370
     0
100
AcDbCircle
 10
175.4367822754
 20
120.6613379678
 30
0.0
 40
1.0
100
AcDbArc
 50
90.0
 51
180.0
  0
ARC
  5
F6
330
1F
100
AcDbEntity
  8
0
  6
HIDDEN
 62
     7
370
     0
100
AcDbCircle
 10
175.4367822754
 20
93.6613379678
 30
0.0
 40
1.0
100
AcDbArc
 50
180.0
 51
270.0
  0
LINE
  5
F7
330
1F
100
AcDbEntity
  8
0
  6
HIDDEN
 62
     7
370
     0
100
AcDbLine
 10
177.5639488229
 20
92.6954121416
 30
0.0
 11
179.3028076792
 21
93.1613379678
 31
0.0
  0
LINE
  5
F8
330
1F
100
AcDbEntity
  8
0
  6
HIDDEN
 62
     7
370
     0
100
AcDbLine
 10
179.3028076792
 20
121.1613379678
 30
0.0
 11
177.5639488229
 21
121.6272637941
 31
0.0
  0
LINE
  5
F9
330
1F
100
AcDbEntity
  8
0
  6
HIDDEN
 62
     7
370
     0
100
AcDbLine
 10
191.3367822754
 20
121.1613379678
 30
0.0
 11
179.3028076792
 21
121.1613379678
 31
0.0
  0
LINE
  5
FA
330
1F
100
AcDbEntity
  8
0
  6
HIDDEN
 62
     7
370
     0
100
AcDbLine
 10
179.3028076792
 20
93.1613379678
 30
0.0
 11
191.3367822754
 21
93.1613379678
 31
0.0
  0
ARC
  5
FB
330
1F
100
AcDbEntity
  8
0
  6
HIDDEN
 62
     7
370
     0
100
AcDbCircle
 10
78.4867822754
 20
98.1463379678
 30
0.0
 40
0.7999999999999972
100
AcDbArc
 50
90.0
 51
180.0
  0
ARC
  5
FC
330
1F
100
AcDbEntity
  8
0
  6
HIDDEN
 62
     7
370
     0
100
AcDbCircle
 10
78.4867822754
 20
116.1763379678
 30
0.0
 40
0.7999999999999972
100
AcDbArc
 50
180.0
 51
270.0
  0
LINE
  5
FD
330
1F
100
AcDbEntity
  8
0
  6
HIDDEN
 62
     7
370
     0
100
AcDbLine
 10
78.4867822754
 20
98.9463379678
 30
0.0
 11
82.2358421678
 21
98.9463379678
 31
0.0
  0
LINE
  5
FE
330
1F
100
AcDbEntity
  8
0
  6
HIDDEN
 62
     7
370
     0
100
AcDbLine
 10
82.2358421678
 20
115.3763379678
 30
0.0
 11
78.4867822754
 21
115.3763379678
 31
0.0
  0
ARC
  5
FF
330
1F
100
AcDbEntity
  8
0
  6
HIDDEN
 62
     7
370
     0
100
AcDbCircle
 10
82.2358421678
 20
99.3463379678
 30
0.0
 40
0.3999999999999915
100
AcDbArc
 50
270.0
 51
330.0
  0
ARC
  5
100
330
1F
100
AcDbEntity
  8
0
  6
HIDDEN
 62
     7
370
     0
100
AcDbCircle
 10
82.2358421678
 20
114.9763379678
 30
0.0
 40
0.4000000000000057
100
AcDbArc
 50
30.0
 51
90.0
  0
LINE
  5
101
330
1F
100
AcDbEntity
  8
0
  6
HIDDEN
 62
     7
370
     0
100
AcDbLine
 10
204.9367822754
 20
127.6205726359
 30
0.0
 11
204.3668316578
 21
127.05064524
 31
0.0
  0
LINE
  5
102
330
1F
100
AcDbEntity
  8
0
  6
HIDDEN
 62
     7
370
     0
100
AcDbLine
 10
204.36714324
 20
87.2717164329
 30
0.0
 11
204.9367822754
 21
86.702101868
 31
0.0
  0
LINE
  5
103
330
1F
100
AcDbEntity
  8
0
  6
HIDDEN
 62
     7
370
     0
100
AcDbLine
 10
82.5822523293
 20
99.1463379678
 30
0.0
 11
83.3126004198
 21
100.4113379678
 31
0.0
  0
LINE
  5
104
330
1F
100
AcDbEntity
  8
0
  6
HIDDEN
 62
     7
370
     0
100
AcDbLine
 10
83.3126004198
 20
113.9113379678
 30
0.0
 11
82.5822523293
 21
115.1763379678
 31
0.0
  0
LINE
  5
105
330
1F
100
AcDbEntity
  8
0
  6
HIDDEN
 62
     7
370
     0
100
AcDbLine
 10
83.3126004198
 20
100.4113379678
 30
0.0
 11
120.6867822754
 21
100.4113379678
 31
0.0
  0
LINE
  5
106
330
1F
100
AcDbEntity
  8
0
  6
HIDDEN
 62
     7
370
     0
100
AcDbLine
 10
120.6867822754
 20
113.9113379678
 30
0.0
 11
83.3126004198
 21
113.9113379678
 31
0.0
  0
LINE
  5
107
330
1F
100
AcDbEntity
  8
0
  6
HIDDEN
 62
     7
370
     0
100
AcDbLine
 10
120.6867822754
 20
100.4113379678
 30
0.0
 11
121.6782022968
 21
102.0613379678
 31
0.0
  0
LINE
  5
108
330
1F
100
AcDbEntity
  8
0
  6
HIDDEN
 62
     7
370
     0
100
AcDbLine
 10
121.6782022968
 20
112.2613379678
 30
0.0
 11
120.6867822754
 21
113.9113379678
 31
0.0
  0
LINE
  5
109
330
1F
100
AcDbEntity
  8
0
  6
HIDDEN
 62
     7
370
     0
100
AcDbLine
 10
121.6782022968
 20
102.0613379678
 30
0.0
 11
174.4367822754
 21
102.0613379678
 31
0.0
  0
LINE
  5
10A
330
1F
100
AcDbEntity
  8
0
  6
HIDDEN
 62
     7
370
     0
100
AcDbLine
 10
174.4367822754
 20
112.2613379678
 30
0.0
 11
121.6782022968
 21
112.2613379678
 31
0.0
  0
LINE
  5
10B
330
1F
100
AcDbEntity
  8
0
  6
HIDDEN
 62
     7
370
     0
100
AcDbLine
 10
152.2867822754
 20
131.5613379678
 30
0.0
 11
157.0367822754
 21
128.7072500275
 31
0.0
  0
LINE
  5
10C
330
1F
100
AcDbEntity
  8
0
  6
HIDDEN
 62
     7
370
     0
100
AcDbLine
 10
157.0367822754
 20
128.7072500275
 30
0.0
 11
161.7867822754
 21
131.5613379678
 31
0.0
  0
LINE
  5
10D
330
1F
100
AcDbEntity
  8
0
  6
HIDDEN
 62
     7
370
     0
100
AcDbLine
 10
152.2867822754
 20
131.9613379678
 30
0.0
 11
152.2867822754
 21
131.5613379678
 31
0.0
  0
LINE
  5
10E
330
1F
100
AcDbEntity
  8
0
  6
HIDDEN
 62
     7
370
     0
100
AcDbLine
 10
161.7867822754
 20
131.5613379678
 30
0.0
 11
161.7867822754
 21
131.9613379678
 31
0.0
  0
LINE
  5
10F
330
1F
100
AcDbEntity
  8
0
  6
HIDDEN
 62
     7
370
     0
100
AcDbLine
 10
191.3367822754
 20
87.2613379678
 30
0.0
 11
204.3786145602
 21
87.2613379678
 31
0.0
  0
LINE
  5
110
330
1F
100
AcDbEntity
  8
0
  6
HIDDEN
 62
     7
370
     0
100
AcDbLine
 10
204.3783191549
 20
127.0613379678
 30
0.0
 11
191.3367822754
 21
127.0613379678
 31
0.0
  0
DIMENSION
  5
111
330
1F
100
AcDbEntity
  8
VERMASSUNG
100
AcDbDimension
  2
_D
 10
70.0590677618
 20
138.9113379678
 30
0.0
 11
70.0590677618
 21
107.1613379678
 31
0.0
 70
   160
  1
CAT 40 %%c<>
 71
     2
 42
-1.0
  3
SLDDIMSTYLE0
100
AcDbAlignedDimension
 13
164.3867822754
 23
75.4113379678
 33
0.0
 14
164.3867822754
 24
138.9113379678
 34
0.0
 50
90.0
100
AcDbRotatedDimension
  0
DIMENSION
  5
11E
330
1F
100
AcDbEntity
  8
VERMASSUNG
100
AcDbDimension
  2
_D_1
 10
212.7315200596
 20
93.1613379678
 30
0.0
 11
212.7315200596
 21
107.1613379678
 31
0.0
 70
   160
  1
%%c<>
 71
     2
 42
-1.0
  3
SLDDIMSTYLE1
100
AcDbAlignedDimension
 13
191.3367822754
 23
121.1613379678
 33
0.0
 14
191.3367822754
 24
93.1613379678
 34
0.0
 50
90.0
100
AcDbRotatedDimension
  0
DIMENSION
  5
12A
330
1F
100
AcDbEntity
  8
VERMASSUNG
100
AcDbDimension
  2
_D_2
 10
204.9367822754
 20
152.6443144873
 30
0.0
 11
175.4367822754
 21
152.6443144873
 31
0.0
 70
   160
  1
<>
 71
     2
 42
-1.0
  3
SLDDIMSTYLE1
100
AcDbAlignedDimension
 13
145.9367822754
 23
129.3863379678
 33
0.0
 14
204.9367822754
 24
131.6613379678
 34
0.0
100
AcDbRotatedDimension
  0
DIMENSION
  5
134
330
1F
100
AcDbEntity
  8
VERMASSUNG
100
AcDbDimension
  2
_D_3
 10
204.9367822754
 20
146.6443144873
 30
0.0
 11
192.9367822754
 21
146.6443144873
 31
0.0
 70
   160
  1
(<>)
 71
     2
 42
-1.0
  3
SLDDIMSTYLE1
100
AcDbAlignedDimension
 13
180.9367822754
 23
131.1613379678
 33
0.0
 14
204.9367822754
 24
131.6613379678
 34
0.0
100
AcDbRotatedDimension
  0
DIMENSION
  5
140
330
1F
100
AcDbEntity
  8
VERMASSUNG
100
AcDbDimension
  2
_D_4
 10
204.9367822754
 20
158.6443144873
 30
0.0
 11
141.3117822754
 21
158.6443144873
 31
0.0
 70
   160
  1
(<>)
 71
     2
 42
-1.0
  3
SLDDIMSTYLE1
100
AcDbAlignedDimension
 13
77.6867822754
 23
118.5684685649
 33
0.0
 14
204.9367822754
 24
131.6613379678
 34
0.0
100
AcDbRotatedDimension
  0
DIMENSION
  5
14C
330
1F
100
AcDbEntity
  8
VERMASSUNG
100
AcDbDimension
  2
_D_5
 10
218.7315200596
 20
82.1613379678
 30
0.0
 11
218.7315200596
 21
107.1613379678
 31
0.0
 70
   160
  1
ST5 %%c<>
 71
     2
 42
-1.0
  3
SLDDIMSTYLE1
100
AcDbAlignedDimension
 13
204.4367822754
 23
132.1613379678
 33
0.0
 14
204.4367822754
 24
82.1613379678
 34
0.0
 50
90.0
100
AcDbRotatedDimension
  0
LINE
  5
158
330
1F
100
AcDbEntity
  8
VERMASSUNG
  6
CENTERX2
 62
     7
370
     0
100
AcDbLine
 10
75.6867822754
 20
107.1613379678
 30
0.0
 11
207.0059897985
 21
107.1613379678
 31
0.0
  0
LINE
  5
159
330
1F
100
AcDbEntity
  8
VERMASSUNG
  6
CENTERX2
 62
     7
370
     0
100
AcDbLine
 10
157.0367822754
 20
133.9613379678
 30
0.0
 11
157.0367822754
 21
126.7072500275
 31
0.0
  0
LINE
  5
15A
330
1F
100
AcDbEntity
  8
0
  6
Continuous
 62
     7
370
    15
100
AcDbLine
 10
276.4444644908
 20
39.6354390374
 30
0.0
 11
276.2676590713
 21
39.7375398112
 31
0.0
  0
LINE
  5
15B
330
1F
100
AcDbEntity
  8
0
  6
Continuous
 62
     7
370
    15
100
AcDbLine
 10
273.0851615207
 20
39.7375398112
 30
0.0
 11
272.9083561012
 21
39.6354390374
 31
0.0
  0
LINE
  5
15C
330
1F
100
AcDbEntity
  8
0
  6
Continuous
 62
     7
370
    15
100
AcDbLine
 10
277.176410296
 20
38.3088919412
 30
0.0
 11
277.176410296
 21
38.6150947457
 31
0.0
  0
LINE
  5
15D
330
1F
100
AcDbEntity
  8
0
  6
Continuous
 62
     7
370
    15
100
AcDbLine
 10
272.176410296
 20
38.6150947457
 30
0.0
 11
272.176410296
 21
38.3088919412
 31
0.0
  0
LINE
  5
15E
330
1F
100
AcDbEntity
  8
0
  6
Continuous
 62
     7
370
    15
100
AcDbLine
 10
279.1149419072
 20
15.8450586435
 30
0.0
 11
279.2916898713
 21
15.9471262436
 31
0.0
  0
LINE
  5
15F
330
1F
100
AcDbEntity
  8
0
  6
Continuous
 62
     7
370
    15
100
AcDbLine
 10
287.9523401128
 20
30.9494380202
 30
0.0
 11
287.9523401128
 21
31.1535400482
 31
0.0
  0
LINE
  5
160
330
1F
100
AcDbEntity
  8
0
  6
Continuous
 62
     7
370
    15
100
AcDbLine
 10
285.3629974269
 20
36.876600129
 30
0.0
 11
277.4080461386
 21
41.468895758
 31
0.0
  0
LINE
  5
161
330
1F
100
AcDbEntity
  8
0
  6
Continuous
 62
     7
370
    15
100
AcDbLine
 10
264.9090619806
 20
19.8176741985
 30
0.0
 11
272.864013269
 21
15.2253785695
 31
0.0
  0
SPLINE
  5
162
330
1F
100
AcDbEntity
  8
0
  6
Continuous
 62
     7
370
    15
100
AcDbSpline
210
0.0
220
0.0
230
1.0
 70
     8
 71
     3
 72
    24
 73
    20
 74
     0
 42
0.000000001
 43
0.00000001
 40
0.0
 40
0.0
 40
0.0
 40
0.0
 40
0.0090673127980335
 40
0.0748806143053934
 40
0.1407586739078142
 40
0.206654403336237
 40
0.2725321335390821
 40
0.3383547112098522
 40
0.4040908175726806
 40
0.4697109939960767
 40
0.535191933528568
 40
0.6005259101082849
 40
0.6657394869593345
 40
0.7309142405703539
 40
0.7961939734851757
 40
0.8619118374765111
 40
0.9285937713410395
 40
0.9968055689276248
 40
0.9999999999999999
 40
0.9999999999999999
 40
0.9999999999999999
 40
0.9999999999999999
 10
274.8463066507133
 20
26.36179627751571
 30
0.0
 10
274.8597688992822
 20
26.39785534405292
 30
0.0
 10
274.9709442237938
 20
26.69564203275874
 30
0.0
 10
275.222650318411
 20
27.25251732512402
 30
0.0
 10
275.6232102351027
 20
28.01660081277002
 30
0.0
 10
276.0793389778287
 20
28.75132721324676
 30
0.0
 10
276.580034408927
 20
29.4452475610478
 30
0.0
 10
277.1183064421185
 20
30.08755496941599
 30
0.0
 10
277.6851437643166
 20
30.66839447768836
 30
0.0
 10
278.2712911005267
 20
31.17901434202156
 30
0.0
 10
278.8669409513712
 20
31.61196021563889
 30
0.0
 10
279.4620685340661
 20
31.96132192653709
 30
0.0
 10
280.0466022667164
 20
32.22283523231501
 30
0.0
 10
280.610945689406
 20
32.39438779886382
 30
0.0
 10
281.1459261105135
 20
32.47472339875934
 30
0.0
 10
281.6467885749594
 20
32.46823453360201
 30
0.0
 10
282.1025411107921
 20
32.36360316635061
 30
0.0
 10
282.3970251733202
 20
32.25851282236857
 30
0.0
 10
282.5251479730894
 20
32.16227826431842
 30
0.0
 10
282.530879678297
 20
32.15797311239756
 30
0.0
  0
SPLINE
  5
163
330
1F
100
AcDbEntity
  8
0
  6
Continuous
 62
     7
370
    15
100
AcDbSpline
210
0.0
220
0.0
230
1.0
 70
     8
 71
     3
 72
    42
 73
    38
 74
     0
 42
0.000000001
 43
0.00000001
 40
0.0
 40
0.0
 40
0.0
 40
0.0
 40
0.0087519819100112
 40
0.0375315671740323
 40
0.0663158271195997
 40
0.0952354756300325
 40
0.1243868822219289
 40
0.1537985447842825
 40
0.1834397311275976
 40
0.2132475617737086
 40
0.2431549965457246
 40
0.2731078480999857
 40
0.3030654217896622
 40
0.3330071473519167
 40
0.3629262225260144
 40
0.3928218017173102
 40
0.4226964437205442
 40
0.4525545376626037
 40
0.4824014043058296
 40
0.5122428198854336
 40
0.5420847852658458
 40
0.5719319352078606
 40
0.6017899181569628
 40
0.631664935008622
 40
0.6615630391691344
 40
0.6914897988665141
 40
0.7214496238057585
 40
0.7514445244809352
 40
0.7814719812086698
 40
0.8115215653231367
 40
0.8415600886049408
 40
0.8715388983983142
 40
0.9013902222756612
 40
0.9310360392486448
 40
0.9604135608841211
 40
0.9895097747310321
 40
1.0
 40
1.0
 40
1.0
 40
1.0
 10
277.4370053736423
 20
41.43891967696666
 30
0.0
 10
277.3782619930237
 20
41.4772918945197
 30
0.0
 10
277.1263497794945
 20
41.64184541799779
 30
0.0
 10
276.6275466705363
 20
41.83897369656943
 30
0.0
 10
275.9485925364291
 20
42.02501508944727
 30
0.0
 10
275.2269587929413
 20
42.10752996813893
 30
0.0
 10
274.4724134715257
 20
42.09444047562567
 30
0.0
 10
273.6888133374123
 20
41.98296153454771
 30
0.0
 10
272.882809026444
 20
41.77395995626379
 30
0.0
 10
272.0614587175212
 20
41.46867437944869
 30
0.0
 10
271.2323816063893
 20
41.06984855401407
 30
0.0
 10
270.4032041015984
 20
40.58132278253042
 30
0.0
 10
269.5813145486358
 20
40.0078532916687
 30
0.0
 10
268.7737484855145
 20
39.35486440513584
 30
0.0
 10
267.987177403334
 20
38.62828236023941
 30
0.0
 10
267.2279891300163
 20
37.83449461911228
 30
0.0
 10
266.502328767225
 20
36.98034296008092
 30
0.0
 10
265.8160812519032
 20
36.07308988778822
 30
0.0
 10
265.1748400141637
 20
35.1203776707069
 30
0.0
 10
264.5838686564047
 20
34.13017809498789
 30
0.0
 10
264.0480700347287
 20
33.11075072942752
 30
0.0
 10
263.5719383788636
 20
32.07056872460787
 30
0.0
 10
263.1595213048219
 20
31.01824115658527
 30
0.0
 10
262.814389758205
 20
29.9624219845263
 30
0.0
 10
262.5396292541535
 20
28.91175064268662
 30
0.0
 10
262.3378354222165
 20
27.87479495877868
 30
0.0
 10
262.2111151630322
 20
26.86000039699023
 30
0.0
 10
262.1610911073304
 20
25.8756580481109
 30
0.0
 10
262.1889040870009
 20
24.92990878783544
 30
0.0
 10
262.2951641233714
 20
24.03086223986745
 30
0.0
 10
262.4798627388038
 20
23.18667597644976
 30
0.0
 10
262.7420065814708
 20
22.40531146816124
 30
0.0
 10
263.0799280575645
 20
21.69529065317547
 30
0.0
 10
263.4889287534978
 20
21.06194412939801
 30
0.0
 10
263.9689428392143
 20
20.51969805762552
 30
0.0
 10
264.3854141310545
 20
20.14439353545088
 30
0.0
 10
264.6586594796383
 20
19.98336014278913
 30
0.0
 10
264.731068246993
 20
19.9406870304159
 30
0.0
  0
SPLINE
  5
164
330
1F
100
AcDbEntity
  8
0
  6
Continuous
 62
     7
370
    15
100
AcDbSpline
210
0.0
220
0.0
230
1.0
 70
     8
 71
     3
 72
    11
 73
     7
 74
     0
 42
0.000000001
 43
0.00000001
 40
0.0
 40
0.0
 40
0.0
 40
0.0
 40
0.098384688244611
 40
0.516523367847012
 40
0.9340287750426238
 40
1.0
 40
1.0
 40
1.0
 40
1.0
 10
275.8103513569056
 20
43.97629192874214
 30
0.0
 10
275.7903668045964
 20
44.04610683536712
 30
0.0
 10
275.6854471423219
 20
44.41263775942919
 30
0.0
 10
275.4392189695545
 20
45.02521178184417
 30
0.0
 10
275.1751703044127
 20
45.5924920069233
 30
0.0
 10
274.9962861633503
 20
45.85562513865636
 30
0.0
 10
274.9718771120612
 20
45.89153011083669
 30
0.0
  0
LINE
  5
165
330
1F
100
AcDbEntity
  8
0
  6
Continuous
 62
     7
370
    15
100
AcDbLine
 10
272.890546995
 20
47.9738012592
 30
0.0
 11
271.5381074808
 21
48.7545479721
 31
0.0
  0
LINE
  5
166
330
1F
100
AcDbEntity
  8
0
  6
Continuous
 62
     7
370
    15
100
AcDbLine
 10
259.8221576652
 20
24.3563851521
 30
0.0
 11
262.6521306619
 21
22.7226765156
 31
0.0
  0
LINE
  5
167
330
1F
100
AcDbEntity
  8
0
  6
Continuous
 62
     7
370
    15
100
AcDbLine
 10
273.7534083389
 20
41.9765696521
 30
0.0
 11
270.9337545816
 21
43.6043211185
 31
0.0
  0
LINE
  5
168
330
1F
100
AcDbEntity
  8
0
  6
Continuous
 62
     7
370
    15
100
AcDbLine
 10
269.0457516675
 20
50.1933543572
 30
0.0
 11
267.702150988
 21
50.9689985194
 31
0.0
  0
SPLINE
  5
169
330
1F
100
AcDbEntity
  8
0
  6
Continuous
 62
     7
370
    15
100
AcDbSpline
210
0.0
220
0.0
230
1.0
 70
     8
 71
     3
 72
    30
 73
    26
 74
     0
 42
0.000000001
 43
0.00000001
 40
0.0
 40
0.0
 40
0.0
 40
0.0
 40
0.0167543694119072
 40
0.0631200040416674
 40
0.1096592113378569
 40
0.1563347516044255
 40
0.2031025891209203
 40
0.2499234168373066
 40
0.2967675319624595
 40
0.3436122197228524
 40
0.3904461874475131
 40
0.4372650178975062
 40
0.4840676033896556
 40
0.5308548703002632
 40
0.5776289374036684
 40
0.6243925913074079
 40
0.6711489763657786
 40
0.7179014221349235
 40
0.7646533545039781
 40
0.8114076670655532
 40
0.8581672995591403
 40
0.9049357782282387
 40
0.9517165985849232
 40
0.9960599807624548
 40
1.0
 40
1.0
 40
1.0
 40
1.0
 10
264.8290967989162
 20
51.72605136340404
 30
0.0
 10
264.7300712760485
 20
51.73106116837087
 30
0.0
 10
264.3570049284008
 20
51.74993498581995
 30
0.0
 10
263.677517735048
 20
51.68163317561948
 30
0.0
 10
262.7968800591575
 20
51.52185342697931
 30
0.0
 10
261.8934633114699
 20
51.25899247870233
 30
0.0
 10
260.9762668538132
 20
50.90306773023472
 30
0.0
 10
260.050993715226
 20
50.45436871658902
 30
0.0
 10
259.124252516326
 20
49.9167379301464
 30
0.0
 10
258.2023022250737
 20
49.29387943411358
 30
0.0
 10
257.2913269584596
 20
48.59024264940984
 30
0.0
 10
256.3973261368443
 20
47.81069192485739
 30
0.0
 10
255.5261521645996
 20
46.96055354546846
 30
0.0
 10
254.6834970932181
 20
46.04557615465778
 30
0.0
 10
253.8748692090747
 20
45.07190567804124
 30
0.0
 10
253.1055629228688
 20
44.04605044696935
 30
0.0
 10
252.3806288263207
 20
42.97484439121195
 30
0.0
 10
251.7048367617967
 20
41.86540422370745
 30
0.0
 10
251.0826666231561
 20
40.72509410308209
 30
0.0
 10
250.5182070565446
 20
39.56146062587062
 30
0.0
 10
250.0153907360325
 20
38.38224447938232
 30
0.0
 10
249.5769800438657
 20
37.1950760613046
 30
0.0
 10
249.2146893594885
 20
36.0290911473278
 30
0.0
 10
249.0069697733757
 20
35.22953499892154
 30
0.0
 10
248.918937505114
 20
34.82739068171291
 30
0.0
 10
248.9117539012188
 20
34.79457492516647
 30
0.0
  0
SPLINE
  5
16A
330
1F
100
AcDbEntity
  8
0
  6
Continuous
 62
     7
370
    15
100
AcDbSpline
210
0.0
220
0.0
230
1.0
 70
     8
 71
     3
 72
    10
 73
     6
 74
     0
 42
0.000000001
 43
0.00000001
 40
0.0
 40
0.0
 40
0.0
 40
0.0
 40
0.4544355068399181
 40
0.9309721321682762
 40
1.0
 40
1.0
 40
1.0
 40
1.0
 10
275.4840179058435
 20
20.0664622154469
 30
0.0
 10
275.3610518481287
 20
20.14990946178852
 30
0.0
 10
275.1091393738348
 20
20.32086234658937
 30
0.0
 10
274.8819989754192
 20
20.58103405030332
 30
0.0
 10
274.7747073856427
 20
20.74840782728584
 30
0.0
 10
274.7611322542487
 20
20.76958489269405
 30
0.0
  0
LINE
  5
16B
330
1F
100
AcDbEntity
  8
0
  6
Continuous
 62
     7
370
    15
100
AcDbLine
 10
258.6680245452
 20
49.5937901352
 30
0.0
 11
237.3659000446
 21
57.2702314182
 31
0.0
  0
LINE
  5
16C
330
1F
100
AcDbEntity
  8
0
  6
Continuous
 62
     7
370
    15
100
AcDbLine
 10
231.2011182954
 20
46.5913591331
 30
0.0
 11
251.6220762746
 21
29.3480710331
 31
0.0
  0
SPLINE
  5
16D
330
1F
100
AcDbEntity
  8
0
  6
Continuous
 62
     7
370
    15
100
AcDbSpline
210
0.0
220
0.0
230
1.0
 70
     8
 71
     3
 72
    13
 73
     9
 74
     0
 42
0.000000001
 43
0.00000001
 40
0.0
 40
0.0
 40
0.0
 40
0.0
 40
0.0525096454652693
 40
0.27189288586769
 40
0.4921154057516759
 40
0.7130114295980069
 40
0.9343729333198102
 40
0.9999999999999999
 40
0.9999999999999999
 40
0.9999999999999999
 40
0.9999999999999999
 10
259.8754408718667
 20
19.71761759954131
 30
0.0
 10
259.9407063768576
 20
19.71345398291484
 30
0.0
 10
260.278648603326
 20
19.69189493923463
 30
0.0
 10
260.9211541877012
 20
19.75013404582534
 30
0.0
 10
261.7979331792707
 20
19.89378553611076
 30
0.0
 10
262.699273167607
 20
20.14896511430064
 30
0.0
 10
263.3987945059207
 20
20.3959336872766
 30
0.0
 10
263.7977933136053
 20
20.58791186564525
 30
0.0
 10
263.8890343038668
 20
20.63181244571119
 30
0.0
  0
LINE
  5
16E
330
1F
100
AcDbEntity
  8
0
  6
Continuous
 62
     7
370
    15
100
AcDbLine
 10
255.6643976002
 20
21.2574965915
 30
0.0
 11
257.0168371144
 21
20.4767498786
 31
0.0
  0
LINE
  5
16F
330
1F
100
AcDbEntity
  8
0
  6
Continuous
 62
     7
370
    15
100
AcDbLine
 10
251.8284411074
 20
23.4719471388
 30
0.0
 11
253.1720417869
 21
22.6963029766
 31
0.0
  0
SPLINE
  5
170
330
1F
100
AcDbEntity
  8
0
  6
Continuous
 62
     7
370
    15
100
AcDbSpline
210
0.0
220
0.0
230
1.0
 70
     8
 71
     3
 72
    11
 73
     7
 74
     0
 42
0.000000001
 43
0.00000001
 40
0.0
 40
0.0
 40
0.0
 40
0.0
 40
0.1396546227296541
 40
0.5632370567976918
 40
0.986123417850082
 40
1.0
 40
1.0
 40
1.0
 40
1.0
 10
248.9222748417448
 20
27.4233081712309
 30
0.0
 10
248.9513035962318
 20
27.32638239700272
 30
0.0
 10
249.0683786340653
 20
26.9354738346002
 30
0.0
 10
249.3327723459018
 20
26.30497593247638
 30
0.0
 10
249.5857347950007
 20
25.77464190096613
 30
0.0
 10
249.7475271262643
 20
25.5427829288673
 30
0.0
 10
249.7526674995742
 20
25.53541643836347
 30
0.0
  0
SPLINE
  5
171
330
1F
100
AcDbEntity
  8
0
  6
Continuous
 62
     7
370
    15
100
AcDbSpline
210
0.0
220
0.0
230
1.0
 70
     8
 71
     3
 72
    25
 73
    21
 74
     0
 42
0.000000001
 43
0.00000001
 40
0.0
 40
0.0
 40
0.0
 40
0.0
 40
0.0401041000593514
 40
0.0964757315067469
 40
0.1538918011039583
 40
0.2125609664872153
 40
0.2722307947571385
 40
0.332454452383596
 40
0.392842814011801
 40
0.453163432948344
 40
0.5133693740718707
 40
0.5734717154264182
 40
0.6335071530418698
 40
0.6935226504576318
 40
0.7535656148155655
 40
0.8136755689878908
 40
0.8739063579969737
 40
0.9343091862096963
 40
0.9916851216638111
 40
1.0
 40
1.0
 40
1.0
 40
1.0
 10
237.2857325534351
 20
57.2865282034251
 30
0.0
 10
237.1699048303222
 20
57.32303314901677
 30
0.0
 10
236.8912658807002
 20
57.41085063711297
 30
0.0
 10
236.4089979153711
 20
57.4369891739839
 30
0.0
 10
235.8547773904806
 20
57.38207935898546
 30
0.0
 10
235.2776696651597
 20
57.2264975974556
 30
0.0
 10
234.6880390006505
 20
56.97567525123
 30
0.0
 10
234.0963325136776
 20
56.63217946032034
 30
0.0
 10
233.5142568882023
 20
56.20321954527065
 30
0.0
 10
232.95245223316
 20
55.69746769100777
 30
0.0
 10
232.4203818081885
 20
55.12462492824698
 30
0.0
 10
231.9264876863772
 20
54.49482930797
 30
0.0
 10
231.4785739533378
 20
53.81880075607311
 30
0.0
 10
231.083824473934
 20
53.10777557307841
 30
0.0
 10
230.7487453167309
 20
52.37341832599196
 30
0.0
 10
230.4791108036077
 20
51.62763506487985
 30
0.0
 10
230.279706020262
 20
50.88221894295567
 30
0.0
 10
230.1573887181675
 20
50.16225433097875
 30
0.0
 10
230.1225793119981
 20
49.66913734462626
 30
0.0
 10
230.1212988562397
 20
49.42012043325368
 30
0.0
 10
230.1211367813128
 20
49.38860087667876
 30
0.0
  0
SPLINE
  5
172
330
1F
100
AcDbEntity
  8
0
  6
Continuous
 62
     7
370
    15
100
AcDbSpline
210
0.0
220
0.0
230
1.0
 70
     8
 71
     3
 72
    13
 73
     9
 74
     0
 42
0.000000001
 43
0.00000001
 40
0.0
 40
0.0
 40
0.0
 40
0.0
 40
0.1025380758424208
 40
0.2964235774196186
 40
0.4903211680099689
 40
0.6825132930840656
 40
0.8711757183820561
 40
1.0
 40
1.0
 40
1.0
 40
1.0
 10
230.1211367813128
 20
49.38860087667876
 30
0.0
 10
230.1234131651302
 20
49.26796052335543
 30
0.0
 10
230.1299938799446
 20
48.91920573329849
 30
0.0
 10
230.2038257448828
 20
48.37465823585635
 30
0.0
 10
230.3695983366592
 20
47.7810338680131
 30
0.0
 10
230.620902466212
 20
47.25927701557662
 30
0.0
 10
230.9077816736333
 20
46.85031274981828
 30
0.0
 10
231.1390855897508
 20
46.65801343223907
 30
0.0
 10
231.2329401045388
 20
46.57998553090296
 30
0.0
  0
LWPOLYLINE
  5
173
330
1F
100
AcDbEntity
  8
0
  6
Continuous
 62
     7
370
    15
100
AcDbPolyline
 90
       28
 70
   128
 43
0.0
 10
273.0854200383
 20
37.9007708229
 10
272.761397783
 20
38.1373392585
 10
272.540614348
 20
38.4106685978
 10
272.4349722253
 20
38.7060235852
 10
272.4501666092
 20
39.007481557
 10
272.5853783665
 20
39.2987908358
 10
272.8333181963
 20
39.5642468631
 10
273.1806195984
 20
39.7895388357
 10
273.6085594641
 20
39.9625212051
 10
274.0940674445
 20
40.0738684469
 10
274.6109696788
 20
40.1175778025
 10
275.1313998337
 20
40.0912928892
 10
275.6273013849
 20
39.9964307335
 10
276.0719401513
 20
39.8381053789
 10
276.4413455421
 20
39.624852186
 10
276.7156028168
 20
39.3681676898
 10
276.879926695
 20
39.0818898179
 10
276.9254584337
 20
38.7814518845
 10
276.8497434051
 20
38.4830505763
 10
276.6568634261
 20
38.2027727851
 10
276.3572167063
 20
37.9557283591
 10
275.9669572778
 20
37.7552355273
 10
275.5071241274
 20
37.6121029102
 10
275.0025069794
 20
37.5340468242
 10
274.4803098748
 20
37.5252752931
 10
273.9686845947
 20
37.5862611924
 10
273.4952129902
 20
37.7137167564
 10
273.0854200383
 20
37.9007708229
  0
LWPOLYLINE
  5
174
330
1F
100
AcDbEntity
  8
0
  6
Continuous
 62
     7
370
    15
100
AcDbPolyline
 90
        8
 70
   128
 43
0.0
 10
272.908643343
 20
37.5945846059
 10
272.5595997979
 20
37.8472557952
 10
272.3167019702
 20
38.1384296356
 10
272.1921297713
 20
38.4535054551
 10
272.1921297713
 20
38.7766840363
 10
272.3167019702
 20
39.0917598558
 10
272.5595997979
 20
39.3829336962
 10
272.9083561012
 20
39.6354390374
  0
LWPOLYLINE
  5
175
330
1F
100
AcDbEntity
  8
0
  6
Continuous
 62
     7
370
    15
100
AcDbPolyline
 90
       15
 70
   128
 43
0.0
 10
276.4444644908
 20
39.6354390374
 10
276.7932207941
 20
39.3829336962
 10
277.0361186218
 20
39.0917598558
 10
277.1606908207
 20
38.7766840363
 10
277.1606908207
 20
38.4535054551
 10
277.0361186218
 20
38.1384296356
 10
276.7932207941
 20
37.8472557952
 10
276.444177249
 20
37.5945846059
 10
276.0064904873
 20
37.3930860564
 10
275.5021079509
 20
37.2528641251
 10
274.9563214862
 20
37.1809501254
 10
274.3964991057
 20
37.1809501254
 10
273.8507126411
 20
37.2528641251
 10
273.3463301047
 20
37.3930860564
 10
272.908643343
 20
37.5945846059
  0
LWPOLYLINE
  5
176
330
1F
100
AcDbEntity
  8
0
  6
Continuous
 62
     7
370
    15
100
AcDbPolyline
 90
       23
 70
   128
 43
0.0
 10
273.6157501242
 20
38.2069238648
 10
273.3598918116
 20
38.4042331221
 10
273.210689997
 20
38.6351629542
 10
273.1802321241
 20
38.8810047995
 10
273.2709857085
 20
39.1218420137
 10
273.4755984346
 20
39.3381633982
 10
273.7774937962
 20
39.5124438808
 10
274.1522140266
 20
39.6305642933
 10
274.5694015212
 20
39.6829552224
 10
274.9952582303
 20
39.6653722666
 10
275.3952837761
 20
39.5792398924
 10
275.7370704678
 20
39.4315360325
 10
275.9929287803
 20
39.2342267753
 10
276.1421305949
 20
39.0032969432
 10
276.1725884679
 20
38.7574550979
 10
276.0818348835
 20
38.5166178836
 10
275.8772221574
 20
38.3002964992
 10
275.5753267958
 20
38.1260160166
 10
275.2006065654
 20
38.0078956041
 10
274.7834190708
 20
37.9555046749
 10
274.3575623617
 20
37.9730876307
 10
273.9575368159
 20
38.0592200049
 10
273.6157501242
 20
38.2069238648
  0
SPLINE
  5
177
330
1F
100
AcDbEntity
  8
0
  6
Continuous
 62
     7
370
    15
100
AcDbSpline
210
0.0
220
0.0
230
1.0
 70
     8
 71
     3
 72
     9
 73
     5
 74
     0
 42
0.000000001
 43
0.00000001
 40
0.0
 40
0.0
 40
0.0
 40
0.0
 40
0.6300416123970569
 40
0.9999999999999999
 40
0.9999999999999999
 40
0.9999999999999999
 40
0.9999999999999999
 10
273.7927024647958
 20
38.10910921582954
 30
0.0
 10
273.6804055794244
 20
38.18617998227847
 30
0.0
 10
273.5021683278497
 20
38.30850645235989
 30
0.0
 10
273.3416146399338
 20
38.49013843233342
 30
0.0
 10
273.2822164564287
 20
38.55733470678155
 30
0.0
  0
SPLINE
  5
178
330
1F
100
AcDbEntity
  8
0
  6
Continuous
 62
     7
370
    15
100
AcDbSpline
210
0.0
220
0.0
230
1.0
 70
     8
 71
     3
 72
    11
 73
     7
 74
     0
 42
0.000000001
 43
0.00000001
 40
0.0
 40
0.0
 40
0.0
 40
0.0
 40
0.2164543009645036
 40
0.4403089937225356
 40
0.7518987489759454
 40
1.0
 40
1.0
 40
1.0
 40
1.0
 10
276.0706041355547
 20
38.98865304264815
 30
0.0
 10
276.0450141451194
 20
38.89655216158759
 30
0.0
 10
275.9929592638454
 20
38.7092015472545
 30
0.0
 10
275.8963590846028
 20
38.43839955832126
 30
0.0
 10
275.7927375614682
 20
38.25294044911715
 30
0.0
 10
275.7264258472701
 20
38.20503688457907
 30
0.0
 10
275.6970310221514
 20
38.18380207080305
 30
0.0
  0
SPLINE
  5
179
330
1F
100
AcDbEntity
  8
0
  6
Continuous
 62
     7
370
    15
100
AcDbSpline
210
0.0
220
0.0
230
1.0
 70
     8
 71
     3
 72
    11
 73
     7
 74
     0
 42
0.000000001
 43
0.00000001
 40
0.0
 40
0.0
 40
0.0
 40
0.0
 40
0.1849308168246117
 40
0.5198464202157771
 40
0.871443823369266
 40
1.0
 40
1.0
 40
1.0
 40
1.0
 10
275.0499834093951
 20
39.57784484655994
 30
0.0
 10
275.1093885225368
 20
39.51170397967447
 30
0.0
 10
275.2763781889403
 20
39.32577989481526
 30
0.0
 10
275.5880962905919
 20
39.07968729110703
 30
0.0
 10
275.8759807113942
 20
38.99448948773072
 30
0.0
 10
276.0295007311339
 20
38.98988566797905
 30
0.0
 10
276.0706041355547
 20
38.98865304264815
 30
0.0
  0
SPLINE
  5
17A
330
1F
100
AcDbEntity
  8
0
  6
Continuous
 62
     7
370
    15
100
AcDbSpline
210
0.0
220
0.0
230
1.0
 70
     8
 71
     3
 72
    11
 73
     7
 74
     0
 42
0.000000001
 43
0.00000001
 40
0.0
 40
0.0
 40
0.0
 40
0.0
 40
0.2164543009645046
 40
0.4403089937225373
 40
0.7518987489759485
 40
1.0
 40
1.0
 40
1.0
 40
1.0
 10
273.6557895698321
 20
39.36218567862665
 30
0.0
 10
273.751292714302
 20
39.33999037636481
 30
0.0
 10
273.9455641759986
 20
39.29484093299165
 30
0.0
 10
274.3060809529522
 20
39.28792694585641
 30
0.0
 10
274.6928017420483
 20
39.38553642821869
 30
0.0
 10
274.9402804285722
 20
39.51878020618779
 30
0.0
 10
275.0499834093951
 20
39.57784484655994
 30
0.0
  0
SPLINE
  5
17B
330
1F
100
AcDbEntity
  8
0
  6
Continuous
 62
     7
370
    15
100
AcDbSpline
210
0.0
220
0.0
230
1.0
 70
     8
 71
     3
 72
    11
 73
     7
 74
     0
 42
0.000000001
 43
0.00000001
 40
0.0
 40
0.0
 40
0.0
 40
0.0
 40
0.2164543009645041
 40
0.440308993722535
 40
0.7518987489759466
 40
1.0
 40
1.0
 40
1.0
 40
1.0
 10
273.2822164564287
 20
38.55733470678155
 30
0.0
 10
273.307806446864
 20
38.57549940925703
 30
0.0
 10
273.359861328138
 20
38.61244985021665
 30
0.0
 10
273.4564615073807
 20
38.75789167195541
 30
0.0
 10
273.5600830305153
 20
39.01893088185768
 30
0.0
 10
273.6263947447133
 20
39.25676012678628
 30
0.0
 10
273.6557895698321
 20
39.36218567862665
 30
0.0
  0
LINE
  5
17C
330
1F
100
AcDbEntity
  8
0
  6
Continuous
 62
     7
370
    15
100
AcDbLine
 10
273.6557895698
 20
38.1846509553
 30
0.0
 11
273.6557895698
 21
39.3621856786
 31
0.0
  0
LINE
  5
17D
330
1F
100
AcDbEntity
  8
0
  6
Continuous
 62
     7
370
    15
100
AcDbLine
 10
275.0499834094
 20
37.98058306
 30
0.0
 11
275.0499834094
 21
39.5778448466
 31
0.0
  0
LWPOLYLINE
  5
17E
330
1F
100
AcDbEntity
  8
0
  6
Continuous
 62
     7
370
    15
100
AcDbPolyline
 90
       65
 70
   128
 43
0.0
 10
279.2902820432
 20
35.9515632809
 10
278.4412518819
 20
35.4132632284
 10
277.6003983451
 20
34.7838165536
 10
276.7758193122
 20
34.0692851718
 10
275.9754559298
 20
33.2765504109
 10
275.2070161351
 20
32.4132467401
 10
274.4779004231
 20
31.4876882456
 10
273.7951305769
 20
30.5087885617
 10
273.1652820432
 20
29.4859750275
 10
272.5944206078
 20
28.4290978963
 10
272.0880439784
 20
27.3483354728
 10
271.6510288387
 20
26.2540960898
 10
271.2875838834
 20
25.1569178709
 10
271.001209286
 20
24.067367242
 10
270.7946629906
 20
22.9959371713
 10
270.6699341509
 20
21.9529461161
 10
270.6282239737
 20
20.9484386504
 10
270.6699341509
 20
19.9920887302
 10
270.7946629906
 20
19.093106528
 10
271.001209286
 20
18.2601497339
 10
271.2875838834
 20
17.5012401772
 10
271.6510288387
 20
16.8236865717
 10
272.0880439784
 20
16.2340141291
 10
272.5944206078
 20
15.7379017173
 10
273.1652820432
 20
15.3401271701
 10
273.7951305769
 20
15.0445212737
 10
274.4779004231
 20
14.8539308746
 10
275.2070161351
 20
14.7701914625
 10
275.9754559298
 20
14.7941094937
 10
276.7758193122
 20
14.9254546245
 10
277.6003983451
 20
15.1629619295
 10
278.4412518819
 20
15.5043440835
 10
279.2902820432
 20
15.9463133897
 10
280.1393122046
 20
16.4846134421
 10
280.9801657413
 20
17.114060117
 10
281.8047447743
 20
17.8285914988
 10
282.6051081566
 20
18.6213262596
 10
283.3735479514
 20
19.4846299304
 10
284.1026636634
 20
20.4101884249
 10
284.7854335096
 20
21.3890881088
 10
285.4152820432
 20
22.4119016431
 10
285.9861434786
 20
23.4687787743
 10
286.4925201081
 20
24.5495411978
 10
286.9295352478
 20
25.6437805807
 10
287.2929802031
 20
26.7409587997
 10
287.5793548004
 20
27.8305094286
 10
287.7859010958
 20
28.9019394993
 10
287.9106299356
 20
29.9449305545
 10
287.9523401128
 20
30.9494380202
 10
287.9106299356
 20
31.9057879404
 10
287.7859010958
 20
32.8047701426
 10
287.5793548004
 20
33.6377269366
 10
287.2929802031
 20
34.3966364933
 10
286.9295352478
 20
35.0741900988
 10
286.4925201081
 20
35.6638625415
 10
285.9861434786
 20
36.1599749533
 10
285.4152820432
 20
36.5577495005
 10
284.7854335096
 20
36.8533553969
 10
284.1026636634
 20
37.043945796
 10
283.3735479514
 20
37.1276852081
 10
282.6051081566
 20
37.1037671769
 10
281.8047447743
 20
36.9724220461
 10
280.9801657413
 20
36.7349147411
 10
280.1393122046
 20
36.3935325871
 10
279.2902820432
 20
35.9515632809
  0
LWPOLYLINE
  5
17F
330
1F
100
AcDbEntity
  8
0
  6
Continuous
 62
     7
370
    15
100
AcDbPolyline
 90
       34
 70
   128
 43
0.0
 10
279.1135053479
 20
36.2577494978
 10
278.2471480404
 20
35.70846373
 10
277.3891342274
 20
35.0661712046
 10
276.5477270509
 20
34.3370575498
 10
275.731029722
 20
33.5281445285
 10
274.9469074825
 20
32.6472224154
 10
274.202911858
 20
31.7027749721
 10
273.5062079333
 20
30.7038977436
 10
272.8635053479
 20
29.6602104637
 10
272.2809936792
 20
28.5817644115
 10
271.7642828328
 20
27.478945612
 10
271.3183490168
 20
26.3623748131
 10
270.9474868175
 20
25.2428052019
 10
270.6552678406
 20
24.1310188459
 10
270.4445063147
 20
23.0377228554
 10
270.3172319884
 20
21.9734462684
 10
270.2746705831
 20
20.9484386504
 10
270.3172319884
 20
19.9725713849
 10
270.4445063147
 20
19.0552426072
 10
270.6552678406
 20
18.2052866948
 10
270.9474868175
 20
17.430889188
 10
271.3183490168
 20
16.7395079579
 10
271.7642828328
 20
16.1378013838
 10
272.2809936792
 20
15.6315642289
 10
272.8635053479
 20
15.2256718337
 10
273.5062079333
 20
14.924033164
 10
274.202911858
 20
14.7295531649
 10
274.9469074825
 20
14.6441047852
 10
275.731029722
 20
14.6685109395
 10
276.5477270509
 20
14.8025365831
 10
277.3891342274
 20
15.044890976
 10
278.2471480404
 20
15.3932401127
 10
279.1135053479
 20
15.8442292007
 10
279.1149419072
 20
15.8450586435
  0
LWPOLYLINE
  5
180
330
1F
100
AcDbEntity
  8
0
  6
Continuous
 62
     7
370
    15
100
AcDbPolyline
 90
       17
 70
   128
 43
0.0
 10
287.9523401128
 20
31.1535400482
 10
287.9097787075
 20
32.1294073137
 10
287.7825043812
 20
33.0467360914
 10
287.5717428553
 20
33.8966920037
 10
287.2795238784
 20
34.6710895106
 10
286.9086616791
 20
35.3624707406
 10
286.4627278631
 20
35.9641773147
 10
285.9460170167
 20
36.4704144696
 10
285.3635053479
 20
36.8763068648
 10
284.7208027626
 20
37.1779455346
 10
284.0240988379
 20
37.3724255336
 10
283.2801032134
 20
37.4578739133
 10
282.4959809739
 20
37.433467759
 10
281.679283645
 20
37.2994421154
 10
280.8378764685
 20
37.0570877225
 10
279.9798626554
 20
36.7087385858
 10
279.1135053479
 20
36.2577494978
  0
SPLINE
  5
181
330
1F
100
AcDbEntity
  8
0
  6
Continuous
 62
     7
370
    15
100
AcDbSpline
210
0.0
220
0.0
230
1.0
 70
    11
 71
     3
 72
    83
 73
    79
 74
     0
 42
0.000000001
 43
0.00000001
 40
0.0
 40
0.0
 40
0.0
 40
0.0
 40
0.0312499999999996
 40
0.0312499999999996
 40
0.0624999999999993
 40
0.0624999999999993
 40
0.0937499999999989
 40
0.0937499999999989
 40
0.1093749999999988
 40
0.1093749999999988
 40
0.1249999999999986
 40
0.1249999999999986
 40
0.1562499999999988
 40
0.1562499999999988
 40
0.187499999999999
 40
0.187499999999999
 40
0.2187499999999993
 40
0.2187499999999993
 40
0.2499999999999994
 40
0.2499999999999994
 40
0.2812499999999997
 40
0.2812499999999997
 40
0.3124999999999999
 40
0.3124999999999999
 40
0.3437500000000001
 40
0.3437500000000001
 40
0.3593750000000002
 40
0.3593750000000002
 40
0.3750000000000002
 40
0.3906250000000003
 40
0.3906250000000003
 40
0.4062500000000003
 40
0.4062500000000003
 40
0.4375000000000004
 40
0.4375000000000004
 40
0.4687500000000004
 40
0.4687500000000004
 40
0.5000000000000006
 40
0.5000000000000006
 40
0.5312500000000007
 40
0.5312500000000007
 40
0.5468750000000007
 40
0.5468750000000007
 40
0.5625000000000007
 40
0.5625000000000007
 40
0.5937500000000003
 40
0.5937500000000003
 40
0.625
 40
0.625
 40
0.6562499999999997
 40
0.6562499999999997
 40
0.6874999999999992
 40
0.6874999999999992
 40
0.7187499999999989
 40
0.7187499999999989
 40
0.7499999999999986
 40
0.7499999999999986
 40
0.7656249999999986
 40
0.7656249999999986
 40
0.7812499999999987
 40
0.7812499999999987
 40
0.8124999999999989
 40
0.8124999999999989
 40
0.8281249999999991
 40
0.8281249999999991
 40
0.8437499999999992
 40
0.8437499999999992
 40
0.8749999999999994
 40
0.8749999999999994
 40
0.8906249999999994
 40
0.8906249999999994
 40
0.9062499999999996
 40
0.9062499999999996
 40
0.9374999999999997
 40
0.9374999999999997
 40
0.9687499999999999
 40
0.9687499999999999
 40
1.0
 40
1.0
 40
1.0
 40
1.0
 10
274.6644298331258
 20
40.38075826660321
 30
0.0
 10
274.8586463107966
 20
40.35226062992404
 30
0.0
 10
275.0478922934302
 20
40.31404512794771
 30
0.0
 10
275.4175210602429
 20
40.22159766664747
 30
0.0
 10
275.5990887124677
 20
40.16691054184009
 30
0.0
 10
275.947820189053
 20
40.04450389705191
 30
0.0
 10
276.1127443655602
 20
39.97771152229468
 30
0.0
 10
276.3465903162119
 20
39.87014629875681
 30
0.0
 10
276.4222665808002
 20
39.83304789981273
 30
0.0
 10
276.5689954662945
 20
39.7563736363861
 30
0.0
 10
276.6401554244749
 20
39.71670750592705
 30
0.0
 10
276.8426519803653
 20
39.59623133649685
 30
0.0
 10
276.9644983208144
 20
39.5132906162949
 30
0.0
 10
277.1821166758004
 20
39.34178837703932
 30
0.0
 10
277.2786111954442
 20
39.25229287688832
 30
0.0
 10
277.4382038406241
 20
39.0719273670014
 30
0.0
 10
277.5018507740177
 20
38.98096406390444
 30
0.0
 10
277.596060524948
 20
38.79580711147039
 30
0.0
 10
277.6265848013044
 20
38.70057057781004
 30
0.0
 10
277.6494655559242
 20
38.51192566610158
 30
0.0
 10
277.6424805498154
 20
38.4180753372821
 30
0.0
 10
277.5892416243873
 20
38.22930886267466
 30
0.0
 10
277.5419450865022
 20
38.13352212270202
 30
0.0
 10
277.4090030256868
 20
37.94885934345014
 30
0.0
 10
277.3234230637603
 20
37.858888535974
 30
0.0
 10
277.1640100013923
 20
37.72684415069187
 30
0.0
 10
277.1054945917891
 20
37.68329081819225
 30
0.0
 10
276.9812231328632
 20
37.59968447561718
 30
0.0
 10
276.8489669353793
 20
37.51890900330839
 30
0.0
 10
276.7009328883369
 20
37.443693961436
 30
0.0
 10
276.5448534522054
 20
37.37135316760003
 30
0.0
 10
276.4626407998261
 20
37.33661224806555
 30
0.0
 10
276.2105488317163
 20
37.23956258555852
 30
0.0
 10
276.0332181365758
 20
37.18331185670294
 30
0.0
 10
275.6606607717288
 20
37.08827334431538
 30
0.0
 10
275.4694267955744
 20
37.05064070561784
 30
0.0
 10
275.084300389333
 20
36.99631366711436
 30
0.0
 10
274.8875310477371
 20
36.97940842595357
 30
0.0
 10
274.5021433404015
 20
36.968154794004
 30
0.0
 10
274.3125554389744
 20
36.97347458013764
 30
0.0
 10
274.0324876941536
 20
36.99856791564628
 30
0.0
 10
273.9396406337936
 20
37.00986415929876
 30
0.0
 10
273.7587037660614
 20
37.03792136386063
 30
0.0
 10
273.6702050399406
 20
37.05470357704768
 30
0.0
 10
273.4104150169521
 20
37.11330117051037
 30
0.0
 10
273.2447796184038
 20
37.16331138877326
 30
0.0
 10
272.9288236693869
 20
37.28654609207268
 30
0.0
 10
272.7824958115191
 20
37.35826886362087
 30
0.0
 10
272.5136308465994
 20
37.52059402838452
 30
0.0
 10
272.3905067996034
 20
37.6115898092902
 30
0.0
 10
272.1700911167789
 20
37.81209787564261
 30
0.0
 10
272.0753360977935
 20
37.91917400930528
 30
0.0
 10
271.9161237775056
 20
38.14573673391607
 30
0.0
 10
271.8513742847327
 20
38.26596092969177
 30
0.0
 10
271.7561917553518
 20
38.51523758994586
 30
0.0
 10
271.7264810696229
 20
38.64179896577122
 30
0.0
 10
271.7091601236856
 20
38.83329314567128
 30
0.0
 10
271.7079593063328
 20
38.89740184410736
 30
0.0
 10
271.7152126938072
 20
39.02597940837741
 30
0.0
 10
271.7237786573883
 20
39.09085299155699
 30
0.0
 10
271.7642475893405
 20
39.28163005331347
 30
0.0
 10
271.8105066569069
 20
39.40420583775283
 30
0.0
 10
271.910055867053
 20
39.5796710757104
 30
0.0
 10
271.9483026251655
 20
39.63675297377451
 30
0.0
 10
272.0356619225949
 20
39.74774042672972
 30
0.0
 10
272.0844844796188
 20
39.80115851443424
 30
0.0
 10
272.2434498807857
 20
39.95190349628201
 30
0.0
 10
272.366952559219
 20
40.04111121557886
 30
0.0
 10
272.5795169616064
 20
40.15706958535046
 30
0.0
 10
272.6549774984719
 20
40.19263799190345
 30
0.0
 10
272.8108517665116
 20
40.25584146826169
 30
0.0
 10
272.8917616174212
 20
40.28376887497166
 30
0.0
 10
273.1431760022773
 20
40.35696270232054
 30
0.0
 10
273.3245133142348
 20
40.39178574089863
 30
0.0
 10
273.6951463909842
 20
40.43253019964325
 30
0.0
 10
273.8852309643324
 20
40.43906499472966
 30
0.0
 10
274.2747129897982
 20
40.42740677618467
 30
0.0
 10
274.470213355455
 20
40.40925590328239
 30
0.0
 10
274.6644298331258
 20
40.38075826660321
 30
0.0
  0
LWPOLYLINE
  5
182
330
1F
100
AcDbEntity
  8
0
  6
Continuous
 62
     7
370
    15
100
AcDbPolyline
 90
        3
 70
   128
 43
0.0
 10
264.7383412085
 20
19.9217662211
 10
264.9085540596
 20
19.8179674627
 10
264.9090619806
 20
19.8176741985
  0
LINE
  5
183
330
1F
100
AcDbEntity
  8
0
  6
Continuous
 62
     7
370
    15
100
AcDbLine
 10
283.9107331112
 20
25.7802883158
 30
0.0
 11
285.6719207434
 21
27.971188987
 31
0.0
  0
SPLINE
  5
184
330
1F
100
AcDbEntity
  8
0
  6
Continuous
 62
     7
370
    15
100
AcDbSpline
210
0.0
220
0.0
230
1.0
 70
     8
 71
     3
 72
    22
 73
    18
 74
     0
 42
0.000000001
 43
0.00000001
 40
0.0
 40
0.0
 40
0.0
 40
0.0
 40
0.0500000000000109
 40
0.0999999999999997
 40
0.1499999999999999
 40
0.2
 40
0.25
 40
0.2968749999999668
 40
0.34375
 40
0.3906249999999998
 40
0.4374999999999987
 40
0.5292946909502638
 40
0.5292946909502638
 40
0.53125
 40
0.6250000000000001
 40
0.8125
 40
0.8968030376395167
 40
0.8968030376395167
 40
0.8968030376395167
 40
0.8968030376395167
 10
285.6719207434427
 20
27.97118898703182
 30
0.0
 10
285.753120425446
 20
28.07220061949307
 30
0.0
 10
285.9127098170692
 20
28.29221397188598
 30
0.0
 10
286.1318855541929
 20
28.66841003452419
 30
0.0
 10
286.3187463383975
 20
29.08569994249968
 30
0.0
 10
286.4560811792058
 20
29.52535792191199
 30
0.0
 10
286.5267544909112
 20
29.95251894532258
 30
0.0
 10
286.5262750705527
 20
30.34202372993158
 30
0.0
 10
286.4579528973165
 20
30.67419491921644
 30
0.0
 10
286.3262276849399
 20
30.94119498571889
 30
0.0
 10
286.0862498170961
 20
31.19441184813284
 30
0.0
 10
285.8416906493753
 20
31.2784840065518
 30
0.0
 10
285.6691107652642
 20
31.29497997150695
 30
0.0
 10
285.5050066091229
 20
31.31070301052836
 30
0.0
 10
285.0957925863767
 20
31.34533468828868
 30
0.0
 10
284.7501597376588
 20
31.37725051949301
 30
0.0
 10
284.1190595454005
 20
31.43370563750015
 30
0.0
 10
283.91068620474
 20
31.45232243151056
 30
0.0
  0
SPLINE
  5
185
330
1F
100
AcDbEntity
  8
0
  6
Continuous
 62
     7
370
    15
100
AcDbSpline
210
0.0
220
0.0
230
1.0
 70
     8
 71
     3
 72
    22
 73
    18
 74
     0
 42
0.000000001
 43
0.00000001
 40
0.0
 40
0.0
 40
0.0
 40
0.0
 40
0.0500000000000109
 40
0.0999999999999997
 40
0.1499999999999999
 40
0.2
 40
0.25
 40
0.2968749999999668
 40
0.34375
 40
0.3906249999999998
 40
0.4374999999999987
 40
0.5292946909502638
 40
0.5292946909502638
 40
0.53125
 40
0.6250000000000001
 40
0.8125
 40
0.8955927989355333
 40
0.8955927989355333
 40
0.8955927989355333
 40
0.8955927989355333
 10
272.9086433430252
 20
20.60310577783176
 30
0.0
 10
272.8283874144855
 20
20.61028186722036
 30
0.0
 10
272.66741627213
 20
20.64616078027771
 30
0.0
 10
272.4487958925197
 20
20.76925226208526
 30
0.0
 10
272.2617863043599
 20
20.97081062028244
 30
0.0
 10
272.1244913218588
 20
21.25190155116534
 30
0.0
 10
272.0538076023234
 20
21.59746602824626
 30
0.0
 10
272.0542891727352
 20
21.98752347443083
 30
0.0
 10
272.1226125083643
 20
22.39858013939624
 30
0.0
 10
272.2543309678559
 20
22.81765825128335
 30
0.0
 10
272.4943429418119
 20
23.34799016995327
 30
0.0
 10
272.7387489340396
 20
23.71423376216682
 30
0.0
 10
272.9114480479463
 20
23.93013453442434
 30
0.0
 10
273.0756787651472
 20
24.13548563361086
 30
0.0
 10
273.4859892882491
 20
24.64394981298478
 30
0.0
 10
273.821922271043
 20
25.0628549428095
 30
0.0
 10
274.4625886827974
 20
25.85986622693559
 30
0.0
 10
274.6698782988292
 20
26.11771848381339
 30
0.0
  0
LINE
  5
186
330
1F
100
AcDbEntity
  8
0
  6
Continuous
 62
     7
370
    15
100
AcDbLine
 10
274.6698309753
 20
20.4456290642
 30
0.0
 11
272.908643343
 21
20.6031057778
 31
0.0
  0
SPLINE
  5
187
330
1F
100
AcDbEntity
  8
0
  6
Continuous
 62
     7
370
    15
100
AcDbSpline
210
0.0
220
0.0
230
1.0
 70
     8
 71
     3
 72
    14
 73
    10
 74
     0
 42
0.000000001
 43
0.00000001
 40
0.0
 40
0.0
 40
0.0
 40
0.0
 40
0.1382497790611088
 40
0.2796530602882843
 40
0.434708202209532
 40
0.5942614193277135
 40
0.7493134370736896
 40
0.9088540791324465
 40
1.0
 40
1.0
 40
1.0
 40
1.0
 10
272.820254995377
 20
20.93296857037877
 30
0.0
 10
272.7583830419227
 20
20.94267147318262
 30
0.0
 10
272.633227824699
 20
20.96229860373723
 30
0.0
 10
272.4631252548905
 20
21.04924919134018
 30
0.0
 10
272.3104905759756
 20
21.18444269888972
 30
0.0
 10
272.1864223967035
 20
21.37251520291007
 30
0.0
 10
272.101272752095
 20
21.60557110143315
 30
0.0
 10
272.0576111185826
 20
21.83225588813185
 30
0.0
 10
272.0609749027979
 20
21.98943419855834
 30
0.0
 10
272.0621979249109
 20
22.04658190395187
 30
0.0
  0
SPLINE
  5
188
330
1F
100
AcDbEntity
  8
0
  6
Continuous
 62
     7
370
    15
100
AcDbSpline
210
0.0
220
0.0
230
1.0
 70
     8
 71
     3
 72
    13
 73
     9
 74
     0
 42
0.000000001
 43
0.00000001
 40
0.0
 40
0.0
 40
0.0
 40
0.0
 40
0.0001448616093304
 40
0.1338082287854574
 40
0.3590365530626876
 40
0.5695232402679803
 40
0.7849653997552573
 40
0.9999999999999999
 40
0.9999999999999999
 40
0.9999999999999999
 40
0.9999999999999999
 10
274.8447689849723
 20
26.36234835391932
 30
0.0
 10
274.8447687014076
 20
26.36234410958568
 30
0.0
 10
274.8445067736237
 20
26.35842363149132
 30
0.0
 10
274.8303295973668
 20
26.33369433587458
 30
0.0
 10
274.8027826922368
 20
26.29113117787184
 30
0.0
 10
274.7610873487429
 20
26.23425552997383
 30
0.0
 10
274.7170542064505
 20
26.17681254369086
 30
0.0
 10
274.6855936728186
 20
26.13740406695011
 30
0.0
 10
274.6698782988291
 20
26.11771848381322
 30
0.0
  0
SPLINE
  5
189
330
1F
100
AcDbEntity
  8
0
  6
Continuous
 62
     7
370
    15
100
AcDbSpline
210
0.0
220
0.0
230
1.0
 70
     8
 71
     3
 72
    16
 73
    12
 74
     0
 42
0.000000001
 43
0.00000001
 40
0.0
 40
0.0
 40
0.0
 40
0.0
 40
0.2500000000000037
 40
0.2500000000000037
 40
0.5000000000000073
 40
0.5000000000000073
 40
0.6250000000000054
 40
0.6250000000000054
 40
0.7500000000000037
 40
0.7500000000000037
 40
1.0
 40
1.0
 40
1.0
 40
1.0
 10
283.9106862047417
 20
31.45232243151042
 30
0.0
 10
283.8790359666572
 20
31.45515017310601
 30
0.0
 10
283.8449072404115
 20
31.45663529059773
 30
0.0
 10
283.7677285963824
 20
31.45477363549568
 30
0.0
 10
283.7240333659304
 20
31.45157411696211
 30
0.0
 10
283.6503187759142
 20
31.43772920002526
 30
0.0
 10
283.6244004589984
 20
31.43141038649516
 30
0.0
 10
283.5761972117877
 20
31.41584591538762
 30
0.0
 10
283.5538501203025
 20
31.40653805636579
 30
0.0
 10
283.4990335763851
 20
31.37848151043307
 30
0.0
 10
283.4770539370039
 20
31.36011490304719
 30
0.0
 10
283.460832324329
 20
31.34300500110977
 30
0.0
  0
SPLINE
  5
18A
330
1F
100
AcDbEntity
  8
0
  6
Continuous
 62
     7
370
    15
100
AcDbSpline
210
0.0
220
0.0
230
1.0
 70
     8
 71
     3
 72
     8
 73
     4
 74
     0
 42
0.000000001
 43
0.00000001
 40
0.0
 40
0.0
 40
0.0
 40
0.0
 40
1.0
 40
1.0
 40
1.0
 40
1.0
 10
283.460832324329
 20
31.34300500110976
 30
0.0
 10
283.4096023570846
 20
31.36246176970866
 30
0.0
 10
283.3588843650482
 20
31.38482851880189
 30
0.0
 10
283.3198600939998
 20
31.40735675095124
 30
0.0
  0
LINE
  5
18B
330
1F
100
AcDbEntity
  8
0
  6
Continuous
 62
     7
370
    15
100
AcDbLine
 10
281.5061932189
 20
32.4543643518
 30
0.0
 11
283.319860094
 21
31.407356751
 31
0.0
  0
ARC
  5
18C
330
1F
100
AcDbEntity
  8
0
  6
Continuous
 62
     7
370
    15
100
AcDbCircle
 10
270.7235809892
 20
31.6644229027
 30
0.0
 40
8.702763873564749
100
AcDbArc
 50
338.0304868718
 51
1.7345124567
  0
LINE
  5
18D
330
1F
100
AcDbEntity
  8
0
  6
Continuous
 62
     7
370
    15
100
AcDbLine
 10
278.7943766944
 20
28.4086041541
 30
0.0
 11
283.319860094
 21
25.7960981963
 31
0.0
  0
LINE
  5
18E
330
1F
100
AcDbEntity
  8
0
  6
Continuous
 62
     7
370
    15
100
AcDbLine
 10
272.1245694973
 20
22.3009718271
 30
0.0
 11
274.6950185675
 21
20.8170831643
 31
0.0
  0
SPLINE
  5
18F
330
1F
100
AcDbEntity
  8
0
  6
Continuous
 62
     7
370
    15
100
AcDbSpline
210
0.0
220
0.0
230
1.0
 70
     8
 71
     3
 72
    10
 73
     6
 74
     0
 42
0.000000001
 43
0.00000001
 40
0.0
 40
0.0
 40
0.0
 40
0.0
 40
0.4034636954573706
 40
0.8080158146188019
 40
1.0
 40
1.0
 40
1.0
 40
1.0
 10
275.7634270931877
 20
43.68133464376304
 30
0.0
 10
275.7816719927516
 20
43.72009211140315
 30
0.0
 10
275.818211011131
 20
43.79771160267433
 30
0.0
 10
275.8321253470509
 20
43.90518463866116
 30
0.0
 10
275.8140212604076
 20
43.95851484416814
 30
0.0
 10
275.8081947946923
 20
43.97567818524646
 30
0.0
  0
SPLINE
  5
190
330
1F
100
AcDbEntity
  8
0
  6
Continuous
 62
     7
370
    15
100
AcDbSpline
210
0.0
220
0.0
230
1.0
 70
     8
 71
     3
 72
    12
 73
     8
 74
     0
 42
0.000000001
 43
0.00000001
 40
0.0
 40
0.0
 40
0.0
 40
0.0
 40
0.2500000000000008
 40
0.2500000000000008
 40
0.5000000000000017
 40
0.5000000000000017
 40
1.0
 40
1.0
 40
1.0
 40
1.0
 10
254.2022364928913
 20
31.74509997753276
 30
0.0
 10
254.2360156591637
 20
31.72559967991924
 30
0.0
 10
254.2742986767452
 20
31.69870786842441
 30
0.0
 10
254.3483843340704
 20
31.64013564936358
 30
0.0
 10
254.3836743303903
 20
31.60902936063787
 30
0.0
 10
254.4791711300565
 20
31.51789882745212
 30
0.0
 10
254.5279308904884
 20
31.46169991057587
 30
0.0
 10
254.5614947354777
 20
31.41413374106215
 30
0.0
  0
ARC
  5
191
330
1F
100
AcDbEntity
  8
0
  6
Continuous
 62
     7
370
    15
100
AcDbCircle
 10
270.092400245
 20
43.1274904381
 30
0.0
 40
5.588480140743905
100
AcDbArc
 50
30.485333272
 51
89.7471011539
  0
LINE
  5
192
330
1F
100
AcDbEntity
  8
0
  6
Continuous
 62
     7
370
    15
100
AcDbLine
 10
252.8497969787
 20
32.5258466904
 30
0.0
 11
254.2022364929
 21
31.7450999775
 31
0.0
  0
LWPOLYLINE
  5
193
330
1F
100
AcDbEntity
  8
0
  6
Continuous
 62
     7
370
    15
100
AcDbPolyline
 90
       25
 70
   128
 43
0.0
 10
252.8497969787
 20
32.5258466904
 10
253.1767195382
 20
33.7962275634
 10
253.5850693963
 20
35.0760582905
 10
254.0716568826
 20
36.3553419578
 10
254.6326812028
 20
37.6240859246
 10
255.2637601274
 20
38.8723798769
 10
255.9599642222
 20
40.0904732385
 10
256.7158553519
 20
41.2688513336
 10
257.5255291588
 20
42.3983097072
 10
258.3826611821
 20
43.4700260221
 10
259.2805562588
 20
44.4756289716
 10
260.2122008212
 20
45.4072636682
 10
261.1703176799
 20
46.2576529999
 10
262.1474228673
 20
47.0201544719
 10
263.1358840955
 20
47.688812092
 10
264.1279803734
 20
48.2584028942
 10
265.115962316
 20
48.7244777352
 10
266.0921126758
 20
49.0833960475
 10
267.0488066233
 20
49.3323542764
 10
267.9785713054
 20
49.469407779
 10
268.8741442168
 20
49.4934860135
 10
269.7285299282
 20
49.4044009019
 10
270.5350547286
 20
49.2028482988
 10
271.2874187545
 20
48.8904025564
 10
271.5381074808
 20
48.7545479721
  0
ARC
  5
194
330
1F
100
AcDbEntity
  8
0
  6
Continuous
 62
     7
370
    15
100
AcDbCircle
 10
256.6321416992
 20
26.545837671
 30
0.0
 40
0.6147219230288492
100
AcDbArc
 50
302.60547834
 51
357.3945215143
  0
LINE
  5
195
330
1F
100
AcDbEntity
  8
0
  6
Continuous
 62
     7
370
    15
100
AcDbLine
 10
257.2462281397
 20
27.7410170341
 30
0.0
 11
257.2462281397
 21
26.51789333
 31
0.0
  0
LINE
  5
196
330
1F
100
AcDbEntity
  8
0
  6
Continuous
 62
     7
370
    15
100
AcDbLine
 10
257.2462281397
 20
32.5439645218
 30
0.0
 11
257.2462281397
 21
31.3208408177
 31
0.0
  0
ARC
  5
197
330
1F
100
AcDbEntity
  8
0
  6
Continuous
 62
     7
370
    15
100
AcDbCircle
 10
257.0737983928
 20
32.5719354005
 30
0.0
 40
0.1746836789714145
100
AcDbArc
 50
350.7859630095
 51
129.2032852357
  0
LINE
  5
198
330
1F
100
AcDbEntity
  8
0
  6
Continuous
 62
     7
370
    15
100
AcDbLine
 10
256.9633854273
 20
32.7072992242
 30
0.0
 11
254.6083324334
 21
31.3477560695
 31
0.0
  0
LINE
  5
199
330
1F
100
AcDbEntity
  8
0
  6
Continuous
 62
     7
370
    15
100
AcDbLine
 10
254.5614947355
 20
31.4141337411
 30
0.0
 11
254.6083324334
 21
31.3477560695
 31
0.0
  0
LINE
  5
19A
330
1F
100
AcDbEntity
  8
0
  6
Continuous
 62
     7
370
    15
100
AcDbLine
 10
275.6586416353
 20
43.4998409073
 30
0.0
 11
275.7634270932
 21
43.6813346438
 31
0.0
  0
LINE
  5
19B
330
1F
100
AcDbEntity
  8
0
  6
Continuous
 62
     7
370
    15
100
AcDbLine
 10
274.2167908882
 20
42.6674781884
 30
0.0
 11
275.6586416353
 21
43.4998409073
 31
0.0
  0
ARC
  5
19C
330
1F
100
AcDbEntity
  8
0
  6
Continuous
 62
     7
370
    15
100
AcDbCircle
 10
274.5480346163
 20
42.1496359004
 30
0.0
 40
0.6147219230287627
100
AcDbArc
 50
122.60547834
 51
177.3945215144
  0
LINE
  5
19D
330
1F
100
AcDbEntity
  8
0
  6
Continuous
 62
     7
370
    15
100
AcDbLine
 10
273.9339481757
 20
42.0021702933
 30
0.0
 11
273.9339481757
 21
42.1775802413
 31
0.0
  0
LINE
  5
19E
330
1F
100
AcDbEntity
  8
0
  6
Continuous
 62
     7
370
    15
100
AcDbLine
 10
254.6083324334
 20
24.6684522283
 30
0.0
 11
254.5614947355
 21
24.5479969017
 31
0.0
  0
LINE
  5
19F
330
1F
100
AcDbEntity
  8
0
  6
Continuous
 62
     7
370
    15
100
AcDbLine
 10
254.6083324334
 20
24.6684522283
 30
0.0
 11
256.9633854273
 21
26.0279953829
 31
0.0
  0
ARC
  5
1A0
330
1F
100
AcDbEntity
  8
0
  6
Continuous
 62
     7
370
    15
100
AcDbCircle
 10
268.9469999015
 20
40.0646992056
 30
0.0
 40
4.059078398556704
100
AcDbArc
 50
60.6949345483
 51
88.9357048567
  0
ARC
  5
1A1
330
1F
100
AcDbEntity
  8
0
  6
Continuous
 62
     7
370
    15
100
AcDbCircle
 10
261.8592920462
 20
27.8091839613
 30
0.0
 40
4.008956984415538
100
AcDbArc
 50
212.2861395644
 51
239.4596033777
  0
LINE
  5
1A2
330
1F
100
AcDbEntity
  8
0
  6
Continuous
 62
     7
370
    15
100
AcDbLine
 10
274.7661783715
 20
20.7589736974
 30
0.0
 11
272.8202549954
 21
20.9329685704
 31
0.0
  0
SPLINE
  5
1A3
330
1F
100
AcDbEntity
  8
0
  6
Continuous
 62
     7
370
    15
100
AcDbSpline
210
0.0
220
0.0
230
1.0
 70
     8
 71
     3
 72
    16
 73
    12
 74
     0
 42
0.000000001
 43
0.00000001
 40
0.0
 40
0.0
 40
0.0
 40
0.0
 40
0.2499999999999981
 40
0.2499999999999981
 40
0.4999999999999962
 40
0.4999999999999962
 40
0.6249999999999971
 40
0.6249999999999971
 40
0.7499999999999981
 40
0.7499999999999981
 40
1.0
 40
1.0
 40
1.0
 40
1.0
 10
274.6698309752763
 20
20.44562906415953
 30
0.0
 10
274.7010920339218
 20
20.4428338544435
 30
0.0
 10
274.732022176552
 20
20.4434373751623
 30
0.0
 10
274.7886780884307
 20
20.45734162056247
 30
0.0
 10
274.8155192740151
 20
20.47025054319563
 30
0.0
 10
274.8408713645524
 20
20.51216062275421
 30
0.0
 10
274.8463059853095
 20
20.53029757167308
 30
0.0
 10
274.8474275866515
 20
20.57292682606042
 30
0.0
 10
274.843064739139
 20
20.59746983759936
 30
0.0
 10
274.819821176821
 20
20.67074980505342
 30
0.0
 10
274.7936930094342
 20
20.71677385464516
 30
0.0
 10
274.7661783715355
 20
20.75897369741701
 30
0.0
  0
SPLINE
  5
1A4
330
1F
100
AcDbEntity
  8
0
  6
Continuous
 62
     7
370
    15
100
AcDbSpline
210
0.0
220
0.0
230
1.0
 70
     8
 71
     3
 72
     8
 73
     4
 74
     0
 42
0.000000001
 43
0.00000001
 40
0.0
 40
0.0
 40
0.0
 40
0.0
 40
1.0
 40
1.0
 40
1.0
 40
1.0
 10
274.6950185675189
 20
20.81708316434509
 30
0.0
 10
274.7340060582175
 20
20.79457616503975
 30
0.0
 10
274.7564237253409
 20
20.77472397772291
 30
0.0
 10
274.7661783715355
 20
20.75897369741702
 30
0.0
  0
SPLINE
  5
1A5
330
1F
100
AcDbEntity
  8
0
  6
Continuous
 62
     7
370
    15
100
AcDbSpline
210
0.0
220
0.0
230
1.0
 70
     8
 71
     3
 72
     8
 73
     4
 74
     0
 42
0.000000001
 43
0.00000001
 40
0.0
 40
0.0
 40
0.0
 40
0.0
 40
1.0
 40
1.0
 40
1.0
 40
1.0
 10
251.8603148033753
 20
33.78625125036153
 30
0.0
 10
251.4778145308574
 20
33.72284644925634
 30
0.0
 10
251.0951673272255
 20
33.65972005353434
 30
0.0
 10
250.7124131371669
 20
33.59682240648625
 30
0.0
  0
SPLINE
  5
1A6
330
1F
100
AcDbEntity
  8
0
  6
Continuous
 62
     7
370
    15
100
AcDbSpline
210
0.0
220
0.0
230
1.0
 70
     8
 71
     3
 72
     8
 73
     4
 74
     0
 42
0.000000001
 43
0.00000001
 40
0.0
 40
0.0
 40
0.0
 40
0.0
 40
0.0011858378198547
 40
0.0011858378198547
 40
0.0011858378198547
 40
0.0011858378198547
 10
250.3574411653898
 20
33.96465307558329
 30
0.0
 10
250.4761804523959
 20
33.84189560506704
 30
0.0
 10
250.5945185417433
 20
33.71927898469969
 30
0.0
 10
250.7124131371669
 20
33.59682240648625
 30
0.0
  0
LWPOLYLINE
  5
1A7
330
1F
100
AcDbEntity
  8
0
  6
Continuous
 62
     7
370
    15
100
AcDbPolyline
 90
       27
 70
   128
 43
0.0
 10
250.3574411654
 20
33.9646530756
 10
250.6843637249
 20
35.2350339486
 10
251.0927135831
 20
36.5148646757
 10
251.5793010693
 20
37.794148343
 10
252.1403253895
 20
39.0628923097
 10
252.7714043142
 20
40.311186262
 10
253.4676084089
 20
41.5292796237
 10
254.2234995386
 20
42.7076577188
 10
255.0331733455
 20
43.8371160923
 10
255.8903053688
 20
44.9088324073
 10
256.7882004456
 20
45.9144353567
 10
257.7198450079
 20
46.8460700534
 10
258.6779618666
 20
47.6964593851
 10
259.655067054
 20
48.458960857
 10
260.6435282822
 20
49.1276184772
 10
261.6356245602
 20
49.6972092793
 10
262.6236065027
 20
50.1632841203
 10
263.5997568625
 20
50.5222024326
 10
264.55645081
 20
50.7711606616
 10
265.4862154921
 20
50.9082141641
 10
266.3817884035
 20
50.9322923986
 10
267.2361741149
 20
50.843207287
 10
268.0426989153
 20
50.641654684
 10
268.7950629412
 20
50.3292089415
 10
269.4873893855
 20
49.9083106114
 10
270.1142704017
 20
49.3822473818
 10
270.1935191023
 20
49.3034807566
  0
LINE
  5
1A8
330
1F
100
AcDbEntity
  8
0
  6
Continuous
 62
     7
370
    15
100
AcDbLine
 10
249.0138404859
 20
34.7402972378
 30
0.0
 11
250.3574411654
 21
33.9646530756
 31
0.0
  0
ARC
  5
1A9
330
1F
100
AcDbEntity
  8
0
  6
Continuous
 62
     7
370
    15
100
AcDbCircle
 10
264.8768142596
 20
45.9639830236
 30
0.0
 40
5.747408785094591
100
AcDbArc
 50
60.5552244892
 51
89.5201461741
  0
LINE
  5
1AA
330
1F
100
AcDbEntity
  8
0
  6
Continuous
 62
     7
370
    15
100
AcDbLine
 10
253.0708270949
 20
33.4168651171
 30
0.0
 11
252.428481221
 21
33.787683497
 31
0.0
  0
SPLINE
  5
1AB
330
1F
100
AcDbEntity
  8
0
  6
Continuous
 62
     7
370
    15
100
AcDbSpline
210
0.0
220
0.0
230
1.0
 70
     8
 71
     3
 72
    12
 73
     8
 74
     0
 42
0.000000001
 43
0.00000001
 40
0.0
 40
0.0
 40
0.0
 40
0.0
 40
0.2500000000000015
 40
0.2500000000000015
 40
0.500000000000003
 40
0.500000000000003
 40
1.0
 40
1.0
 40
1.0
 40
1.0
 10
252.4284812210152
 20
33.78768349695562
 30
0.0
 10
252.3908419428965
 20
33.80941218970531
 30
0.0
 10
252.3444217249358
 20
33.82681046070812
 30
0.0
 10
252.2443537960571
 20
33.84906694318376
 30
0.0
 10
252.1905681571798
 20
33.85412746524788
 30
0.0
 10
252.0306492294307
 20
33.85107560326911
 30
0.0
 10
251.9257387265041
 20
33.82401967726024
 30
0.0
 10
251.8504438343124
 20
33.78055286121513
 30
0.0
  0
LWPOLYLINE
  5
1AC
330
1F
100
AcDbEntity
  8
0
  6
Continuous
 62
     7
370
    15
100
AcDbPolyline
 90
       21
 70
   128
 43
0.0
 10
251.8504438343
 20
33.7805528612
 10
252.1568005685
 20
34.9834283774
 10
252.5432840646
 20
36.1958271692
 10
253.0066424364
 20
37.4075480689
 10
253.5429769697
 20
38.6083956123
 10
254.1477749259
 20
39.7882658244
 10
254.815947513
 20
40.9372312339
 10
255.5418727024
 20
42.0456244038
 10
256.3194425328
 20
43.1041192735
 10
257.1421145034
 20
44.1038096284
 10
258.0029666221
 20
45.0362840371
 10
258.8947556475
 20
45.8936966259
 10
259.8099780342
 20
46.668833094
 10
260.7409330676
 20
47.3551714146
 10
261.6797876578
 20
47.946936712
 10
262.618642248
 20
48.4391498513
 10
263.5495972814
 20
48.8276693332
 10
264.4648196681
 20
49.1092261406
 10
265.3566086935
 20
49.281451244
 10
266.2174608121
 20
49.3428955353
 10
266.9276842029
 20
49.3066975783
  0
SPLINE
  5
1AD
330
1F
100
AcDbEntity
  8
0
  6
Continuous
 62
     7
370
    15
100
AcDbSpline
210
0.0
220
0.0
230
1.0
 70
     8
 71
     3
 72
    10
 73
     6
 74
     0
 42
0.000000001
 43
0.00000001
 40
0.0
 40
0.0
 40
0.0
 40
0.0
 40
0.5
 40
0.5
 40
1.0
 40
1.0
 40
1.0
 40
1.0
 10
248.9120655207587
 20
34.77077486844931
 30
0.0
 10
248.9194291550264
 20
34.77481111610503
 30
0.0
 10
248.9312930908344
 20
34.77503253385571
 30
0.0
 10
248.9654061057094
 20
34.76539187402275
 30
0.0
 10
248.9875545046392
 20
34.7554718117845
 30
0.0
 10
249.013840485935
 20
34.74029723778233
 30
0.0
  0
SPLINE
  5
1AE
330
1F
100
AcDbEntity
  8
0
  6
Continuous
 62
     7
370
    15
100
AcDbSpline
210
0.0
220
0.0
230
1.0
 70
     8
 71
     3
 72
     8
 73
     4
 74
     0
 42
0.000000001
 43
0.00000001
 40
0.0
 40
0.0
 40
0.0
 40
0.0
 40
1.0
 40
1.0
 40
1.0
 40
1.0
 10
283.3198600939998
 20
25.79609819626763
 30
0.0
 10
283.3588475846984
 20
25.77359119696227
 30
0.0
 10
283.4095953648171
 20
25.77009363575954
 30
0.0
 10
283.460832324339
 20
25.77829058520646
 30
0.0
  0
SPLINE
  5
1AF
330
1F
100
AcDbEntity
  8
0
  6
Continuous
 62
     7
370
    15
100
AcDbSpline
210
0.0
220
0.0
230
1.0
 70
     8
 71
     3
 72
    16
 73
    12
 74
     0
 42
0.000000001
 43
0.00000001
 40
0.0
 40
0.0
 40
0.0
 40
0.0
 40
0.2500000000000056
 40
0.2500000000000056
 40
0.3750000000000071
 40
0.3750000000000071
 40
0.5000000000000087
 40
0.5000000000000087
 40
0.7500000000000043
 40
0.7500000000000043
 40
1.0
 40
1.0
 40
1.0
 40
1.0
 10
283.4608323243391
 20
25.77829058520643
 30
0.0
 10
283.4769615469627
 20
25.72950152192452
 30
0.0
 10
283.4993678556844
 20
25.68037548082697
 30
0.0
 10
283.5536936779162
 20
25.62613589042311
 30
0.0
 10
283.5757601735789
 20
25.61181550661201
 30
0.0
 10
283.6241063628076
 20
25.59748041188742
 30
0.0
 10
283.6501913282017
 20
25.59749974312652
 30
0.0
 10
283.7239290014462
 20
25.6129682955842
 30
0.0
 10
283.7674051594855
 20
25.64066892960822
 30
0.0
 10
283.8447128242003
 20
25.70404410937704
 30
0.0
 10
283.8793662266285
 20
25.74126820961141
 30
0.0
 10
283.9107331111915
 20
25.78028831580839
 30
0.0
  0
SPLINE
  5
1B0
330
1F
100
AcDbEntity
  8
0
  6
Continuous
 62
     7
370
    15
100
AcDbSpline
210
0.0
220
0.0
230
1.0
 70
     8
 71
     3
 72
    14
 73
    10
 74
     0
 42
0.000000001
 43
0.00000001
 40
0.0
 40
0.0
 40
0.0
 40
0.0
 40
0.25
 40
0.25
 40
0.5
 40
0.5
 40
0.75
 40
0.75
 40
1.0
 40
1.0
 40
1.0
 40
1.0
 10
257.2462281397433
 20
31.32084081768155
 30
0.0
 10
257.2462281397433
 20
31.0224236908405
 30
0.0
 10
257.2627206018046
 20
30.71516125249274
 30
0.0
 10
257.294115890492
 20
30.10148893623081
 30
0.0
 10
257.3085649171231
 20
29.79532244237312
 30
0.0
 10
257.3086763504381
 20
29.1984284242738
 30
0.0
 10
257.2942564643917
 20
28.90770028706234
 30
0.0
 10
257.262779725483
 20
28.32870649090434
 30
0.0
 10
257.2462281397433
 20
28.03968338714726
 30
0.0
 10
257.2462281397433
 20
27.74101703413001
 30
0.0
  0
LINE
  5
1B1
330
1F
100
AcDbEntity
  8
0
  6
Continuous
 62
     7
370
    15
100
AcDbLine
 10
254.6083324334
 20
31.3477560695
 30
0.0
 11
252.8827528192
 21
32.343911977
 31
0.0
  0
SPLINE
  5
1B2
330
1F
100
AcDbEntity
  8
0
  6
Continuous
 62
     7
370
    15
100
AcDbSpline
210
0.0
220
0.0
230
1.0
 70
     8
 71
     3
 72
     8
 73
     4
 74
     0
 42
0.000000001
 43
0.00000001
 40
0.0
 40
0.0
 40
0.0
 40
0.0
 40
0.0011858378198547
 40
0.0011858378198547
 40
0.0011858378198547
 40
0.0011858378198547
 10
252.8827528192185
 20
32.34391197698619
 30
0.0
 10
252.8711137360397
 20
32.40502855363938
 30
0.0
 10
252.8601467020329
 20
32.46566118312493
 30
0.0
 10
252.8497969786717
 20
32.52584669043069
 30
0.0
  0
SPLINE
  5
1B3
330
1F
100
AcDbEntity
  8
0
  6
Continuous
 62
     7
370
    15
100
AcDbSpline
210
0.0
220
0.0
230
1.0
 70
     8
 71
     3
 72
    30
 73
    26
 74
     0
 42
0.000000001
 43
0.00000001
 40
0.0
 40
0.0
 40
0.0
 40
0.0
 40
0.1250000000000006
 40
0.1250000000000006
 40
0.1875000000000006
 40
0.1875000000000006
 40
0.2500000000000006
 40
0.2500000000000006
 40
0.3125000000000006
 40
0.3125000000000006
 40
0.3750000000000006
 40
0.3750000000000006
 40
0.4375000000000005
 40
0.4375000000000005
 40
0.5000000000000004
 40
0.5000000000000004
 40
0.6250000000000003
 40
0.6250000000000003
 40
0.6875000000000004
 40
0.6875000000000004
 40
0.7500000000000004
 40
0.7500000000000004
 40
0.8750000000000002
 40
0.8750000000000002
 40
1.0
 40
1.0
 40
1.0
 40
1.0
 10
285.4067557004976
 20
28.19900076560085
 30
0.0
 10
285.5200457908962
 20
28.33993256102804
 30
0.0
 10
285.622343958023
 20
28.48972298271389
 30
0.0
 10
285.7582186479328
 20
28.72818950646961
 30
0.0
 10
285.8008699481457
 20
28.81061402455604
 30
0.0
 10
285.878314871928
 20
28.97621233717997
 30
0.0
 10
285.9131934251731
 20
29.05948730751055
 30
0.0
 10
285.9754551271965
 20
29.22695456602408
 30
0.0
 10
286.002859160972
 20
29.31113544641876
 30
0.0
 10
286.050020871495
 20
29.48040226793004
 30
0.0
 10
286.0695743090983
 20
29.56494643421419
 30
0.0
 10
286.1002512579658
 20
29.72997377106664
 30
0.0
 10
286.1114980414347
 20
29.81103407184014
 30
0.0
 10
286.1259674574716
 20
29.97016017916123
 30
0.0
 10
286.1292183407376
 20
30.04869242386609
 30
0.0
 10
286.1267006336504
 20
30.27578105615773
 30
0.0
 10
286.1092102286327
 20
30.41409617258614
 30
0.0
 10
286.0600038651929
 20
30.60179149186208
 30
0.0
 10
286.0396392708545
 20
30.66102181670881
 30
0.0
 10
285.9921688041892
 20
30.76933912188795
 30
0.0
 10
285.9649477831049
 20
30.81892721870596
 30
0.0
 10
285.8729228896361
 20
30.95408979199473
 30
0.0
 10
285.7966842257577
 20
31.02637840688946
 30
0.0
 10
285.620999052346
 20
31.12800477104353
 30
0.0
 10
285.5200560140743
 20
31.15887936970852
 30
0.0
 10
285.4067557009943
 20
31.16901012785739
 30
0.0
  0
LINE
  5
1B4
330
1F
100
AcDbEntity
  8
0
  6
Continuous
 62
     7
370
    15
100
AcDbLine
 10
285.406755701
 20
31.1690101279
 30
0.0
 11
283.4608323243
 21
31.3430050011
 31
0.0
  0
SPLINE
  5
1B5
330
1F
100
AcDbEntity
  8
0
  6
Continuous
 62
     7
370
    15
100
AcDbSpline
210
0.0
220
0.0
230
1.0
 70
     8
 71
     3
 72
    12
 73
     8
 74
     0
 42
0.000000001
 43
0.00000001
 40
0.0
 40
0.0
 40
0.0
 40
0.0
 40
0.1628503295329019
 40
0.3259029173237739
 40
0.6517341605780991
 40
0.8300242165124612
 40
0.9999999999999999
 40
0.9999999999999999
 40
0.9999999999999999
 40
0.9999999999999999
 10
251.6335680640751
 20
30.98113672792639
 30
0.0
 10
251.631126727659
 20
31.13175813577379
 30
0.0
 10
251.6262410227148
 20
31.43318802154484
 30
0.0
 10
251.5923927170576
 20
32.04861446423366
 30
0.0
 10
251.5635979153058
 20
32.67619936735267
 30
0.0
 10
251.5791416741912
 20
33.28495013589033
 30
0.0
 10
251.5964535450749
 20
33.59342467563495
 30
0.0
 10
251.6049028343361
 20
33.74397978510559
 30
0.0
  0
LINE
  5
1B6
330
1F
100
AcDbEntity
  8
0
  6
Continuous
 62
     7
370
    15
100
AcDbLine
 10
251.6335680641
 20
29.4850315293
 30
0.0
 11
251.6335680641
 21
30.9811367279
 31
0.0
  0
LINE
  5
1B7
330
1F
100
AcDbEntity
  8
0
  6
Continuous
 62
     7
370
    15
100
AcDbLine
 10
249.3492257483
 20
34.3837737353
 30
0.0
 11
248.9120655208
 21
34.7707748684
 31
0.0
  0
LINE
  5
1B8
330
1F
100
AcDbEntity
  8
0
  6
Continuous
 62
     7
370
    15
100
AcDbLine
 10
250.7124131372
 20
33.5968224065
 30
0.0
 11
249.3492257483
 21
34.3837737353
 31
0.0
  0
LINE
  5
1B9
330
1F
100
AcDbEntity
  8
0
  6
Continuous
 62
     7
370
    15
100
AcDbLine
 10
250.5729078923
 20
33.4547904134
 30
0.0
 11
250.5744519383
 21
33.6355543948
 31
0.0
  0
ARC
  5
1BA
330
1F
100
AcDbEntity
  8
0
  6
Continuous
 62
     7
370
    15
100
AcDbCircle
 10
257.224125654
 20
33.1321736435
 30
0.0
 40
6.659037414973902
100
AcDbArc
 50
177.2230493701
 51
212.9079590882
  0
ARC
  5
1BB
330
1F
100
AcDbEntity
  8
0
  6
Continuous
 62
     7
370
    15
100
AcDbCircle
 10
278.1765754879
 20
33.0034940126
 30
0.0
 40
3.360506813818295
100
AcDbArc
 50
320.6498369943
 51
350.7253969509
  0
LWPOLYLINE
  5
1BC
330
1F
100
AcDbEntity
  8
0
  6
Continuous
 62
     7
370
    15
100
AcDbPolyline
 90
        3
 70
   128
 43
0.0
 10
237.3001757639
 20
57.292718125
 10
237.3015181587
 20
57.2922824497
 10
237.3659000446
 20
57.2702314182
  0
LINE
  5
1BD
330
1F
100
AcDbEntity
  8
0
  6
Continuous
 62
     7
370
    15
100
AcDbLine
 10
283.4608323243
 20
25.7782905852
 30
0.0
 11
285.4067557005
 21
28.1990007656
 31
0.0
  0
LINE
  5
1BE
330
1F
100
AcDbEntity
  8
0
  6
Continuous
 62
     7
370
    15
100
AcDbLine
 10
278.7943766944
 20
28.4086041541
 30
0.0
 11
280.7752062837
 21
30.8727373318
 31
0.0
  0
LINE
  5
1BF
330
1F
100
AcDbEntity
  8
0
  6
Continuous
 62
     7
370
    15
100
AcDbLine
 10
252.8827528192
 20
25.6646081358
 30
0.0
 11
254.6083324334
 21
24.6684522283
 31
0.0
  0
SPLINE
  5
1C0
330
1F
100
AcDbEntity
  8
0
  6
Continuous
 62
     7
370
    15
100
AcDbSpline
210
0.0
220
0.0
230
1.0
 70
     8
 71
     3
 72
    14
 73
    10
 74
     0
 42
0.000000001
 43
0.00000001
 40
0.0
 40
0.0
 40
0.0
 40
0.0
 40
0.25
 40
0.25
 40
0.5
 40
0.5
 40
0.75
 40
0.75
 40
1.0
 40
1.0
 40
1.0
 40
1.0
 10
254.5614947354777
 20
24.5479969017331
 30
0.0
 10
254.5447091708612
 20
24.50482845502965
 30
0.0
 10
254.5243061703682
 20
24.46480111637191
 30
0.0
 10
254.4757578879065
 20
24.39146925142056
 30
0.0
 10
254.4474161203839
 20
24.35817119755059
 30
0.0
 10
254.384260910479
 20
24.3052287366181
 30
0.0
 10
254.3490355963745
 20
24.28515620475774
 30
0.0
 10
254.2743564502403
 20
24.268384075852
 30
0.0
 10
254.2360285816783
 20
24.27257703691259
 30
0.0
 10
254.2022364928913
 20
24.29208479453503
 30
0.0
  0
LINE
  5
1C1
330
1F
100
AcDbEntity
  8
0
  6
Continuous
 62
     7
370
    15
100
AcDbLine
 10
254.2022364929
 20
24.2920847945
 30
0.0
 11
252.8497969787
 21
25.0728315074
 31
0.0
  0
SPLINE
  5
1C2
330
1F
100
AcDbEntity
  8
0
  6
Continuous
 62
     7
370
    15
100
AcDbSpline
210
0.0
220
0.0
230
1.0
 70
     8
 71
     3
 72
     8
 73
     4
 74
     0
 42
0.000000001
 43
0.00000001
 40
0.0
 40
0.0
 40
0.0
 40
0.0
 40
0.0011858378198546
 40
0.0011858378198546
 40
0.0011858378198546
 40
0.0011858378198546
 10
252.8497969786717
 20
25.07283150743296
 30
0.0
 10
252.8601467020329
 20
25.27011047739954
 30
0.0
 10
252.8711137360397
 20
25.46737335658898
 30
0.0
 10
252.8827528192185
 20
25.66460813576074
 30
0.0
  0
ARC
  5
1C3
330
1F
100
AcDbEntity
  8
0
  6
Continuous
 62
     7
370
    15
100
AcDbCircle
 10
259.8152483411
 20
25.3243295129
 30
0.0
 40
5.589596848650343
100
AcDbArc
 50
210.3378118222
 51
269.6480831731
  0
SPLINE
  5
1C4
330
1F
100
AcDbEntity
  8
0
  6
Continuous
 62
     7
370
    15
100
AcDbSpline
210
0.0
220
0.0
230
1.0
 70
     8
 71
     3
 72
     8
 73
     4
 74
     0
 42
0.000000001
 43
0.00000001
 40
0.0
 40
0.0
 40
0.0
 40
0.0
 40
1.0
 40
1.0
 40
1.0
 40
1.0
 10
253.2108887554416
 20
26.32727766234541
 30
0.0
 10
253.1010565179319
 20
26.10646495515143
 30
0.0
 10
252.9917065449454
 20
25.88556742643089
 30
0.0
 10
252.8827528192185
 20
25.66460813576074
 30
0.0
  0
LINE
  5
1C5
330
1F
100
AcDbEntity
  8
0
  6
Continuous
 62
     7
370
    15
100
AcDbLine
 10
253.2010177864
 20
26.3215792732
 30
0.0
 11
253.2108887554
 21
26.3272776623
 31
0.0
  0
SPLINE
  5
1C6
330
1F
100
AcDbEntity
  8
0
  6
Continuous
 62
     7
370
    15
100
AcDbSpline
210
0.0
220
0.0
230
1.0
 70
     8
 71
     3
 72
    12
 73
     8
 74
     0
 42
0.000000001
 43
0.00000001
 40
0.0
 40
0.0
 40
0.0
 40
0.0
 40
0.2500000000000022
 40
0.2500000000000022
 40
0.5000000000000043
 40
0.5000000000000043
 40
1.0
 40
1.0
 40
1.0
 40
1.0
 10
253.2133697481322
 20
26.65527315366858
 30
0.0
 10
253.2510090262509
 20
26.6335444609189
 30
0.0
 10
253.2811469811018
 20
26.60674663949785
 30
0.0
 10
253.3197005169033
 20
26.54897865378233
 30
0.0
 10
253.3284665480489
 20
26.5179288653718
 30
0.0
 10
253.323179995235
 20
26.42560963345234
 30
0.0
 10
253.2763126785704
 20
26.36504608924411
 30
0.0
 10
253.2010177863787
 20
26.32157927319901
 30
0.0
  0
LINE
  5
1C7
330
1F
100
AcDbEntity
  8
0
  6
Continuous
 62
     7
370
    15
100
AcDbLine
 10
252.428481221
 20
27.1083796557
 30
0.0
 11
253.2133697481
 21
26.6552731537
 31
0.0
  0
SPLINE
  5
1C8
330
1F
100
AcDbEntity
  8
0
  6
Continuous
 62
     7
370
    15
100
AcDbSpline
210
0.0
220
0.0
230
1.0
 70
     8
 71
     3
 72
    14
 73
    10
 74
     0
 42
0.000000001
 43
0.00000001
 40
0.0
 40
0.0
 40
0.0
 40
0.0
 40
0.25
 40
0.25
 40
0.5
 40
0.5
 40
0.75
 40
0.75
 40
1.0
 40
1.0
 40
1.0
 40
1.0
 10
251.8504438343124
 20
27.1012490199897
 30
0.0
 10
251.8882844265734
 20
27.12309392892005
 30
0.0
 10
251.9331934919463
 20
27.14086032487987
 30
0.0
 10
252.0308058598146
 20
27.16567090454331
 30
0.0
 10
252.0841040395198
 20
27.1727936749131
 30
0.0
 10
252.1904674746375
 20
27.17481991022881
 30
0.0
 10
252.2444968181265
 20
27.16975743209152
 30
0.0
 10
252.344853544554
 20
27.14738428652299
 30
0.0
 10
252.390482852633
 20
27.13031564687652
 30
0.0
 10
252.4284812210152
 20
27.10837965573019
 30
0.0
  0
LINE
  5
1C9
330
1F
100
AcDbEntity
  8
0
  6
Continuous
 62
     7
370
    15
100
AcDbLine
 10
251.8603148034
 20
27.1069474091
 30
0.0
 11
251.8504438343
 21
27.10124902
 31
0.0
  0
SPLINE
  5
1CA
330
1F
100
AcDbEntity
  8
0
  6
Continuous
 62
     7
370
    15
100
AcDbSpline
210
0.0
220
0.0
230
1.0
 70
     8
 71
     3
 72
     8
 73
     4
 74
     0
 42
0.000000001
 43
0.00000001
 40
0.0
 40
0.0
 40
0.0
 40
0.0
 40
1.0
 40
1.0
 40
1.0
 40
1.0
 10
250.7124131371669
 20
26.91751856526081
 30
0.0
 10
251.0951673272255
 20
26.9804162123089
 30
0.0
 10
251.4778145308574
 20
27.04354260803091
 30
0.0
 10
251.8603148033753
 20
27.1069474091361
 30
0.0
  0
LINE
  5
1CB
330
1F
100
AcDbEntity
  8
0
  6
Continuous
 62
     7
370
    15
100
AcDbLine
 10
249.3492257483
 20
27.7044698941
 30
0.0
 11
250.7124131372
 21
26.9175185653
 31
0.0
  0
LINE
  5
1CC
330
1F
100
AcDbEntity
  8
0
  6
Continuous
 62
     7
370
    15
100
AcDbLine
 10
249.3492257483
 20
27.7044698941
 30
0.0
 11
251.7042787422
 21
29.0640130488
 31
0.0
  0
ARC
  5
1CD
330
1F
100
AcDbEntity
  8
0
  6
Continuous
 62
     7
370
    15
100
AcDbCircle
 10
259.0314016509
 20
26.6872034822
 30
0.0
 40
6.388930520588918
100
AcDbArc
 50
194.6363153028
 51
238.196622426
  0
ELLIPSE
  5
1CE
330
1F
100
AcDbEntity
  8
0
  6
Continuous
 62
     7
370
    15
100
AcDbEllipse
 10
251.5871214547
 20
29.458262836
 30
0.0
 11
-3.002985195621477E-5
 21
0.4267244807413597
 31
0.0
210
0.0
220
0.0
230
1.0
 40
0.7174342186
 41
3.534193645557342
 42
5.10498997235229
  0
ARC
  5
1CF
330
1F
100
AcDbEntity
  8
0
  6
Continuous
 62
     7
370
    15
100
AcDbCircle
 10
256.1845264554
 20
27.9008987278
 30
0.0
 40
5.990406384032537
100
AcDbArc
 50
193.4098001616
 51
253.8336005401
  0
SPLINE
  5
1D0
330
1F
100
AcDbEntity
  8
0
  6
Continuous
 62
     7
370
    15
100
AcDbSpline
210
0.0
220
0.0
230
1.0
 70
     8
 71
     3
 72
     8
 73
     4
 74
     0
 42
0.000000001
 43
0.00000001
 40
0.0
 40
0.0
 40
0.0
 40
0.0
 40
0.0011858378198546
 40
0.0011858378198546
 40
0.0011858378198546
 40
0.0011858378198546
 10
250.7124131371669
 20
26.91751856526081
 30
0.0
 10
250.5945185417433
 20
26.7816237876493
 30
0.0
 10
250.4761804523959
 20
26.64634489934165
 30
0.0
 10
250.3574411653898
 20
26.51163789258556
 30
0.0
  0
LINE
  5
1D1
330
1F
100
AcDbEntity
  8
0
  6
Continuous
 62
     7
370
    15
100
AcDbLine
 10
248.9120655208
 20
27.4520507088
 30
0.0
 11
249.3492257483
 21
27.7044698941
 31
0.0
  0
LINE
  5
1D2
330
1F
100
AcDbEntity
  8
0
  6
Continuous
 62
     7
370
    15
100
AcDbLine
 10
250.3574411654
 20
26.5116378926
 30
0.0
 11
249.0138404859
 21
27.2872820548
 31
0.0
  0
SPLINE
  5
1D3
330
1F
100
AcDbEntity
  8
0
  6
Continuous
 62
     7
370
    15
100
AcDbSpline
210
0.0
220
0.0
230
1.0
 70
     8
 71
     3
 72
    10
 73
     6
 74
     0
 42
0.000000001
 43
0.00000001
 40
0.0
 40
0.0
 40
0.0
 40
0.0
 40
0.5
 40
0.5
 40
1.0
 40
1.0
 40
1.0
 40
1.0
 10
249.013840485935
 20
27.2872820547846
 30
0.0
 10
248.9876060954611
 20
27.30242684603923
 30
0.0
 10
248.9654314747069
 20
27.3259713688707
 30
0.0
 10
248.9313670533309
 20
27.38322014904999
 30
0.0
 10
248.9194254202805
 20
27.41674633609062
 30
0.0
 10
248.9120655207587
 20
27.45205070884164
 30
0.0
  0
ARC
  5
1D4
330
1F
100
AcDbEntity
  8
0
  6
Continuous
 62
     7
370
    15
100
AcDbCircle
 10
258.4472429848
 20
28.982781207
 30
0.0
 40
6.859877725089398
100
AcDbArc
 50
195.9191542404
 51
215.7602476364
  0
ARC
  5
1D5
330
1F
100
AcDbEntity
  8
0
  6
Continuous
 62
     7
370
    15
100
AcDbCircle
 10
254.722244739
 20
28.3924149506
 30
0.0
 40
5.708336267724595
100
AcDbArc
 50
210.8091975341
 51
239.539552485
  0
ELLIPSE
  5
1D6
330
1F
100
AcDbEntity
  8
0
  6
Continuous
 62
     7
370
    15
100
AcDbEllipse
 10
251.3507253516
 20
29.3217499069
 30
0.0
 11
0.1300037894604316
 21
0.4852718104954654
 31
0.0
210
0.0
220
0.0
230
1.0
 40
0.5176380889
 41
3.619174351347599
 42
5.18997067814261
  0
LWPOLYLINE
  5
1D7
330
1F
100
AcDbEntity
  8
0
  6
Continuous
 62
     7
370
     0
100
AcDbPolyline
 90
       33
 70
   128
 43
0.0
 10
277.4080461386
 20
41.468895758
 10
276.7658514742
 20
41.7702411636
 10
276.0691475495
 20
41.9647211626
 10
275.3251519251
 20
42.0501695423
 10
274.5410296855
 20
42.0257633881
 10
273.7243323566
 20
41.8917377444
 10
272.8829251801
 20
41.6493833515
 10
272.0249113671
 20
41.3010342148
 10
271.1585540596
 20
40.8500451268
 10
270.2921967521
 20
40.300759359
 10
269.4341829391
 20
39.6584668336
 10
268.5927757626
 20
38.9293531788
 10
267.7760784337
 20
38.1204401575
 10
266.9919561941
 20
37.2395180444
 10
266.2479605697
 20
36.2950706011
 10
265.5512566449
 20
35.2961933726
 10
264.9085540596
 20
34.2525060927
 10
264.3260423908
 20
33.1740600405
 10
263.8093315445
 20
32.071241241
 10
263.3633977284
 20
30.9546704421
 10
262.9925355291
 20
29.8351008309
 10
262.7003165522
 20
28.7233144749
 10
262.4895550263
 20
27.6300184844
 10
262.3622807
 20
26.5657418974
 10
262.3197192948
 20
25.5407342794
 10
262.3622807
 20
24.5648670139
 10
262.4895550263
 20
23.6475382362
 10
262.7003165522
 20
22.7975823238
 10
262.9925355291
 20
22.023184817
 10
263.3633977284
 20
21.3318035869
 10
263.8093315445
 20
20.7300970128
 10
264.3260423908
 20
20.2238598579
 10
264.7383412085
 20
19.9217662211
  0
LWPOLYLINE
  5
1D8
330
1F
100
AcDbEntity
  8
0
  6
Continuous
 62
     7
370
     0
100
AcDbPolyline
 90
       18
 70
   128
 43
0.0
 10
274.6698309753
 20
20.4456290642
 10
275.0190800055
 20
19.9927009762
 10
275.4374766766
 20
19.6362000202
 10
275.9182474522
 20
19.3818976862
 10
276.4536090046
 20
19.2339109431
 10
277.0348942214
 20
19.1946355883
 10
277.6526925194
 20
19.264707461
 10
278.2970021957
 20
19.4429921489
 10
278.957392347
 20
19.7266033531
 10
279.6231717394
 20
20.1109496153
 10
280.2835618908
 20
20.5898086503
 10
280.927871567
 20
21.1554280801
 10
281.5456698651
 20
21.7986509394
 10
282.1269550819
 20
22.5090639199
 10
282.6623166343
 20
23.2751659544
 10
283.1430874099
 20
24.0845544107
 10
283.561484081
 20
24.9241258807
 10
283.9107331112
 20
25.7802883158
  0
LWPOLYLINE
  5
1D9
330
1F
100
AcDbEntity
  8
0
  6
Continuous
 62
     7
370
     0
100
AcDbPolyline
 90
       18
 70
   128
 43
0.0
 10
283.9106862047
 20
31.4523224315
 10
283.5614331711
 20
31.9052293738
 10
283.1430357688
 20
32.2617117291
 10
282.6622673063
 20
32.5159985129
 10
282.1269107983
 20
32.6639731535
 10
281.5456329687
 20
32.7032401344
 10
280.9278439479
 20
32.6331637745
 10
280.2835449346
 20
32.4548785187
 10
279.62316629
 20
32.1712705727
 10
278.9573986834
 20
31.7869311796
 10
278.2970200244
 20
31.3080822931
 10
277.6527209826
 20
30.7424758523
 10
277.0349319196
 20
30.0992682882
 10
276.4536540349
 20
29.3888722928
 10
275.9182974597
 20
28.622788251
 10
275.437528919
 20
27.8134180649
 10
275.0191314287
 20
26.9738643827
 10
274.6698782988
 20
26.1177184838
  0
LINE
  5
1DA
330
1F
100
AcDbEntity
  8
0
  6
Continuous
 62
     7
370
     0
100
AcDbLine
 10
272.8202549954
 20
20.9329685704
 30
0.0
 11
272.908643343
 21
20.6031057778
 31
0.0
  0
LWPOLYLINE
  5
1DB
330
1F
100
AcDbEntity
  8
0
  6
Continuous
 62
     7
370
     0
100
AcDbPolyline
 90
        3
 70
   128
 43
0.0
 10
283.319860094
 20
31.407356751
 10
282.9619247615
 20
31.8327316485
 10
282.5351491491
 20
32.1581406655
  0
LWPOLYLINE
  5
1DC
330
1F
100
AcDbEntity
  8
0
  6
Continuous
 62
     7
370
     0
100
AcDbPolyline
 90
       15
 70
   128
 43
0.0
 10
275.5077237665
 20
20.049877921
 10
275.968454148
 20
19.846203574
 10
276.5100385592
 20
19.7355958298
 10
277.0952163214
 20
19.7362951761
 10
277.7137728707
 20
19.8482894054
 10
278.3549110003
 20
20.0696236037
 10
279.0074393308
 20
20.3964342744
 10
279.6599676613
 20
20.8230167777
 10
280.3011057908
 20
21.3419249073
 10
280.9196623401
 20
21.9441008683
 10
281.5048401023
 20
22.619033385
 10
282.0464245135
 20
23.3549411804
 10
282.5349619531
 20
24.1389786245
 10
282.9619247615
 20
24.9574599603
 10
283.319860094
 20
25.7960981963
  0
LINE
  5
1DD
330
1F
100
AcDbEntity
  8
0
  6
Continuous
 62
     7
370
     0
100
AcDbLine
 10
272.2832638094
 20
21.2429669836
 30
0.0
 11
272.8202549954
 21
20.9329685704
 31
0.0
  0
LWPOLYLINE
  5
1DE
330
1F
100
AcDbEntity
  8
0
  6
Continuous
 62
     7
370
     0
100
AcDbPolyline
 90
       30
 70
   128
 43
0.0
 10
254.5614947355
 20
31.4141337411
 10
254.8692812272
 20
32.6714210107
 10
255.2593107728
 20
33.9401414538
 10
255.7284680334
 20
35.2101612375
 10
256.273005642
 20
36.4713361505
 10
256.8885741351
 20
37.7135926295
 10
257.5702566942
 20
38.9270082212
 10
258.3126084185
 20
40.1018908372
 10
259.1096998154
 20
41.2288561689
 10
259.9551641626
 20
42.2989026445
 10
260.8422483613
 20
43.3034833282
 10
261.7638668767
 20
44.2345741887
 10
262.712658333
 20
45.0847381904
 10
263.6810443121
 20
45.8471846963
 10
264.6612898856
 20
46.5158237081
 10
265.6455653977
 20
47.0853145095
 10
266.6260090031
 20
47.5511083249
 10
267.5947894641
 20
47.9094846525
 10
268.5441687014
 20
48.1575809818
 10
269.4665636022
 20
48.2934156572
 10
270.3546065893
 20
48.315903707
 10
271.2012044696
 20
48.2248655093
 10
271.9995950903
 20
48.0210282263
 10
272.7434013515
 20
47.7060199969
 10
273.4266821427
 20
47.2823569316
 10
274.0439797973
 20
46.7534230151
 10
274.5903636852
 20
46.1234430771
 10
275.0614695958
 20
45.3974490469
 10
275.4535345975
 20
44.5812397606
 10
275.7634270932
 20
43.6813346438
  0
LWPOLYLINE
  5
1DF
330
1F
100
AcDbEntity
  8
0
  6
Continuous
 62
     7
370
     0
100
AcDbPolyline
 90
       21
 70
   128
 43
0.0
 10
254.2022364929
 20
31.7450999775
 10
254.5291590524
 20
33.0154808505
 10
254.9375089106
 20
34.2953115776
 10
255.4240963968
 20
35.5745952449
 10
255.985120717
 20
36.8433392117
 10
256.6161996417
 20
38.091633164
 10
257.3124037364
 20
39.3097265256
 10
258.0682948661
 20
40.4881046207
 10
258.877968673
 20
41.6175629943
 10
259.7351006963
 20
42.6892793092
 10
260.6329957731
 20
43.6948822587
 10
261.5646403354
 20
44.6265169553
 10
262.5227571941
 20
45.4769062871
 10
263.4998623815
 20
46.239407759
 10
264.4883236097
 20
46.9080653791
 10
265.4804198877
 20
47.4776561813
 10
266.4684018302
 20
47.9437310223
 10
267.44455219
 20
48.3026493346
 10
268.4012461375
 20
48.5516075636
 10
269.3310108196
 20
48.6886610661
 10
270.1170672554
 20
48.7159161397
  0
LWPOLYLINE
  5
1E0
330
1F
100
AcDbEntity
  8
0
  6
Continuous
 62
     7
370
     0
100
AcDbPolyline
 90
       25
 70
   128
 43
0.0
 10
257.2462281397
 20
31.3208408177
 10
257.4444349416
 20
32.3541822572
 10
257.7223812029
 20
33.405581973
 10
258.0771965481
 20
34.4641820684
 10
258.5052167683
 20
35.5190502878
 10
259.0020216614
 20
36.5592929152
 10
259.5624806798
 20
37.5741672741
 10
260.1808059145
 20
38.5531926686
 10
260.8506118667
 20
39.486258618
 10
261.564981392
 20
40.3637292689
 10
262.3165371339
 20
41.1765429052
 10
263.0975177108
 20
41.9163055296
 10
263.8998578681
 20
42.5753775491
 10
264.715271769
 20
43.1469526693
 10
265.535338563
 20
43.6251281841
 10
266.3515893488
 20
44.0049659333
 10
267.1555946333
 20
44.2825432993
 10
267.9390513838
 20
44.4549937164
 10
268.6938687741
 20
44.5205362741
 10
269.4122517392
 20
44.4784941088
 10
270.0867814755
 20
44.3293013934
 10
270.7104920556
 20
44.0744988543
 10
271.2769423659
 20
43.7167178594
 10
271.7802826246
 20
43.2596532443
 10
272.0214877598
 20
42.9763861207
  0
ARC
  5
1E1
330
1F
100
AcDbEntity
  8
0
  6
Continuous
 62
     7
370
     0
100
AcDbCircle
 10
261.7135162721
 20
28.1410298637
 30
0.0
 40
4.485161482187866
100
AcDbArc
 50
185.1167699734
 51
259.6783343013
  0
LWPOLYLINE
  5
1E2
330
1F
100
AcDbEntity
  8
0
  6
Continuous
 62
     7
370
     0
100
AcDbPolyline
 90
       15
 70
   128
 43
0.0
 10
263.8046490919
 20
20.6969108738
 10
263.6810443121
 20
20.6441537671
 10
262.712658333
 20
20.2885256205
 10
261.7638668767
 20
20.0432383241
 10
260.8422483613
 20
19.9102510962
 10
259.9551641626
 20
19.890626165
 10
259.1096998154
 20
19.9845202833
 10
258.3126084185
 20
20.1911834773
 10
257.5702566942
 20
20.5089650363
 10
256.8885741351
 20
20.9353266982
 10
256.273005642
 20
21.4668629232
 10
255.7284680334
 20
22.0993280958
 10
255.2593107728
 20
22.8276704363
 10
254.8692812272
 20
23.6460723512
 10
254.5614947355
 20
24.5479969017
  0
LWPOLYLINE
  5
1E3
330
1F
100
AcDbEntity
  8
0
  6
Continuous
 62
     7
370
     0
100
AcDbPolyline
 90
       21
 70
   128
 43
0.0
 10
257.5202320175
 20
29.444185564
 10
257.5618789326
 20
30.401205985
 10
257.6863782104
 20
31.3961662561
 10
257.8924101275
 20
32.4185195511
 10
258.1777906943
 20
33.4574286705
 10
258.5394948059
 20
34.5018809194
 10
258.9736883087
 20
35.540804844
 10
259.4757686434
 20
36.5631875924
 10
260.0404136338
 20
37.5581916529
 10
260.6616379024
 20
38.5152697351
 10
261.3328563174
 20
39.4242765732
 10
262.0469537967
 20
40.2755764685
 10
262.7963607292
 20
41.0601454305
 10
263.5731332152
 20
41.7696668329
 10
264.369037273
 20
42.3966195723
 10
265.1756361216
 20
42.9343577938
 10
265.9843796125
 20
43.3771813384
 10
266.7866948636
 20
43.7203961664
 10
267.5740771336
 20
43.9603641152
 10
268.3381799746
 20
44.0945414649
 10
269.0223947915
 20
44.1230773368
  0
ARC
  5
1E4
330
1F
100
AcDbEntity
  8
0
  6
Continuous
 62
     7
370
     0
100
AcDbCircle
 10
264.527580837
 20
29.1991770532
 30
0.0
 40
7.011630812373419
100
AcDbArc
 50
177.9974969675
 51
210.2414085196
  0
LWPOLYLINE
  5
1E5
330
1F
100
AcDbEntity
  8
0
  6
Continuous
 62
     7
370
     0
100
AcDbPolyline
 90
       21
 70
   128
 43
0.0
 10
249.0138404859
 20
34.7402972378
 10
249.3407630454
 20
36.0106781108
 10
249.7491129036
 20
37.2905088379
 10
250.2357003899
 20
38.5697925052
 10
250.79672471
 20
39.8385364719
 10
251.4278036347
 20
41.0868304242
 10
252.1240077295
 20
42.3049237859
 10
252.8798988592
 20
43.483301881
 10
253.6895726661
 20
44.6127602545
 10
254.5467046893
 20
45.6844765694
 10
255.4445997661
 20
46.6900795189
 10
256.3762443285
 20
47.6217142156
 10
257.3343611872
 20
48.4721035473
 10
258.3114663745
 20
49.2346050192
 10
259.2999276028
 20
49.9032626394
 10
260.2920238807
 20
50.4728534415
 10
261.2800058233
 20
50.9389282825
 10
262.2561561831
 20
51.2978465948
 10
263.2128501306
 20
51.5468048238
 10
264.1426148127
 20
51.6838583263
 10
264.9249484132
 20
51.711190245
  0
LWPOLYLINE
  5
1E6
330
1F
100
AcDbEntity
  8
0
  6
Continuous
 62
     7
370
     0
100
AcDbPolyline
 90
       18
 70
   128
 43
0.0
 10
252.428481221
 20
33.787683497
 10
252.7440628635
 20
34.9942494196
 10
253.1419757191
 20
36.209368842
 10
253.6186660202
 20
37.4221895081
 10
254.1698764361
 20
38.6218796919
 10
254.7906840952
 20
39.7977249361
 10
255.4755445519
 20
40.9392237429
 10
256.2183413035
 20
42.0361813634
 10
257.0124404172
 20
43.0788008468
 10
257.8507497777
 20
44.0577705374
 10
258.7257824271
 20
44.9643472371
 10
259.629723431
 20
45.7904342909
 10
260.5544996742
 20
46.5286538987
 10
261.4918519611
 20
47.1724130062
 10
262.4334087795
 20
47.7159621877
 10
263.3707610664
 20
48.1544469945
 10
264.2955373095
 20
48.4839513098
 10
264.9452190956
 20
48.6512222773
  0
LINE
  5
1E7
330
1F
100
AcDbEntity
  8
0
  6
Continuous
 62
     7
370
     0
100
AcDbLine
 10
285.6719207434
 20
27.971188987
 30
0.0
 11
285.4067557005
 21
28.1990007656
 31
0.0
  0
LINE
  5
1E8
330
1F
100
AcDbEntity
  8
0
  6
Continuous
 62
     7
370
     0
100
AcDbLine
 10
257.2462281397
 20
32.5439645218
 30
0.0
 11
256.9633394536
 21
32.7072726841
 31
0.0
  0
LINE
  5
1E9
330
1F
100
AcDbEntity
  8
0
  6
Continuous
 62
     7
370
     0
100
AcDbLine
 10
251.8699641671
 20
29.6215444584
 30
0.0
 11
257.2462281397
 21
26.51789333
 31
0.0
  0
LINE
  5
1EA
330
1F
100
AcDbEntity
  8
0
  6
Continuous
 62
     7
370
     0
100
AcDbLine
 10
251.6335680641
 20
29.4850315293
 30
0.0
 11
251.8699641671
 21
29.6215444584
 31
0.0
  0
LINE
  5
1EB
330
1F
100
AcDbEntity
  8
0
  6
Continuous
 62
     7
370
     0
100
AcDbLine
 10
251.4833078731
 20
32.9292276914
 30
0.0
 11
251.5117178077
 21
33.7165291856
 31
0.0
  0
LWPOLYLINE
  5
1EC
330
1F
100
AcDbEntity
  8
0
  6
Continuous
 62
     7
370
     0
100
AcDbPolyline
 90
        3
 70
   128
 43
0.0
 10
251.5849362521
 20
31.5332583492
 10
251.5249547882
 20
32.0202917751
 10
251.4833078731
 20
32.9292276914
  0
LINE
  5
1ED
330
1F
100
AcDbEntity
  8
0
  6
Continuous
 62
     7
370
     0
100
AcDbLine
 10
280.7752062837
 20
30.8727373318
 30
0.0
 11
285.4067557005
 21
28.1990007656
 31
0.0
  0
LWPOLYLINE
  5
1EE
330
1F
100
AcDbEntity
  8
0
  6
Continuous
 62
     7
370
     0
100
AcDbPolyline
 90
       17
 70
   128
 43
0.0
 10
230.2202638494
 20
49.216088518
 10
230.26291776
 20
49.9450937246
 10
230.3900492821
 20
50.7091568311
 10
230.599183945
 20
51.4934062181
 10
230.8862511805
 20
52.2825773634
 10
231.2456635514
 20
53.0613099484
 10
231.6704255048
 20
53.814446829
 10
232.1522695323
 20
54.5273290527
 10
232.681817088
 20
55.1860811777
 10
233.2487611312
 20
55.7778813433
 10
233.8420667409
 20
56.2912108325
 10
234.4501858982
 20
56.7160782705
 10
235.0612822556
 20
57.0442140961
 10
235.6634615176
 20
57.2692315187
 10
236.2450029497
 20
57.38675083
 10
236.7945875095
 20
57.3944846503
 10
237.3001757639
 20
57.292718125
  0
ARC
  5
1EF
330
1F
100
AcDbEntity
  8
0
  6
Continuous
 62
     7
370
     0
100
AcDbCircle
 10
233.6009446118
 20
48.9838039475
 30
0.0
 40
3.38865143365968
100
AcDbArc
 50
176.0694185984
 51
224.9117477784
  0
ARC
  5
1F0
330
1F
100
AcDbEntity
  8
0
  6
Continuous
 62
     7
370
     0
100
AcDbCircle
 10
261.6090597611
 20
26.4850766498
 30
0.0
 40
7.724651720574412
100
AcDbArc
 50
196.4928230965
 51
211.0480174618
  0
LINE
  5
1F1
330
1F
100
AcDbEntity
  8
0
  6
Continuous
 62
     7
370
     0
100
AcDbLine
 10
256.9633854273
 20
26.0279953829
 30
0.0
 11
251.7042787422
 21
29.0640130488
 31
0.0
  0
LINE
  5
1F2
330
1F
100
AcDbEntity
  8
0
  6
Continuous
 62
     7
370
     0
100
AcDbLine
 10
253.2926679716
 20
26.4128636933
 30
0.0
 11
253.2133697481
 21
26.6552731537
 31
0.0
  0
LWPOLYLINE
  5
1F3
330
1F
100
AcDbEntity
  8
0
  6
Continuous
 62
     7
370
     0
100
AcDbPolyline
 90
        3
 70
   128
 43
0.0
 10
252.9567797438
 20
25.832216233
 10
252.7440628635
 20
26.2661765418
 10
252.428481221
 20
27.1083796557
  0
ARC
  5
1F4
330
1F
100
AcDbEntity
  8
0
  6
Continuous
 62
     7
370
     0
100
AcDbCircle
 10
256.4083225672
 20
29.4753675402
 30
0.0
 40
7.711425506469164
100
AcDbArc
 50
196.483900468
 51
211.3036485474
  0
OLE2FRAME
  5
1F5
330
1F
100
AcDbEntity
  8
0
100
AcDbOle2Frame
 70
     2
  3
Paintbrush-Bild
 10
13.8511154363
 20
38.264191557
 30
0.0
 11
51.6290888628
 21
31.9806341108
 31
0.0
 71
     2
 72
     0
 73
     1
 90
    12928
310
80552BED0767C5B32B40DDAF6807D121434000000000000000006FFBDDFB85D0
310
4940DDAF6807D121434000000000000000006FFBDDFB85D04940416F4BD60AFB
310
3F4000000000000000002BED0767C5B32B40416F4BD60AFB3F40000000000000
310
0000000000000100000000010000010000000100000000000100000000320000
310
D0CF11E0A1B11AE1000000000000000000000000000000003E000300FEFF0900
310
0600000000000000000000000100000001000000000000000010000002000000
310
01000000FEFFFFFF0000000000000000FFFFFFFFFFFFFFFFFFFFFFFFFFFFFFFF
310
FFFFFFFFFFFFFFFFFFFFFFFFFFFFFFFFFFFFFFFFFFFFFFFFFFFFFFFFFFFFFFFF
310
FFFFFFFFFFFFFFFFFFFFFFFFFFFFFFFFFFFFFFFFFFFFFFFFFFFFFFFFFFFFFFFF
310
FFFFFFFFFFFFFFFFFFFFFFFFFFFFFFFFFFFFFFFFFFFFFFFFFFFFFFFFFFFFFFFF
310
FFFFFFFFFFFFFFFFFFFFFFFFFFFFFFFFFFFFFFFFFFFFFFFFFFFFFFFFFFFFFFFF
310
FFFFFFFFFFFFFFFFFFFFFFFFFFFFFFFFFFFFFFFFFFFFFFFFFFFFFFFFFFFFFFFF
310
FFFFFFFFFFFFFFFFFFFFFFFFFFFFFFFFFFFFFFFFFFFFFFFFFFFFFFFFFFFFFFFF
310
FFFFFFFFFFFFFFFFFFFFFFFFFFFFFFFFFFFFFFFFFFFFFFFFFFFFFFFFFFFFFFFF
310
FFFFFFFFFFFFFFFFFFFFFFFFFFFFFFFFFFFFFFFFFFFFFFFFFFFFFFFFFFFFFFFF
310
FFFFFFFFFFFFFFFFFFFFFFFFFFFFFFFFFFFFFFFFFFFFFFFFFFFFFFFFFFFFFFFF
310
FFFFFFFFFFFFFFFFFFFFFFFFFFFFFFFFFFFFFFFFFFFFFFFFFFFFFFFFFFFFFFFF
310
FFFFFFFFFFFFFFFFFFFFFFFFFFFFFFFFFFFFFFFFFFFFFFFFFFFFFFFFFFFFFFFF
310
FFFFFFFFFFFFFFFFFFFFFFFFFFFFFFFFFFFFFFFFFFFFFFFFFFFFFFFFFFFFFFFF
310
FFFFFFFFFFFFFFFFFFFFFFFFFFFFFFFFFFFFFFFFFFFFFFFFFFFFFFFFFFFFFFFF
310
FDFFFFFFFEFFFFFFFEFFFFFFFEFFFFFF05000000060000000700000008000000
310
090000000A0000000B0000000C0000000D0000000E0000000F00000010000000
310
11000000120000001300000014000000150000001600000017000000FEFFFFFF
310
FFFFFFFFFFFFFFFFFFFFFFFFFFFFFFFFFFFFFFFFFFFFFFFFFFFFFFFFFFFFFFFF
310
FFFFFFFFFFFFFFFFFFFFFFFFFFFFFFFFFFFFFFFFFFFFFFFFFFFFFFFFFFFFFFFF
310
FFFFFFFFFFFFFFFFFFFFFFFFFFFFFFFFFFFFFFFFFFFFFFFFFFFFFFFFFFFFFFFF
310
FFFFFFFFFFFFFFFFFFFFFFFFFFFFFFFFFFFFFFFFFFFFFFFFFFFFFFFFFFFFFFFF
310
FFFFFFFFFFFFFFFFFFFFFFFFFFFFFFFFFFFFFFFFFFFFFFFFFFFFFFFFFFFFFFFF
310
FFFFFFFFFFFFFFFFFFFFFFFFFFFFFFFFFFFFFFFFFFFFFFFFFFFFFFFFFFFFFFFF
310
FFFFFFFFFFFFFFFFFFFFFFFFFFFFFFFFFFFFFFFFFFFFFFFFFFFFFFFFFFFFFFFF
310
FFFFFFFFFFFFFFFFFFFFFFFFFFFFFFFFFFFFFFFFFFFFFFFFFFFFFFFFFFFFFFFF
310
FFFFFFFFFFFFFFFFFFFFFFFFFFFFFFFFFFFFFFFFFFFFFFFFFFFFFFFFFFFFFFFF
310
FFFFFFFFFFFFFFFFFFFFFFFFFFFFFFFFFFFFFFFFFFFFFFFFFFFFFFFFFFFFFFFF
310
FFFFFFFFFFFFFFFFFFFFFFFFFFFFFFFFFFFFFFFFFFFFFFFFFFFFFFFFFFFFFFFF
310
FFFFFFFFFFFFFFFFFFFFFFFFFFFFFFFFFFFFFFFFFFFFFFFFFFFFFFFFFFFFFFFF
310
FFFFFFFFFFFFFFFFFFFFFFFFFFFFFFFFFFFFFFFFFFFFFFFFFFFFFFFFFFFFFFFF
310
52006F006F007400200045006E00740072007900000000000000000000000000
310
0000000000000000000000000000000000000000000000000000000000000000
310
16000500FFFFFFFFFFFFFFFF020000000A00030000000000C000000000000046
310
0000000000000000000000003063CB8FF01AD20103000000C000000000000000
310
01004F006C006500000000000000000000000000000000000000000000000000
310
0000000000000000000000000000000000000000000000000000000000000000
310
0A000200FFFFFFFFFFFFFFFFFFFFFFFF00000000000000000000000000000000
310
0000000000000000000000000000000000000000000000001400000000000000
310
010043006F006D0070004F0062006A0000000000000000000000000000000000
310
0000000000000000000000000000000000000000000000000000000000000000
310
120002010100000003000000FFFFFFFF00000000000000000000000000000000
310
0000000000000000000000000000000000000000010000004D00000000000000
310
01004F006C006500310030004E00610074006900760065000000000000000000
310
0000000000000000000000000000000000000000000000000000000000000000
310
1A000200FFFFFFFFFFFFFFFFFFFFFFFF00000000000000000000000000000000
310
0000000000000000000000000000000000000000040000002426000000000000
310
FEFFFFFF02000000FEFFFFFFFFFFFFFFFFFFFFFFFFFFFFFFFFFFFFFFFFFFFFFF
310
FFFFFFFFFFFFFFFFFFFFFFFFFFFFFFFFFFFFFFFFFFFFFFFFFFFFFFFFFFFFFFFF
310
FFFFFFFFFFFFFFFFFFFFFFFFFFFFFFFFFFFFFFFFFFFFFFFFFFFFFFFFFFFFFFFF
310
FFFFFFFFFFFFFFFFFFFFFFFFFFFFFFFFFFFFFFFFFFFFFFFFFFFFFFFFFFFFFFFF
310
FFFFFFFFFFFFFFFFFFFFFFFFFFFFFFFFFFFFFFFFFFFFFFFFFFFFFFFFFFFFFFFF
310
FFFFFFFFFFFFFFFFFFFFFFFFFFFFFFFFFFFFFFFFFFFFFFFFFFFFFFFFFFFFFFFF
310
FFFFFFFFFFFFFFFFFFFFFFFFFFFFFFFFFFFFFFFFFFFFFFFFFFFFFFFFFFFFFFFF
310
FFFFFFFFFFFFFFFFFFFFFFFFFFFFFFFFFFFFFFFFFFFFFFFFFFFFFFFFFFFFFFFF
310
FFFFFFFFFFFFFFFFFFFFFFFFFFFFFFFFFFFFFFFFFFFFFFFFFFFFFFFFFFFFFFFF
310
FFFFFFFFFFFFFFFFFFFFFFFFFFFFFFFFFFFFFFFFFFFFFFFFFFFFFFFFFFFFFFFF
310
FFFFFFFFFFFFFFFFFFFFFFFFFFFFFFFFFFFFFFFFFFFFFFFFFFFFFFFFFFFFFFFF
310
FFFFFFFFFFFFFFFFFFFFFFFFFFFFFFFFFFFFFFFFFFFFFFFFFFFFFFFFFFFFFFFF
310
FFFFFFFFFFFFFFFFFFFFFFFFFFFFFFFFFFFFFFFFFFFFFFFFFFFFFFFFFFFFFFFF
310
FFFFFFFFFFFFFFFFFFFFFFFFFFFFFFFFFFFFFFFFFFFFFFFFFFFFFFFFFFFFFFFF
310
FFFFFFFFFFFFFFFFFFFFFFFFFFFFFFFFFFFFFFFFFFFFFFFFFFFFFFFFFFFFFFFF
310
FFFFFFFFFFFFFFFFFFFFFFFFFFFFFFFFFFFFFFFFFFFFFFFFFFFFFFFFFFFFFFFF
310
0100000200000000000000000000000000000000000000000000000000000000
310
0000000000000000000000000000000000000000000000000000000000000000
310
0100FEFF030A0000FFFFFFFF0A00030000000000C00000000000004607000000
310
5042727573680007000000504272757368000700000050427275736800F439B2
310
7100000000000000000000000000000000000000000000000000000000000000
310
0000000000000000000000000000000000000000000000000000000000000000
310
0000000000000000000000000000000000000000000000000000000000000000
310
0000000000000000000000000000000000000000000000000000000000000000
310
0000000000000000000000000000000000000000000000000000000000000000
310
0000000000000000000000000000000000000000000000000000000000000000
310
0000000000000000000000000000000000000000000000000000000000000000
310
0000000000000000000000000000000000000000000000000000000000000000
310
0000000000000000000000000000000000000000000000000000000000000000
310
0000000000000000000000000000000000000000000000000000000000000000
310
0000000000000000000000000000000000000000000000000000000000000000
310
0000000000000000000000000000000000000000000000000000000000000000
310
20260000424D0E260000000000003E00000028000000B40200006E0000000100
310
01000000000000000000130B0000130B00000200000002000000000000FFFFFF
310
FFFFFFFFFFFFFFFFFFFFFFFFFFFFFFFFFFFFFFFFFFFFFFFFFFFFFFFFFFFFFFFF
310
FFFFFFFFFFFFFFFFFFFFFFFFFFFFFFFFFFFFFFFFFFFFFFFFFFFFFFFFFFFFFFFF
310
FFFFFFFFFFFFFFFFFFFFFFFFFFFFFFFFFFFFFFFFFFFFFFFFF000FFFFFFFFFFFF
310
FFFFFFFFFFFFFFFFFFFFFFFFFFFFFFFFFFFFFFFFFFFFFFFFFFFFFFFFFFFFFFFF
310
FFFFFFFFFFFFFFFFFFFFFFFFFFFFFFFFFFFFFFFFFFFFFFFFFFFFFFFFFFFFFFFF
310
FFFFFFFFFFFFFFFFFFFFFFFFFFFFFFFFF000FFFFFFFFFFFFFFFFFFFFFFFFFFFF
310
FFFFFFFFFFFFFFFFFFFFFFFFFFFFFFFFFFFFFFFFFFFFFFFFFFFFFFFFFFFFFFFF
310
FFFFFFFFFFFFFFFFFFFFFFFFFFFFFFFFFFFFFFFFFFFFFFFFFFFFFFFFFFFFFFFF
310
FFFFFFFFFFFFFFFFF000FFFFFFFFFFFFFFFFFFFFFFFFFFFFFFFFFFFFFFFFFFFF
310
FFFFFFFFFFFFFFFFFFFFFFFFFFFFFFFFFFFFFFFFFFFFFFFFFFFFFFFFFFFFFFFF
310
FFFFFFFFFFFFFFFFFFFFFFFFFFFFFFFFFFFFFFFFFFFFFFFFFFFFFFFFFFFFFFFF
310
F000FFFFFFFFFFFFFFFFFFFFFFFFFFFFFFFFFFFFFFFFFFFFFFFFFFFFFFFFFFFF
310
FFFFFFFFFFFFFFFFFFFFFFFFFFFFFFFFFFFFFFFFFFFFFFFFFFFFFFFFFFFFFFFF
310
FFFFFFFFFFFFFFFFFFFFFFFFFFFFFFFFFFFFFFFFFFFFFFFFF000FFFFFFFFFFFF
310
FFFFFFFFFFFFFFFFFFFFFFFFFFFFFFFFFFFFFFFFFFFFFFFFFFFFFFFFFFFFFFFF
310
FFFFFFFFFFFFFFFFFFFFFFFFFFFFFFFFFFFFFFFFFFFFFFFFFFFFFFFFFFFFFFFF
310
FFFFFFFFFFFFFFFFFFFFFFFFFFFFFFFFF000FFFFFFFFFFFFFFFFFFFFFFFFFFFF
310
FFFFFFFFFFFFFFFFFFFFFFFFFFFFFFFFFFFFFFFFFFFFFFFFFFFFFFFFFFFFFFFF
310
FFFFFFFFFFFFFFFFFFFFFFFFFFFFFFFFFFFFFFFFFFFFFFFFFFFFFFFFFFFFFFFF
310
FFFFFFFFFFFFFFFFF000FFFFFFFFFFFFFFFFFFFFFFFFFFFFFFFFFFFFFFFFFFFF
310
FFFFFFFFFFFFFFFFFFFFFFFFFFFFFFFFFFFFFFFFFFFFFFFFFFFFFFFFFFFFFFFF
310
FFFFFFFFFFFFFFFFFFFFFFFFFFFFFFFFFFFFFFFFFFFFFFFFFFFFFFFFFFFFFFFF
310
F000FFFFFFFFFFFFFFFFFFFFFFFFFFFFFFFFFFFFFFFFFFFFFFFFFFFFFFFFFFFF
310
FFFFFFFFFFFFFFFFFFFFFFFFFFFFFFFFFFFFFFFFFFFFFFFFFFFFFFFFFFFFFFFF
310
FFFFFFFFFFFFFFFFFFFFFFFFFFFFFFFFFFFFFFFFFFFFFFFFF000FFFFFFFFFFFF
310
FFFFFFFFFFFFFFFFFFFFFFFFFFFFFFFFFFFFFFFFFFFFFFFFFFFFFFFFFFFFFFFF
310
FFFFFFFFFFFFFFFFFFFFFFFFFFFFFFFFFFFFFFFFFFFFFFFFFFFFFFFFFFFFFFFF
310
FFFFFFFFFFFFFFFFFFFFFFFFFFFFFFFFF000FFFFFFFFFFFFFFFFFFFFFFFFFFFF
310
FFFFFFFFFFFFFFFFFFFFFFFFFFFFFFFFFFFFFFFFFFFFFFFFFFFFFFFFFFFFFFFF
310
FFFFFFFFFFFFFFFFFFFFFFFFFFFFFFFFFFFFFFFFFFFFFFFFFFFFFFFFFFFFFFFF
310
FFFFFFFFFFFFFFFFF000FFFFFFFFFFFFFFFFFFFFFFFFFFFFFFFFFFFFFFFFFFFF
310
FFFFFFFFFFFFFFFFFFFFFFFFFFFFFFFFFFFFFFFFFFFFFFFFFFFFFFFFFFFFFFFF
310
FFFFFFFFFFFFFFFFFFFFFFFFFFFFFFFFFFFFFFFFFFFFFFFFFFFFFFFFFFFFFFFF
310
F000FFFFFFFFFFFFFFFFFFFFFFFFFFFFFFFFFFFFFFFFFFFFFFFFFFFFFFFFFFFF
310
FFFFFFFFFFFFFFFFFFFFFFFFFFFFFFFFFFFFFFFFFFFFFFFFFFFFFFFFFFFFFFFF
310
FFFFFFFFFFFFFFFFFFFFFFFFFFFFFFFFFFFFFFFFFFFFFFFFF000FFFFFFFFFFFF
310
FFFFFFFFFFFFFFFFFFFFFFFFFFFFFFFFFFFFFFFFFFFFFFFFFFFFFFFFFFFFFFFF
310
FFFFFFFFFFFFFFFFFFFFFFFFFFFFFFFFFFFFFFFFFFFFFFFFFFFFFFFFFFFFFFFF
310
FFFFFFFFFFFFFFFFFFFFFFFFFFFFFFFFF000FFFFFFFFFFFFFFFFFFFFFFFFFFFF
310
FFFFFFFFFFFFFFFFFFFFFFFFFFFFFFFFFFFFFFFFFFFFFFFFFFFFFFFFFFFFFFFF
310
FFFFFFFFFFFFFFFFFFFFFFFFFFFFFFFFFFFFFFFFFFFFFFFFFFFFFFFFFFFFFFFF
310
FFFFFFFFFFFFFFFFF000FFFFFFFFFFFFFFFFFFFFFFFFFFFFFFFFFFFFFFFFFFFF
310
FFFFFFFFFFFFFFFFFFFFFFFFFFFFFFFFFFFFFFFFFFFFFFFFFFFFFFFFFFFFFFFF
310
FFFFFFFFFFFFFFFFFFFFFFFFFFFFFFFFFFFFFFFFFFFFFFFFFFFFFFFFFFFFFFFF
310
F000FFFFFFFFFFFFFFFFFFFFFFFFFFFFFFFFFFFFFFFFFFFFFFFFFFFFFFFFFFFF
310
FFFFFFFFFFFFFFFFFFFFFFFFFFFFFFFFFFFFFFFFFFFFFFFFFFFFFFFFFFFFFFFF
310
FFFFFFFFFFFFFFFFFFFFFFFFFFFFFFFFFFFFFFFFFFFFFFFFF000FFFFFFFFFFFF
310
FFFFFFFFFFFFFFFFFFFFFFFFFFFFFFFFFFFFFFFFFFFFFFFFFFFFFFFFFFFFFFFF
310
FFFFFFFFFFFFFFFFFFFFFFFFFFFFFFFFFFFFFFFFFFFFFFFFFFFFFFFFFFFFFFFF
310
FFFFFFFFFFFFFFFFFFFFFFFFFFFFFFFFF000FFFFFFFFFFFFFFFFFFFFFFFFFFFF
310
FFFFFFFFFFFFFFFFFFFFFFFFFFFFFFFFFFFFFFFFFFFFFFFFFFFFFFFFFFFFFFFF
310
FFFFFFFFFFFFFFFFFFFFFFFFFFFFFFFFFFFFFFFFFFFFFFFFFFFFFFFFFFFFFFFF
310
FFFFFFFFFFFFFFFFF000FFFFF80003FFFFFFFFFFFFFFFFFFFFFFFFFFFFFFFFFF
310
FFFFF00007FFFFFFFFFF00007FFFFFF800000000000000007FFFFFFFFFFFFFFF
310
FFFFFFFC001FFFFFFFFFFFFFFC001FFFFFFFFFFFFFFFFFFFFFFFFFFE0007FFFF
310
F000FFFF8000007FFFFFFFF8000FFFFFC0007FFFFF80007FFFFF0000007FFFFF
310
FFF8000007FFFFF800000000000000007FFFFFF0001FFFFFFFFFFFC00001FFFF
310
FFFFFFFFC00001FFFFFFFF000000000003FFFFE000007FFFF000FFFE0000000F
310
FFFFFFF0000FFFFF80007FFFFF80007FFFFC0000001FFFFFFFC0000001FFFFF8
310
00000000000000007FFFFFF0001FFFFFFFFFFE0000003FFFFFFFFFFE0000003F
310
FFFFFF000000000003FFFF0000000FFFF000FFF800000003FFFFFFF00007FFFF
310
80007FFFFF80007FFFF000000007FFFFFF000000003FFFF80000000000000000
310
7FFFFFF0001FFFFFFFFFF80000000FFFFFFFFFF80000000FFFFFFF0000000000
310
03FFFC00000003FFF000FFE000000000FFFFFFF00007FFFF80003FFFFF80007F
310
FFC000000001FFFFFC000000001FFFF800000000000000007FFFFFF0001FFFFF
310
FFFFE000000003FFFFFFFFE000000003FFFFFF000000000003FFF000000000FF
310
F000FF80000000007FFFFFF00007FFFF80003FFFFF80007FFF8000000000FFFF
310
F80000000007FFF800000000000000007FFFFFF0001FFFFFFFFFC000000001FF
310
FFFFFFC000000001FFFFFF000000000003FFC0000000007FF000FF0000000000
310
3FFFFFE00007FFFF00003FFFFF80007FFE00000000003FFFF00000000003FFF8
310
00000000000000007FFFFFF0001FFFFFFFFF8000000000FFFFFFFF8000000000
310
FFFFFF000000000003FF80000000003FF000FE00000000001FFFFFE00003FFFF
310
00003FFFFF80007FFC00000000001FFFE00000000001FFF8000001FFFE000000
310
7FFFFFF0001FFFFFFFFE00000000003FFFFFFE00000000003FFFFF0000000000
310
03FF00000000001FF000FC00000000000FFFFFE00003FFFF00001FFFFF80007F
310
F800000000001FFFC00000000000FFF8000001FFFE0000007FFFFFF0001FFFFF
310
FFFC00000000001FFFFFFC00000000001FFFFF000000000003FE00000000000F
310
F000F8000000000007FFFFE00003FFFF00001FFFFF80007FF800000000000FFF
310
800000000000FFF8000001FFFE0000007FFFFFF0001FFFFFFFF800000000000F
310
FFFFF800000000000FFFFF000000000003FC000000000007F000F80000000000
310
03FFFFC00003FFFE00001FFFFF80007FF0000000000007FF0000000000007FF8
310
000001FFFE0000007FFFFFF0001FFFFFFFF0000000000007FFFFF00000000000
310
07FFFF000000000003F8000000000003F000F0000000000003FFFFC00001FFFE
310
00001FFFFF80007FE0000000000007FE0000000000003FF8000001FFFE000000
310
7FFFFFF0001FFFFFFFF0000000000007FFFFF0000000000007FFFF0000000000
310
03F800001F800003F000E00001FFF00001FFFFC00001FFFE00000FFFFF80007F
310
E00001FFE00003FE00001FFF00003FF8000001FFFE0000007FFFFFF0001FFFFF
310
FFE000003E000003FFFFE000003E000003FFFF000000000003F00001FFF80001
310
F000E00007FFFC0001FFFFC00001FFFE00000FFFFF80007FC0000FFFFC0003FC
310
0000FFFFC0001FF8000001FFFE0000007FFFFFF0001FFFFFFFC00003FFE00001
310
FFFFC00003FFE00001FFFF0001FFFFFFFFF00007FFFE0001F000E0000FFFFF00
310
00FFFF800001FFFC00000FFFFF80007FC0001FFFFE0001FC0001FFFFE0001FF8
310
000001FFFE0000007FFFFFF0001FFFFFFF80000FFFF80000FFFF80000FFFF800
310
00FFFF0003FFFFFFFFE0000FFFFF8000F000C0003FFFFF8000FFFF800000FFFC
310
000007FFFF80007F80003FFFFF0001FC0003FFFFF0001FF8000001FFFE000000
310
7FFFFFF0001FFFFFFF80003FFFFE0000FFFF80003FFFFE0000FFFF0003FFFFFF
310
FFE0003FFFFF8000F000C0003FFFFF8000FFFF800000FFFC000007FFFF80007F
310
80007FFFFF8001F80007FFFFF8000FF8000001FFFE0000007FFFFFF0001FFFFF
310
FF00007FFFFF00007FFF00007FFFFF00007FFF0003FFFFFFFFE0003FFFFFC000
310
F000C0007FFFFFC000FFFF000000FFFC000007FFFF80007F8000FFFFFF8000F8
310
000FFFFFF8000FF8000001FFFE0000007FFFFFF0001FFFFFFF0000FFFFFF8000
310
7FFF0000FFFFFF80007FFF0003FFFFFFFFC0007FFFFFC00070008000FFFFFFC0
310
00FFFF000000FFF8000007FFFF80007F8000FFFFFF8000F8000FFFFFF8000FF8
310
000001FFFE0000007FFFFFF0001FFFFFFE0001FFFFFFC0003FFE0001FFFFFFC0
310
003FFF0003FFFFFFFFC0007FFFFFE00070008000FFFFFFC0007FFF0000007FF8
310
000003FFFF80007F0001FFFFFF8000F8000FFFFFF8000FF8000001FFFE000000
310
7FFFFFF0001FFFFFFE0001FFFFFFC0003FFE0001FFFFFFC0003FFF0003FFFFFF
310
FFC000FFFFFFE00070008000FFFFFFC0007FFF0000007FF8000003FFFF80007F
310
0001FFFFFF8000F8001FFFFFF8000FF8000001FFFE0000007FFFFFF0001FFFFF
310
FE0003FFFFFFE0003FFE0003FFFFFFE0003FFF0003FFFFFFFFC000FFFFFFE000
310
70008000FFFFFFC0007FFE0000007FF8000003FFFF80007F0001FFFFFF8000F0
310
001FFFFFF8000FF8000001FFFE0000007FFFFFF0001FFFFFFC0003FFFFFFE000
310
1FFC0003FFFFFFE0001FFF0003FFFFFFFFC000FFFFFFC00070008000FFFFFF80
310
007FFE0000007FF0000003FFFF80007F0001FFFFFF0000F0001FFFFFF8000FF8
310
000001FFFE0000007FFFFFF0001FFFFFFC0007FFFFFFF0001FFC0007FFFFFFF0
310
001FFF0003FFFFFFFFC000FFFFFFC00070008001FFFFFF0000FFFE0000003FF0
310
000001FFFF80007F0001FFFFFF0000F8001FFFFFF0000FF8000001FFFE000000
310
7FFFFFF0001FFFFFFC0007FFFFFFF0001FFC0007FFFFFFF0001FFF0003FFFFFF
310
FFC001FFFFFF80007000FFFFFFFFFE0000FFFE0008003FF0008001FFFF80007F
310
FFFFFFFFFC0000FFFFFFFFFFE0000FF8000001FFFE0000007FFFFFF0001FFFFF
310
F8000FFFFFFFF8000FF8000FFFFFFFF8000FFF0003FFFFFFFFFFFFFFFFFF0000
310
7000FFFFFFFFFC0000FFFC0008003FF0008001FFFF80007FFFFFFFFFF80001FF
310
FFFFFFFF80000FF8000001FFFE0000007FFFFFF0001FFFFFF8000FFFFFFFF800
310
0FF8000FFFFFFFF8000FFF0003FFFFFFFFFFFFFFFFFE0000F000FFFFFFFFE000
310
00FFFC000C003FE000C001FFFF80007FFFFFFFFFC00001FFFFFFFFFE00001FF8
310
000001FFFE0000007FFFFFF0001FFFFFF8000FFFFFFFF8000FF8000FFFFFFFF8
310
000FFF0003FFFFFFFFFFFFFFFFF00000F000FFFFFFFE000001FFFC000C001FE0
310
00C000FFFF80007FFFFFFFFE000001FFFFFFFFE000001FF80FFFFFFFFFFFFFC0
310
7FFFFFF0001FFFFFF8000FFFFFFFF8000FF8000FFFFFFFF8000FFF0003FFFFFF
310
FFFFFFFFFF800000F000FFFFFFC0000001FFFC001C001FE001C000FFFF80007F
310
FFFFFF80000003FFFFFFF80000001FF80FFFFFFFFFFFFFC07FFFFFF0001FFFFF
310
F8001FFFFFFFFC000FF8001FFFFFFFFC000FFF0003FFFFFFFFFFFFFFF0000001
310
F000FFFFF800000001FFF8001C001FE001C000FFFF80007FFFFFF800000003FF
310
FFFF800000003FF80FFFFFFFFFFFFFC07FFFFFF0001FFFFFF8001FFFFFFFFC00
310
0FF8001FFFFFFFFC000FFF0003FFFFFFFFFFFFFE00000001F000FFFFC0000000
310
03FFF8001E001FC001E000FFFF80007FFFFF8000000007FFFFFC000000003FF8
310
0FFFFFFFFFFFFFC07FFFFFF0001FFFFFF8001FFFFFFFFC000FF8001FFFFFFFFC
310
000FFF0003FFFFFFFFFFFFE000000003F000FFFE0000000007FFF8001E000FC0
310
01E0007FFF80007FFFFE0000000007FFFFE0000000007FF80FFFFFFFFFFFFFC0
310
7FFFFFF0001FFFFFF0001FFFFFFFFC0007F0001FFFFFFFFC0007FF0003FFFFFF
310
FFFFFF0000000003F000FFF80000000007FFF8001E000FC003E0007FFF80007F
310
FFF0000000000FFFFF8000000000FFF80FFFFFFFFFFFFFC07FFFFFF0001FFFFF
310
F0001FFFFFFFFC0007F0001FFFFFFFFC0007FF0003FFFFFFFFFFFC0000000007
310
F000FFE0000000000FFFF0003E000FC003E0007FFF80007FFFC0000000001FFF
310
FE0000000001FFF80FFFFFFFFFFFFFC07FFFFFF0001FFFFFF0001FFFFFFFFC00
310
07F0001FFFFFFFFC0007FF0003FFFFFFFFFFF0000000000FF000FFC000000000
310
1FFFF0003F000F8003F0003FFF80007FFF80000000003FFFF80000000003FFF8
310
0FFFFFFFFFFFFFC07FFFFFF0001FFFFFF0001FFFFFFFFC0007F0001FFFFFFFFC
310
0007FF0003FFFFFFFFFFE0000000001FF000FF00000000007FFFF0003F000780
310
03F0003FFF80007FFF00000000007FFFF00000000007FFF80FFFFFFFFFFFFFC0
310
7FFFFFF0001FFFFFF0001FFFFFFFFC0007F0001FFFFFFFFC0007FF0003FFFFFF
310
FFFF80000000007FF000FE0000000000FFFFE0003F00078007F0003FFF80007F
310
FE0000000001FFFFE0000000001FFFF80FFFFFFFFFFFFFC07FFFFFF0001FFFFF
310
F0001FFFFFFFFC0007F0001FFFFFFFFC0007FF0003FFFFFFFFFF0000000000FF
310
F000FC0000000003FFFFE0007F00078007F0003FFF80007FFC0000000007FFFF
310
C0000000007FFFF80FFFFFFFFFFFFFC07FFFFFF0001FFFFFF8001FFFFFFFFC00
310
0FF8001FFFFFFFFC000FFF0003FFFFFFFFFE0000000003FFF000FC000000000F
310
FFFFE0007F80070007F8001FFF80007FF8000000001FFFFF8000000001FFFFF8
310
0FFFFFFFFFFFFFC07FFFFFF0001FFFFFF8001FFFFFFFFC000FF8001FFFFFFFFC
310
000FFF0003FFFFFFFFFC000000000FFFF000F8000000007FFFFFE0007F800700
310
07F8001FFF80007FF000000000FFFFFF800000000FFFFFF80FFFFFFFFFFFFFC0
310
7FFFFFF0001FFFFFF8000FFFFFFFF8000FF8000FFFFFFFF8000FFF0003FFFFFF
310
FFFC000000007FFFF000F800000007FFFFFFC0007F8003000FF8001FFF80007F
310
F000000007FFFFFF000000007FFFFFF80FFFFFFFFFFFFFC07FFFFFF0001FFFFF
310
F8000FFFFFFFF8000FF8000FFFFFFFF8000FFF0003FFFFFFFFF80000000FFFFF
310
F000F0000000FFFFFFFFC000FF8003000FF8001FFF80007FE0000000FFFFFFFF
310
0000000FFFFFFFF8000001FFFE0000007FFFFFF0001FFFFFF8000FFFFFFFF800
310
0FF8000FFFFFFFF8000FFF0003FFFFFFFFF8000000FFFFFFF000F000000FFFFF
310
FFFFC000FFC002000FF8000FFF80007FE000001FFFFFFFFE000001FFFFFFFFF8
310
000001FFFE0000007FFFFFF0001FFFFFF8000FFFFFFFF8000FF8000FFFFFFFF8
310
000FFF0003FFFFFFFFF000001FFFFFFFF000E00000FFFFFFFFFFC000FFC00200
310
0FFC000FFF80007FE00001FFFFFFFFFE00001FFFFFFFFFF8000001FFFE000000
310
7FFFFFF0001FFFFFFC000FFFFFFFF8001FFC000FFFFFFFF8001FFF0003FFFFFF
310
FFF00001FFFFFFFFF000E00007FFFFFFFFFF8000FFC000001FFC000FFF80007F
310
C0000FFFFFFFFFFE0000FFFFFFFFFFF8000001FFFE0000007FFFFFF0001FFFFF
310
FC0007FFFFFFF0001FFC0007FFFFFFF0001FFF0003FFFFFFFFF00007FFFFFFFF
310
F000E0001FFFFFFFFFFF8000FFC000001FFC000FFF80007FC0003FFFFFFFFFFE
310
0001FFFFFFFFFFF8000001FFFE0000007FFFFFF0001FFFFFFC0007FFFFFFF000
310
1FFC0007FFFFFFF0001FFF0003FFFFFFFFF0001FFFFFFFFFF000E0003FFFFF00
310
03FF8001FFE000001FFC0007FF80007FC0007FFFFF0007FC0003FFFFF0003FF8
310
000001FFFE0000007FFFFFF0001FFFFFFC0003FFFFFFE0001FFC0003FFFFFFE0
310
001FFF0003FFFFFFFFF0003FFFFFFFFFF000E0003FFFFF0001FF8001FFE00000
310
1FFE0007FF80007FC0007FFFFE0003FC0007FFFFE0003FF8000001FFFE000000
310
7FFFFFF0001FFFFFFE0003FFFFFFE0003FFE0003FFFFFFE0003FFF0003FFFFFF
310
FFF0003FFFFF8001F000E0003FFFFF0001FF0001FFE000001FFE0007FF80007F
310
C0007FFFFE0003FC0007FFFFE0003FF8000001FFFE0000007FFFFFF0001FFFFF
310
FE0001FFFFFFC0003FFE0001FFFFFFC0003FFF0003FFFFFFFFF0003FFFFF0001
310
F000E0003FFFFF0003FF0001FFE000003FFE0007FF80007FC0007FFFFE0003FC
310
0007FFFFE0003FF8000001FFFE0000007FFFFFF0001FFFFFFF0001FFFFFFC000
310
7FFF0001FFFFFFC0007FFF0003FFFFFFFFF0003FFFFF0001F000E0003FFFFE00
310
03FF0003FFF000003FFE0003FF80007FC0007FFFFC0003FE0007FFFFE0003FF8
310
000001FFFE0000007FFFFFF0001FFFFFFF0000FFFFFF80007FFF0000FFFFFF80
310
007FFF0003FFFFFFFFF0003FFFFF0001F000E0003FFFFE0003FF0003FFF00000
310
3FFF0003FF80007FC0007FFFFC0007FE0007FFFFC0003FF8000001FFFE000000
310
7FFFFFF0001FFFFFFF80007FFFFF0000FFFF80007FFFFF0000FFFF0003FFFFFF
310
FFF0003FFFFF0003F000E0003FFFFC0003FE0003FFF000003FFF0003FF80007F
310
E0003FFFF80007FE0003FFFFC0007FF8000001FFFE0000007FFFFFF0001FFFFF
310
FF80003FFFFE0000FFFF80003FFFFE0000FFFF0003FFFFFFFFF0001FFFFE0003
310
F000F0001FFFF80003FE0003FFF000007FFF0001FF80007FE0003FFFF00007FE
310
0001FFFF80007FF8000001FFFE0000007FFFFFF0001FFFFFFFC0000FFFF80001
310
FFFFC0000FFFF80001FFFF0003FFFFFFFFF0001FFFFC0003F000F0000FFFF000
310
07FE0007FFF800007FFF0001FF80007FE0001FFFE00007FF0000FFFE00007FF8
310
000001FFFE0000007FFFFFF0001FFFFFFFC00003FFE00001FFFFC00003FFE000
310
01FFFF0003FFFFFFFFF8000FFFF80003F000F00003FFC00007FC0007FFF80000
310
7FFF8001FF80007FF00007FF80000FFF00007FF80000FFF8000001FFFE000000
310
7F80000000000001FFE000003E000003FFFFE000003E000003FFFF0003FFFFFF
310
FFF80003FFE00007F000F800000000000FFC0007FFF800007FFF8001FF80007F
310
F000000000000FFF000000000000FFF8000001FFFE0000007F80000000000001
310
FFF0000000000007FFFFF0000000000007FFFF0003FFFFFFFFFC00007E000007
310
F000F800000000000FFC0007FFF80000FFFF8000FF80007FF800000000001FFF
310
800000000001FFF8000001FFFE0000007F80000000000001FFF800000000000F
310
FFFFF800000000000FFFFF0003FFFFFFFFFC00000000000FF000FC0000000000
310
1FFC0007FFFC0000FFFF8000FF80007FF800000000003FFFC00000000001FFF8
310
000001FFFE0000007F80000000000001FFF800000000000FFFFFF80000000000
310
0FFFFF0003FFFFFFFFFE00000000001FF000FE00000000003FF8000FFFFC0000
310
FFFF8000FF80007FFC00000000003FFFC00000000003FFF8000001FFFE000000
310
7F80000000000001FFFC00000000001FFFFFFC00000000001FFFFF0003FFFFFF
310
FFFF00000000001FF000FF00000000003FF8000FFFFC0000FFFFC000FF80007F
310
FE00000000007FFFE00000000007FFF8000001FFFE0000007F80000000000001
310
FFFE00000000003FFFFFFE00000000003FFFFF0003FFFFFFFFFF80000000003F
310
F000FF80000000007FF8000FFFFC0001FFFFC0007F80007FFF0000000000FFFF
310
F0000000000FFFF800000000000000007F80000000000001FFFF8000000000FF
310
FFFFFF8000000000FFFFFF0003FFFFFFFFFFC0000000007FF000FFC000000000
310
FFF8000FFFFE0001FFFFC0007F80007FFF8000000001FFFFF8000000001FFFF8
310
00000000000000007F80000000000001FFFFC000000001FFFFFFFFC000000001
310
FFFFFF0003FFFFFFFFFFE000000000FFF000FFE000000003FFF0001FFFFE0001
310
FFFFC0007F80007FFFC000000007FFFFFE000000003FFFF80000000000000000
310
7F80000000000001FFFFE000000003FFFFFFFFE000000003FFFFFF0003FFFFFF
310
FFFFF000000003FFF000FFF80000000FFFF0001FFFFE0001FFFFE0007F80007F
310
FFF00000000FFFFFFF00000000FFFFF800000000000000007F80000000000001
310
FFFFF80000000FFFFFFFFFF80000000FFFFFFF0003FFFFFFFFFFFC0000000FFF
310
F000FFFE0000003FFFF0001FFFFE0003FFFFE0003F80007FFFFC0000003FFFFF
310
FFC0000003FFFFF800000000000000007F80000000000001FFFFFE0000003FFF
310
FFFFFFFE0000003FFFFFFF0003FFFFFFFFFFFF0000003FFFF000FFFF800000FF
310
FFF0001FFFFF0003FFFFE0003F80007FFFFF000001FFFFFFFFF800001FFFFFF8
310
00000000000000007F80000000000001FFFFFFC00001FFFFFFFFFFFFC00001FF
310
FFFFFF0003FFFFFFFFFFFFC00000FFFFF000FFFFF8000FFFFFFFFFFFFFFFFFFF
310
FFFFFFFFFFFFFFFFFFFFF0001FFFFFFFFFFF0000FFFFFFF80000000000000000
310
7FFFFFFFFFFFFFFFFFFFFFFC001FFFFFFFFFFFFFFC001FFFFFFFFFFFFFFFFFFF
310
FFFFFFFC001FFFFFF000FFFFFFFFFFFFFFFFFFFFFFFFFFFFFFFFFFFFFFFFFFFF
310
FFFFFFFFFFFFFFFFFFFFFFFFFFFFFFFFFFFFFFFFFFFFFFFFFFFFFFFFFFFFFFFF
310
FFFFFFFFFFFFFFFFFFFFFFFFFFFFFFFFFFFFFFFFFFFFFFFFFFFFFFFFFFFFFFFF
310
F000FFFFFFFFFFFFFFFFFFFFFFFFFFFFFFFFFFFFFFFFFFFFFFFFFFFFFFFFFFFF
310
FFFFFFFFFFFFFFFFFFFFFFFFFFFFFFFFFFFFFFFFFFFFFFFFFFFFFFFFFFFFFFFF
310
FFFFFFFFFFFFFFFFFFFFFFFFFFFFFFFFFFFFFFFFFFFFFFFFF000FFFFFFFFFFFF
310
FFFFFFFFFFFFFFFFFFFFFFFFFFFFFFFFFFFFFFFFFFFFFFFFFFFFFFFFFFFFFFFF
310
FFFFFFFFFFFFFFFFFFFFFFFFFFFFFFFFFFFFFFFFFFFFFFFFFFFFFFFFFFFFFFFF
310
FFFFFFFFFFFFFFFFFFFFFFFFFFFFFFFFF000FFFFFFFFFFFFFFFFFFFFFFFFFFFF
310
FFFFFFFFFFFFFFFFFFFFFFFFFFFFFFFFFFFFFFFFFFFFFFFFFFFFFFFFFFFFFFFF
310
FFFFFFFFFFFFFFFFFFFFFFFFFFFFFFFFFFFFFFFFFFFFFFFFFFFFFFFFFFFFFFFF
310
FFFFFFFFFFFFFFFFF000FFFFFFFFFFFFFFFFFFFFFFFFFFFFFFFFFFFFFFFFFFFF
310
FFFFFFFFFFFFFFFFFFFFFFFFFFFFFFFFFFFFFFFFFFFFFFFFFFFFFFFFFFFFFFFF
310
FFFFFFFFFFFFFFFFFFFFFFFFFFFFFFFFFFFFFFFFFFFFFFFFFFFFFFFFFFFFFFFF
310
F000FFFFFFFFFFFFFFFFFFFFFFFFFFFFFFFFFFFFFFFFFFFFFFFFFFFFFFFFFFFF
310
FFFFFFFFFFFFFFFFFFFFFFFFFFFFFFFFFFFFFFFFFFFFFFFFFFFFFFFFFFFFFFFF
310
FFFFFFFFFFFFFFFFFFFFFFFFFFFFFFFFFFFFFFFFFFFFFFFFF000FFFFFFFFFFFF
310
FFFFFFFFFFFFFFFFFFFFFFFFFFFFFFFFFFFFFFFFFFFFFFFFFFFFFFFFFFFFFFFF
310
FFFFFFFFFFFFFFFFFFFFFFFFFFFFFFFFFFFFFFFFFFFFFFFFFFFFFFFFFFFFFFFF
310
FFFFFFFFFFFFFFFFFFFFFFFFFFFFFFFFF000FFFFFFFFFFFFFFFFFFFFFFFFFFFF
310
FFFFFFFFFFFFFFFFFFFFFFFFFFFFFFFFFFFFFFFFFFFFFFFFFFFFFFFFFFFFFFFF
310
FFFFFFFFFFFFFFFFFFFFFFFFFFFFFFFFFFFFFFFFFFFFFFFFFFFFFFFFFFFFFFFF
310
FFFFFFFFFFFFFFFFF000FFFFFFFFFFFFFFFFFFFFFFFFFFFFFFFFFFFFFFFFFFFF
310
FFFFFFFFFFFFFFFFFFFFFFFFFFFFFFFFFFFFFFFFFFFFFFFFFFFFFFFFFFFFFFFF
310
FFFFFFFFFFFFFFFFFFFFFFFFFFFFFFFFFFFFFFFFFFFFFFFFFFFFFFFFFFFFFFFF
310
F000FFFFFFFFFFFFFFFFFFFFFFFFFFFFFFFFFFFFFFFFFFFFFFFFFFFFFFFFFFFF
310
FFFFFFFFFFFFFFFFFFFFFFFFFFFFFFFFFFFFFFFFFFFFFFFFFFFFFFFFFFFFFFFF
310
FFFFFFFFFFFFFFFFFFFFFFFFFFFFFFFFFFFFFFFFFFFFFFFFF000FFFFFFFFFFFF
310
FFFFFFFFFFFFFFFFFFFFFFFFFFFFFFFFFFFFFFFFFFFFFFFFFFFFFFFFFFFFFFFF
310
FFFFFFFFFFFFFFFFFFFFFFFFFFFFFFFFFFFFFFFFFFFFFFFFFFFFFFFFFFFFFFFF
310
FFFFFFFFFFFFFFFFFFFFFFFFFFFFFFFFF000FFFFFFFFFFFFFFFFFFFFFFFFFFFF
310
FFFFFFFFFFFFFFFFFFFFFFFFFFFFFFFFFFFFFFFFFFFFFFFFFFFFFFFFFFFFFFFF
310
FFFFFFFFFFFFFFFFFFFFFFFFFFFFFFFFFFFFFFFFFFFFFFFFFFFFFFFFFFFFFFFF
310
FFFFFFFFFFFFFFFFF000FFFFFFFFFFFFFFFFFFFFFFFFFFFFFFFFFFFFFFFFFFFF
310
FFFFFFFFFFFFFFFFFFFFFFFFFFFFFFFFFFFFFFFFFFFFFFFFFFFFFFFFFFFFFFFF
310
FFFFFFFFFFFFFFFFFFFFFFFFFFFFFFFFFFFFFFFFFFFFFFFFFFFFFFFFFFFFFFFF
310
F000FFFFFFFFFFFFFFFFFFFFFFFFFFFFFFFFFFFFFFFFFFFFFFFFFFFFFFFFFFFF
310
FFFFFFFFFFFFFFFFFFFFFFFFFFFFFFFFFFFFFFFFFFFFFFFFFFFFFFFFFFFFFFFF
310
FFFFFFFFFFFFFFFFFFFFFFFFFFFFFFFFFFFFFFFFFFFFFFFFF000FFFFFFFFFFFF
310
FFFFFFFFFFFFFFFFFFFFFFFFFFFFFFFFFFFFFFFFFFFFFFFFFFFFFFFFFFFFFFFF
310
FFFFFFFFFFFFFFFFFFFFFFFFFFFFFFFFFFFFFFFFFFFFFFFFFFFFFFFFFFFFFFFF
310
FFFFFFFFFFFFFFFFFFFFFFFFFFFFFFFFF000FFFFFFFFFFFFFFFFFFFFFFFFFFFF
310
FFFFFFFFFFFFFFFFFFFFFFFFFFFFFFFFFFFFFFFFFFFFFFFFFFFFFFFFFFFFFFFF
310
FFFFFFFFFFFFFFFFFFFFFFFFFFFFFFFFFFFFFFFFFFFFFFFFFFFFFFFFFFFFFFFF
310
FFFFFFFFFFFFFFFFF000FFFFFFFFFFFFFFFFFFFFFFFFFFFFFFFFFFFFFFFFFFFF
310
FFFFFFFFFFFFFFFFFFFFFFFFFFFFFFFFFFFFFFFFFFFFFFFFFFFFFFFFFFFFFFFF
310
FFFFFFFFFFFFFFFFFFFFFFFFFFFFFFFFFFFFFFFFFFFFFFFFFFFFFFFFFFFFFFFF
310
F000FFFFFFFFFFFFFFFFFFFFFFFFFFFFFFFFFFFFFFFFFFFFFFFFFFFFFFFFFFFF
310
FFFFFFFFFFFFFFFFFFFFFFFFFFFFFFFFFFFFFFFFFFFFFFFFFFFFFFFFFFFFFFFF
310
FFFFFFFFFFFFFFFFFFFFFFFFFFFFFFFFFFFFFFFFFFFFFFFFF000FFFFFFFFFFFF
310
FFFFFFFFFFFFFFFFFFFFFFFFFFFFFFFFFFFFFFFFFFFFFFFFFFFFFFFFFFFFFFFF
310
FFFFFFFFFFFFFFFFFFFFFFFFFFFFFFFFFFFFFFFFFFFFFFFFFFFFFFFFFFFFFFFF
310
FFFFFFFFFFFFFFFFFFFFFFFFFFFFFFFFF000FFFFFFFFFFFFFFFFFFFFFFFFFFFF
310
FFFFFFFFFFFFFFFFFFFFFFFFFFFFFFFFFFFFFFFFFFFFFFFFFFFFFFFFFFFFFFFF
310
FFFFFFFFFFFFFFFFFFFFFFFFFFFFFFFFFFFFFFFFFFFFFFFFFFFFFFFFFFFFFFFF
310
FFFFFFFFFFFFFFFFF000FFFFFFFFFFFFFFFFFFFFFFFFFFFFFFFFFFFFFFFFFFFF
310
FFFFFFFFFFFFFFFFFFFFFFFFFFFFFFFFFFFFFFFFFFFFFFFFFFFFFFFFFFFFFFFF
310
FFFFFFFFFFFFFFFFFFFFFFFFFFFFFFFFFFFFFFFFFFFFFFFFFFFFFFFFFFFFFFFF
310
F000FFFFFFFFFFFFFFFFFFFFFFFFFFFFFFFFFFFFFFFFFFFFFFFFFFFFFFFFFFFF
310
FFFFFFFFFFFFFFFFFFFFFFFFFFFFFFFFFFFFFFFFFFFFFFFFFFFFFFFFFFFFFFFF
310
FFFFFFFFFFFFFFFFFFFFFFFFFFFFFFFFFFFFFFFFFFFFFFFFF000FFFFFFFFFFFF
310
FFFFFFFFFFFFFFFFFFFFFFFFFFFFFFFFFFFFFFFFFFFFFFFFFFFFFFFFFFFFFFFF
310
FFFFFFFFFFFFFFFFFFFFFFFFFFFFFFFFFFFFFFFFFFFFFFFFFFFFFFFFFFFFFFFF
310
FFFFFFFFFFFFFFFFFFFFFFFFFFFFFFFFF0000000000000000000000000000000
310
0000000000000000000000000000000000000000000000000000000000000000
310
0000000000000000000000000000000000000000000000000000000000000000
310
0000000000000000000000000000000000000000000000000000000000000000
310
0000000000000000000000000000000000000000000000000000000000000000
310
0000000000000000000000000000000000000000000000000000000000000000
310
0000000000000000000000000000000000000000000000000000000000000000
310
0000000000000000000000000000000000000000000000000000000000000000
310
0000000000000000000000000000000000000000000000000000000000000000
310
0000000000000000000000000000000000000000000000000000000000000000
310
0000000000000000000000000000000000000000000000000000000000000000
310
0000000000000000000000000000000000000000000000000000000000000000
310
0000000000000000000000000000000000000000000000000000000000000000
310
0000000000000000000000000000000000000000000000000000000000000000
310
0000000000000000000000000000000000000000000000000000000000000000
310
0000000000000000000000000000000000000000000000000000000000000000
  1
OLE
  0
ENDSEC
  0
SECTION
  2
OBJECTS
  0
DICTIONARY
  5
C
330
0
100
AcDbDictionary
281
     1
  3
ACAD_GROUP
350
D
  3
ACAD_LAYOUT
350
1A
  3
ACAD_MLINESTYLE
350
17
  3
ACAD_PLOTSETTINGS
350
19
  3
ACAD_PLOTSTYLENAME
350
E
  3
ACAD_SCALELIST
350
47
  0
DICTIONARY
  5
D
102
{ACAD_REACTORS
330
C
102
}
330
C
100
AcDbDictionary
281
     1
  0
DICTIONARY
  5
1A
102
{ACAD_REACTORS
330
C
102
}
330
C
100
AcDbDictionary
281
     1
  3
Layout1
350
1E
  3
Layout2
350
26
  3
Model
350
22
  0
DICTIONARY
  5
17
102
{ACAD_REACTORS
330
C
102
}
330
C
100
AcDbDictionary
281
     1
  3
Standard
350
18
  0
DICTIONARY
  5
19
102
{ACAD_REACTORS
330
C
102
}
330
C
100
AcDbDictionary
281
     1
  0
ACDBDICTIONARYWDFLT
  5
E
102
{ACAD_REACTORS
330
C
102
}
330
C
100
AcDbDictionary
281
     1
  3
Normal
350
F
100
AcDbDictionaryWithDefault
340
F
  0
DICTIONARY
  5
47
102
{ACAD_REACTORS
330
C
102
}
330
C
100
AcDbDictionary
281
     1
  3
A0
350
48
  3
A1
350
49
  3
A2
350
4A
  3
A3
350
4B
  3
A4
350
4C
  3
A5
350
4D
  3
A6
350
4E
  3
A7
350
4F
  3
A8
350
50
  3
A9
350
51
  3
B0
350
52
  3
B1
350
53
  3
B2
350
54
  3
B3
350
55
  3
B4
350
56
  3
B5
350
57
  3
B6
350
58
  3
B7
350
59
  3
B8
350
5A
  3
B9
350
5B
  3
C0
350
5C
  3
C1
350
5D
  3
C2
350
5E
  3
C3
350
5F
  3
C4
350
60
  3
C5
350
61
  3
C6
350
62
  3
C7
350
63
  3
C8
350
64
  3
C9
350
65
  3
D0
350
66
  3
D1
350
67
  3
D2
350
68
  0
LAYOUT
  5
1E
102
{ACAD_REACTORS
330
1A
102
}
330
1A
100
AcDbPlotSettings
  1

  2
none_device
  4

  6

 40
0.0
 41
0.0
 42
0.0
 43
0.0
 44
0.0
 45
0.0
 46
0.0
 47
0.0
 48
0.0
 49
0.0
140
0.0
141
0.0
142
1.0
143
1.0
 70
   688
 72
     1
 73
     0
 74
     5
  7

 75
    16
147
1.0
148
0.0
149
0.0
100
AcDbLayout
  1
Layout1
 70
     1
 71
     1
 10
0.0
 20
0.0
 11
420.0
 21
297.0
 12
0.0
 22
0.0
 32
0.0
 14
1.0000000000E+20
 24
1.0000000000E+20
 34
1.0000000000E+20
 15
-1.0000000000E+20
 25
-1.0000000000E+20
 35
-1.0000000000E+20
146
0.0
 13
0.0
 23
0.0
 33
0.0
 16
1.0
 26
0.0
 36
0.0
 17
0.0
 27
1.0
 37
0.0
 76
     0
330
1B
  0
LAYOUT
  5
26
102
{ACAD_REACTORS
330
1A
102
}
330
1A
100
AcDbPlotSettings
  1

  2
none_device
  4

  6

 40
0.0
 41
0.0
 42
0.0
 43
0.0
 44
0.0
 45
0.0
 46
0.0
 47
0.0
 48
0.0
 49
0.0
140
0.0
141
0.0
142
1.0
143
1.0
 70
   688
 72
     1
 73
     0
 74
     5
  7

 75
    16
147
1.0
148
0.0
149
0.0
100
AcDbLayout
  1
Layout2
 70
     1
 71
     2
 10
0.0
 20
0.0
 11
0.0
 21
0.0
 12
0.0
 22
0.0
 32
0.0
 14
0.0
 24
0.0
 34
0.0
 15
0.0
 25
0.0
 35
0.0
146
0.0
 13
0.0
 23
0.0
 33
0.0
 16
1.0
 26
0.0
 36
0.0
 17
0.0
 27
1.0
 37
0.0
 76
     0
330
23
  0
LAYOUT
  5
22
102
{ACAD_REACTORS
330
1A
102
}
330
1A
100
AcDbPlotSettings
  1

  2
none_device
  4
Letter_(8.50_x_11.00_Inches)
  6

 40
6.35
 41
6.35
 42
6.35000508
 43
6.35000508
 44
215.9
 45
279.4
 46
0.0
 47
0.0
 48
0.0
 49
0.0
140
0.0
141
0.0
142
1.0
143
1.0
 70
  1712
 72
     1
 73
     0
 74
     0
  7

 75
     0
147
1.0
148
0.0
149
0.0
100
AcDbLayout
  1
Model
 70
     1
 71
     0
 10
0.0
 20
0.0
 11
297.0
 21
210.0
 12
0.0
 22
0.0
 32
0.0
 14
0.0
 24
0.0
 34
0.0
 15
297.0
 25
210.0
 35
0.0
146
0.0
 13
0.0
 23
0.0
 33
0.0
 16
1.0
 26
0.0
 36
0.0
 17
0.0
 27
1.0
 37
0.0
 76
     0
330
1F
331
29
  0
MLINESTYLE
  5
18
102
{ACAD_REACTORS
330
17
102
}
330
17
100
AcDbMlineStyle
  2
Standard
 70
     0
  3

 62
   256
 51
90.0
 52
90.0
 71
     2
 49
0.5
 62
   256
  6
BYLAYER
 49
-0.5
 62
   256
  6
BYLAYER
  0
ACDBPLACEHOLDER
  5
F
102
{ACAD_REACTORS
330
E
102
}
330
E
  0
SCALE
  5
48
102
{ACAD_REACTORS
330
47
102
}
330
47
100
AcDbScale
 70
     0
300
1:1
140
1.0
141
1.0
290
     1
  0
SCALE
  5
49
102
{ACAD_REACTORS
330
47
102
}
330
47
100
AcDbScale
 70
     0
300
1:2
140
1.0
141
2.0
290
     0
  0
SCALE
  5
4A
102
{ACAD_REACTORS
330
47
102
}
330
47
100
AcDbScale
 70
     0
300
1:4
140
1.0
141
4.0
290
     0
  0
SCALE
  5
4B
102
{ACAD_REACTORS
330
47
102
}
330
47
100
AcDbScale
 70
     0
300
1:5
140
1.0
141
5.0
290
     0
  0
SCALE
  5
4C
102
{ACAD_REACTORS
330
47
102
}
330
47
100
AcDbScale
 70
     0
300
1:8
140
1.0
141
8.0
290
     0
  0
SCALE
  5
4D
102
{ACAD_REACTORS
330
47
102
}
330
47
100
AcDbScale
 70
     0
300
1:10
140
1.0
141
10.0
290
     0
  0
SCALE
  5
4E
102
{ACAD_REACTORS
330
47
102
}
330
47
100
AcDbScale
 70
     0
300
1:16
140
1.0
141
16.0
290
     0
  0
SCALE
  5
4F
102
{ACAD_REACTORS
330
47
102
}
330
47
100
AcDbScale
 70
     0
300
1:20
140
1.0
141
20.0
290
     0
  0
SCALE
  5
50
102
{ACAD_REACTORS
330
47
102
}
330
47
100
AcDbScale
 70
     0
300
1:30
140
1.0
141
30.0
290
     0
  0
SCALE
  5
51
102
{ACAD_REACTORS
330
47
102
}
330
47
100
AcDbScale
 70
     0
300
1:40
140
1.0
141
40.0
290
     0
  0
SCALE
  5
52
102
{ACAD_REACTORS
330
47
102
}
330
47
100
AcDbScale
 70
     0
300
1:50
140
1.0
141
50.0
290
     0
  0
SCALE
  5
53
102
{ACAD_REACTORS
330
47
102
}
330
47
100
AcDbScale
 70
     0
300
1:100
140
1.0
141
100.0
290
     0
  0
SCALE
  5
54
102
{ACAD_REACTORS
330
47
102
}
330
47
100
AcDbScale
 70
     0
300
2:1
140
2.0
141
1.0
290
     0
  0
SCALE
  5
55
102
{ACAD_REACTORS
330
47
102
}
330
47
100
AcDbScale
 70
     0
300
4:1
140
4.0
141
1.0
290
     0
  0
SCALE
  5
56
102
{ACAD_REACTORS
330
47
102
}
330
47
100
AcDbScale
 70
     0
300
8:1
140
8.0
141
1.0
290
     0
  0
SCALE
  5
57
102
{ACAD_REACTORS
330
47
102
}
330
47
100
AcDbScale
 70
     0
300
10:1
140
10.0
141
1.0
290
     0
  0
SCALE
  5
58
102
{ACAD_REACTORS
330
47
102
}
330
47
100
AcDbScale
 70
     0
300
100:1
140
100.0
141
1.0
290
     0
  0
SCALE
  5
59
102
{ACAD_REACTORS
330
47
102
}
330
47
100
AcDbScale
 70
     0
300
1/128" = 1'-0"
140
0.0078125
141
12.0
290
     0
  0
SCALE
  5
5A
102
{ACAD_REACTORS
330
47
102
}
330
47
100
AcDbScale
 70
     0
300
1/64" = 1'-0"
140
0.015625
141
12.0
290
     0
  0
SCALE
  5
5B
102
{ACAD_REACTORS
330
47
102
}
330
47
100
AcDbScale
 70
     0
300
1/32" = 1'-0"
140
0.03125
141
12.0
290
     0
  0
SCALE
  5
5C
102
{ACAD_REACTORS
330
47
102
}
330
47
100
AcDbScale
 70
     0
300
1/16" = 1'-0"
140
0.0625
141
12.0
290
     0
  0
SCALE
  5
5D
102
{ACAD_REACTORS
330
47
102
}
330
47
100
AcDbScale
 70
     0
300
3/32" = 1'-0"
140
0.09375
141
12.0
290
     0
  0
SCALE
  5
5E
102
{ACAD_REACTORS
330
47
102
}
330
47
100
AcDbScale
 70
     0
300
1/8" = 1'-0"
140
0.125
141
12.0
290
     0
  0
SCALE
  5
5F
102
{ACAD_REACTORS
330
47
102
}
330
47
100
AcDbScale
 70
     0
300
3/16" = 1'-0"
140
0.1875
141
12.0
290
     0
  0
SCALE
  5
60
102
{ACAD_REACTORS
330
47
102
}
330
47
100
AcDbScale
 70
     0
300
1/4" = 1'-0"
140
0.25
141
12.0
290
     0
  0
SCALE
  5
61
102
{ACAD_REACTORS
330
47
102
}
330
47
100
AcDbScale
 70
     0
300
3/8" = 1'-0"
140
0.375
141
12.0
290
     0
  0
SCALE
  5
62
102
{ACAD_REACTORS
330
47
102
}
330
47
100
AcDbScale
 70
     0
300
1/2" = 1'-0"
140
0.5
141
12.0
290
     0
  0
SCALE
  5
63
102
{ACAD_REACTORS
330
47
102
}
330
47
100
AcDbScale
 70
     0
300
3/4" = 1'-0"
140
0.75
141
12.0
290
     0
  0
SCALE
  5
64
102
{ACAD_REACTORS
330
47
102
}
330
47
100
AcDbScale
 70
     0
300
1" = 1'-0"
140
1.0
141
12.0
290
     0
  0
SCALE
  5
65
102
{ACAD_REACTORS
330
47
102
}
330
47
100
AcDbScale
 70
     0
300
1-1/2" = 1'-0"
140
1.5
141
12.0
290
     0
  0
SCALE
  5
66
102
{ACAD_REACTORS
330
47
102
}
330
47
100
AcDbScale
 70
     0
300
3" = 1'-0"
140
3.0
141
12.0
290
     0
  0
SCALE
  5
67
102
{ACAD_REACTORS
330
47
102
}
330
47
100
AcDbScale
 70
     0
300
6" = 1'-0"
140
6.0
141
12.0
290
     0
  0
SCALE
  5
68
102
{ACAD_REACTORS
330
47
102
}
330
47
100
AcDbScale
 70
     0
300
1'-0" = 1'-0"
140
12.0
141
12.0
290
     0
  0
ENDSEC
  0
EOF
